osu file format v14

[General]
AudioFilename: audio.mp3
AudioLeadIn: 0
PreviewTime: 40124
Countdown: 0
SampleSet: Soft
StackLeniency: 0.7
Mode: 0
LetterboxInBreaks: 0
WidescreenStoryboard: 1

[Editor]
Bookmarks: 58593,69843,78468
DistanceSpacing: 1
BeatDivisor: 4
GridSize: 32
TimelineZoom: 1.6

[Metadata]
Title:carnation
TitleUnicode:carnation
Artist:AAAA
ArtistUnicode:ああああ
Creator:Aeril
Version:normal
Source:BMS衆議院選
Tags:anxient セ​ー​ブ​デ​ー​タ​と​ほ​う​き​星 piano classical instrumental rhythm game bms_shuin mappers' guild mpg fa featured artist
BeatmapID:4081859
BeatmapSetID:1967974

[Difficulty]
HPDrainRate:4
CircleSize:3
OverallDifficulty:5
ApproachRate:6
SliderMultiplier:1.2
SliderTickRate:1

[Events]
//Background and Video events
0,0,"1.jpg",0,0
//Break Periods
2,72105,75393
2,129105,132393
//Storyboard Layer 0 (Background)
//Storyboard Layer 1 (Fail)
//Storyboard Layer 2 (Pass)
//Storyboard Layer 3 (Foreground)
//Storyboard Layer 4 (Overlay)
//Storyboard Sound Samples

[TimingPoints]
-1407,375,4,2,0,55,1,0
93,-100,4,2,0,55,0,0
11718,-100,4,2,0,65,0,0
12093,-100,4,2,0,70,0,0
16780,-100,4,2,0,80,0,0
18374,-100,4,2,0,70,0,0
19593,-100,4,2,0,60,0,0
28218,-100,4,2,0,5,0,0
29718,-100,4,2,0,55,0,0
36093,-100,4,2,0,60,0,0
40593,-100,4,2,0,75,0,1
46593,-100,4,2,0,75,0,0
46968,-100,4,2,0,65,0,0
52593,-100,4,2,0,70,0,0
57843,-100,4,2,0,75,0,0
58593,-100,4,2,0,85,0,1
63093,-100,4,2,0,70,0,0
63843,-100,4,2,0,75,0,0
64218,-100,4,2,0,80,0,0
64593,-100,4,2,0,85,0,1
69093,-100,4,2,0,70,0,0
72093,-100,4,2,0,60,0,0
78468,-100,4,2,0,5,0,0
79593,-100,4,2,0,55,0,0
85593,-100,4,2,0,65,0,0
91593,-100,4,2,0,60,0,0
97593,-100,4,2,0,65,0,0
100593,-100,4,2,0,70,0,0
102093,-100,4,2,0,75,0,0
103218,-100,4,2,0,80,0,0
109968,-100,4,2,0,75,0,0
111093,-100,4,2,0,70,0,0
111843,-100,4,2,0,65,0,0
115593,-100,4,2,0,85,0,1
120093,-100,4,2,0,70,0,0
120843,-100,4,2,0,75,0,0
121218,-100,4,2,0,80,0,0
121593,-100,4,2,0,85,0,1
126093,-100,4,2,0,70,0,0
129093,-100,4,2,0,60,0,0
136218,-100,4,2,0,5,0,0
138093,-100,4,2,0,50,0,0

[Colours]
Combo1 : 146,131,165
Combo2 : 169,236,250
Combo3 : 0,58,147
Combo4 : 202,213,211

[HitObjects]
485,348,93,6,0,P|465:312|291:314,1,240,2|2,1:2|0:2,0:0:0:0:
185,378,1218,1,2,0:2:0:0:
185,378,1593,2,0,P|179:324|143:257,1,120,2|0,3:2|0:2,0:0:0:0:
256,207,2343,2,0,P|259:137|288:77,2,120,2|0|2,3:2|0:2|3:2,0:0:0:0:
29,127,3843,5,2,3:2:0:0:
120,48,4218,1,2,3:2:0:0:
238,66,4593,2,0,P|299:70|371:14,1,120,2|0,1:2|0:0,0:0:0:0:
412,38,5155,1,0,0:2:0:0:
412,38,5343,2,0,P|499:39|441:131,1,240,2|2,0:2|1:2,0:0:0:0:
428,370,6843,6,0,P|463:301|458:244,1,120,2|2,0:2|0:2,0:0:0:0:
353,209,7593,2,0,P|301:243|274:315,1,120,2|0,3:2|0:2,0:0:0:0:
186,373,8343,1,2,3:2:0:0:
121,271,8718,1,2,3:2:0:0:
15,327,9093,6,0,P|77:269|63:117,1,240,2|2,1:2|3:2,0:0:0:0:
136,26,10218,1,0,0:2:0:0:
136,26,10593,2,0,P|207:26|192:131,1,180,2|0,3:2|3:2,0:0:0:0:
259,156,11343,2,0,P|283:138|347:124,1,60,2|0,3:2|0:2,0:0:0:0:
368,109,11718,2,0,P|397:105|460:125,1,60,2|2,3:2|3:2,0:0:0:0:
482,132,12093,5,6,1:2:0:0:
505,314,12655,1,2,0:2:0:0:
505,314,12843,2,0,P|450:352|388:336,1,120,2|0,1:2|3:2,0:0:0:0:
283,368,13593,2,0,P|295:299|293:283,1,60,2|0,3:2|0:2,0:0:0:0:
291,249,13968,2,0,P|266:183|257:170,1,60,2|0,3:2|3:2,0:0:0:0:
235,145,14343,1,2,3:2:0:0:
306,48,14718,1,2,0:2:0:0:
195,0,15093,6,0,P|125:19|109:106,1,120,6|0,1:2|3:2,0:2:0:0:
53,91,15655,1,0,3:2:0:0:
53,91,15843,2,0,P|110:136|137:182,2,120,2|0|0,1:2|3:2|3:2,0:0:0:0:
20,141,16780,1,6,1:2:0:0:
35,199,16968,2,0,P|43:239|40:274,2,60,2|2|2,1:2|1:2|1:2,0:0:0:0:
133,268,17718,1,2,1:2:0:0:
228,195,18093,6,0,P|252:137|236:61,1,120,6|2,1:2|3:2,0:2:0:0:
282,34,18655,1,2,3:2:0:0:
341,43,18843,2,0,P|403:68|465:67,1,120,2|0,3:2|0:2,0:2:0:0:
499,180,19593,6,0,P|408:197|290:319,1,240,2|2,1:2|3:2,0:0:0:0:
199,230,20718,1,2,0:2:0:0:
124,324,21093,2,0,P|65:340|-2:306,2,120,2|0|2,3:2|0:2|3:2,0:0:0:0:
243,336,22218,6,0,P|283:358|304:377,1,60,2|2,0:2|0:2,0:0:0:0:
353,356,22593,1,2,3:2:0:0:
445,278,22968,1,2,0:2:0:0:
379,177,23343,1,2,3:2:0:0:
470,99,23718,1,2,0:2:0:0:
390,9,24093,6,0,P|305:44|321:163,1,180,6|2,1:2|0:2,0:0:0:0:
266,177,24843,2,0,P|287:221|290:252,1,60,2|0,3:2|0:2,0:0:0:0:
301,290,25218,1,0,0:2:0:0:
409,237,25593,1,2,3:2:0:0:
256,192,25780,12,0,28218,0:2:0:0:
50,91,29718,5,0,0:2:0:0:
81,40,29905,1,0,0:2:0:0:
81,40,30093,2,0,P|145:50|188:89,1,120,2|2,1:2|0:2,0:2:0:0:
291,141,30843,2,0,P|353:150|424:115,1,120,2|2,0:2|3:2,0:2:0:0:
451,19,31593,1,2,3:2:0:0:
501,253,32343,2,0,P|454:318|461:400,1,120,2|0,0:2|0:2,0:0:0:0:
395,330,32905,1,2,0:2:0:0:
395,330,33093,6,0,P|338:350|250:346,1,120,2|2,0:2|3:2,0:0:0:0:
204,257,33843,2,0,P|201:198|225:134,2,120,2|2|2,3:2|3:2|3:2,0:2:0:0:
68,375,35155,2,0,P|46:354|10:338,1,60,0|2,0:2|0:2,0:0:0:0:
63,228,35718,6,0,P|55:196|55:160,1,60,2|2,0:2|3:2,0:0:0:0:
24,116,36093,2,0,P|49:66|120:38,1,120,2|2,1:2|0:2,0:0:0:0:
221,13,36843,1,2,3:2:0:0:
335,49,37218,2,0,P|373:36|406:36,1,60,0|2,0:2|0:2,0:0:0:0:
444,65,37593,2,0,P|404:118|333:123,1,120,2|0,3:2|0:2,0:0:0:0:
298,150,38155,1,0,0:2:0:0:
298,150,38343,2,0,P|229:135|138:150,1,120,2|2,3:2|3:2,0:0:0:0:
206,255,39093,5,2,3:2:0:0:
127,346,39468,2,0,P|98:353|68:351,2,60,0|2|2,0:2|0:2|3:2,0:0:0:0:
243,376,40218,1,2,0:2:0:0:
346,314,40593,5,6,1:2:0:0:
396,346,40780,2,0,P|428:330|468:323,1,60,2|2,0:2|3:2,0:0:0:0:
491,279,41155,2,0,P|490:252|499:209,1,60,2|2,0:2|3:2,0:0:0:0:
469,165,41530,2,0,P|440:157|413:143,1,60,0|2,3:2|1:2,0:0:0:0:
388,25,42093,5,2,3:2:0:0:
332,46,42280,2,0,P|305:35|269:31,1,60,6|2,1:2|0:2,0:0:0:0:
220,58,42655,2,0,P|218:104|206:140,1,60,6|2,1:2|0:2,0:0:0:0:
158,139,43030,2,0,P|131:128|95:124,1,60,2|2,1:2|1:2,0:0:0:0:
23,216,43593,5,0,3:2:0:0:
8,273,43780,2,0,P|31:311|40:341,1,60,2|0,0:2|3:2,0:0:0:0:
82,363,44155,2,0,P|119:367|155:380,1,60,2|2,0:2|3:2,0:0:0:0:
199,363,44530,2,0,P|217:339|239:319,1,60,0|2,3:2|1:2,0:0:0:0:
353,360,45093,5,2,3:2:0:0:
374,304,45280,2,0,P|363:277|359:241,1,60,6|2,3:2|0:2,0:0:0:0:
386,192,45655,2,0,P|432:190|468:178,1,60,6|2,3:2|0:2,0:0:0:0:
467,130,46030,2,0,P|456:103|452:67,1,60,2|2,3:2|3:2,0:0:0:0:
353,3,46593,5,2,1:2:0:0:
242,50,46968,2,0,P|161:34|119:-8,2,120,2|0|2,3:2|0:2|0:2,0:0:0:0:
341,118,48093,1,2,3:2:0:0:
116,203,48843,2,0,P|147:266|152:343,1,120,2|2,3:2|0:2,0:2:0:0:
211,347,49405,1,2,0:2:0:0:
211,347,49593,2,0,P|259:327|344:322,1,120,2|2,3:2|1:2,0:0:0:0:
434,268,50343,2,0,P|474:299|487:388,2,120,2|0|2,0:2|3:2|1:2,0:2:0:0:
267,213,51655,1,2,0:2:0:0:
267,213,51843,2,0,P|193:238|128:241,1,120,2|0,0:2|0:0,0:2:0:0:
58,317,52593,6,0,P|51:284|35:253,1,60,6|2,1:2|0:2,0:0:0:0:
13,206,52968,2,0,P|39:178|72:93,1,120,2|2,0:2|3:2,0:2:0:0:
141,6,53718,2,0,P|173:29|197:61,1,60,0|2,0:2|0:2,0:0:0:0:
216,96,54093,2,0,P|286:114|334:141,1,120,2|0,3:2|0:2,0:0:0:0:
388,121,54655,1,0,0:2:0:0:
388,121,54843,2,0,P|419:84|501:38,1,120,2|2,3:2|3:2,0:0:0:0:
507,162,55593,6,0,P|457:204|376:201,1,120,2|0,3:2|0:2,0:0:0:0:
356,243,56155,1,2,0:2:0:0:
356,243,56343,2,0,P|289:226|207:220,1,120,2|2,3:2|0:2,0:0:0:0:
148,300,57093,1,2,1:2:0:0:
311,375,57655,1,0,0:2:0:0:
311,375,57843,2,0,P|367:359|400:359,1,60,0|2,3:2|0:2,0:0:0:0:
428,360,58218,2,0,P|436:327|458:290,1,60,2|2,3:2|3:2,0:0:0:0:
496,268,58593,5,6,1:2:0:0:
462,152,58968,2,0,P|482:94|475:18,1,120,0|2,1:2|3:2,0:2:0:0:
432,9,59530,1,2,0:2:0:0:
376,31,59718,2,0,P|346:17|319:9,1,60,2|2,1:2|3:2,0:0:0:0:
262,26,60093,5,6,1:2:0:0:
226,140,60468,2,0,P|243:214|235:281,1,120,2|0,1:2|3:2,0:2:0:0:
190,286,61030,1,0,3:2:0:0:
190,286,61218,2,0,P|151:309|122:338,1,60,2|2,1:2|0:2,0:0:0:0:
114,372,61593,1,6,1:2:0:0:
15,307,61968,6,0,P|14:276|2:234,1,60,2|2,1:2|3:2,0:2:0:0:
63,225,62343,2,0,P|64:194|76:152,1,60,2|0,3:2|0:2,0:2:0:0:
35,116,62718,1,2,1:2:0:0:
56,60,62905,1,2,0:2:0:0:
24,8,63093,1,2,0:2:0:0:
143,3,63468,6,0,P|171:34|194:45,1,60,2|2,0:2|0:2,0:0:0:0:
218,93,63843,2,0,P|259:77|307:73,1,60,0|0,1:2|3:2,0:0:0:0:
329,98,64218,2,0,P|330:135|324:177,1,60,0|0,1:2|1:2,0:0:0:0:
367,203,64593,1,6,1:2:0:0:
251,237,64968,2,0,P|273:301|272:366,1,120,0|2,1:2|3:2,0:2:0:0:
331,384,65530,1,2,0:2:0:0:
375,343,65718,2,0,P|411:344|449:356,1,60,2|2,1:2|3:2,0:0:0:0:
486,379,66093,5,6,1:2:0:0:
495,260,66468,2,0,P|478:199|483:127,1,120,2|0,1:2|3:2,0:2:0:0:
439,105,67030,1,0,3:2:0:0:
439,105,67218,2,0,P|449:59|446:32,1,60,2|2,1:2|0:2,0:0:0:0:
408,1,67593,5,2,1:2:0:0:
302,58,67968,2,0,P|276:44|241:37,2,60,2|0|0,3:2|0:2|3:2,0:0:0:0:
228,153,68718,2,0,P|186:166|146:198,1,60,2|2,3:2|3:2,0:0:0:0:
134,127,69093,6,0,P|64:113|13:69,1,120,2|2,1:2|3:2,0:0:0:0:
3,202,69843,2,0,P|73:216|124:260,1,120,2|2,1:2|3:2,0:0:0:0:
204,320,70593,1,2,1:2:0:0:
305,255,70968,2,0,P|328:292|334:321,1,60,2|0,3:2|0:2,0:0:0:0:
334,367,71343,2,0,P|377:338|451:324,1,120,2|0,0:2|3:2,0:0:0:0:
495,353,71905,1,2,0:2:0:0:
256,192,76593,12,0,78468,0:2:0:0:
4,66,79593,6,0,P|87:47|191:180,1,240,2|2,1:2|0:2,0:0:0:0:
298,95,80718,1,2,0:2:0:0:
298,95,81093,2,0,P|347:56|407:32,1,120,2|0,3:2|0:2,0:0:0:0:
494,107,81843,2,0,P|466:178|465:242,2,120,2|0|2,3:2|0:2|3:2,0:0:0:0:
413,333,83343,5,2,3:2:0:0:
332,243,83718,1,2,3:2:0:0:
260,339,84093,2,0,P|190:351|126:388,1,120,2|0,1:2|0:0,0:0:0:0:
102,340,84655,1,0,0:2:0:0:
102,340,84843,2,0,P|33:358|76:243,1,240,2|2,0:2|1:2,0:0:0:0:
14,3,86343,6,0,P|61:15|88:29,1,60,2|0,0:2|0:0,0:0:0:0:
126,43,86718,2,0,P|167:37|193:22,1,60,2|0,0:2|0:0,0:0:0:0:
243,25,87093,2,0,P|216:92|214:148,1,120,2|0,3:2|0:2,0:0:0:0:
330,163,87843,2,0,P|366:146|402:137,1,60,2|0,3:2|0:0,0:0:0:0:
442,160,88218,2,0,P|461:231|448:290,1,120,2|2,3:2|1:2,0:0:0:0:
365,356,88968,5,0,0:0:0:0:
365,356,89343,2,0,P|301:324|228:313,1,120,2|2,3:2|0:2,0:0:0:0:
153,379,90093,2,0,P|88:347|99:251,1,180,2|0,3:2|3:2,0:0:0:0:
144,212,90843,2,0,P|149:170|143:136,1,60,2|0,3:2|0:2,0:0:0:0:
136,93,91218,2,0,P|125:64|103:33,1,60,2|2,3:2|3:2,0:0:0:0:
56,10,91593,5,6,1:2:0:0:
3,118,91968,1,2,0:2:0:0:
63,221,92343,2,0,P|24:266|14:295,2,80,2|2|2,3:2|0:2|0:2,0:2:0:0:
144,212,93093,1,2,3:2:0:0:
207,313,93468,1,2,3:2:0:0:
323,283,93843,2,0,P|368:323|439:337,1,120,2|2,3:2|0:2,0:2:0:0:
489,236,94593,5,2,3:2:0:0:
413,142,94968,1,2,0:2:0:0:
300,183,95343,2,0,P|242:161|179:162,1,120,2|2,3:2|0:2,0:2:0:0:
119,261,96093,2,0,P|57:257|7:214,1,120,2|2,3:2|3:2,0:2:0:0:
0,102,96843,6,0,P|21:70|29:21,2,80,2|2|2,3:2|0:2|0:2,0:2:0:0:
58,156,97593,1,2,1:2:0:0:
282,71,98343,2,0,P|261:39|253:-10,2,80,2|2|2,3:2|0:2|0:2,0:2:0:0:
359,93,99093,1,2,1:2:0:0:
477,75,99468,1,2,3:2:0:0:
495,193,99843,1,2,3:2:0:0:
377,211,100218,1,2,3:2:0:0:
377,211,100593,6,0,P|391:293|384:341,1,120,2|2,1:2|3:2,0:0:0:0:
277,380,101343,2,0,P|226:348|139:342,1,120,2|2,3:2|0:2,0:0:0:0:
63,278,102093,2,0,P|40:286|-10:337,2,80,2|0|2,1:2|0:2|0:2,0:0:0:0:
112,214,102843,1,2,3:2:0:0:
30,126,103218,2,0,P|35:88|33:54,1,60,2|2,3:2|0:2,0:0:0:0:
76,23,103593,1,6,1:2:0:0:
195,13,103968,5,2,1:2:0:0:
220,130,104343,1,2,1:2:0:0:
245,247,104718,1,2,1:2:0:0:
270,364,105093,1,2,1:2:0:0:
386,334,105468,2,0,P|403:295|395:212,1,120,0|2,0:2|3:2,0:0:0:0:
437,149,106093,2,0,P|490:136|520:111,2,80,6|2|2,1:2|1:2|1:2,0:0:0:0:
230,25,107343,6,0,P|191:88|179:170,2,120,2|2|2,0:2|3:2|3:2,0:2:0:0:
54,189,108843,1,2,3:2:0:0:
113,293,109218,2,0,P|71:308|48:328,2,60,2|2|2,0:2|0:2|1:2,0:0:0:0:
204,370,109968,5,2,3:2:0:0:
252,335,110155,1,2,3:2:0:0:
252,335,110343,2,0,P|320:343|385:376,1,120,2|2,1:2|3:2,0:0:0:0:
460,288,111093,2,0,P|456:233|479:144,1,120,2|2,1:2|3:2,0:0:0:0:
502,121,111655,1,2,0:2:0:0:
502,121,111843,2,0,P|493:72|435:35,1,120,2|2,1:2|3:2,0:0:0:0:
323,75,112593,5,2,1:2:0:0:
363,278,113905,2,0,P|343:316|335:340,1,60,0|2,0:2|3:2,0:0:0:0:
299,94,114843,2,0,P|266:64|234:46,1,60,0|2,3:2|0:2,0:0:0:0:
197,32,115218,2,0,P|153:22|116:22,1,60,2|2,3:2|3:2,0:0:0:0:
78,28,115593,5,6,1:2:0:0:
20,133,115968,2,0,P|47:174|56:260,1,120,0|2,1:2|3:2,0:2:0:0:
51,306,116530,1,2,0:2:0:0:
109,320,116718,2,0,P|144:349|154:371,1,60,2|2,1:2|3:2,0:0:0:0:
207,380,117093,5,6,1:2:0:0:
320,342,117468,2,0,P|369:333|400:261,1,120,2|0,1:2|3:2,0:2:0:0:
367,233,118030,1,0,3:2:0:0:
367,233,118218,2,0,P|315:219|293:222,1,60,2|2,1:2|0:2,0:0:0:0:
251,234,118593,1,6,1:2:0:0:
176,139,118968,6,0,P|191:85|191:63,1,60,2|2,1:2|3:2,0:2:0:0:
246,58,119343,2,0,P|282:72|316:76,1,60,2|0,3:2|0:2,0:2:0:0:
355,46,119718,1,2,1:2:0:0:
409,70,119905,1,2,0:2:0:0:
457,34,120093,1,2,0:2:0:0:
494,148,120468,6,0,P|477:193|473:220,1,60,2|2,0:2|0:2,0:0:0:0:
439,253,120843,2,0,P|451:311|451:331,1,60,0|0,1:2|3:2,0:0:0:0:
422,364,121218,2,0,P|395:350|360:343,1,60,0|0,1:2|1:2,0:0:0:0:
308,358,121593,1,6,1:2:0:0:
218,277,121968,2,0,P|268:239|346:246,1,120,0|2,1:2|3:2,0:2:0:0:
364,193,122530,1,2,0:2:0:0:
326,145,122718,2,0,P|327:114|314:83,1,60,2|2,1:2|3:2,0:0:0:0:
326,27,123093,5,6,1:2:0:0:
208,0,123468,2,0,P|156:42|164:101,1,120,2|0,1:2|3:2,0:2:0:0:
117,134,124030,1,0,3:2:0:0:
117,134,124218,2,0,P|81:118|40:115,1,60,2|2,1:2|0:2,0:0:0:0:
8,144,124593,5,2,1:2:0:0:
67,248,124968,2,0,P|28:264|5:265,2,60,2|0|0,3:2|0:2|3:2,0:0:0:0:
173,304,125718,2,0,P|214:319|232:334,1,60,2|2,3:2|3:2,0:0:0:0:
280,355,126093,6,0,P|309:293|306:240,1,120,2|2,1:2|3:2,0:0:0:0:
350,131,126843,2,0,P|321:69|324:16,1,120,2|2,1:2|3:2,0:0:0:0:
451,0,127593,1,2,1:2:0:0:
502,108,127968,2,0,P|472:151|461:182,1,60,2|0,3:2|0:2,0:0:0:0:
426,199,128343,2,0,P|475:241|499:302,1,120,2|0,0:2|3:2,0:0:0:0:
502,350,128905,1,2,0:2:0:0:
256,192,133593,12,0,136218,0:2:0:0:
345,7,138093,6,0,P|275:84|129:39,1,240,2|2,0:2|0:2,0:0:0:0:
51,129,139218,1,2,0:2:0:0:
51,129,139593,2,0,P|77:202|73:263,1,120,2|0,2:2|2:2,0:0:0:0:
169,319,140343,2,0,P|99:354|67:389,2,120,2|0|2,2:2|2:2|2:2,0:0:0:0:
403,372,141843,5,2,2:2:0:0:
368,257,142218,1,2,2:2:0:0:
475,203,142593,2,0,P|412:214|366:62,1,240,2|2,2:2|2:2,0:0:0:0:
114,55,144093,6,0,P|207:51|299:179,1,240,2|2,2:2|2:2,0:0:0:0:
398,230,145218,1,2,2:2:0:0:
398,230,145593,2,0,P|426:187|495:157,2,120,2|0|2,2:2|2:2|2:2,0:0:0:0:
433,344,146718,1,0,2:2:0:0:
317,375,147093,1,2,2:2:0:0:
89,299,147843,6,0,P|84:252|97:205,2,80,2|2|2,0:0|0:0|0:0,0:0:0:0:
33,356,148593,1,2,0:0:0:0:
