osu file format v14

[General]
AudioFilename: audio.mp3
AudioLeadIn: 0
PreviewTime: 111845
Countdown: 0
SampleSet: Soft
StackLeniency: 0.7
Mode: 0
LetterboxInBreaks: 0
WidescreenStoryboard: 1

[Editor]
Bookmarks: 62582
DistanceSpacing: 1
BeatDivisor: 4
GridSize: 4
TimelineZoom: 2

[Metadata]
Title:VS.Master Core
TitleUnicode:VS. マスターコア
Artist:AAAA
ArtistUnicode:ああああ
Creator:Shidoni
Version:2019
Source:
Tags:
BeatmapID:1921205
BeatmapSetID:845888

[Difficulty]
HPDrainRate:5.5
CircleSize:4.5
OverallDifficulty:9
ApproachRate:9.5
SliderMultiplier:1.7
SliderTickRate:1

[Events]
//Background and Video events
0,0,"__original_drawn_by_craft_cs__f8168f2e4cd384bbb4606f2ab6f2c7e1.jpg",0,0
//Break Periods
2,27247,34268
//Storyboard Layer 0 (Background)
//Storyboard Layer 1 (Fail)
//Storyboard Layer 2 (Pass)
//Storyboard Layer 3 (Foreground)
//Storyboard Layer 4 (Overlay)
//Storyboard Sound Samples

[TimingPoints]
1784,315.789473684211,4,2,1,5,1,0
6837,315.789473684211,4,2,1,67,1,0
6837,-166.666666666667,4,2,1,20,0,0
16942,-98.0392156862745,4,2,1,40,0,0
19073,-98.0392156862745,4,2,1,5,0,0
19152,-98.0392156862745,4,2,1,40,0,0
19389,-98.0392156862745,4,2,1,5,0,0
19468,-98.0392156862745,4,2,1,40,0,0
21600,-98.0392156862745,4,2,1,5,0,0
21679,-98.0392156862745,4,2,1,40,0,0
21915,-98.0392156862745,4,2,1,5,0,0
21994,-98.0392156862745,4,2,1,40,0,0
24126,-98.0392156862745,4,2,1,5,0,0
24205,-98.0392156862745,4,2,1,40,0,0
24442,-98.0392156862745,4,2,1,5,0,0
24521,-98.0392156862745,4,2,1,40,0,0
25942,-98.0392156862745,4,2,1,28,0,0
26179,-98.0392156862745,4,2,1,40,0,0
26415,-98.0392156862745,4,2,1,60,0,0
26652,-98.0392156862745,4,2,1,67,0,0
27047,-98.0392156862745,4,2,1,88,0,0
27126,-98.0392156862745,4,2,1,67,0,0
34793,315.789473684211,4,2,1,67,1,0
40161,-100,4,2,1,5,0,0
40319,-89.2857142857143,4,2,1,30,0,0
40793,-89.2857142857143,4,2,1,47,0,0
41266,-89.2857142857143,4,2,1,60,0,0
41740,-89.2857142857143,4,2,1,77,0,0
42371,-89.2857142857143,4,2,1,50,0,0
52477,-89.2857142857143,4,2,1,67,0,0
66924,-89.2857142857143,4,2,1,5,0,0
67003,-89.2857142857143,4,2,1,67,0,0
67240,-89.2857142857143,4,2,1,5,0,0
67319,-89.2857142857143,4,2,1,67,0,0
67556,-89.2857142857143,4,2,1,5,0,0
67635,-89.2857142857143,4,2,1,67,0,0
71977,-89.2857142857143,4,2,1,5,0,0
72056,-89.2857142857143,4,2,1,67,0,0
72293,-89.2857142857143,4,2,1,5,0,0
72371,-89.2857142857143,4,2,1,67,0,0
72608,-89.2857142857143,4,2,1,5,0,0
72687,-89.2857142857143,4,2,1,67,0,0
74108,-89.2857142857143,4,2,1,5,0,0
74187,-89.2857142857143,4,2,1,67,0,0
74345,-89.2857142857143,4,2,1,5,0,0
74424,-89.2857142857143,4,2,1,67,0,0
74582,-89.2857142857143,4,2,1,5,0,0
74661,-89.2857142857143,4,2,1,67,0,0
74819,-89.2857142857143,4,2,1,5,0,0
74898,-89.2857142857143,4,2,1,67,0,0
75371,-89.2857142857143,4,2,1,5,0,0
75450,-89.2857142857143,4,2,1,67,0,0
75608,-89.2857142857143,4,2,1,5,0,0
75687,-98.0392156862745,4,2,1,67,0,0
75845,-98.0392156862745,4,2,1,5,0,0
75924,-98.0392156862745,4,2,1,67,0,0
76082,-98.0392156862745,4,2,1,5,0,0
76161,-98.0392156862745,4,2,1,67,0,0
77740,-89.2857142857143,4,2,1,67,0,0
82793,-89.2857142857143,4,2,1,40,0,0
85240,-89.2857142857143,4,2,1,5,0,0
85319,-89.2857142857143,4,2,1,40,0,0
87766,-89.2857142857143,4,2,1,5,0,0
87845,-89.2857142857143,4,2,1,40,0,0
90293,-89.2857142857143,4,2,1,5,0,0
90371,-89.2857142857143,4,2,1,30,0,0
91950,-89.2857142857143,4,2,1,20,0,0
92266,-89.2857142857143,4,2,1,10,0,0
92582,-89.2857142857143,4,2,1,40,0,0
92898,-89.2857142857143,4,2,1,50,0,0
95345,-89.2857142857143,4,2,1,5,0,0
95424,-89.2857142857143,4,2,1,50,0,0
97871,-89.2857142857143,4,2,1,5,0,0
97950,-89.2857142857143,4,2,1,50,0,0
100398,-89.2857142857143,4,2,1,5,0,0
100477,-89.2857142857143,4,2,1,65,0,0
102135,-89.2857142857143,4,2,1,70,0,0
102529,-89.2857142857143,4,2,1,75,0,0
111766,-89.2857142857143,4,2,1,5,0,0
111845,-89.2857142857143,4,2,1,50,0,0
112240,-89.2857142857143,4,2,1,65,0,0
112477,-89.2857142857143,4,2,1,70,0,0
112714,-89.2857142857143,4,2,1,75,0,0
113029,-89.2857142857143,4,2,1,80,0,0
113108,-75.7575757575758,4,2,1,70,0,0
113740,-58.1395348837209,4,2,1,70,0,0

[Colours]
Combo1 : 186,216,235
Combo2 : 170,198,249
Combo3 : 133,209,250
Combo4 : 46,137,239
Combo5 : 72,183,242

[HitObjects]
256,192,1784,12,0,6363,0:0:0:0:
54,13,6837,6,0,B|26:-5|-13:10|-31:49|-15:104|55:118|128:88|202:68|202:68|306:44|367:106|367:106|290:148|207:130|207:130|250:170|258:212|247:263|224:291,1,815.999975097657,2|0,0:0|0:0,0:0:0:0:
234,275,9679,2,0,B|212:257|178:250|125:268|105:318|125:370|169:390|199:381|219:375|235:366|246:349|246:349|298:363|339:375|368:335|426:310|498:341|535:386|535:386|498:338|498:284|510:248,1,713.99997821045,2|0,0:0|0:0,0:0:0:0:
506,260,12205,2,0,B|547:202|547:159|537:108|513:77|513:77|466:69|408:125|406:154|409:184|409:184|339:142|275:170|275:170|260:131|267:89|267:89|197:94|158:14,1,713.99997821045,2|0,0:0|0:0,0:0:0:0:
164,26,14731,2,0,B|121:-16|89:-21|60:-10|22:8|22:8|44:50|75:80|130:75|130:75|75:98|31:118|30:176|46:238|96:263|147:265|199:248|236:189|198:129|151:123|126:163,1,713.99997821045,2|8,0:0|0:0,0:0:0:0:
133,171,17100,5,2,0:0:0:0:
133,171,17179,1,2,0:0:0:0:
133,171,17258,1,2,0:0:0:0:
219,323,17415,1,2,0:0:0:0:
289,187,17573,2,0,P|295:240|276:286,1,86.7000005291748,2|2,0:0|0:0,0:0:0:0:
219,323,17889,1,2,0:0:0:0:
378,253,18047,2,0,P|398:189|377:82,1,173.40000105835,2|0,0:0|0:0,0:0:0:0:
379,86,18442,5,2,0:0:0:0:
379,86,18521,1,2,0:0:0:0:
288,188,18679,1,2,0:0:0:0:
473,186,18837,2,0,P|422:193|376:265,1,130.050000793762,2|0,0:0|0:0,0:0:0:0:
368,339,19152,2,0,P|419:332|465:260,1,130.050000793762,2|0,0:0|0:0,0:0:0:0:
472,175,19468,6,0,L|447:63,1,86.7000005291748,10|0,0:0|0:0,0:0:0:0:
377,21,19784,1,2,0:0:0:0:
363,166,19942,1,2,0:0:0:0:
274,29,20100,1,2,0:0:0:0:
274,29,20179,1,2,0:0:0:0:
274,29,20258,2,0,P|213:45|177:87,1,86.7000005291748,2|0,0:0|0:0,0:0:0:0:
142,208,20573,2,0,L|117:107,1,86.7000005291748,2|0,0:0|0:0,0:0:0:0:
66,263,20889,5,2,0:0:0:0:
108,283,20968,1,2,0:0:0:0:
151,303,21047,1,2,0:0:0:0:
64,147,21205,1,2,0:0:0:0:
53,369,21363,2,0,P|112:357|152:295,1,130.050000793762,2|0,0:0|0:0,0:0:0:0:
163,196,21679,2,0,P|104:208|64:270,1,130.050000793762,2|0,0:0|0:0,0:0:0:0:
61,378,21994,6,0,P|125:365|171:364,1,86.7000005291748,10|0,0:0|0:0,0:0:0:0:
287,359,22310,1,2,0:0:0:0:
150,299,22468,1,2,0:0:0:0:
326,255,22626,1,2,0:0:0:0:
326,255,22705,1,2,0:0:0:0:
326,255,22784,2,0,P|281:188|241:174,1,86.7000005291748,2|0,0:0|0:0,0:0:0:0:
163,196,23100,2,0,P|170:147|229:154,1,86.7000005291748,2|0,0:0|0:0,0:0:0:0:
227,286,23415,5,2,0:0:0:0:
257,322,23494,1,2,0:0:0:0:
287,359,23573,1,2,0:0:0:0:
268,193,23731,1,2,0:0:0:0:
391,378,23889,2,0,P|399:296|351:241,1,130.050000793762,2|0,0:0|0:0,0:0:0:0:
268,193,24205,2,0,P|260:111|308:56,1,130.050000793762,2|0,0:0|0:0,0:0:0:0:
400,13,24521,6,0,L|380:130,1,86.7000005291748,10|0,0:0|0:0,0:0:0:0:
267,194,24837,1,2,0:0:0:0:
445,160,24994,1,2,0:0:0:0:
287,90,25152,1,2,0:0:0:0:
287,90,25231,1,2,0:0:0:0:
287,90,25310,2,0,P|256:154|250:193,1,86.7000005291748,2|0,0:0|0:0,0:0:0:0:
436,262,25626,2,0,P|467:198|473:159,1,86.7000005291748,2|0,0:0|0:0,0:0:0:0:
351,247,25942,5,0,0:0:0:0:
348,272,26021,1,0,0:0:0:0:
356,296,26100,1,0,0:0:0:0:
369,318,26179,1,0,0:0:0:0:
340,297,26258,1,0,0:0:0:0:
320,268,26337,1,0,0:0:0:0:
305,236,26415,5,0,0:0:0:0:
304,279,26494,1,0,0:0:0:0:
314,321,26573,1,0,0:0:0:0:
335,358,26652,1,2,0:0:0:0:
338,306,26731,1,2,0:0:0:0:
331,254,26810,1,2,0:0:0:0:
338,200,26889,1,2,0:0:0:0:
328,146,26968,1,2,0:0:0:0:
333,86,27047,5,10,0:0:0:0:
256,192,34793,12,0,40240,0:0:0:0:
200,266,40319,5,10,0:0:0:0:
455,195,40477,1,2,0:0:0:0:
455,195,40556,1,2,0:0:0:0:
455,195,40635,2,0,P|404:160|390:156,1,47.6000005810547,2|0,0:0|0:0,0:0:0:0:
186,110,40793,5,10,0:0:0:0:
374,295,40951,1,2,0:0:0:0:
374,295,41030,1,2,0:0:0:0:
374,295,41108,6,0,P|378:233|375:219,1,47.6000005810547,2|0,0:0|0:0,0:0:0:0:
310,19,41266,2,0,L|292:73,1,47.6000005810547,10|0,0:0|0:0,0:0:0:0:
250,209,41424,1,0,0:0:0:0:
240,235,41503,1,0,0:0:0:0:
232,262,41582,1,0,0:0:0:0:
224,289,41661,1,0,0:0:0:0:
190,336,41740,5,2,0:0:0:0:
178,326,41819,1,2,0:0:0:0:
145,311,41898,1,2,0:0:0:0:
137,297,41977,1,2,0:0:0:0:
111,272,42056,1,2,0:0:0:0:
108,257,42135,1,2,0:0:0:0:
92,224,42214,1,2,0:0:0:0:
95,209,42293,1,2,0:0:0:0:
76,184,42371,6,0,P|96:105|93:61,1,95.2000011621094,10|0,0:0|0:0,0:0:0:0:
35,14,42687,1,2,0:0:0:0:
78,182,42845,1,2,0:0:0:0:
191,75,43003,2,0,P|253:84|236:139,1,95.2000011621094,2|0,0:0|0:0,0:0:0:0:
106,265,43319,2,0,P|59:269|16:251,1,95.2000011621094,2|2,0:0|0:0,0:0:0:0:
15,250,44424,5,2,0:0:0:0:
11,375,44582,1,2,0:0:0:0:
34,232,44740,2,0,P|41:166|30:114,1,95.2000011621094,2|0,0:0|0:0,0:0:0:0:
123,320,45056,2,0,P|188:299|191:251,2,95.2000011621094,2|0|0,0:0|0:0|0:0,0:0:0:0:
213,166,45529,1,0,0:0:0:0:
246,342,45687,1,0,0:0:0:0:
236,163,45845,2,0,P|237:221|234:266,1,95.2000011621094,2|2,0:0|0:0,0:0:0:0:
235,259,46950,5,2,0:0:0:0:
366,351,47108,1,2,0:0:0:0:
339,195,47266,2,0,P|374:161|425:163,1,95.2000011621094,2|0,0:0|0:0,0:0:0:0:
235,259,47582,1,0,0:0:0:0:
417,262,47740,1,0,0:0:0:0:
281,342,47898,2,0,P|268:281|273:229,1,95.2000011621094
327,101,48214,1,2,0:0:0:0:
327,101,48371,2,0,P|340:162|335:214,1,95.2000011621094,2|2,0:0|0:0,0:0:0:0:
417,156,49477,5,2,0:0:0:0:
493,40,49635,1,2,0:0:0:0:
347,98,49793,2,0,P|322:153|333:196,1,95.2000011621094,2|0,0:0|0:0,0:0:0:0:
370,16,50108,1,0,0:0:0:0:
417,156,50266,1,2,0:0:0:0:
267,39,50424,2,0,P|215:21|158:36,1,95.2000011621094,2|0,0:0|0:0,0:0:0:0:
83,20,50740,2,0,P|93:74|134:115,1,95.2000011621094,2|0,0:0|0:0,0:0:0:0:
161,189,51056,1,0,0:0:0:0:
268,36,51214,5,2,0:0:0:0:
278,46,51293,1,2,0:0:0:0:
213,41,51371,1,2,0:0:0:0:
226,47,51450,1,2,0:0:0:0:
174,77,51529,1,2,0:0:0:0:
186,78,51608,1,2,0:0:0:0:
139,112,51687,1,2,0:0:0:0:
152,109,51766,1,2,0:0:0:0:
133,160,51845,6,0,P|138:187|152:208,1,47.6000005810547,2|0,0:0|0:0,0:0:0:0:
130,204,52003,2,0,P|143:227|163:242,1,47.6000005810547,2|0,0:0|0:0,0:0:0:0:
141,246,52161,2,0,P|162:264|186:271,1,47.6000005810547,2|0,0:0|0:0,0:0:0:0:
167,282,52319,2,0,P|192:291|217:290,1,47.6000005810547,2|0,0:0|0:0,0:0:0:0:
284,333,52477,6,0,P|292:275|270:223,1,95.2000011621094,10|0,0:0|0:0,0:0:0:0:
166,282,52793,1,2,0:0:0:0:
265,128,52950,1,2,0:0:0:0:
284,333,53108,1,2,0:0:0:0:
168,129,53266,1,2,0:0:0:0:
205,361,53424,1,2,0:0:0:0:
293,99,53582,6,0,P|302:157|303:209,1,95.2000011621094,2|0,0:0|0:0,0:0:0:0:
205,361,53898,1,2,0:0:0:0:
205,361,53977,1,2,0:0:0:0:
205,361,54056,1,2,0:0:0:0:
53,278,54214,1,2,0:0:0:0:
211,271,54371,1,2,0:0:0:0:
40,382,54529,6,0,P|19:304|57:267,1,95.2000011621094,2|2,0:0|0:0,0:0:0:0:
155,146,54845,2,0,P|110:110|68:145,1,95.2000011621094,2|0,0:0|0:0,0:0:0:0:
211,271,55161,2,0,P|256:307|298:272,1,95.2000011621094,2|0,0:0|0:0,0:0:0:0:
171,150,55477,1,0,0:0:0:0:
308,271,55635,1,0,0:0:0:0:
192,60,55793,5,2,0:0:0:0:
212,271,55950,1,2,0:0:0:0:
60,59,56108,2,0,P|82:8|134:19,1,95.2000011621094,2|0,0:0|0:0,0:0:0:0:
35,186,56424,1,0,0:0:0:0:
35,186,56503,1,0,0:0:0:0:
35,186,56582,1,0,0:0:0:0:
60,59,56740,1,0,0:0:0:0:
135,199,56898,1,0,0:0:0:0:
64,42,57056,5,2,0:0:0:0:
246,138,57214,1,2,0:0:0:0:
35,186,57371,1,2,0:0:0:0:
212,48,57529,2,0,P|273:48|318:80,1,95.2000011621094,2|0,0:0|0:0,0:0:0:0:
22,130,57845,1,2,0:0:0:0:
246,138,58003,2,0,P|292:177|306:230,1,95.2000011621094,2|0,0:0|0:0,0:0:0:0:
211,48,58319,5,2,0:0:0:0:
193,243,58477,1,2,0:0:0:0:
170,7,58635,2,0,P|174:70|193:112,1,95.2000011621094,2|0,0:0|0:0,0:0:0:0:
238,229,58950,1,0,0:0:0:0:
238,229,59029,1,0,0:0:0:0:
238,229,59108,1,0,0:0:0:0:
22,130,59266,1,0,0:0:0:0:
246,138,59424,1,0,0:0:0:0:
170,304,59582,5,2,0:0:0:0:
110,163,59740,1,2,0:0:0:0:
168,373,59898,2,0,P|136:319|128:275,1,95.2000011621094,2|0,0:0|0:0,0:0:0:0:
159,131,60214,1,2,0:0:0:0:
314,283,60371,2,8,P|259:252|230:218,1,95.2000011621094,2|0,0:0|0:0,0:0:0:0:
341,156,60687,2,0,P|395:123|439:115,1,95.2000011621094,2|0,0:0|0:0,0:0:0:0:
435,242,61003,2,0,P|435:304|420:346,1,95.2000011621094,2|0,0:0|0:0,0:0:0:0:
314,283,61319,5,0,0:0:0:0:
301,279,61398,1,0,0:0:0:0:
276,298,61477,1,0,0:0:0:0:
265,291,61556,1,0,0:0:0:0:
236,300,61635,1,0,0:0:0:0:
200,292,61714,1,0,0:0:0:0:
171,271,61793,1,0,0:0:0:0:
155,239,61871,1,0,0:0:0:0:
156,202,61950,5,0,0:0:0:0:
136,243,62029,1,0,0:0:0:0:
130,288,62108,1,0,0:0:0:0:
134,333,62187,1,0,0:0:0:0:
157,372,62266,1,2,0:0:0:0:
195,330,62345,1,2,0:0:0:0:
213,276,62424,1,2,0:0:0:0:
213,219,62503,1,2,0:0:0:0:
195,165,62582,5,10,0:0:0:0:
222,198,62661,1,0,0:0:0:0:
261,215,62740,1,0,0:0:0:0:
303,218,62819,1,0,0:0:0:0:
344,207,62898,1,0,0:0:0:0:
379,183,62977,1,0,0:0:0:0:
421,175,63056,1,0,0:0:0:0:
462,185,63135,1,0,0:0:0:0:
497,220,63214,1,0,0:0:0:0:
502,273,63293,1,0,0:0:0:0:
477,321,63371,1,0,0:0:0:0:
425,340,63450,1,0,0:0:0:0:
372,327,63529,1,0,0:0:0:0:
335,290,63608,1,0,0:0:0:0:
326,242,63687,1,0,0:0:0:0:
329,200,63766,1,0,0:0:0:0:
346,160,63845,6,0,P|383:123|396:118,3,47.6000005810547,10|0|0|0,0:0|0:0|0:0|0:0,0:0:0:0:
377,28,64161,2,0,P|427:41|438:50,3,47.6000005810547,2|0|0|0,0:0|0:0|0:0|0:0,0:0:0:0:
481,123,64477,1,2,0:0:0:0:
437,141,64556,1,0,0:0:0:0:
390,152,64635,1,0,0:0:0:0:
342,150,64714,1,0,0:0:0:0:
296,136,64793,1,0,0:0:0:0:
260,116,64871,1,0,0:0:0:0:
218,105,64950,1,0,0:0:0:0:
175,110,65029,1,0,0:0:0:0:
144,140,65108,5,10,0:0:0:0:
135,172,65187,1,0,0:0:0:0:
142,209,65266,1,0,0:0:0:0:
160,235,65345,1,0,0:0:0:0:
190,253,65424,1,0,0:0:0:0:
234,256,65503,1,0,0:0:0:0:
272,233,65582,1,0,0:0:0:0:
295,191,65661,1,0,0:0:0:0:
304,143,65740,1,0,0:0:0:0:
280,95,65819,1,0,0:0:0:0:
238,63,65898,1,0,0:0:0:0:
184,63,65977,1,0,0:0:0:0:
136,79,66056,1,0,0:0:0:0:
100,118,66135,1,0,0:0:0:0:
86,166,66214,1,0,0:0:0:0:
98,216,66293,1,0,0:0:0:0:
115,257,66371,5,10,0:0:0:0:
121,298,66450,1,0,0:0:0:0:
113,340,66529,1,0,0:0:0:0:
92,377,66608,1,0,0:0:0:0:
50,384,66687,2,0,P|108:340|187:337,1,142.800001743164,10|0,0:0|0:0,0:0:0:0:
261,384,67003,2,0,P|334:380|398:317,1,142.800001743164,10|0,0:0|0:0,0:0:0:0:
349,214,67319,2,0,P|296:203|315:284,1,142.800001743164,10|0,0:0|0:0,0:0:0:0:
386,337,67635,5,10,0:0:0:0:
365,299,67714,1,0,0:0:0:0:
353,257,67793,1,0,0:0:0:0:
356,214,67871,1,0,0:0:0:0:
367,172,67950,1,0,0:0:0:0:
388,134,68029,1,0,0:0:0:0:
395,91,68108,1,0,0:0:0:0:
388,48,68187,1,0,0:0:0:0:
360,14,68266,1,0,0:0:0:0:
304,7,68345,1,0,0:0:0:0:
257,37,68424,1,0,0:0:0:0:
241,91,68503,1,0,0:0:0:0:
253,144,68582,1,0,0:0:0:0:
279,192,68661,1,0,0:0:0:0:
287,246,68740,1,0,0:0:0:0:
264,297,68819,1,0,0:0:0:0:
213,320,68898,5,10,0:0:0:0:
243,290,68977,1,0,0:0:0:0:
283,274,69056,1,0,0:0:0:0:
325,273,69135,1,0,0:0:0:0:
365,285,69214,1,0,0:0:0:0:
407,289,69293,1,0,0:0:0:0:
448,280,69371,1,0,0:0:0:0:
478,249,69450,1,0,0:0:0:0:
485,206,69529,2,0,P|466:153|456:145,3,47.6000005810547,2|0|0|0,0:0|0:0|0:0|0:0,0:0:0:0:
343,76,69845,2,0,P|362:129|372:137,3,47.6000005810547,2|0|0|0,0:0|0:0|0:0|0:0,0:0:0:0:
486,206,70161,5,10,0:0:0:0:
469,197,70240,1,0,0:0:0:0:
453,193,70319,1,0,0:0:0:0:
429,194,70398,1,0,0:0:0:0:
403,202,70477,1,0,0:0:0:0:
377,222,70556,1,0,0:0:0:0:
342,241,70635,1,0,0:0:0:0:
299,244,70714,1,0,0:0:0:0:
251,231,70793,1,0,0:0:0:0:
204,204,70871,1,0,0:0:0:0:
155,179,70950,1,0,0:0:0:0:
102,180,71029,1,0,0:0:0:0:
53,207,71108,1,0,0:0:0:0:
32,253,71187,1,0,0:0:0:0:
26,301,71266,1,0,0:0:0:0:
45,347,71345,1,0,0:0:0:0:
88,367,71424,6,0,P|141:376|165:371,3,47.6000005810547,10|0|0|0,0:0|0:0|0:0|0:0,0:0:0:0:
136,285,71740,2,0,P|152:170|135:122,1,142.800001743164,10|0,0:0|0:0,0:0:0:0:
115,16,72056,2,0,P|99:131|116:179,1,142.800001743164,10|0,0:0|0:0,0:0:0:0:
217,279,72371,1,10,0:0:0:0:
248,283,72450,1,0,0:0:0:0:
288,267,72529,1,0,0:0:0:0:
308,236,72608,1,0,0:0:0:0:
314,193,72687,6,0,L|258:198,1,47.6000005810547,10|0,0:0|0:0,0:0:0:0:
103,210,72845,2,0,L|151:206,1,47.6000005810547,2|0,0:0|0:0,0:0:0:0:
217,279,73003,2,0,L|161:284,1,47.6000005810547,2|0,0:0|0:0,0:0:0:0:
6,296,73161,2,0,L|53:291,1,47.6000005810547,2|0,0:0|0:0,0:0:0:0:
129,369,73319,5,2,0:0:0:0:
150,364,73398,1,2,0:0:0:0:
172,350,73477,1,2,0:0:0:0:
193,325,73556,1,2,0:0:0:0:
204,299,73635,1,2,0:0:0:0:
207,264,73714,1,2,0:0:0:0:
197,222,73793,1,2,0:0:0:0:
166,192,73871,1,2,0:0:0:0:
124,181,73950,6,0,P|160:243|217:264,1,95.2000011621094,10|0,0:0|0:0,0:0:0:0:
313,241,74187,2,0,P|348:178|338:118,1,95.2000011621094,10|0,0:0|0:0,0:0:0:0:
221,52,74424,2,0,L|240:174,1,95.2000011621094,10|0,0:0|0:0,0:0:0:0:
313,241,74661,2,0,P|245:236|214:290,1,95.2000011621094,2|0,0:0|0:0,0:0:0:0:
348,329,74898,1,2,0:0:0:0:
227,250,75056,1,2,0:0:0:0:
368,380,75214,6,0,P|388:290|377:260,1,95.2000011621094,10|10,0:0|0:0,0:0:0:0:
313,241,75450,2,0,P|293:151|304:121,1,95.2000011621094,10|0,0:0|0:0,0:0:0:0:
404,74,75687,2,0,L|374:185,1,86.7000005291748,10|0,0:0|0:0,0:0:0:0:
317,83,75924,2,0,L|287:-28,1,86.7000005291748,10|0,0:0|0:0,0:0:0:0:
401,71,76161,1,2,0:0:0:0:
304,253,76319,1,2,0:0:0:0:
317,83,76477,5,10,0:0:0:0:
302,58,76556,1,0,0:0:0:0:
279,39,76635,1,0,0:0:0:0:
252,27,76714,1,0,0:0:0:0:
223,21,76793,1,0,0:0:0:0:
194,23,76871,1,0,0:0:0:0:
166,31,76950,1,0,0:0:0:0:
142,46,77029,1,0,0:0:0:0:
123,67,77108,5,10,0:0:0:0:
128,80,77187,1,0,0:0:0:0:
133,93,77266,1,0,0:0:0:0:
138,106,77345,1,0,0:0:0:0:
143,119,77424,1,0,0:0:0:0:
148,132,77503,1,0,0:0:0:0:
154,144,77582,1,0,0:0:0:0:
160,156,77661,1,0,0:0:0:0:
166,168,77740,5,10,0:0:0:0:
211,153,77819,1,0,0:0:0:0:
257,161,77898,1,0,0:0:0:0:
285,199,77977,1,0,0:0:0:0:
291,246,78056,2,0,P|280:292|261:314,1,47.6000005810547,2|0,0:0|0:0,0:0:0:0:
166,168,78214,5,10,0:0:0:0:
130,136,78293,1,0,0:0:0:0:
114,92,78372,1,0,0:0:0:0:
133,49,78451,1,0,0:0:0:0:
171,20,78530,2,0,P|216:6|244:11,1,47.6000005810547,2|0,0:0|0:0,0:0:0:0:
166,168,78687,5,10,0:0:0:0:
156,215,78766,1,0,0:0:0:0:
126,251,78845,1,0,0:0:0:0:
79,256,78924,1,0,0:0:0:0:
35,237,79003,2,0,P|0:204|-8:177,1,47.6000005810547,2|0,0:0|0:0,0:0:0:0:
166,168,79161,5,8,0:0:0:0:
211,153,79240,1,0,0:0:0:0:
258,159,79319,1,0,0:0:0:0:
294,189,79398,1,0,0:0:0:0:
333,215,79477,1,0,0:0:0:0:
376,226,79556,1,0,0:0:0:0:
422,211,79635,5,10,0:0:0:0:
393,166,79713,1,2,0:0:0:0:
344,146,79792,1,2,0:0:0:0:
293,156,79871,1,2,0:0:0:0:
256,193,79950,1,2,0:0:0:0:
246,245,80029,1,2,0:0:0:0:
267,293,80108,1,0,0:0:0:0:
267,293,80187,1,0,0:0:0:0:
267,293,80266,6,0,L|287:351,1,47.6000005810547,2|0,0:0|0:0,0:0:0:0:
422,211,80424,2,0,L|402:153,1,47.6000005810547,2|0,0:0|0:0,0:0:0:0:
240,148,80582,2,0,L|259:205,1,47.6000005810547,2|0,0:0|0:0,0:0:0:0:
394,65,80740,2,0,L|374:7,1,47.6000005810547,2|0,0:0|0:0,0:0:0:0:
308,270,80898,6,0,L|255:299,1,47.6000005810547,2|0,0:0|0:0,0:0:0:0:
394,65,81056,2,0,L|447:36,1,47.6000005810547,2|0,0:0|0:0,0:0:0:0:
154,353,81214,2,0,L|101:382,1,47.6000005810547,2|0,0:0|0:0,0:0:0:0:
240,148,81372,2,0,L|293:119,1,47.6000005810547,2|0,0:0|0:0,0:0:0:0:
154,353,81529,5,0,0:0:0:0:
120,301,81608,1,0,0:0:0:0:
107,240,81687,1,0,0:0:0:0:
123,180,81766,1,0,0:0:0:0:
155,127,81845,1,0,0:0:0:0:
171,78,81924,1,0,0:0:0:0:
155,37,82003,1,0,0:0:0:0:
124,19,82082,1,0,0:0:0:0:
89,25,82161,5,0,0:0:0:0:
66,48,82240,1,0,0:0:0:0:
59,72,82319,1,0,0:0:0:0:
65,100,82398,1,0,0:0:0:0:
87,124,82477,1,0,0:0:0:0:
126,141,82556,1,0,0:0:0:0:
168,131,82635,1,0,0:0:0:0:
222,115,82714,1,0,0:0:0:0:
278,119,82793,6,0,P|313:164|299:214,1,95.2000011621094,10|0,0:0|0:0,0:0:0:0:
377,200,83108,1,2,0:0:0:0:
377,200,83266,2,0,P|355:252|305:265,1,95.2000011621094
354,328,83582,1,2,0:0:0:0:
354,328,83740,2,0,P|297:335|261:298,1,95.2000011621094
230,374,84056,1,2,0:0:0:0:
230,374,84214,2,0,P|194:329|208:279,1,95.2000011621094
124,288,84529,1,2,0:0:0:0:
124,288,84687,5,2,0:0:0:0:
138,243,84765,1,2,0:0:0:0:
176,216,84844,1,2,0:0:0:0:
223,217,84923,1,2,0:0:0:0:
259,246,85003,2,0,P|225:178|235:98,1,142.800001743164,2|0,0:0|0:0,0:0:0:0:
270,96,85319,5,2,0:0:0:0:
270,96,85477,2,0,L|374:115,1,95.2000011621094
204,180,85793,1,2,0:0:0:0:
204,180,85951,2,0,L|168:80,1,95.2000011621094
307,193,86266,1,2,0:0:0:0:
307,193,86424,2,0,L|238:273,1,95.2000011621094
270,96,86740,1,2,0:0:0:0:
270,96,86898,2,0,L|374:115,1,95.2000011621094
204,180,87214,5,2,0:0:0:0:
187,135,87292,1,2,0:0:0:0:
171,90,87371,1,2,0:0:0:0:
155,45,87450,1,2,0:0:0:0:
139,1,87529,2,0,P|82:-5|80:69,1,142.800001743164,2|0,0:0|0:0,0:0:0:0:
86,95,87845,5,2,0:0:0:0:
212,182,88003,1,0,0:0:0:0:
116,238,88161,1,0,0:0:0:0:
86,95,88319,5,2,0:0:0:0:
230,143,88477,1,0,0:0:0:0:
159,230,88635,1,0,0:0:0:0:
86,95,88793,5,2,0:0:0:0:
233,102,88951,1,0,0:0:0:0:
196,207,89109,1,0,0:0:0:0:
86,95,89266,5,2,0:0:0:0:
222,61,89424,1,0,0:0:0:0:
223,173,89582,1,0,0:0:0:0:
86,95,89740,5,2,0:0:0:0:
132,104,89819,1,2,0:0:0:0:
178,113,89898,1,2,0:0:0:0:
224,121,89977,1,2,0:0:0:0:
270,129,90056,2,0,B|342:146|342:146|376:207,1,142.800001743164,2|0,0:0|0:0,0:0:0:0:
354,236,90371,5,2,0:0:0:0:
435,132,90529,1,0,0:0:0:0:
431,276,90687,1,0,0:0:0:0:
354,236,90845,5,2,0:0:0:0:
394,110,91003,1,0,0:0:0:0:
440,247,91161,1,0,0:0:0:0:
354,236,91319,5,2,0:0:0:0:
348,103,91477,1,0,0:0:0:0:
440,247,91635,5,2,0:0:0:0:
429,294,91714,1,2,0:0:0:0:
419,341,91793,1,2,0:0:0:0:
344,231,91950,1,2,0:0:0:0:
335,269,92029,1,2,0:0:0:0:
327,307,92108,1,2,0:0:0:0:
252,212,92266,5,2,0:0:0:0:
244,242,92345,1,2,0:0:0:0:
239,274,92424,1,2,0:0:0:0:
163,193,92582,1,2,0:0:0:0:
157,217,92661,1,2,0:0:0:0:
152,243,92740,1,2,0:0:0:0:
124,375,92898,6,0,P|198:356|223:321,1,95.2000011621094,2|0,0:0|0:0,0:0:0:0:
107,372,93214,1,0,0:0:0:0:
324,243,93371,2,0,P|250:262|225:297,1,95.2000011621094,2|0,0:0|0:0,0:0:0:0:
337,245,93687,1,0,0:0:0:0:
71,287,93845,6,0,P|145:268|170:233,1,95.2000011621094,2|0,0:0|0:0,0:0:0:0:
57,289,94161,1,0,0:0:0:0:
271,155,94318,2,0,P|197:174|172:209,1,95.2000011621094,2|0,0:0|0:0,0:0:0:0:
286,159,94635,1,0,0:0:0:0:
10,210,94793,5,2,0:0:0:0:
56,205,94871,1,2,0:0:0:0:
96,179,94950,1,2,0:0:0:0:
119,138,95029,1,2,0:0:0:0:
119,91,95108,2,0,B|108:61|83:29|83:29|122:43|185:44,1,142.800001743164,2|0,0:0|0:0,0:0:0:0:
254,13,95424,6,0,P|324:9|363:31,1,95.2000011621094,2|0,0:0|0:0,0:0:0:0:
429,149,95740,1,0,0:0:0:0:
222,149,95898,2,0,P|273:100|317:92,1,95.2000011621094,2|0,0:0|0:0,0:0:0:0:
443,140,96214,1,0,0:0:0:0:
295,283,96371,2,0,P|303:213|331:178,1,95.2000011621094,2|0,0:0|0:0,0:0:0:0:
458,134,96687,5,0,0:0:0:0:
443,346,96845,2,0,P|404:287|404:242,1,95.2000011621094,2|0,0:0|0:0,0:0:0:0:
472,127,97161,1,0,0:0:0:0:
512,284,97319,5,2,0:0:0:0:
486,324,97398,1,2,0:0:0:0:
443,346,97477,1,2,0:0:0:0:
395,346,97556,1,2,0:0:0:0:
350,329,97635,2,0,P|293:304|204:331,1,142.800001743164,2|0,0:0|0:0,0:0:0:0:
162,381,97950,5,2,0:0:0:0:
162,381,98108,1,0,0:0:0:0:
122,130,98266,1,0,0:0:0:0:
103,337,98424,5,2,0:0:0:0:
103,337,98582,1,0,0:0:0:0:
151,87,98740,1,0,0:0:0:0:
62,276,98898,5,2,0:0:0:0:
62,276,99056,1,0,0:0:0:0:
193,58,99214,1,0,0:0:0:0:
45,205,99371,5,2,0:0:0:0:
45,205,99529,1,0,0:0:0:0:
242,44,99687,1,0,0:0:0:0:
53,132,99845,5,2,0:0:0:0:
96,152,99924,1,2,0:0:0:0:
115,195,100003,1,2,0:0:0:0:
108,242,100082,1,2,0:0:0:0:
70,271,100161,2,0,P|133:254|211:271,1,142.800001743164,2|0,0:0|0:0,0:0:0:0:
236,315,100477,5,2,0:0:0:0:
53,132,100635,1,0,0:0:0:0:
236,315,100793,1,0,0:0:0:0:
70,271,100950,5,2,0:0:0:0:
320,204,101108,1,0,0:0:0:0:
70,271,101266,1,0,0:0:0:0:
228,64,101424,5,2,0:0:0:0:
142,321,101582,1,0,0:0:0:0:
228,64,101740,5,2,0:0:0:0:
272,80,101819,1,0,0:0:0:0:
308,110,101898,1,0,0:0:0:0:
329,152,101977,2,0,P|344:209|342:231,1,47.6000005810547
142,321,102135,5,2,0:0:0:0:
133,274,102214,1,0,0:0:0:0:
141,228,102293,1,0,0:0:0:0:
167,189,102372,2,0,P|208:147|228:138,1,47.6000005810547
407,243,102529,5,2,0:0:0:0:
359,280,102607,1,2,0:0:0:0:
300,267,102686,1,2,0:0:0:0:
271,214,102765,1,2,0:0:0:0:
292,158,102844,1,2,0:0:0:0:
349,138,102924,1,2,0:0:0:0:
401,168,103002,5,10,0:0:0:0:
256,192,103082,12,10,108056,0:0:0:0:
256,192,108135,12,0,111845,0:0:0:0:
274,214,112003,5,0,0:0:0:0:
248,224,112082,1,0,0:0:0:0:
230,244,112161,1,0,0:0:0:0:
215,269,112240,1,0,0:0:0:0:
219,230,112319,1,0,0:0:0:0:
236,195,112398,1,0,0:0:0:0:
259,163,112476,5,0,0:0:0:0:
217,186,112555,1,0,0:0:0:0:
183,218,112634,1,0,0:0:0:0:
159,259,112713,1,2,0:0:0:0:
210,233,112792,1,2,0:0:0:0:
256,197,112871,1,2,0:0:0:0:
311,175,112950,1,2,0:0:0:0:
357,135,113029,1,2,0:0:0:0:
413,108,113108,6,0,P|483:109|491:221,1,168.299999486389
471,257,113424,2,0,L|405:252,1,56.0999998287964
351,228,113582,2,0,L|417:233,1,56.0999998287964
276,298,113740,2,0,P|236:268|236:210,1,73.1000011154175
332,64,113898,2,0,P|326:113|275:142,1,73.1000011154175
93,135,114056,2,0,P|138:115|189:144,1,73.1000011154175
