osu file format v14

[General]
AudioFilename: audio.mp3
AudioLeadIn: 0
PreviewTime: 15180
Countdown: 0
SampleSet: Normal
StackLeniency: 0.7
Mode: 3
LetterboxInBreaks: 0
SpecialStyle: 0
WidescreenStoryboard: 1

[Editor]
DistanceSpacing: 1
BeatDivisor: 8
GridSize: 8
TimelineZoom: 4.799997

[Metadata]
Title:Osanpo Beam (2019 Edit)
TitleUnicode:おちんぽビーム(2019 Edit)
Artist:AAAA
ArtistUnicode:ああああ
Creator:Youwhang
Version:Lude's Ver. BADI PIPOL
Source:BM9820AT
Tags:meme BM9820AT chiptune hoshi o kakeru adventure
BeatmapID:2102655
BeatmapSetID:1004544

[Difficulty]
HPDrainRate:8
CircleSize:4
OverallDifficulty:8
ApproachRate:5
SliderMultiplier:1.4
SliderTickRate:1

[Events]
//Background and Video events
0,0,"baripipol.png",0,0
//Break Periods
//Storyboard Layer 0 (Background)
//Storyboard Layer 1 (Fail)
//Storyboard Layer 2 (Pass)
//Storyboard Layer 3 (Foreground)
//Storyboard Sound Samples

[TimingPoints]
2465,397.350993377483,4,1,0,50,1,0
19115,273.972602739726,4,1,0,50,1,0
19115,-144.927536231884,4,1,0,50,0,0
19662,273.972602739726,4,1,0,50,1,0
19662,-144.927536231884,4,1,0,50,0,0

[HitObjects]
64,192,2464,128,8,2862:0:0:0:0:
192,192,2862,128,8,3259:0:0:0:0:
320,192,3259,128,8,3657:0:0:0:0:
448,192,3657,128,8,4054:0:0:0:0:
64,192,4054,128,8,4451:0:0:0:0:
320,192,4153,1,8,0:0:0:0:
192,192,4253,1,8,0:0:0:0:
320,192,4352,1,8,0:0:0:0:
192,192,4451,128,8,4849:0:0:0:0:
448,192,4551,1,8,0:0:0:0:
320,192,4650,1,8,0:0:0:0:
448,192,4749,1,8,0:0:0:0:
320,192,4849,128,8,5246:0:0:0:0:
64,192,4948,1,8,0:0:0:0:
448,192,5047,1,8,0:0:0:0:
64,192,5147,1,8,0:0:0:0:
448,192,5246,128,8,5643:0:0:0:0:
192,192,5345,1,8,0:0:0:0:
64,192,5445,1,8,0:0:0:0:
192,192,5544,1,8,0:0:0:0:
64,192,5643,128,8,6041:0:0:0:0:
192,192,5743,1,8,0:0:0:0:
320,192,5842,1,8,0:0:0:0:
448,192,5941,1,8,0:0:0:0:
192,192,6041,128,8,6438:0:0:0:0:
320,192,6140,1,8,0:0:0:0:
448,192,6239,1,8,0:0:0:0:
64,192,6339,1,8,0:0:0:0:
320,192,6438,128,8,6835:0:0:0:0:
448,192,6537,1,8,0:0:0:0:
64,192,6637,1,8,0:0:0:0:
192,192,6736,1,8,0:0:0:0:
448,192,6835,128,8,7233:0:0:0:0:
64,192,6935,1,8,0:0:0:0:
192,192,7034,1,8,0:0:0:0:
320,192,7133,1,8,0:0:0:0:
64,192,7233,128,8,7630:0:0:0:0:
192,192,7332,1,8,0:0:0:0:
448,192,7431,1,8,0:0:0:0:
320,192,7531,1,8,0:0:0:0:
192,192,7630,128,8,8027:0:0:0:0:
320,192,7729,1,8,0:0:0:0:
64,192,7829,1,8,0:0:0:0:
448,192,7928,1,8,0:0:0:0:
320,192,8027,128,8,8425:0:0:0:0:
448,192,8127,1,8,0:0:0:0:
192,192,8226,1,8,0:0:0:0:
64,192,8325,1,8,0:0:0:0:
448,192,8425,128,8,8822:0:0:0:0:
64,192,8524,1,8,0:0:0:0:
320,192,8623,1,8,0:0:0:0:
192,192,8723,1,8,0:0:0:0:
64,192,8822,128,8,9219:0:0:0:0:
192,192,8921,1,8,0:0:0:0:
448,192,9021,1,8,0:0:0:0:
192,192,9120,1,8,0:0:0:0:
320,192,9219,128,8,9617:0:0:0:0:
448,192,9319,1,8,0:0:0:0:
192,192,9418,1,8,0:0:0:0:
448,192,9517,1,8,0:0:0:0:
192,192,9617,128,8,10014:0:0:0:0:
320,192,9716,1,8,0:0:0:0:
64,192,9815,1,8,0:0:0:0:
320,192,9915,1,8,0:0:0:0:
448,192,10014,128,8,10412:0:0:0:0:
64,192,10114,1,8,0:0:0:0:
320,192,10213,1,8,0:0:0:0:
64,192,10312,1,8,0:0:0:0:
192,192,10412,128,8,10809:0:0:0:0:
320,192,10511,1,8,0:0:0:0:
64,192,10610,1,8,0:0:0:0:
448,192,10710,1,8,0:0:0:0:
320,192,10809,128,8,11206:0:0:0:0:
448,192,10875,1,8,0:0:0:0:
192,192,11008,1,8,0:0:0:0:
64,192,11107,1,8,0:0:0:0:
448,192,11206,128,8,11604:0:0:0:0:
64,192,11306,1,8,0:0:0:0:
320,192,11405,1,8,0:0:0:0:
192,192,11504,1,8,0:0:0:0:
64,192,11604,128,8,12001:0:0:0:0:
192,192,11703,1,8,0:0:0:0:
448,192,11802,1,8,0:0:0:0:
320,192,11902,1,8,0:0:0:0:
192,192,12001,1,8,0:0:0:0:
320,192,12100,1,8,0:0:0:0:
448,192,12200,1,8,0:0:0:0:
64,192,12299,1,8,0:0:0:0:
192,192,12398,1,8,0:0:0:0:
320,192,12398,1,8,0:0:0:0:
448,192,12498,1,8,0:0:0:0:
64,192,12597,1,8,0:0:0:0:
192,192,12696,1,8,0:0:0:0:
320,192,12796,1,8,0:0:0:0:
448,192,12796,1,8,0:0:0:0:
192,192,12895,1,8,0:0:0:0:
64,192,12994,1,8,0:0:0:0:
448,192,13094,1,8,0:0:0:0:
320,192,13193,1,8,0:0:0:0:
192,192,13193,1,8,0:0:0:0:
64,192,13292,1,8,0:0:0:0:
448,192,13392,1,8,0:0:0:0:
320,192,13491,1,8,0:0:0:0:
64,192,13590,128,0,13690:0:0:0:0:
192,192,13690,128,0,13789:0:0:0:0:
448,192,13789,128,0,13888:0:0:0:0:
64,192,15180,1,8,0:0:0:0:
192,192,15180,1,8,0:0:0:0:
320,192,15180,1,8,0:0:0:0:
64,192,15312,1,8,0:0:0:0:
192,192,15312,1,8,0:0:0:0:
64,192,15445,1,8,0:0:0:0:
192,192,15577,1,8,0:0:0:0:
320,192,15577,1,8,0:0:0:0:
448,192,15577,1,8,0:0:0:0:
320,192,15710,1,8,0:0:0:0:
448,192,15710,1,8,0:0:0:0:
448,192,15842,1,8,0:0:0:0:
64,192,15974,1,8,0:0:0:0:
192,192,15974,1,8,0:0:0:0:
320,192,15974,1,8,0:0:0:0:
192,192,16107,1,8,0:0:0:0:
320,192,16107,1,8,0:0:0:0:
320,192,16239,1,8,0:0:0:0:
448,192,16372,1,8,0:0:0:0:
320,192,16372,1,8,0:0:0:0:
192,192,16372,1,8,0:0:0:0:
320,192,16504,1,8,0:0:0:0:
192,192,16504,1,8,0:0:0:0:
192,192,16637,1,8,0:0:0:0:
64,192,16769,1,8,0:0:0:0:
320,192,16769,1,8,0:0:0:0:
448,192,16769,1,8,0:0:0:0:
64,192,16902,1,8,0:0:0:0:
320,192,16902,1,8,0:0:0:0:
448,192,16902,1,8,0:0:0:0:
448,192,17034,128,8,18756:0:0:0:0:
64,192,17034,128,8,18756:0:0:0:0:
320,192,17034,128,8,18756:0:0:0:0:
64,192,19251,128,0,19354:0:0:0:0:
192,192,19251,128,0,19354:0:0:0:0:
192,192,19388,128,0,19491:0:0:0:0:
320,192,19388,128,0,19491:0:0:0:0:
64,192,19525,128,0,19628:0:0:0:0:
448,192,19525,128,0,19628:0:0:0:0:
192,192,19525,1,0,0:0:0:0:
320,192,19560,1,0,0:0:0:0:
192,192,19594,1,0,0:0:0:0:
320,192,19628,1,0,0:0:0:0:
64,192,19662,1,0,0:0:0:0:
192,192,19662,1,0,0:0:0:0:
448,192,19662,1,0,0:0:0:0:
320,192,19730,1,0,0:0:0:0:
192,192,19798,1,0,0:0:0:0:
64,192,19798,1,0,0:0:0:0:
448,192,19798,1,0,0:0:0:0:
192,192,19867,1,0,0:0:0:0:
320,192,19935,1,0,0:0:0:0:
448,192,19935,1,0,0:0:0:0:
64,192,20004,1,0,0:0:0:0:
192,192,20004,128,0,20072:0:0:0:0:
64,192,20072,128,0,20141:0:0:0:0:
448,192,20072,1,0,0:0:0:0:
320,192,20072,1,0,0:0:0:0:
192,192,20141,1,0,0:0:0:0:
320,192,20141,128,0,20209:0:0:0:0:
448,192,20209,128,0,20278:0:0:0:0:
64,192,20209,1,0,0:0:0:0:
192,192,20278,128,0,20346:0:0:0:0:
64,192,20346,1,0,0:0:0:0:
320,192,20346,1,0,0:0:0:0:
448,192,20346,1,0,0:0:0:0:
320,192,20415,1,0,0:0:0:0:
64,192,20449,1,0,0:0:0:0:
192,192,20449,1,0,0:0:0:0:
320,192,20483,1,0,0:0:0:0:
448,192,20483,1,0,0:0:0:0:
192,192,20552,128,0,20620:0:0:0:0:
64,192,20552,1,0,0:0:0:0:
64,192,20620,1,0,0:0:0:0:
320,192,20620,1,0,0:0:0:0:
448,192,20620,1,0,0:0:0:0:
192,192,20689,1,0,0:0:0:0:
320,192,20723,1,0,0:0:0:0:
448,192,20757,1,0,0:0:0:0:
64,192,20757,1,0,0:0:0:0:
192,192,20826,1,0,0:0:0:0:
64,192,20894,1,0,0:0:0:0:
320,192,20894,1,0,0:0:0:0:
448,192,20894,1,0,0:0:0:0:
320,192,20963,1,0,0:0:0:0:
64,192,21031,1,0,0:0:0:0:
192,192,21031,128,0,21100:0:0:0:0:
320,192,21100,128,0,21168:0:0:0:0:
448,192,21100,1,0,0:0:0:0:
64,192,21168,128,0,21237:0:0:0:0:
448,192,21168,1,0,0:0:0:0:
192,192,21168,1,0,0:0:0:0:
192,192,21237,1,0,0:0:0:0:
320,192,21237,128,0,21374:0:0:0:0:
448,192,21305,1,0,0:0:0:0:
64,192,21305,1,0,0:0:0:0:
192,192,21374,1,0,0:0:0:0:
64,192,21442,1,0,0:0:0:0:
320,192,21442,1,0,0:0:0:0:
448,192,21442,1,0,0:0:0:0:
192,192,21511,1,0,0:0:0:0:
320,192,21545,1,0,0:0:0:0:
448,192,21545,1,0,0:0:0:0:
192,192,21579,1,0,0:0:0:0:
64,192,21579,1,0,0:0:0:0:
320,192,21648,1,0,0:0:0:0:
192,192,21648,128,0,21716:0:0:0:0:
64,192,21716,1,0,0:0:0:0:
320,192,21716,1,0,0:0:0:0:
448,192,21716,1,0,0:0:0:0:
320,192,21785,1,0,0:0:0:0:
448,192,21819,1,0,0:0:0:0:
64,192,21853,1,0,0:0:0:0:
320,192,21853,1,0,0:0:0:0:
192,192,21888,1,0,0:0:0:0:
64,192,21922,1,0,0:0:0:0:
448,192,21922,1,0,0:0:0:0:
320,192,21956,1,0,0:0:0:0:
192,192,21990,1,0,0:0:0:0:
64,192,21990,1,0,0:0:0:0:
448,192,21990,1,0,0:0:0:0:
320,192,22025,1,0,0:0:0:0:
64,192,22059,1,0,0:0:0:0:
448,192,22059,1,0,0:0:0:0:
192,192,22093,1,0,0:0:0:0:
320,192,22127,1,0,0:0:0:0:
448,192,22127,1,0,0:0:0:0:
64,192,22162,1,0,0:0:0:0:
192,192,22196,1,0,0:0:0:0:
448,192,22196,1,0,0:0:0:0:
320,192,22230,1,0,0:0:0:0:
192,192,22264,1,0,0:0:0:0:
64,192,22264,1,0,0:0:0:0:
448,192,22264,1,0,0:0:0:0:
320,192,22298,1,0,0:0:0:0:
64,192,22333,1,0,0:0:0:0:
448,192,22333,1,0,0:0:0:0:
320,192,22367,1,0,0:0:0:0:
192,192,22401,1,0,0:0:0:0:
64,192,22401,1,0,0:0:0:0:
448,192,22435,1,0,0:0:0:0:
320,192,22470,1,0,0:0:0:0:
64,192,22470,1,0,0:0:0:0:
192,192,22504,1,0,0:0:0:0:
320,192,22538,1,0,0:0:0:0:
448,192,22538,1,0,0:0:0:0:
192,192,22572,1,0,0:0:0:0:
64,192,22572,1,0,0:0:0:0:
320,192,22607,1,0,0:0:0:0:
448,192,22607,1,0,0:0:0:0:
192,192,22641,1,0,0:0:0:0:
64,192,22675,1,0,0:0:0:0:
448,192,22675,1,0,0:0:0:0:
320,192,22709,1,0,0:0:0:0:
192,192,22744,1,0,0:0:0:0:
64,192,22744,1,0,0:0:0:0:
320,192,22778,1,0,0:0:0:0:
448,192,22812,1,0,0:0:0:0:
192,192,22812,1,0,0:0:0:0:
64,192,22812,1,0,0:0:0:0:
320,192,22846,1,0,0:0:0:0:
192,192,22881,1,0,0:0:0:0:
64,192,22881,1,0,0:0:0:0:
448,192,22915,1,0,0:0:0:0:
64,192,22949,128,0,22995:0:0:0:0:
192,192,22949,128,0,22995:0:0:0:0:
320,192,23018,128,0,23063:0:0:0:0:
448,192,23018,128,0,23063:0:0:0:0:
64,192,23086,128,0,23132:0:0:0:0:
192,192,23086,128,0,23132:0:0:0:0:
448,192,23086,128,0,23132:0:0:0:0:
448,192,23155,128,0,23200:0:0:0:0:
192,192,23155,128,0,23200:0:0:0:0:
64,192,23155,128,0,23200:0:0:0:0:
64,192,23223,128,0,23269:0:0:0:0:
320,192,23223,128,0,23269:0:0:0:0:
192,192,23292,128,0,23337:0:0:0:0:
448,192,23292,128,0,23337:0:0:0:0:
64,192,23360,128,0,23406:0:0:0:0:
320,192,23360,128,0,23406:0:0:0:0:
448,192,23360,128,0,23406:0:0:0:0:
192,192,23429,128,0,23474:0:0:0:0:
320,192,23429,128,0,23474:0:0:0:0:
64,192,23497,1,0,0:0:0:0:
448,192,23497,1,0,0:0:0:0:
320,192,23531,1,0,0:0:0:0:
64,192,23566,1,0,0:0:0:0:
448,192,23566,1,0,0:0:0:0:
192,192,23600,1,0,0:0:0:0:
64,192,23634,1,0,0:0:0:0:
320,192,23634,1,0,0:0:0:0:
448,192,23634,1,0,0:0:0:0:
192,192,23668,1,0,0:0:0:0:
320,192,23703,1,0,0:0:0:0:
448,192,23703,1,0,0:0:0:0:
192,192,23737,1,0,0:0:0:0:
64,192,23737,1,0,0:0:0:0:
320,192,23771,128,0,23805:0:0:0:0:
448,192,23771,128,0,23805:0:0:0:0:
192,192,23805,1,0,0:0:0:0:
64,192,23840,1,0,0:0:0:0:
448,192,23840,1,0,0:0:0:0:
192,192,23874,128,0,23908:0:0:0:0:
320,192,23874,128,0,23908:0:0:0:0:
64,192,23908,1,0,0:0:0:0:
448,192,23908,1,0,0:0:0:0:
192,192,23942,1,0,0:0:0:0:
320,192,23977,128,0,24011:0:0:0:0:
448,192,23977,128,0,24011:0:0:0:0:
192,192,24011,1,0,0:0:0:0:
64,192,24011,1,0,0:0:0:0:
64,192,24045,1,0,0:0:0:0:
320,192,24045,1,0,0:0:0:0:
448,192,24045,1,0,0:0:0:0:
192,192,24079,1,0,0:0:0:0:
320,192,24114,1,0,0:0:0:0:
192,192,24148,1,0,0:0:0:0:
64,192,24148,1,0,0:0:0:0:
320,192,24182,1,0,0:0:0:0:
448,192,24182,1,0,0:0:0:0:
192,192,24216,1,0,0:0:0:0:
64,192,24251,1,0,0:0:0:0:
448,192,24251,1,0,0:0:0:0:
320,192,24285,1,0,0:0:0:0:
192,192,24319,1,0,0:0:0:0:
64,192,24319,1,0,0:0:0:0:
320,192,24353,1,0,0:0:0:0:
448,192,24353,1,0,0:0:0:0:
64,192,24388,1,0,0:0:0:0:
320,192,24422,1,0,0:0:0:0:
448,192,24422,1,0,0:0:0:0:
192,192,24456,1,0,0:0:0:0:
64,192,24456,1,0,0:0:0:0:
320,192,24490,1,0,0:0:0:0:
64,192,24525,1,0,0:0:0:0:
448,192,24525,1,0,0:0:0:0:
192,192,24559,1,0,0:0:0:0:
320,192,24593,1,0,0:0:0:0:
448,192,24593,1,0,0:0:0:0:
64,192,24627,1,0,0:0:0:0:
320,192,24662,1,0,0:0:0:0:
448,192,24662,1,0,0:0:0:0:
192,192,24696,1,0,0:0:0:0:
64,192,24696,1,0,0:0:0:0:
320,192,24730,1,0,0:0:0:0:
448,192,24730,1,0,0:0:0:0:
64,192,24764,1,0,0:0:0:0:
192,192,24798,1,0,0:0:0:0:
448,192,24798,1,0,0:0:0:0:
320,192,24833,1,0,0:0:0:0:
64,192,24833,1,0,0:0:0:0:
192,192,24867,1,0,0:0:0:0:
448,192,24867,1,0,0:0:0:0:
64,192,24901,1,0,0:0:0:0:
320,192,24935,1,0,0:0:0:0:
448,192,24935,1,0,0:0:0:0:
192,192,24970,1,0,0:0:0:0:
64,192,25004,1,0,0:0:0:0:
448,192,25004,1,0,0:0:0:0:
320,192,25038,1,0,0:0:0:0:
192,192,25072,1,0,0:0:0:0:
64,192,25072,1,0,0:0:0:0:
448,192,25107,1,0,0:0:0:0:
320,192,25141,1,0,0:0:0:0:
64,192,25141,1,0,0:0:0:0:
192,192,25175,1,0,0:0:0:0:
320,192,25209,1,0,0:0:0:0:
448,192,25209,1,0,0:0:0:0:
192,192,25244,1,0,0:0:0:0:
64,192,25278,1,0,0:0:0:0:
320,192,25278,1,0,0:0:0:0:
448,192,25278,1,0,0:0:0:0:
192,192,25312,1,0,0:0:0:0:
64,192,25346,1,0,0:0:0:0:
448,192,25346,1,0,0:0:0:0:
320,192,25381,1,0,0:0:0:0:
192,192,25415,1,0,0:0:0:0:
64,192,25415,1,0,0:0:0:0:
448,192,25449,1,0,0:0:0:0:
320,192,25483,1,0,0:0:0:0:
64,192,25483,1,0,0:0:0:0:
192,192,25518,1,0,0:0:0:0:
64,192,25552,1,0,0:0:0:0:
320,192,25552,1,0,0:0:0:0:
448,192,25552,1,0,0:0:0:0:
192,192,25586,1,0,0:0:0:0:
320,192,25620,1,0,0:0:0:0:
448,192,25620,1,0,0:0:0:0:
64,192,25655,1,0,0:0:0:0:
192,192,25655,1,0,0:0:0:0:
320,192,25689,1,0,0:0:0:0:
448,192,25689,1,0,0:0:0:0:
192,192,25723,1,0,0:0:0:0:
64,192,25757,1,0,0:0:0:0:
448,192,25757,1,0,0:0:0:0:
320,192,25792,1,0,0:0:0:0:
192,192,25826,1,0,0:0:0:0:
64,192,25826,1,0,0:0:0:0:
448,192,25860,1,0,0:0:0:0:
192,192,25894,1,0,0:0:0:0:
64,192,25894,1,0,0:0:0:0:
320,192,25929,1,0,0:0:0:0:
448,192,25929,1,0,0:0:0:0:
192,192,25963,1,0,0:0:0:0:
64,192,25963,1,0,0:0:0:0:
448,192,25997,1,0,0:0:0:0:
192,192,26031,1,0,0:0:0:0:
64,192,26031,1,0,0:0:0:0:
320,192,26066,1,0,0:0:0:0:
448,192,26066,1,0,0:0:0:0:
192,192,26100,1,0,0:0:0:0:
64,192,26100,1,0,0:0:0:0:
320,192,26134,1,0,0:0:0:0:
448,192,26168,1,0,0:0:0:0:
64,192,26168,1,0,0:0:0:0:
192,192,26203,1,0,0:0:0:0:
320,192,26203,1,0,0:0:0:0:
64,192,26237,1,0,0:0:0:0:
448,192,26237,1,0,0:0:0:0:
192,192,26271,1,0,0:0:0:0:
320,192,26305,1,0,0:0:0:0:
448,192,26305,1,0,0:0:0:0:
192,192,26340,1,0,0:0:0:0:
64,192,26374,1,0,0:0:0:0:
320,192,26374,1,0,0:0:0:0:
448,192,26374,1,0,0:0:0:0:
192,192,26408,1,0,0:0:0:0:
64,192,26442,1,0,0:0:0:0:
448,192,26442,1,0,0:0:0:0:
320,192,26477,1,0,0:0:0:0:
192,192,26511,1,0,0:0:0:0:
64,192,26511,1,0,0:0:0:0:
448,192,26545,1,0,0:0:0:0:
320,192,26579,1,0,0:0:0:0:
64,192,26579,1,0,0:0:0:0:
192,192,26614,1,0,0:0:0:0:
64,192,26648,1,0,0:0:0:0:
320,192,26648,1,0,0:0:0:0:
448,192,26648,1,0,0:0:0:0:
192,192,26682,1,0,0:0:0:0:
320,192,26716,1,0,0:0:0:0:
448,192,26716,1,0,0:0:0:0:
64,192,26751,1,0,0:0:0:0:
320,192,26785,1,0,0:0:0:0:
448,192,26785,1,0,0:0:0:0:
64,192,26819,1,0,0:0:0:0:
192,192,26853,1,0,0:0:0:0:
448,192,26853,1,0,0:0:0:0:
320,192,26888,1,0,0:0:0:0:
192,192,26922,1,0,0:0:0:0:
64,192,26922,1,0,0:0:0:0:
448,192,26922,1,0,0:0:0:0:
320,192,26956,1,0,0:0:0:0:
64,192,26990,1,0,0:0:0:0:
448,192,26990,1,0,0:0:0:0:
192,192,27025,1,0,0:0:0:0:
320,192,27025,1,0,0:0:0:0:
64,192,27059,1,0,0:0:0:0:
448,192,27059,1,0,0:0:0:0:
192,192,27093,1,0,0:0:0:0:
320,192,27127,1,0,0:0:0:0:
448,192,27127,1,0,0:0:0:0:
192,192,27162,1,0,0:0:0:0:
64,192,27196,1,0,0:0:0:0:
320,192,27196,1,0,0:0:0:0:
