osu file format v14

[General]
AudioFilename: audio.mp3
AudioLeadIn: 0
PreviewTime: 135886
Countdown: 0
SampleSet: Normal
StackLeniency: 0.7
Mode: 1
LetterboxInBreaks: 0
WidescreenStoryboard: 0

[Editor]
Bookmarks: 49126,68411,102697,128411,154126,188802,219458,250027,271744,288811,305877
DistanceSpacing: 2.2
BeatDivisor: 4
GridSize: 32
TimelineZoom: 2.4

[Metadata]
Title:Hoshi o Kakeru Adventure ~ we are forever friends! ~ [Long ver.]
TitleUnicode:☆をかけるアドベンチャー ~ we are forever friends! ~ [Long ver.]
Artist:AAAA
ArtistUnicode:ああああ
Creator:mizkifanboy
Version:Intersecting Light
Source:大血戦 -THE BMS OF FIGHTERS ULTIMATE-
Tags:星 bofu2015 groundbreaking marathon chiptune bitpop extended ktyn kitajimayn kalmlpv layxa instrumental electronic video game featured artist fa
BeatmapID:3869454
BeatmapSetID:1854035

[Difficulty]
HPDrainRate:4.7
CircleSize:5
OverallDifficulty:6.7
ApproachRate:5
SliderMultiplier:1.4
SliderTickRate:1

[Events]
//Background and Video events
0,0,"crossingover.jpg",0,63
//Break Periods
2,250002,258782
//Storyboard Layer 0 (Background)
//Storyboard Layer 1 (Fail)
//Storyboard Layer 2 (Pass)
//Storyboard Layer 3 (Foreground)
//Storyboard Layer 4 (Overlay)
//Storyboard Sound Samples

[TimingPoints]
501,320.855614973262,4,1,0,20,1,0
501,-133.333333333333,4,1,0,20,0,0
10768,-133.333333333333,4,1,0,30,0,0
19752,-133.333333333333,4,1,0,40,0,0
21035,-133.333333333333,4,1,0,60,0,0
30019,324.324324324324,4,1,0,60,1,0
30019,-133.333333333333,4,1,0,60,0,0
31235,-111.111111111111,4,1,0,70,0,0
31316,315.789473684211,4,1,0,70,1,0
31316,-110.891089108911,4,1,0,70,0,0
31473,-110.671936758893,4,1,0,70,0,0
31631,-110.453648915187,4,1,0,70,0,0
31789,-110.236220472441,4,1,0,70,0,0
31947,-110.019646365422,4,1,0,70,0,0
32105,-109.803921568627,4,1,0,70,0,0
32263,-109.58904109589,4,1,0,70,0,0
32421,-109.375,4,1,0,70,0,0
32579,312.5,4,1,0,70,1,0
32579,-110.310864881502,4,1,0,70,0,0
32735,-110.096252303912,4,1,0,70,0,0
32891,-109.882473173224,4,1,0,70,0,0
33047,-109.669522643819,4,1,0,70,0,0
33204,-109.457395907564,4,1,0,70,0,0
33360,-109.246088193457,4,1,0,70,0,0
33516,-109.035594767265,4,1,0,70,0,0
33672,-108.825910931174,4,1,0,70,0,0
33829,309.278350515464,4,1,0,70,1,0
33829,-109.748459440348,4,1,0,70,0,0
33983,-109.538213349466,4,1,0,70,0,0
34138,-109.328771258931,4,1,0,70,0,0
34293,-109.120128565689,4,1,0,70,0,0
34447,-108.912280701755,4,1,0,70,0,0
34602,-108.70522313388,4,1,0,70,0,0
34756,-108.498951363228,4,1,0,70,0,0
34911,-108.29346092504,4,1,0,70,0,0
35066,306.122448979592,4,1,0,70,1,0
35066,-109.203064371704,4,1,0,70,0,0
35219,-108.997020854022,4,1,0,70,0,0
35372,-108.791753394787,4,1,0,70,0,0
35525,-108.587257617729,4,1,0,70,0,0
35678,-108.383529179421,4,1,0,70,0,0
35831,-108.180563768973,4,1,0,70,0,0
35984,-107.978357107723,4,1,0,70,0,0
36137,-107.77690494894,4,1,0,70,0,0
36290,303.030303030303,4,1,0,70,1,0
36290,-108.67391943546,4,1,0,70,0,0
36442,-108.471923302681,4,1,0,70,0,0
36593,-108.270676691729,4,1,0,70,0,0
36745,-108.070175438597,4,1,0,70,0,0
36896,-107.87041541006,4,1,0,70,0,0
37048,-107.671392503399,4,1,0,70,0,0
37199,-107.473102646118,4,1,0,70,0,0
37351,-107.275541795666,4,1,0,70,0,0
37502,300,4,1,0,70,1,0
37502,-108.160309029455,4,1,0,70,0,0
37652,-107.962213225371,4,1,0,70,0,0
37802,-107.764841720389,4,1,0,70,0,0
37952,-107.568190549366,4,1,0,70,0,0
38102,-107.372255776052,4,1,0,70,0,0
38252,-107.177033492823,4,1,0,70,0,0
38402,-106.982519820422,4,1,0,70,0,0
38552,-106.788710907704,4,1,0,70,0,0
38702,-106.595602931379,4,1,0,70,0,0
38852,-106.403192095763,4,1,0,70,0,0
39002,-106.211474632527,4,1,0,70,0,0
39152,-106.020446800455,4,1,0,70,0,0
39302,-105.830104885193,4,1,0,70,0,0
39452,-105.640445199019,4,1,0,70,0,0
39602,-105.451464080595,4,1,0,70,0,0
39752,-105.263157894737,4,1,0,70,0,0
39902,-105.263157894737,4,1,0,50,0,0
41252,-50,4,1,0,70,0,0
41270,-50.141021623316,4,1,0,70,0,0
41289,-50.29074336005,4,1,0,69,0,0
41308,-50.441361916772,4,1,0,69,0,0
41327,-50.592885375494,4,1,0,69,0,0
41345,-50.737276042492,4,1,0,69,0,0
41364,-50.89058524173,4,1,0,68,0,0
41383,-51.044823735843,4,1,0,68,0,0
41402,-51.2,4,1,0,68,0,0
41420,-51.347881899872,4,1,0,68,0,0
41439,-51.504909061645,4,1,0,67,0,0
41458,-51.662899580239,4,1,0,67,0,0
41477,-51.821862348178,4,1,0,67,0,0
41495,-51.973363651129,4,1,0,67,0,0
41514,-52.134245682633,4,1,0,66,0,0
41533,-52.296126818108,4,1,0,66,0,0
41552,-52.459016393443,4,1,0,66,0,0
41570,-52.614271621177,4,1,0,66,0,0
41589,-52.779152234867,4,1,0,65,0,0
41608,-52.945069490404,4,1,0,65,0,0
41627,-53.112033195021,4,1,0,65,0,0
41645,-53.271183619111,4,1,0,65,0,0
41664,-53.440213760855,4,1,0,64,0,0
41683,-53.610319986597,4,1,0,64,0,0
41702,-53.781512605042,4,1,0,64,0,0
41720,-53.944706675657,4,1,0,64,0,0
41739,-54.118044985625,4,1,0,63,0,0
41758,-54.29250084832,4,1,0,63,0,0
41777,-54.468085106383,4,1,0,63,0,0
41795,-54.63547891412,4,1,0,63,0,0
41814,-54.813292223364,4,1,0,62,0,0
41833,-54.992266712494,4,1,0,62,0,0
41852,-55.172413793103,4,1,0,62,0,0
41870,-55.344171566932,4,1,0,62,0,0
41889,-55.526635432934,4,1,0,61,0,0
41908,-55.710306406685,4,1,0,61,0,0
41927,-55.89519650655,4,1,0,61,0,0
41945,-56.071491151218,4,1,0,61,0,0
41964,-56.258790436006,4,1,0,60,0,0
41983,-56.447345210796,4,1,0,60,0,0
42002,-56.637168141593,4,1,0,60,0,0
42020,-56.818181818182,4,1,0,60,0,0
42039,-57.010511313023,4,1,0,59,0,0
42058,-57.204147300679,4,1,0,59,0,0
42077,-57.399103139013,4,1,0,59,0,0
42095,-57.585027892748,4,1,0,59,0,0
42114,-57.782592993861,4,1,0,58,0,0
42133,-57.981518391013,4,1,0,58,0,0
42152,-58.181818181818,4,1,0,58,0,0
42170,-58.372856621671,4,1,0,58,0,0
42189,-58.575874061871,4,1,0,57,0,0
42208,-58.78030859662,4,1,0,57,0,0
42227,-58.986175115207,4,1,0,57,0,0
42245,-59.182541150361,4,1,0,57,0,0
42264,-59.391239792131,4,1,0,56,0,0
42283,-59.601415533619,4,1,0,56,0,0
42302,-59.81308411215,4,1,0,56,0,0
42320,-60.015003750938,4,1,0,56,0,0
42339,-60.229625447017,4,1,0,55,0,0
42358,-60.445787684171,4,1,0,55,0,0
42377,-60.663507109005,4,1,0,55,0,0
42395,-60.871219326612,4,1,0,55,0,0
42414,-61.092019854906,4,1,0,54,0,0
42433,-61.314428051351,4,1,0,54,0,0
42452,-61.538461538462,4,1,0,54,0,0
42470,-61.752219220378,4,1,0,54,0,0
42489,-61.979469300794,4,1,0,53,0,0
42508,-62.208398133748,4,1,0,53,0,0
42527,-62.439024390244,4,1,0,53,0,0
42545,-62.659095359311,4,1,0,52,0,0
42564,-62.893081761006,4,1,0,52,0,0
42583,-63.12882225291,4,1,0,52,0,0
42602,-63.366336633663,4,1,0,52,0,0
42620,-63.593004769475,4,1,0,51,0,0
42639,-63.834031518053,4,1,0,51,0,0
42658,-64.076892270725,4,1,0,51,0,0
42677,-64.321608040201,4,1,0,51,0,0
42695,-64.555174500706,4,1,0,50,0,0
42714,-64.803564196031,4,1,0,50,0,0
42733,-65.053872738361,4,1,0,50,0,0
42752,-65.30612244898,4,1,0,50,0,0
42770,-65.546907005326,4,1,0,49,0,0
42789,-65.803002261978,4,1,0,49,0,0
42808,-66.061106523534,4,1,0,49,0,0
42827,-66.321243523316,4,1,0,49,0,0
42845,-66.569586020387,4,1,0,48,0,0
42864,-66.833751044277,4,1,0,48,0,0
42883,-67.100020968757,4,1,0,48,0,0
42902,-67.368421052632,4,1,0,48,0,0
42920,-67.624683009298,4,1,0,47,0,0
42939,-67.897305325695,4,1,0,47,0,0
42958,-68.172134639966,4,1,0,47,0,0
42977,-68.449197860963,4,1,0,47,0,0
42995,-68.713764225896,4,1,0,46,0,0
43014,-68.99525657611,4,1,0,46,0,0
43033,-69.279064732626,4,1,0,46,0,0
43052,-69.565217391304,4,1,0,46,0,0
43070,-69.838498472283,4,1,0,45,0,0
43089,-70.129300898532,4,1,0,45,0,0
43108,-70.422535211268,4,1,0,45,0,0
43127,-70.718232044199,4,1,0,45,0,0
43145,-71.00066563124,4,1,0,44,0,0
43164,-71.301247771836,4,1,0,44,0,0
43183,-71.604385768628,4,1,0,44,0,0
43202,-71.910112359551,4,1,0,44,0,0
43220,-72.202166064982,4,1,0,43,0,0
43239,-72.513029685022,4,1,0,43,0,0
43258,-72.826581702321,4,1,0,43,0,0
43277,-73.142857142857,4,1,0,43,0,0
43295,-73.445030984622,4,1,0,42,0,0
43314,-73.766712770862,4,1,0,42,0,0
43333,-74.09122482056,4,1,0,42,0,0
43352,-74.418604651163,4,1,0,42,0,0
43370,-74.731433909388,4,1,0,41,0,0
43389,-75.064508562046,4,1,0,41,0,0
43408,-75.400565504241,4,1,0,41,0,0
43427,-75.739644970414,4,1,0,41,0,0
43445,-76.063703351557,4,1,0,40,0,0
43464,-76.408787010506,4,1,0,40,0,0
43483,-76.757016071,4,1,0,40,0,0
43502,-77.10843373494,4,1,0,40,0,0
43520,-77.444336882865,4,1,0,39,0,0
43539,-77.802090931194,4,1,0,39,0,0
43558,-78.163165608207,4,1,0,39,0,0
43577,-78.527607361963,4,1,0,39,0,0
43595,-78.876016761154,4,1,0,38,0,0
43614,-79.247152055473,4,1,0,38,0,0
43633,-79.621796466783,4,1,0,38,0,0
43652,-80,4,1,0,38,0,0
43670,-80.361627322953,4,1,0,37,0,0
43689,-80.746908907393,4,1,0,37,0,0
43708,-81.135902636917,4,1,0,37,0,0
43727,-81.528662420382,4,1,0,36,0,0
43745,-81.904274379319,4,1,0,36,0,0
43764,-82.304526748971,4,1,0,36,0,0
43783,-82.708710261049,4,1,0,36,0,0
43802,-83.116883116883,4,1,0,35,0,0
43820,-83.507306889353,4,1,0,35,0,0
43839,-83.92341987936,4,1,0,35,0,0
43858,-84.343700579863,4,1,0,35,0,0
43877,-84.76821192053,4,1,0,34,0,0
43895,-85.174341229705,4,1,0,34,0,0
43914,-85.607276618513,4,1,0,34,0,0
43933,-86.044635654746,4,1,0,34,0,0
43952,-86.486486486486,4,1,0,33,0,0
43970,-86.909288430201,4,1,0,33,0,0
43989,-87.360087360087,4,1,0,33,0,0
44008,-87.81558726674,4,1,0,33,0,0
44027,-88.275862068966,4,1,0,32,0,0
44045,-88.716384807319,4,1,0,32,0,0
44064,-89.186176142698,4,1,0,32,0,0
44083,-89.660969459232,4,1,0,32,0,0
44102,-90.140845070423,4,1,0,31,0,0
44120,-90.600226500566,4,1,0,31,0,0
44139,-91.0902362653,4,1,0,31,0,0
44158,-91.585575271895,4,1,0,31,0,0
44177,-92.086330935252,4,1,0,30,0,0
44195,-92.565808504484,4,1,0,30,0,0
44214,-93.077370564282,4,1,0,30,0,0
44233,-93.594618309447,4,1,0,30,0,0
44252,-94.117647058824,4,1,0,29,0,0
44270,-94.618568894145,4,1,0,29,0,0
44289,-95.153137079988,4,1,0,29,0,0
44308,-95.693779904306,4,1,0,29,0,0
44327,-96.240601503759,4,1,0,28,0,0
44345,-96.764439068642,4,1,0,28,0,0
44364,-97.323600973236,4,1,0,28,0,0
44383,-97.88926277149,4,1,0,28,0,0
44402,-98.461538461538,4,1,0,27,0,0
44420,-99.009900990099,4,1,0,27,0,0
44439,-99.595393713041,4,1,0,27,0,0
44458,-100.187852222918,4,1,0,27,0,0
44477,-100.787401574803,4,1,0,26,0,0
44495,-101.362052581565,4,1,0,26,0,0
44514,-101.975780752071,4,1,0,26,0,0
44533,-102.59698621353,4,1,0,26,0,0
44552,-103.225806451613,4,1,0,25,0,0
44570,-103.828682673589,4,1,0,25,0,0
44589,-104.472739144629,4,1,0,25,0,0
44608,-105.124835742444,4,1,0,25,0,0
44627,-105.785123966942,4,1,0,24,0,0
44645,-106.418357166611,4,1,0,24,0,0
44664,-107.095046854083,4,1,0,24,0,0
44683,-107.780397440216,4,1,0,24,0,0
44702,-108.474576271186,4,1,0,23,0,0
44720,-109.140518417462,4,1,0,23,0,0
44739,-109.852385856505,4,1,0,23,0,0
44758,-110.573600552868,4,1,0,23,0,0
44777,-111.304347826087,4,1,0,22,0,0
44795,-112.005600280014,4,1,0,22,0,0
44814,-112.755461592671,4,1,0,22,0,0
44833,-113.515431003902,4,1,0,22,0,0
44852,-114.285714285714,4,1,0,21,0,0
44870,-115.025161754134,4,1,0,21,0,0
44889,-115.816141874774,4,1,0,21,0,0
44908,-116.618075801749,4,1,0,20,0,0
44927,-117.43119266055,4,1,0,20,0,0
44945,-118.212042851866,4,1,0,20,0,0
44964,-119.047619047619,4,1,0,20,0,0
44983,-119.89509179468,4,1,0,19,0,0
45002,-120.754716981132,4,1,0,19,0,0
45020,-121.580547112462,4,1,0,19,0,0
45039,-122.46460007654,4,1,0,19,0,0
45058,-123.361603700848,4,1,0,18,0,0
45077,-124.271844660194,4,1,0,18,0,0
45095,-125.146656237779,4,1,0,18,0,0
45114,-126.083530338849,4,1,0,18,0,0
45133,-127.034537514887,4,1,0,17,0,0
45152,-128,4,1,0,17,0,0
45170,-128.928283642224,4,1,0,17,0,0
45189,-129.922858302883,4,1,0,17,0,0
45208,-130.932896890344,4,1,0,16,0,0
45227,-131.958762886598,4,1,0,16,0,0
45245,-132.945575405069,4,1,0,16,0,0
45264,-134.003350083752,4,1,0,16,0,0
45283,-135.07809202195,4,1,0,15,0,0
45302,-136.170212765957,4,1,0,15,0,0
45320,-137.221269296741,4,1,0,15,0,0
45339,-138.348465196714,4,1,0,15,0,0
45358,-139.49433304272,4,1,0,14,0,0
45377,-140.659340659341,4,1,0,14,0,0
45395,-141.781125387683,4,1,0,14,0,0
45414,-142.984807864164,4,1,0,14,0,0
45433,-144.209103199639,4,1,0,13,0,0
45452,-145.454545454545,4,1,0,13,0,0
45470,-146.654445462878,4,1,0,13,0,0
45489,-147.942672214517,4,1,0,13,0,0
45508,-149.253731343284,4,1,0,12,0,0
45527,-150.588235294118,4,1,0,12,0,0
45545,-151.87470336972,4,1,0,12,0,0
45564,-153.256704980843,4,1,0,12,0,0
45583,-154.664088931851,4,1,0,11,0,0
45602,-156.09756097561,4,1,0,11,0,0
45620,-157.48031496063,4,1,0,11,0,0
45639,-158.966716343766,4,1,0,11,0,0
45658,-160.481444332999,4,1,0,10,0,0
45677,-162.025316455696,4,1,0,10,0,0
45695,-163.515585079203,4,1,0,10,0,0
45714,-165.118679050568,4,1,0,10,0,0
45733,-166.753517457009,4,1,0,9,0,0
45752,-168.421052631579,4,1,0,9,0,0
45770,-170.031880977683,4,1,0,9,0,0
45789,-171.765968867418,4,1,0,9,0,0
45808,-173.53579175705,4,1,0,8,0,0
45827,-175.342465753425,4,1,0,8,0,0
45845,-177.089097952407,4,1,0,8,0,0
45864,-178.970917225951,4,1,0,8,0,0
45883,-180.893159977388,4,1,0,7,0,0
45902,-182.857142857143,4,1,0,7,0,0
45920,-184.757505773672,4,1,0,7,0,0
45939,-186.806771745476,4,1,0,7,0,0
45958,-188.902007083825,4,1,0,6,0,0
45977,-191.044776119403,4,1,0,6,0,0
45995,-193.120096560048,4,1,0,6,0,0
46014,-195.360195360195,4,1,0,6,0,0
46033,-197.652872143298,4,1,0,5,0,0
46052,-200,4,1,0,5,0,0
48685,-111.111111111111,4,1,0,75,0,0
48752,267.857142857143,4,1,0,75,1,0
48752,-111.111111111111,4,1,0,75,0,0
52970,-100,4,1,0,80,0,0
53037,-100,4,1,0,80,0,0
57323,-100,4,1,0,80,0,0
57340,-99.915452330034,4,1,0,80,0,0
57356,-99.836008547433,4,1,0,80,0,0
57373,-99.751737835154,4,1,0,80,0,0
57390,-99.667609267252,4,1,0,80,0,0
57407,-99.583622484386,4,1,0,80,0,0
57423,-99.504705299653,4,1,0,80,0,0
57440,-99.420992725293,4,1,0,81,0,0
57457,-99.337420886076,4,1,0,81,0,0
57474,-99.2539894274,4,1,0,81,0,0
57490,-99.175593621958,4,1,0,81,0,0
57507,-99.092433658873,4,1,0,81,0,0
57524,-99.009413040264,4,1,0,81,0,0
57541,-98.926531416191,4,1,0,81,0,0
57557,-98.848651840189,4,1,0,81,0,0
57574,-98.766039034462,4,1,0,81,0,0
57591,-98.683564200806,4,1,0,81,0,0
57608,-98.601226993865,4,1,0,81,0,0
57624,-98.523858565053,4,1,0,81,0,0
57641,-98.4417875343,4,1,0,82,0,0
57658,-98.359853121175,4,1,0,82,0,0
57674,-98.282862873636,4,1,0,82,0,0
57691,-98.201192687457,4,1,0,82,0,0
57708,-98.119658119658,4,1,0,82,0,0
57725,-98.038258832715,4,1,0,82,0,0
57741,-97.961771016189,4,1,0,82,0,0
57758,-97.880633373934,4,1,0,82,0,0
57775,-97.799630026288,4,1,0,82,0,0
57792,-97.718760640109,4,1,0,82,0,0
57808,-97.642770352369,4,1,0,82,0,0
57825,-97.56216006216,4,1,0,82,0,0
57842,-97.481682759959,4,1,0,83,0,0
57859,-97.40133811694,4,1,0,83,0,0
57875,-97.32584051933,4,1,0,83,0,0
57892,-97.245752456556,4,1,0,83,0,0
57909,-97.165796092087,4,1,0,83,0,0
57926,-97.085971101339,4,1,0,83,0,0
57942,-97.010961417741,4,1,0,83,0,0
57959,-96.93139052398,4,1,0,83,0,0
57976,-96.85195005544,4,1,0,83,0,0
57993,-96.772639691715,4,1,0,83,0,0
58009,-96.698113207547,4,1,0,83,0,0
58026,-96.619054489492,4,1,0,83,0,0
58043,-96.540124939933,4,1,0,84,0,0
58060,-96.46132424257,4,1,0,84,0,0
58076,-96.387276303795,4,1,0,84,0,0
58093,-96.308724832215,4,1,0,84,0,0
58110,-96.230301288499,4,1,0,84,0,0
58127,-96.152005360391,4,1,0,84,0,0
58143,-96.078431372549,4,1,0,84,0,0
58160,-96.000382281263,4,1,0,84,0,0
58177,-95.922459893048,4,1,0,84,0,0
58193,-95.849236641221,4,1,0,84,0,0
58210,-95.771559326882,4,1,0,84,0,0
58227,-95.694007811756,4,1,0,84,0,0
58244,-95.616581790491,4,1,0,85,0,0
58260,-95.543824606458,4,1,0,85,0,0
58277,-95.466641322942,4,1,0,85,0,0
58294,-95.3895826409,4,1,0,85,0,0
58311,-95.312648258848,4,1,0,85,0,0
58327,-95.240352706931,4,1,0,85,0,0
58344,-95.163658756099,4,1,0,85,0,0
58361,-95.087088224158,4,1,0,85,0,0
58378,-95.010640813431,4,1,0,85,0,0
58394,-94.938802514059,4,1,0,85,0,0
58411,-94.862593257154,4,1,0,85,0,0
58428,-94.786506251474,4,1,0,86,0,0
58445,-94.710541203093,4,1,0,86,0,0
58461,-94.63915583192,4,1,0,86,0,0
58478,-94.563426688633,4,1,0,86,0,0
58495,-94.48781864359,4,1,0,86,0,0
58512,-94.412331406551,4,1,0,86,0,0
58528,-94.34139469359,4,1,0,86,0,0
58545,-94.266141141141,4,1,0,86,0,0
58562,-94.191007548408,4,1,0,86,0,0
58579,-94.115993628783,4,1,0,86,0,0
58595,-94.045501357551,4,1,0,86,0,0
58612,-93.970718929791,4,1,0,86,0,0
58629,-93.896055337446,4,1,0,87,0,0
58645,-93.825892023165,4,1,0,87,0,0
58662,-93.751458304167,4,1,0,87,0,0
58679,-93.677142590693,4,1,0,87,0,0
58696,-93.602944602339,4,1,0,87,0,0
58712,-93.533218492481,4,1,0,87,0,0
58729,-93.459248232229,4,1,0,87,0,0
58746,-93.385394877516,4,1,0,87,0,0
58763,-93.311658151417,4,1,0,87,0,0
58779,-93.24236517219,4,1,0,87,0,0
58796,-93.168854055558,4,1,0,87,0,0
58813,-93.095458758109,4,1,0,87,0,0
58830,-93.022179006343,4,1,0,88,0,0
58846,-92.95331513441,4,1,0,88,0,0
58863,-92.880258899676,4,1,0,88,0,0
58880,-92.807317411189,4,1,0,88,0,0
58897,-92.734490398818,4,1,0,88,0,0
58913,-92.666051660517,4,1,0,88,0,0
58930,-92.593446098539,4,1,0,88,0,0
58947,-92.520954223082,4,1,0,88,0,0
58964,-92.448575767337,4,1,0,88,0,0
58980,-92.380558237918,4,1,0,88,0,0
58997,-92.308399191325,4,1,0,88,0,0
59014,-92.236352784537,4,1,0,88,0,0
59031,-92.164418754014,4,1,0,89,0,0
59047,-92.09681855689,4,1,0,89,0,0
59064,-92.025101919289,4,1,0,89,0,0
59081,-91.953496887587,4,1,0,89,0,0
59097,-91.886205634834,4,1,0,89,0,0
59114,-91.814816507472,4,1,0,89,0,0
59131,-91.743538222669,4,1,0,89,0,0
59148,-91.672370522473,4,1,0,89,0,0
59164,-91.605489945739,4,1,0,89,0,0
59181,-91.534536176417,4,1,0,89,0,0
59198,-91.463692237651,4,1,0,89,0,0
59215,-91.392957874625,4,1,0,89,0,0
59231,-91.326484225839,4,1,0,89,0,0
59248,-91.255961844197,4,1,0,90,0,0
59265,-91.185548293391,4,1,0,90,0,0
59282,-91.115243321693,4,1,0,90,0,0
59298,-91.049172898255,4,1,0,90,0,0
59315,-90.979077982067,4,1,0,90,0,0
59332,-90.909090909091,4,1,0,90,0,0
59399,-76.923076923077,4,1,0,100,0,0
59466,-76.923076923077,4,1,0,100,0,0
59533,-100,4,1,0,80,0,0
59868,-111.111111111111,4,1,0,80,0,0
60002,-110.686805357652,4,1,0,80,0,0
60269,-109.850948892723,4,1,0,80,0,0
60537,-109.024561403509,4,1,0,80,0,0
60671,-108.616012752034,4,1,0,80,0,0
60805,-108.210514585017,4,1,0,80,0,0
61073,-107.408534056027,4,1,0,80,0,0
61341,-106.618353509567,4,1,0,80,0,0
61609,-105.839714418072,4,1,0,80,0,0
62010,-104.695670925656,4,1,0,80,0,0
62144,-104.31886549205,4,1,0,80,0,0
62412,-103.573333333333,4,1,0,80,0,0
62680,-102.838381698793,4,1,0,80,0,0
62814,-102.474803440452,4,1,0,80,0,0
62948,-102.11378693869,4,1,0,80,0,0
63082,-101.755305213518,4,1,0,80,0,0
63216,-101.39933166249,4,1,0,80,0,0
63484,-100.694804521414,4,1,0,80,0,0
63618,-100.346199555624,4,1,0,80,0,0
63685,-100.172800660253,4,1,0,80,0,0
63752,-90.909090909091,4,1,0,80,0,0
64019,-89.556397681676,4,1,0,80,0,0
64153,-88.892576612457,4,1,0,80,0,0
64287,-88.238524050077,4,1,0,80,0,0
64555,-86.958874458874,4,1,0,80,0,0
64823,-85.715809686367,4,1,0,80,0,0
64957,-85.107509797691,4,1,0,80,0,0
65091,-84.507782919647,4,1,0,80,0,0
65158,-84.211077922758,4,1,0,80,0,0
65292,-83.623874694281,4,1,0,80,0,0
65359,-83.333333333333,4,1,0,80,0,0
65426,-83.044803886104,4,1,0,80,0,0
65493,-82.758265526831,4,1,0,80,0,0
65560,-82.473697716192,4,1,0,80,0,0
65627,-82.191080196399,4,1,0,80,0,0
65760,-81.635763271527,4,1,0,80,0,0
65827,-81.358849736736,4,1,0,80,0,0
65894,-81.083808466623,4,1,0,80,0,0
65928,-81.083808466623,4,1,0,80,0,0
65961,-80.810620537061,4,1,0,81,0,0
65995,-80.810620537061,4,1,0,81,0,0
66028,-80.539267278104,4,1,0,81,0,0
66062,-80.539267278104,4,1,0,82,0,0
66095,-80.26973026973,4,1,0,82,0,0
66129,-80.26973026973,4,1,0,82,0,0
66162,-80.001991337681,4,1,0,83,0,0
66196,-80.001991337681,4,1,0,83,0,0
66229,-80.001991337681,4,1,0,83,0,0
66263,-80.001991337681,4,1,0,83,0,0
66296,-79.471836209881,4,1,0,84,0,0
66330,-79.471836209881,4,1,0,84,0,0
66363,-79.209384858044,4,1,0,84,0,0
66397,-79.209384858044,4,1,0,85,0,0
66430,-78.948661262589,4,1,0,85,0,0
66464,-78.948661262589,4,1,0,85,0,0
66497,-78.689648418372,4,1,0,86,0,0
66531,-78.689648418372,4,1,0,86,0,0
66564,-78.432329542681,4,1,0,86,0,0
66598,-78.432329542681,4,1,0,87,0,0
66631,-78.176688071609,4,1,0,87,0,0
66665,-78.176688071609,4,1,0,87,0,0
66698,-77.9227076565,4,1,0,88,0,0
66732,-77.9227076565,4,1,0,88,0,0
66765,-77.670372160464,4,1,0,88,0,0
66799,-77.670372160464,4,1,0,88,0,0
66832,-77.41966565496,4,1,0,89,0,0
66866,-77.41966565496,4,1,0,89,0,0
66899,-77.170572416443,4,1,0,89,0,0
66933,-77.170572416443,4,1,0,90,0,0
66966,-76.923076923077,4,1,0,60,0,0
67100,-86.95652173913,4,1,0,60,0,0
67368,-90.909090909091,4,1,0,60,0,0
67635,-95.238095238095,4,1,0,60,0,0
67903,-100,4,1,0,60,0,0
68104,-125,4,1,0,50,0,0
76542,-125,4,1,0,60,0,0
76609,-125,4,1,0,60,0,0
76877,-124.49763061604,4,1,0,60,0,0
77144,-124.001135158549,4,1,0,60,0,0
77278,-123.753447119326,4,1,0,60,0,0
77546,-123.261027719626,4,1,0,60,0,0
77680,-123.016284617778,4,1,0,60,0,0
77814,-122.772511497907,4,1,0,60,0,0
77948,-122.529702604974,4,1,0,60,0,0
78216,-122.046954706496,4,1,0,60,0,0
78484,-121.567995782753,4,1,0,60,0,0
78618,-121.329923273657,4,1,0,60,0,0
78752,-121.092781399962,4,1,0,60,0,0
79019,-120.623020370209,4,1,0,60,0,0
79287,-120.155150953773,4,1,0,60,0,0
79421,-119.922574680765,4,1,0,60,0,0
79689,-119.460112812248,4,1,0,60,0,0
79756,-119.3450541236,4,1,0,60,0,0
79823,-119.230216860549,4,1,0,60,0,0
79957,-119.0012040594,4,1,0,60,0,0
80091,-118.773069329595,4,1,0,60,0,0
80359,-118.319413961178,4,1,0,60,0,0
80493,-118.093883357041,4,1,0,60,0,0
80627,-117.869210892467,4,1,0,60,0,0
80760,-117.869210892467,4,1,0,60,0,0
80827,-111.111111111111,4,1,0,80,0,0
80894,-111.111111111111,4,1,0,80,0,0
84109,-111.111111111111,4,1,0,80,0,0
84243,-109.587639414714,4,1,0,80,0,0
84310,-108.841463414634,4,1,0,80,0,0
84377,-108.105380034319,4,1,0,80,0,0
84443,-107.389952872756,4,1,0,80,0,0
84510,-106.673306772908,4,1,0,80,0,0
84577,-105.966162065895,4,1,0,80,0,0
84644,-105.268331039906,4,1,0,80,0,0
84711,-104.57963089542,4,1,0,80,0,0
84778,-103.899883585565,4,1,0,80,0,0
84845,-103.228915662651,4,1,0,80,0,0
84912,-102.566558130626,4,1,0,80,0,0
85046,-101.267019667171,4,1,0,80,0,0
85180,-100,4,1,0,80,0,0
93685,-100,4,1,0,85,0,0
93752,-100,4,1,0,85,0,0
101252,-100,4,1,0,85,0,0
101268,-99.659646883642,4,1,0,85,0,0
101285,-99.300551080966,4,1,0,85,0,0
101302,-98.944033790919,4,1,0,85,0,0
101318,-98.610818774995,4,1,0,85,0,0
101335,-98.259228187919,4,1,0,85,0,0
101352,-97.91013584117,4,1,0,86,0,0
101369,-97.563515201999,4,1,0,86,0,0
101385,-97.239518472395,4,1,0,86,0,0
101402,-96.897621509824,4,1,0,86,0,0
101419,-96.558120362737,4,1,0,86,0,0
101436,-96.220989936332,4,1,0,86,0,0
101452,-95.905834186285,4,1,0,86,0,0
101469,-95.573235414117,4,1,0,86,0,0
101486,-95.242935556007,4,1,0,86,0,0
101503,-94.914910858995,4,1,0,86,0,0
101519,-94.608239095315,4,1,0,86,0,0
101536,-94.284564298652,4,1,0,87,0,0
101553,-93.963096670678,4,1,0,87,0,0
101570,-93.643813711773,4,1,0,87,0,0
101586,-93.345287905957,4,1,0,87,0,0
101603,-93.03018268467,4,1,0,87,0,0
101620,-92.717197704334,4,1,0,87,0,0
101637,-92.406311637081,4,1,0,87,0,0
101653,-92.115611482501,4,1,0,87,0,0
101670,-91.808739956888,4,1,0,87,0,0
101687,-91.50390625,4,1,0,87,0,0
101704,-91.201090130426,4,1,0,87,0,0
101720,-90.917911895983,4,1,0,87,0,0
101737,-90.618955512573,4,1,0,88,0,0
101754,-90.321958743011,4,1,0,88,0,0
101770,-90.044205266193,4,1,0,88,0,0
101787,-89.750957854406,4,1,0,88,0,0
101804,-89.459614282986,4,1,0,88,0,0
101821,-89.170156071565,4,1,0,88,0,0
101837,-88.899430740038,4,1,0,88,0,0
101854,-88.613580480424,4,1,0,88,0,0
101871,-88.329562594268,4,1,0,88,0,0
101888,-88.047359518887,4,1,0,88,0,0
101904,-87.783398913247,4,1,0,88,0,0
101921,-87.504669406052,4,1,0,89,0,0
101938,-87.227704338112,4,1,0,89,0,0
101955,-86.952487008166,4,1,0,89,0,0
101971,-86.695040710585,4,1,0,89,0,0
101988,-86.423169156982,4,1,0,89,0,0
102005,-86.152997425524,4,1,0,89,0,0
102022,-85.884509624198,4,1,0,89,0,0
102038,-85.633339426065,4,1,0,89,0,0
102055,-85.368075801749,4,1,0,89,0,0
102072,-85.104450499546,4,1,0,89,0,0
102089,-84.842448388265,4,1,0,89,0,0
102105,-84.597327555074,4,1,0,90,0,0
102122,-84.338433843384,4,1,0,90,0,0
102139,-84.08111988514,4,1,0,90,0,0
102156,-83.825371264985,4,1,0,90,0,0
102172,-83.586083853702,4,1,0,90,0,0
102189,-83.333333333333,4,1,0,90,0,0
102256,-76.923076923077,4,1,0,100,0,0
102323,-76.923076923077,4,1,0,100,0,0
102390,-76.923076923077,4,1,0,85,0,0
102725,-94.119197154025,4,1,0,85,0,0
102859,-95.240211546154,4,1,0,85,0,0
103260,-98.760311535094,4,1,0,85,0,0
103327,-99.373985624855,4,1,0,85,0,0
103394,-99.995333862162,4,1,0,85,0,0
103595,-101.906890484569,4,1,0,85,0,0
103796,-103.892955834586,4,1,0,85,0,0
103930,-105.260572719682,4,1,0,85,0,0
104198,-108.106744690511,4,1,0,85,0,0
104466,-111.111111111111,4,1,0,85,0,0
104868,-106.664675725449,4,1,0,85,0,0
105002,-105.260572719682,4,1,0,85,0,0
105403,-101.271206464723,4,1,0,85,0,0
105470,-100.633951631838,4,1,0,85,0,0
105537,-100.004666573335,4,1,0,85,0,0
105738,-98.163162475379,4,1,0,85,0,0
105939,-96.388251697926,4,1,0,85,0,0
106073,-95.240211546154,4,1,0,85,0,0
106341,-93.024265312324,4,1,0,85,0,0
106609,-90.909090909091,4,1,0,85,0,0
107010,-94.110930569584,4,1,0,85,0,0
107144,-95.231746878194,4,1,0,85,0,0
107546,-98.760311535094,4,1,0,85,0,0
107613,-99.373985624855,4,1,0,85,0,0
107680,-99.995333862162,4,1,0,85,0,0
107881,-101.906890484569,4,1,0,85,0,0
108082,-103.892955834586,4,1,0,85,0,0
108216,-105.260572719682,4,1,0,85,0,0
108484,-108.106744690511,4,1,0,85,0,0
108751,-111.111111111111,4,1,0,85,0,0
109153,-106.673306772908,4,1,0,85,0,0
109287,-105.268331039906,4,1,0,85,0,0
109689,-101.267019667171,4,1,0,85,0,0
109756,-100.629521751386,4,1,0,85,0,0
109823,-100,4,1,0,85,0,0
110024,-98.157822381083,4,1,0,85,0,0
110225,-96.382289416847,4,1,0,85,0,0
110359,-95.23386092833,4,1,0,85,0,0
110627,-93.017196456488,4,1,0,85,0,0
110894,-90.909090909091,4,1,0,85,0,0
111296,-94.119197154025,4,1,0,85,0,0
111430,-95.240211546154,4,1,0,85,0,0
111832,-98.769415126515,4,1,0,85,0,0
111899,-99.383202708343,4,1,0,85,0,0
111966,-100.004666573335,4,1,0,85,0,0
112167,-101.916583440339,4,1,0,85,0,0
112368,-103.90303030303,4,1,0,85,0,0
112502,-105.270914181854,4,1,0,85,0,0
112769,-108.106744690511,4,1,0,85,0,0
113037,-111.111111111111,4,1,0,85,0,0
113439,-106.664675725449,4,1,0,85,0,0
113573,-105.260572719682,4,1,0,85,0,0
113975,-101.261635873931,4,1,0,85,0,0
114042,-100.624501103442,4,1,0,85,0,0
114109,-99.995333862162,4,1,0,85,0,0
114310,-98.154170292676,4,1,0,85,0,0
114510,-96.388251697926,4,1,0,85,0,0
114644,-95.240211546154,4,1,0,85,0,0
114778,-94.119197154025,4,1,0,85,0,0
114912,-93.024265312324,4,1,0,85,0,0
115046,-91.954516198241,4,1,0,85,0,0
115180,-90.909090909091,4,1,0,85,0,0
115582,-94.119197154025,4,1,0,85,0,0
115716,-95.240211546154,4,1,0,85,0,0
116118,-98.769415126515,4,1,0,85,0,0
116185,-99.383202708343,4,1,0,85,0,0
116252,-100.004666573335,4,1,0,85,0,0
116452,-101.906890484569,4,1,0,85,0,0
116653,-103.892955834586,4,1,0,85,0,0
116787,-105.260572719682,4,1,0,85,0,0
116921,-106.664675725449,4,1,0,85,0,0
117055,-108.106744690511,4,1,0,85,0,0
117323,-111.111111111111,4,1,0,85,0,0
117725,-106.664675725449,4,1,0,85,0,0
117859,-105.260572719682,4,1,0,85,0,0
118394,-100.004666573335,4,1,0,85,0,0
118528,-98.769415126515,4,1,0,85,0,0
118662,-97.56430685181,4,1,0,85,0,0
118796,-96.388251697926,4,1,0,85,0,0
118930,-95.240211546154,4,1,0,85,0,0
119064,-94.119197154025,4,1,0,85,0,0
119198,-93.024265312324,4,1,0,85,0,0
119332,-91.954516198241,4,1,0,85,0,0
119466,-83.333333333333,4,1,0,85,0,0
119533,-125,4,1,0,70,0,0
125894,-125,4,1,0,70,0,0
126028,-121.949738982639,4,1,0,70,0,0
126162,-119.044797345342,4,1,0,70,0,0
126296,-116.275031832388,4,1,0,70,0,0
126430,-113.631221719457,4,1,0,70,0,0
126564,-111.104966264794,4,1,0,70,0,0
126698,-108.68859554209,4,1,0,70,0,0
126832,-106.375092661231,4,1,0,70,0,0
126966,-104.158025715471,4,1,0,70,0,0
126983,-103.883344536946,4,1,0,70,0,0
126999,-103.626141228658,4,1,0,71,0,0
127016,-103.354254552938,4,1,0,71,0,0
127033,-103.083790856381,4,1,0,71,0,0
127049,-102.830526692942,4,1,0,72,0,0
127066,-102.56279354707,4,1,0,72,0,0
127083,-102.296450939457,4,1,0,72,0,0
127100,-102.031488065008,4,1,0,73,0,0
127116,-101.78336204276,4,1,0,73,0,0
127133,-101.521047046339,4,1,0,74,0,0
127150,-101.260080645161,4,1,0,74,0,0
127167,-101.000452465939,4,1,0,74,0,0
127183,-100.757309794874,4,1,0,75,0,0
127200,-100.500250125063,4,1,0,75,0,0
127217,-100.244498777506,4,1,0,75,0,0
127234,-99.990045789369,4,1,0,76,0,0
127250,-99.751737835154,4,1,0,76,0,0
127267,-99.499777128424,4,1,0,76,0,0
127284,-99.24908605869,4,1,0,77,0,0
127301,-98.999655053467,4,1,0,77,0,0
127317,-98.766039034462,4,1,0,77,0,0
127334,-98.519027069439,4,1,0,78,0,0
127351,-98.273247566404,4,1,0,78,0,0
127368,-98.02869132429,4,1,0,79,0,0
127384,-97.799630026288,4,1,0,79,0,0
127401,-97.557422425096,4,1,0,79,0,0
127418,-97.31641154815,4,1,0,80,0,0
127435,-97.076588547958,4,1,0,80,0,0
127451,-96.85195005544,4,1,0,80,0,0
127468,-96.614408002308,4,1,0,81,0,0
127485,-96.37802830415,4,1,0,81,0,0
127502,-96.14280245023,4,1,0,81,0,0
127518,-95.922459893048,4,1,0,82,0,0
127535,-95.689449869016,4,1,0,82,0,0
127552,-95.457569134277,4,1,0,83,0,0
127568,-95.240352706931,4,1,0,83,0,0
127585,-95.010640813431,4,1,0,83,0,0
127602,-94.782034346103,4,1,0,84,0,0
127619,-94.554525344755,4,1,0,84,0,0
127635,-94.34139469359,4,1,0,84,0,0
127652,-94.115993628783,4,1,0,85,0,0
127669,-93.891667056129,4,1,0,85,0,0
127686,-93.668407310705,4,1,0,85,0,0
127702,-93.459248232229,4,1,0,86,0,0
127719,-93.238037777881,4,1,0,86,0,0
127736,-93.017872025188,4,1,0,86,0,0
127753,-92.798743590928,4,1,0,87,0,0
127769,-92.593446098539,4,1,0,87,0,0
127786,-92.37631046533,4,1,0,88,0,0
127803,-92.160190834442,4,1,0,88,0,0
127820,-91.945080091533,4,1,0,88,0,0
127836,-91.743538222669,4,1,0,89,0,0
127853,-91.530365848102,4,1,0,89,0,0
127870,-91.318181818182,4,1,0,89,0,0
127887,-91.106979275316,4,1,0,90,0,0
127903,-90.909090909091,4,1,0,90,0,0
127970,-90.909090909091,4,1,0,100,0,0
128037,-83.333333333333,4,1,0,100,0,0
128104,-90.909090909091,4,1,0,80,0,0
128305,-111.111111111111,4,1,0,80,0,0
128394,-109.951328212045,4,1,0,80,0,0
128484,-108.802878198805,4,1,0,80,0,0
128573,-107.690540462926,4,1,0,80,0,0
128841,-104.474285395888,4,1,0,80,0,0
128930,-103.448275862069,4,1,0,80,0,0
129019,-102.442222586461,4,1,0,80,0,0
129109,-101.444570686577,4,1,0,80,0,0
129287,-99.527575773661,4,1,0,80,0,0
129377,-98.585624901414,4,1,0,80,0,0
129466,-97.671511173621,4,1,0,80,0,0
129555,-96.774193548387,4,1,0,80,0,0
129644,-95.893213317649,4,1,0,80,0,0
129823,-94.169052282658,4,1,0,80,0,0
129912,-93.33466075962,4,1,0,80,0,0
130002,-92.505797029947,4,1,0,80,0,0
130091,-91.700493959994,4,1,0,80,0,0
130180,-90.909090909091,4,1,0,80,0,0
130448,-105.263157894737,4,1,0,80,0,0
130537,-104.221672549401,4,1,0,80,0,0
130627,-103.189235298974,4,1,0,80,0,0
130716,-102.188189770281,4,1,0,80,0,0
130984,-99.287775689057,4,1,0,80,0,0
131073,-98.360655737705,4,1,0,80,0,0
131162,-97.450689950885,4,1,0,80,0,0
131252,-96.547462732679,4,1,0,80,0,0
131341,-95.670587034722,4,1,0,80,0,0
131430,-94.809496119131,4,1,0,80,0,0
131519,-93.963767571225,4,1,0,80,0,0
131609,-93.123742829472,4,1,0,80,0,0
131698,-92.307692307692,4,1,0,80,0,0
131787,-91.505819770137,4,1,0,80,0,0
131877,-90.708981398612,4,1,0,80,0,0
131966,-89.934527663861,4,1,0,80,0,0
132055,-89.173186217392,4,1,0,80,0,0
132144,-88.424626848075,4,1,0,80,0,0
132234,-87.680329210409,4,1,0,80,0,0
132323,-86.95652173913,4,1,0,80,0,0
132340,-86.926540380481,4,1,0,80,0,0
132356,-86.898341510888,4,1,0,80,0,0
132373,-86.868400251322,4,1,0,80,0,0
132390,-86.838479617473,4,1,0,80,0,0
132407,-86.808579588034,4,1,0,80,0,0
132423,-86.780457186823,4,1,0,80,0,0
132440,-86.75059709347,4,1,0,80,0,0
132457,-86.720757542035,4,1,0,80,0,0
132474,-86.690938511327,4,1,0,80,0,0
132490,-86.662892267874,4,1,0,81,0,0
132507,-86.633113011137,4,1,0,81,0,0
132524,-86.603354212972,4,1,0,81,0,0
132541,-86.573615852304,4,1,0,81,0,0
132557,-86.545645457666,4,1,0,81,0,0
132574,-86.51594670973,4,1,0,81,0,0
132591,-86.48626833747,4,1,0,81,0,0
132608,-86.456610319926,4,1,0,81,0,0
132624,-86.428715466828,4,1,0,81,0,0
132641,-86.399096901647,4,1,0,81,0,0
132658,-86.369498629695,4,1,0,81,0,0
132674,-86.341659951652,4,1,0,81,0,0
132691,-86.312101012949,4,1,0,81,0,0
132708,-86.282562306237,4,1,0,81,0,0
132725,-86.25304381075,4,1,0,81,0,0
132741,-86.22528014163,4,1,0,81,0,0
132758,-86.195800820529,4,1,0,81,0,0
132775,-86.166341649746,4,1,0,81,0,0
132792,-86.136902608626,4,1,0,81,0,0
132808,-86.109213645678,4,1,0,82,0,0
132825,-86.079813620936,4,1,0,82,0,0
132842,-86.050433665275,4,1,0,82,0,0
132859,-86.021073758154,4,1,0,82,0,0
132875,-85.993459200257,4,1,0,82,0,0
132892,-85.964138152353,4,1,0,82,0,0
132909,-85.934837092732,4,1,0,82,0,0
132926,-85.905556000962,4,1,0,82,0,0
132942,-85.878015548609,4,1,0,82,0,0
132959,-85.84877315974,4,1,0,82,0,0
132976,-85.819550678787,4,1,0,82,0,0
132993,-85.79034808543,4,1,0,82,0,0
133009,-85.76288144072,4,1,0,82,0,0
133026,-85.733717394783,4,1,0,82,0,0
133043,-85.704573176828,4,1,0,82,0,0
133060,-85.675448766641,4,1,0,82,0,0
133076,-85.648055633268,4,1,0,82,0,0
133093,-85.618969615853,4,1,0,82,0,0
133110,-85.589903346913,4,1,0,82,0,0
133127,-85.56085680634,4,1,0,83,0,0
133143,-85.533536889581,4,1,0,83,0,0
133160,-85.504528587958,4,1,0,83,0,0
133177,-85.475539955727,4,1,0,83,0,0
133193,-85.448274487131,4,1,0,83,0,0
133210,-85.419323979592,4,1,0,83,0,0
133227,-85.390393082701,4,1,0,83,0,0
133244,-85.361481776539,4,1,0,83,0,0
133260,-85.334289013658,4,1,0,83,0,0
133277,-85.305415679796,4,1,0,83,0,0
133294,-85.276561878233,4,1,0,83,0,0
133311,-85.247727589156,4,1,0,83,0,0
133327,-85.220607241564,4,1,0,83,0,0
133344,-85.191810773206,4,1,0,83,0,0
133361,-85.163033759215,4,1,0,83,0,0
133378,-85.134276179882,4,1,0,83,0,0
133394,-85.107227958697,4,1,0,83,0,0
133411,-85.078508049308,4,1,0,83,0,0
133428,-85.049807516768,4,1,0,83,0,0
133445,-85.021126341473,4,1,0,83,0,0
133461,-84.994149959347,4,1,0,84,0,0
133478,-84.96550630402,4,1,0,84,0,0
133495,-84.936881948435,4,1,0,84,0,0
133512,-84.908276873093,4,1,0,84,0,0
133528,-84.881372044203,4,1,0,84,0,0
133545,-84.852804339649,4,1,0,84,0,0
133562,-84.824255858138,4,1,0,84,0,0
133579,-84.795726580275,4,1,0,84,0,0
133595,-84.768893020312,4,1,0,84,0,0
133612,-84.740400964846,4,1,0,84,0,0
133629,-84.711928056132,4,1,0,84,0,0
133645,-84.68514749758,4,1,0,84,0,0
133662,-84.656711701035,4,1,0,84,0,0
133679,-84.62829499457,4,1,0,84,0,0
133696,-84.599897358967,4,1,0,84,0,0
133712,-84.573187576463,4,1,0,84,0,0
133729,-84.544826906007,4,1,0,84,0,0
133746,-84.516485250039,4,1,0,84,0,0
133763,-84.488162589446,4,1,0,84,0,0
133779,-84.461523302788,4,1,0,85,0,0
133796,-84.433237461093,4,1,0,85,0,0
133813,-84.404970558696,4,1,0,85,0,0
133830,-84.376722576581,4,1,0,85,0,0
133846,-84.350153507046,4,1,0,85,0,0
133863,-84.321942198351,4,1,0,85,0,0
133880,-84.29374975416,4,1,0,85,0,0
133897,-84.265576155555,4,1,0,85,0,0
133913,-84.239077025885,4,1,0,85,0,0
133930,-84.210939955989,4,1,0,85,0,0
133947,-84.182821676193,4,1,0,85,0,0
133964,-84.154722167681,4,1,0,85,0,0
133980,-84.128292702077,4,1,0,85,0,0
133997,-84.100229578322,4,1,0,85,0,0
134014,-84.072185170655,4,1,0,85,0,0
134031,-84.04415946036,4,1,0,85,0,0
134047,-84.017799384471,4,1,0,85,0,0
134064,-83.989809915736,4,1,0,85,0,0
134081,-83.961839089467,4,1,0,85,0,0
134097,-83.935530619039,4,1,0,86,0,0
134114,-83.907595927956,4,1,0,86,0,0
134131,-83.879679824647,4,1,0,86,0,0
134148,-83.851782290566,4,1,0,86,0,0
134164,-83.825542734207,4,1,0,86,0,0
134181,-83.797681193423,4,1,0,86,0,0
134198,-83.769838167462,4,1,0,86,0,0
134215,-83.742013637873,4,1,0,86,0,0
134231,-83.71584272516,4,1,0,86,0,0
134248,-83.688054047721,4,1,0,86,0,0
134265,-83.660283812535,4,1,0,86,0,0
134282,-83.632532001249,4,1,0,86,0,0
134298,-83.606429463171,4,1,0,86,0,0
134315,-83.578713363624,4,1,0,86,0,0
134332,-83.551015634138,4,1,0,86,0,0
134349,-83.523336256455,4,1,0,86,0,0
134365,-83.497301825408,4,1,0,86,0,0
134382,-83.469658019787,4,1,0,86,0,0
134399,-83.442032512411,4,1,0,86,0,0
134416,-83.414425285119,4,1,0,87,0,0
134432,-83.388458694891,4,1,0,87,0,0
134449,-83.36088690071,4,1,0,87,0,0
134466,-83.333333333333,4,1,0,87,0,0
134483,-83.223249669749,4,1,0,87,0,0
134499,-83.119906868452,4,1,0,87,0,0
134516,-83.010385986669,4,1,0,87,0,0
134533,-82.901153340042,4,1,0,87,0,0
134549,-82.798608426749,4,1,0,87,0,0
134566,-82.689932056825,4,1,0,87,0,0
134583,-82.581540596808,4,1,0,87,0,0
134600,-82.473432927768,4,1,0,87,0,0
134616,-82.371942778034,4,1,0,87,0,0
134633,-82.264382825102,4,1,0,87,0,0
134650,-82.157103405953,4,1,0,87,0,0
134667,-82.0501034245,4,1,0,87,0,0
134683,-81.949651847884,4,1,0,87,0,0
134700,-81.843191196699,4,1,0,87,0,0
134717,-81.737006792338,4,1,0,87,0,0
134734,-81.631097560976,4,1,0,88,0,0
134750,-81.531668696711,4,1,0,88,0,0
134767,-81.426290580096,4,1,0,88,0,0
134784,-81.321184510251,4,1,0,88,0,0
134801,-81.21634943505,4,1,0,88,0,0
134817,-81.117927743695,4,1,0,88,0,0
134834,-81.013615733737,4,1,0,88,0,0
134851,-80.909571655209,4,1,0,88,0,0
134868,-80.805794477139,4,1,0,88,0,0
134884,-80.708364732479,4,1,0,88,0,0
134901,-80.605102731994,4,1,0,88,0,0
134918,-80.502104630186,4,1,0,88,0,0
134935,-80.39936941671,4,1,0,88,0,0
134951,-80.302916697908,4,1,0,88,0,0
134968,-80.200688932155,4,1,0,88,0,0
134985,-80.098721112856,4,1,0,88,0,0
135002,-79.997012249776,4,1,0,88,0,0
135018,-79.901521933751,4,1,0,88,0,0
135035,-79.800312942404,4,1,0,88,0,0
135052,-79.699360023813,4,1,0,88,0,0
135068,-79.604578563996,4,1,0,89,0,0
135085,-79.504119961399,4,1,0,89,0,0
135102,-79.403914590747,4,1,0,89,0,0
135119,-79.303961495742,4,1,0,89,0,0
135135,-79.210117594852,4,1,0,89,0,0
135152,-79.110651499483,4,1,0,89,0,0
135169,-79.011434894873,4,1,0,89,0,0
135186,-78.912466843501,4,1,0,89,0,0
135202,-78.819546658817,4,1,0,89,0,0
135219,-78.721058434399,4,1,0,89,0,0
135236,-78.622816032888,4,1,0,89,0,0
135253,-78.524818535083,4,1,0,89,0,0
135269,-78.432808495057,4,1,0,89,0,0
135286,-78.335283791691,4,1,0,89,0,0
135303,-78.238001314924,4,1,0,89,0,0
135320,-78.140960163432,4,1,0,89,0,0
135336,-78.049846961084,4,1,0,89,0,0
135353,-77.953271708276,4,1,0,89,0,0
135370,-77.856935155568,4,1,0,89,0,0
135387,-77.760836419081,4,1,0,90,0,0
135403,-77.670607005584,4,1,0,90,0,0
135420,-77.574967405476,4,1,0,90,0,0
135437,-77.479563047095,4,1,0,90,0,0
135454,-77.384393063584,4,1,0,90,0,0
135470,-77.295034642032,4,1,0,90,0,0
135487,-77.200317162834,4,1,0,90,0,0
135504,-77.105831533477,4,1,0,90,0,0
135520,-77.017114914425,4,1,0,90,0,0
135537,-76.923076923077,4,1,0,90,0,0
135604,-90.909090909091,4,1,0,80,0,0
135805,-83.333333333333,4,1,0,80,0,0
136073,-90.909090909091,4,1,0,80,0,0
136207,-66.666666666667,4,1,0,80,0,0
136542,-83.333333333333,4,1,0,100,0,0
136609,-83.333333333333,4,1,0,100,0,1
151609,-76.923076923077,4,1,0,100,0,1
152680,267.857142857143,5,1,0,100,1,1
152680,-76.923076923077,4,1,0,70,0,1
152814,-80,5,1,0,70,0,1
152831,-80.322591970652,5,1,0,70,0,1
152847,-80.628593581173,5,1,0,70,0,1
152864,-80.956285332067,5,1,0,70,0,1
152881,-81.286651570574,5,1,0,70,0,1
152898,-81.619725172985,5,1,0,70,0,1
152914,-81.9357092942,5,1,0,70,0,1
152931,-82.274134257704,5,1,0,70,0,1
152948,-82.615366458161,5,1,0,70,0,1
152965,-82.959440970112,5,1,0,70,0,1
152981,-83.285904171487,5,1,0,70,0,1
152998,-83.635598449264,5,1,0,70,0,1
153015,-83.98824164617,5,1,0,70,0,1
153032,-84.343871221835,5,1,0,70,0,1
153048,-84.681343562503,5,1,0,70,0,1
153065,-85.042879562782,5,1,0,70,0,1
153082,-85.407515861396,5,1,0,70,0,1
153099,-85.775292509293,5,1,0,70,0,1
153115,-86.124340409669,5,1,0,70,0,1
153132,-86.498329973608,5,1,0,70,0,1
153149,-86.875581756128,5,1,0,70,0,1
153166,-87.256138627493,5,1,0,70,0,1
153182,-87.617368041518,5,1,0,70,0,1
153199,-88.004465898269,5,1,0,70,0,1
153216,-88.394999368607,5,1,0,70,0,1
153233,-88.789014394611,5,1,0,70,0,1
153249,-89.163074319989,5,1,0,70,0,1
153266,-89.563981911513,5,1,0,70,0,1
153283,-89.968511021143,5,1,0,70,0,1
153299,-90.352596673907,5,1,0,70,0,1
153316,-90.7642973121,5,1,0,70,0,1
153333,-91.179767034723,5,1,0,70,0,1
153350,-91.599057838262,5,1,0,70,0,1
153366,-91.997222429276,5,1,0,71,0,1
153383,-92.424082681126,5,1,0,72,0,1
153400,-92.8549225978,5,1,0,73,0,1
153417,-93.289798094223,5,1,0,73,0,1
153433,-93.702830165119,5,1,0,74,0,1
153450,-94.145703021495,5,1,0,75,0,1
153467,-94.592782106837,5,1,0,76,0,1
153484,-95.044127630686,5,1,0,77,0,1
153500,-95.472875728515,5,1,0,77,0,1
153517,-95.932679395645,5,1,0,78,0,1
153534,-96.396933385403,5,1,0,79,0,1
153551,-96.865702622293,5,1,0,80,0,1
153567,-97.311081117812,5,1,0,81,0,1
153584,-97.788805371087,5,1,0,82,0,1
153601,-98.271243298855,5,1,0,83,0,1
153618,-98.758465011287,5,1,0,83,0,1
153634,-99.221460607599,5,1,0,84,0,1
153651,-99.718173902967,5,1,0,85,0,1
153668,-100.21988542025,5,1,0,86,0,1
153685,-100.726670983524,5,1,0,87,0,1
153701,-101.20835001257,5,1,0,87,0,1
153718,-101.72520746303,5,1,0,88,0,1
153735,-102.247371054401,5,1,0,89,0,1
153752,275.229357798165,4,1,0,90,1,0
153820,-100,4,1,0,80,0,0
161871,-99.849862555334,4,1,0,80,0,0
162008,-99.701258336099,4,1,0,80,0,0
162146,-99.552015928323,4,1,0,80,0,0
162284,-99.403219653437,4,1,0,80,0,0
162421,-99.255940936707,4,1,0,80,0,0
162559,272.727272727273,4,1,0,100,1,0
166922,-100,4,1,0,80,0,0
167059,-99.134117052206,4,1,0,80,0,0
167195,-98.289259305677,4,1,0,80,0,0
167331,-97.458680253511,4,1,0,80,0,0
167468,-96.63606678578,4,1,0,80,0,0
167604,-95.833078756033,4,1,0,80,0,0
167740,-95.043325455978,4,1,0,80,0,0
167877,-94.260817307692,4,1,0,80,0,0
168013,-93.496661897949,4,1,0,80,0,0
168149,-92.744796594134,4,1,0,80,0,0
168286,-91.999530764268,4,1,0,80,0,0
168422,-91.27145766657,4,1,0,80,0,0
168559,-90.549590116615,4,1,0,80,0,0
168695,-89.844197502578,4,1,0,80,0,0
168831,-89.149710128453,4,1,0,80,0,0
168968,-88.460887710789,4,1,0,80,0,0
169104,-87.787541277215,4,1,0,80,0,0
169172,-87.454697518818,4,1,0,80,0,0
169240,-87.124368160862,4,1,0,80,0,0
169309,-86.791722000885,4,1,0,80,0,0
169377,-86.466372657111,4,1,0,80,0,0
169445,-86.143453427065,4,1,0,80,0,0
169513,-85.82293718538,4,1,0,80,0,0
169581,-85.504797208897,4,1,0,80,0,0
169649,-85.189007169237,4,1,0,80,0,0
169718,-84.870948541746,4,1,0,80,0,0
169786,-84.559814545259,4,1,0,80,0,0
169854,-84.250953429661,4,1,0,80,0,0
169922,-83.944340379984,4,1,0,80,0,0
169990,-83.639950941183,4,1,0,80,0,0
170059,-83.333333333333,4,1,0,80,0,0
170195,-80,4,1,0,80,0,0
170263,-80,4,1,0,70,0,0
170331,-86.95652173913,4,1,0,70,0,0
170348,-86.811842427208,4,1,0,70,0,0
170365,-86.667643753969,4,1,0,71,0,0
170382,-86.523923328293,4,1,0,71,0,0
170399,-86.380678774894,4,1,0,72,0,0
170416,-86.237907734189,4,1,0,72,0,0
170434,-86.087251904693,4,1,0,72,0,0
170451,-85.945448379439,4,1,0,73,0,0
170468,-85.804111245466,4,1,0,73,0,0
170485,-85.663238205611,4,1,0,73,0,0
170502,-85.522826977776,4,1,0,74,0,0
170519,-85.382875294797,4,1,0,74,0,0
170536,-85.243380904329,4,1,0,75,0,0
170553,-85.104341568722,4,1,0,75,0,0
170570,-84.965755064898,4,1,0,75,0,0
170587,-84.827619184239,4,1,0,76,0,0
170604,-84.689931732468,4,1,0,76,0,0
170621,-84.552690529527,4,1,0,77,0,0
170638,-84.415893409469,4,1,0,77,0,0
170655,-84.279538220343,4,1,0,77,0,0
170672,-84.143622824076,4,1,0,78,0,0
170689,-84.008145096368,4,1,0,78,0,0
170706,-83.873102926576,4,1,0,78,0,0
170723,-83.738494217607,4,1,0,79,0,0
170740,-83.60431688581,4,1,0,79,0,0
170757,-83.470568860867,4,1,0,80,0,0
170774,-83.337248085686,4,1,0,80,0,0
170791,-83.204352516298,4,1,0,80,0,0
170809,-83.064100763216,4,1,0,81,0,0
170826,-82.932074236829,4,1,0,81,0,0
170843,-82.800466744457,4,1,0,82,0,0
170860,-82.669276294329,4,1,0,82,0,0
170877,-82.538500907272,4,1,0,82,0,0
170894,-82.408138616621,4,1,0,83,0,0
170911,-82.278187468114,4,1,0,83,0,0
170928,-82.148645519796,4,1,0,83,0,0
170945,-82.019510841925,4,1,0,84,0,0
170962,-81.890781516872,4,1,0,84,0,0
170979,-81.762455639028,4,1,0,85,0,0
170996,-81.634531314712,4,1,0,85,0,0
171013,-81.507006662072,4,1,0,85,0,0
171030,-81.379879811001,4,1,0,86,0,0
171047,-81.253148903037,4,1,0,86,0,0
171064,-81.126812091279,4,1,0,87,0,0
171081,-81.000867540295,4,1,0,87,0,0
171098,-80.875313426031,4,1,0,87,0,0
171115,-80.750147935728,4,1,0,88,0,0
171132,-80.625369267827,4,1,0,88,0,0
171149,-80.500975631892,4,1,0,88,0,0
171166,-80.376965248516,4,1,0,89,0,0
171184,-80.24607590356,4,1,0,89,0,0
171201,-80.122849013143,4,1,0,90,0,0
171218,-80,4,1,0,90,0,0
171252,-80,4,1,0,100,0,0
171286,267.857142857143,4,1,0,100,1,0
171286,-76.923076923077,4,1,0,100,0,0
171352,-100,4,1,0,85,0,0
187223,-95.238095238095,4,1,0,85,0,0
187357,-90.909090909091,4,1,0,85,0,0
187374,-90.759395583107,4,1,0,85,0,0
187390,-90.618955512573,4,1,0,85,0,0
187407,-90.470213382254,4,1,0,85,0,0
187424,-90.321958743011,4,1,0,85,0,0
187441,-90.174189202194,4,1,0,85,0,0
187457,-90.035552993178,4,1,0,86,0,0
187474,-89.888718342287,4,1,0,86,0,0
187491,-89.742361842735,4,1,0,86,0,0
187508,-89.596481162746,4,1,0,86,0,0
187524,-89.459614282986,4,1,0,86,0,0
187541,-89.314650652941,4,1,0,86,0,0
187558,-89.170156071565,4,1,0,86,0,0
187575,-89.026128266033,4,1,0,86,0,0
187591,-88.890997059103,4,1,0,86,0,0
187608,-88.747868914567,4,1,0,86,0,0
187625,-88.605200945626,4,1,0,86,0,0
187642,-88.462990936556,4,1,0,87,0,0
187658,-88.329562594268,4,1,0,87,0,0
187675,-88.188235294118,4,1,0,87,0,0
187692,-88.047359518887,4,1,0,87,0,0
187708,-87.915181084631,4,1,0,87,0,0
187725,-87.775175644028,4,1,0,87,0,0
187742,-87.635615413393,4,1,0,87,0,0
187759,-87.496498272481,4,1,0,87,0,0
187775,-87.365967365967,4,1,0,87,0,0
187792,-87.227704338112,4,1,0,87,0,0
187809,-87.089878241472,4,1,0,87,0,0
187826,-86.952487008166,4,1,0,88,0,0
187842,-86.82357301705,4,1,0,88,0,0
187859,-86.687020075863,4,1,0,88,0,0
187876,-86.550895991132,4,1,0,88,0,0
187893,-86.415198745735,4,1,0,88,0,0
187909,-86.287871811401,4,1,0,88,0,0
187926,-86.152997425524,4,1,0,88,0,0
187943,-86.018544019095,4,1,0,88,0,0
187960,-85.884509624198,4,1,0,88,0,0
187976,-85.758740618708,4,1,0,88,0,0
187993,-85.625514027232,4,1,0,88,0,0
188010,-85.492700729927,4,1,0,88,0,0
188027,-85.360298806596,4,1,0,89,0,0
188043,-85.23605931047,4,1,0,89,0,0
188060,-85.104450499546,4,1,0,89,0,0
188077,-84.97324748345,4,1,0,89,0,0
188094,-84.842448388265,4,1,0,89,0,0
188110,-84.719710669078,4,1,0,89,0,0
188127,-84.589690349373,4,1,0,89,0,0
188144,-84.460068505498,4,1,0,89,0,0
188161,-84.330843308433,4,1,0,89,0,0
188177,-84.209580300171,4,1,0,89,0,0
188194,-84.08111988514,4,1,0,89,0,0
188211,-83.953050801899,4,1,0,90,0,0
188227,-83.832871074528,4,1,0,90,0,0
188244,-83.705556548151,4,1,0,90,0,0
188261,-83.578628133084,4,1,0,90,0,0
188278,-83.452084075525,4,1,0,90,0,0
188294,-83.333333333333,4,1,0,90,0,0
188361,-76.923076923077,4,1,0,100,0,0
188428,276.497695852535,4,1,0,100,1,0
188428,-76.923076923077,4,1,0,100,0,0
188497,-125,4,1,0,70,0,0
205017,-125,4,1,0,70,0,0
205035,-124.421593830334,4,1,0,70,0,0
205052,-123.88021499872,4,1,0,71,0,0
205069,-123.343527013252,4,1,0,71,0,0
205086,-122.811469170261,4,1,0,71,0,0
205104,-122.253094215711,4,1,0,71,0,0
205121,-121.730382293763,4,1,0,72,0,0
205138,-121.212121212121,4,1,0,72,0,0
205156,-120.668162552979,4,1,0,72,0,0
205173,-120.158887785501,4,1,0,72,0,0
205190,-119.653893695921,4,1,0,73,0,0
205207,-119.153126538651,4,1,0,73,0,0
205225,-118.627450980392,4,1,0,73,0,0
205242,-118.135220893337,4,1,0,73,0,0
205259,-117.647058823529,4,1,0,74,0,0
205277,-117.134559535334,4,1,0,74,0,0
205294,-116.654615570017,4,1,0,74,0,0
205311,-116.178588574172,4,1,0,75,0,0
205328,-115.706430791298,4,1,0,75,0,0
205346,-115.210664127589,4,1,0,75,0,0
205363,-114.746325272641,4,1,0,75,0,0
205380,-114.285714285714,4,1,0,76,0,0
205398,-113.802022102046,4,1,0,76,0,0
205415,-113.348946135831,4,1,0,76,0,0
205432,-112.899463494285,4,1,0,76,0,0
205449,-112.453531598513,4,1,0,77,0,0
205467,-111.985192040722,4,1,0,77,0,0
205484,-111.546439271722,4,1,0,77,0,0
205501,-111.111111111111,4,1,0,78,0,0
205519,-110.653863740283,4,1,0,78,0,0
205536,-110.225461170576,4,1,0,78,0,0
205553,-109.800362976407,4,1,0,78,0,0
205570,-109.378531073446,4,1,0,79,0,0
205588,-108.935404006302,4,1,0,79,0,0
205605,-108.520179372197,4,1,0,79,0,0
205622,-108.108108108108,4,1,0,79,0,0
205639,-107.699154428126,4,1,0,80,0,0
205657,-107.269503546099,4,1,0,80,0,0
205674,-106.866858026054,4,1,0,80,0,0
205691,-106.467223933128,4,1,0,80,0,0
205709,-106.047326906223,4,1,0,81,0,0
205726,-105.653787382668,4,1,0,81,0,0
205743,-105.263157894737,4,1,0,81,0,0
205760,-104.875406283857,4,1,0,82,0,0
205778,-104.467947334341,4,1,0,82,0,0
205795,-104.086021505376,4,1,0,82,0,0
205812,-103.706878080137,4,1,0,82,0,0
205830,-103.308431163287,4,1,0,83,0,0
205847,-102.934921310081,4,1,0,83,0,0
205864,-102.564102564103,4,1,0,83,0,0
205881,-102.195945945946,4,1,0,83,0,0
205899,-101.809002944889,4,1,0,84,0,0
205916,-101.44623768602,4,1,0,84,0,0
205933,-101.08604845447,4,1,0,84,0,0
205951,-100.707449022056,4,1,0,84,0,0
205968,-100.352477710968,4,1,0,85,0,0
205985,-100,4,1,0,85,0,0
206054,-100,4,1,0,90,0,0
206123,273.972602739726,4,1,0,90,1,0
206123,-83.333333333333,4,1,0,90,0,0
206259,-84.73597359736,4,1,0,90,0,0
206328,-85.465817833812,4,1,0,90,0,0
206396,-86.19749045281,4,1,0,90,0,0
206533,-87.710308309847,4,1,0,90,0,0
206670,-89.277176511497,4,1,0,90,0,0
206739,-90.087719298246,4,1,0,90,0,0
206807,-90.901044432643,4,1,0,90,0,0
206944,-92.585080009015,4,1,0,90,0,0
207081,-94.332690364655,4,1,0,90,0,0
207150,-95.238095238095,4,1,0,90,0,0
207218,-96.147544820484,4,1,0,90,0,0
207355,-98.03360061092,4,1,0,90,0,0
207492,-99.995131687844,4,1,0,90,0,0
207561,-101.01308153831,4,1,0,90,0,0
207629,-102.036761053154,4,1,0,90,0,0
207766,-104.163497134743,4,1,0,90,0,0
207835,-105.268552685527,4,1,0,90,0,0
207903,-106.38077480837,4,1,0,90,0,0
207972,-107.533636982357,4,1,0,90,0,0
208040,-108.694501772768,4,1,0,90,0,0
208177,-111.111111111111,4,1,0,90,0,0
208314,271.493212669683,4,1,0,90,1,0
208314,-83.333333333333,4,1,0,90,0,0
208381,-84.024596591144,4,1,0,90,0,0
208449,-84.738003079868,4,1,0,90,0,0
208585,-86.201786697151,4,1,0,90,0,0
208721,-87.717030718194,4,1,0,90,0,0
208789,-88.49480592863,4,1,0,90,0,0
208856,-89.274752258178,4,1,0,90,0,0
208992,-90.900973301188,4,1,0,90,0,0
209128,-92.587539790814,4,1,0,90,0,0
209196,-93.454512071973,4,1,0,90,0,0
209264,-94.337874154388,4,1,0,90,0,0
209399,-96.142040893422,4,1,0,90,0,0
209535,-98.030718859839,4,1,0,90,0,0
209603,-99.003160709944,4,1,0,90,0,0
209671,-99.99508864987,4,1,0,90,0,0
209807,-102.03979351476,4,1,0,90,0,0
209942,-104.153877634541,4,1,0,90,0,0
210010,-105.252274607113,4,1,0,90,0,0
210078,-106.374085684431,4,1,0,90,0,0
210146,-107.520067596113,4,1,0,90,0,0
210214,-108.691010036302,4,1,0,90,0,0
210350,-111.111111111111,4,1,0,90,0,0
210485,270.27027027027,4,1,0,90,1,0
210485,-83.333333333333,4,1,0,90,0,0
210620,-84.744345499394,4,1,0,90,0,0
210687,-85.46251791888,4,1,0,90,0,0
210755,-86.203963596155,4,1,0,90,0,0
210890,-87.714743173655,4,1,0,90,0,0
211025,-89.279422128259,4,1,0,90,0,0
211093,-90.088888888889,4,1,0,90,0,0
211160,-90.900937261761,4,1,0,90,0,0
211295,-92.582442678359,4,1,0,90,0,0
211430,-94.327330261995,4,1,0,90,0,0
211498,-95.231383603477,4,1,0,90,0,0
211566,-96.152933921541,4,1,0,90,0,0
211701,-98.03637067131,4,1,0,90,0,0
211836,-99.99506684426,4,1,0,90,0,0
211903,-100.996512207275,4,1,0,90,0,0
211971,-102.033625289439,4,1,0,90,0,0
212106,-104.157032012743,4,1,0,90,0,0
212174,-105.260424780599,4,1,0,90,0,0
212241,-106.370696893367,4,1,0,90,0,0
212309,-107.521748355612,4,1,0,90,0,0
212376,-108.68049970511,4,1,0,90,0,0
212444,-109.882365696319,4,1,0,90,0,0
212512,-111.111111111111,4,1,0,90,0,0
212647,269.058295964126,4,1,0,90,1,0
212647,-83.333333333333,4,1,0,90,0,0
212714,-84.03116277132,4,1,0,90,0,0
212781,-84.740778085875,4,1,0,90,0,0
212916,-86.207633457281,4,1,0,90,0,0
213050,-87.714720591433,4,1,0,90,0,0
213117,-88.488198648767,4,1,0,90,0,0
213185,-89.287295263391,4,1,0,90,0,0
213319,-90.904993690283,4,1,0,90,0,0
213454,-92.595143001423,4,1,0,90,0,0
213521,-93.457510888704,4,1,0,90,0,0
213588,-94.336092792666,4,1,0,90,0,0
213723,-96.157513348589,4,1,0,90,0,0
213790,-97.087845968712,4,1,0,90,0,0
213857,-98.03635656654,4,1,0,90,0,0
213925,-99.018163966618,4,1,0,90,0,0
213992,-100.004958104021,4,1,0,90,0,0
214059,-101.011618589744,4,1,0,90,0,0
214126,-102.038751454444,4,1,0,90,0,0
214194,-103.102796094669,4,1,0,90,0,0
214261,-104.1731226113,4,1,0,90,0,0
214328,-105.26590470226,4,1,0,90,0,0
214395,-106.381856540084,4,1,0,90,0,0
214463,-107.538920878652,4,1,0,90,0,0
214530,-108.703853408785,4,1,0,90,0,0
214597,-109.894300969816,4,1,0,90,0,0
214664,-111.111111111111,4,1,0,90,0,0
214799,267.857142857143,4,1,0,90,1,0
214799,-83.333333333333,4,1,0,90,0,0
214865,-125,4,1,0,60,0,0
218013,-125,4,1,0,60,0,0
218030,-124.505928853755,4,1,0,60,0,0
218046,-124.04447533009,4,1,0,61,0,0
218063,-123.557914167051,4,1,0,61,0,0
218080,-123.07515513675,4,1,0,61,0,0
218096,-122.624227158232,4,1,0,62,0,0
218113,-122.148722627737,4,1,0,62,0,0
218130,-121.676891615542,4,1,0,62,0,0
218147,-121.208691715708,4,1,0,63,0,0
218163,-120.771312584574,4,1,0,63,0,0
218180,-120.310042687037,4,1,0,63,0,0
218197,-119.852282900627,4,1,0,63,0,0
218214,-119.397993311037,4,1,0,64,0,0
218230,-118.973561430793,4,1,0,64,0,0
218247,-118.525896414343,4,1,0,64,0,0
218264,-118.081587651599,4,1,0,65,0,0
218281,-117.640597539543,4,1,0,65,0,0
218297,-117.228546409807,4,1,0,65,0,0
218314,-116.793893129771,4,1,0,66,0,0
218331,-116.362451108214,4,1,0,66,0,0
218348,-115.934184888504,4,1,0,66,0,0
218364,-115.533980582524,4,1,0,67,0,0
218381,-115.111779879622,4,1,0,67,0,0
218398,-114.692653673163,4,1,0,67,0,0
218415,-114.276568501921,4,1,0,68,0,0
218431,-113.887707358571,4,1,0,68,0,0
218448,-113.47743165925,4,1,0,68,0,0
218465,-113.070101351351,4,1,0,68,0,0
218482,-112.665684830633,4,1,0,69,0,0
218498,-112.287691339904,4,1,0,69,0,0
218515,-111.888842457167,4,1,0,69,0,0
218532,-111.492816989382,4,1,0,70,0,0
218549,-111.099585062241,4,1,0,70,0,0
218565,-110.732009925558,4,1,0,70,0,0
218582,-110.344117041006,4,1,0,71,0,0
218599,-109.958932238193,4,1,0,71,0,0
218615,-109.598853868195,4,1,0,71,0,0
218632,-109.218845604732,4,1,0,72,0,0
218649,-108.841463414634,4,1,0,72,0,0
218666,-108.466680170144,4,1,0,72,0,0
218682,-108.116293155663,4,1,0,72,0,0
218699,-107.746478873239,4,1,0,73,0,0
218716,-107.379185883297,4,1,0,73,0,0
218733,-107.014388489209,4,1,0,73,0,0
218749,-106.673306772908,4,1,0,74,0,0
218766,-106.313281715307,4,1,0,74,0,0
218783,-105.95567867036,4,1,0,74,0,0
218800,-105.600473279432,4,1,0,75,0,0
218816,-105.268331039906,4,1,0,75,0,0
218833,-104.917711598746,4,1,0,75,0,0
218850,-104.569420035149,4,1,0,76,0,0
218867,-104.223433242507,4,1,0,76,0,0
218883,-103.899883585565,4,1,0,76,0,0
218900,-103.558305936956,4,1,0,77,0,0
218917,-103.218966846569,4,1,0,77,0,0
218934,-102.881844380403,4,1,0,77,0,0
218950,-102.566558130626,4,1,0,77,0,0
218967,-102.233676975945,4,1,0,78,0,0
218984,-101.902949571836,4,1,0,78,0,0
219001,-101.57435508346,4,1,0,78,0,0
219017,-101.267019667171,4,1,0,79,0,0
219034,-100.942507068803,4,1,0,79,0,0
219051,-100.620067643743,4,1,0,79,0,0
219067,-100.31847133758,4,1,0,80,0,0
219084,-100,4,1,0,80,0,0
219218,-99.070778050021,4,1,0,80,0,0
219352,-98.158666178087,4,1,0,80,0,0
219486,-97.263196114919,4,1,0,80,0,0
219553,-96.821560078614,4,1,0,80,0,0
219620,-96.383916524242,4,1,0,80,0,0
219754,-95.520392244261,4,1,0,80,0,0
219888,-94.672203569535,4,1,0,80,0,0
220022,-93.838945570784,4,1,0,80,0,0
220089,-93.427792915531,4,1,0,80,0,0
220156,-93.0202274503,4,1,0,80,0,0
220290,-92.215671930806,4,1,0,80,0,0
220424,-91.424914675768,4,1,0,80,0,0
220557,-90.653355612428,4,1,0,80,0,0
220624,-90.269587194608,4,1,0,80,0,0
220691,-89.889054340303,4,1,0,80,0,0
220825,-89.137533015827,4,1,0,80,0,0
220959,-88.39847375477,4,1,0,80,0,0
221093,-87.671569128807,4,1,0,80,0,0
221160,-87.31258148631,4,1,0,80,0,0
221227,-86.95652173913,4,1,0,80,0,0
221261,-86.95652173913,4,1,0,80,0,0
221294,-86.603354212972,4,1,0,81,0,0
221328,-86.603354212972,4,1,0,81,0,0
221361,-86.25304381075,4,1,0,81,0,0
221395,-86.25304381075,4,1,0,82,0,0
221428,-85.905556000962,4,1,0,82,0,0
221462,-85.905556000962,4,1,0,82,0,0
221495,-85.56085680634,4,1,0,83,0,0
221529,-85.56085680634,4,1,0,83,0,0
221562,-85.218912792778,4,1,0,83,0,0
221596,-85.218912792778,4,1,0,84,0,0
221629,-84.879691058521,4,1,0,84,0,0
221663,-84.879691058521,4,1,0,84,0,0
221696,-84.543159223607,4,1,0,85,0,0
221730,-84.543159223607,4,1,0,85,0,0
221763,-84.209285419573,4,1,0,85,0,0
221797,-84.209285419573,4,1,0,86,0,0
221830,-83.878038279385,4,1,0,86,0,0
221864,-83.878038279385,4,1,0,86,0,0
221897,-83.54938692762,4,1,0,87,0,0
221931,-83.54938692762,4,1,0,87,0,0
221964,-83.223300970874,4,1,0,87,0,0
221998,-83.223300970874,4,1,0,88,0,0
222031,-82.899750488385,4,1,0,88,0,0
222065,-82.899750488385,4,1,0,88,0,0
222098,-82.578706022889,4,1,0,89,0,0
222132,-82.578706022889,4,1,0,89,0,0
222165,-82.260138571675,4,1,0,89,0,0
222199,-82.260138571675,4,1,0,90,0,0
222232,-81.944019577853,4,1,0,90,0,0
222266,-81.944019577853,4,1,0,70,0,0
222299,-81.630320921817,4,1,0,71,0,0
222333,-81.630320921817,4,1,0,71,0,0
222365,-81.323643815343,4,1,0,72,0,0
222399,-81.323643815343,4,1,0,72,0,0
222432,-81.014668078028,4,1,0,73,0,0
222466,-81.014668078028,4,1,0,74,0,0
222499,-80.708031258827,4,1,0,74,0,0
222533,-80.708031258827,4,1,0,75,0,0
222566,-80.403706899786,4,1,0,75,0,0
222600,-80.403706899786,4,1,0,76,0,0
222633,-80.101668940512,4,1,0,77,0,0
222667,-80.101668940512,4,1,0,77,0,0
222700,-79.801891710732,4,1,0,78,0,0
222734,-79.801891710732,4,1,0,78,0,0
222767,-79.504349923018,4,1,0,79,0,0
222801,-79.504349923018,4,1,0,80,0,0
222834,-79.209018665681,4,1,0,80,0,0
222868,-79.209018665681,4,1,0,81,0,0
222901,-78.915873395813,4,1,0,82,0,0
222935,-78.915873395813,4,1,0,82,0,0
222968,-78.624889932492,4,1,0,83,0,0
223002,-78.624889932492,4,1,0,83,0,0
223035,-78.336044450131,4,1,0,84,0,0
223069,-78.336044450131,4,1,0,85,0,0
223102,-78.049313471974,4,1,0,85,0,0
223136,-78.049313471974,4,1,0,86,0,0
223169,-77.764673863739,4,1,0,86,0,0
223203,-77.764673863739,4,1,0,87,0,0
223236,-77.482102827392,4,1,0,88,0,0
223270,-77.482102827392,4,1,0,88,0,0
223303,-77.201577895059,4,1,0,89,0,0
223337,-77.201577895059,4,1,0,89,0,0
223370,-76.923076923077,4,1,0,90,0,0
223437,-76.923076923077,4,1,0,70,0,0
223504,-77.294903821007,4,1,0,70,0,0
224040,-78.818866501752,4,1,0,70,0,0
224174,-79.209293298955,4,1,0,70,0,0
224307,-79.600650104481,4,1,0,70,0,0
224441,-79.998879959679,4,1,0,70,0,0
224575,-80.401114415167,4,1,0,70,0,0
224709,-80.807414181602,4,1,0,70,0,0
224843,-81.217841203059,4,1,0,70,0,0
224977,-81.632458688509,4,1,0,70,0,0
225111,-82.051331144277,4,1,0,70,0,0
225245,-82.474524407494,4,1,0,70,0,0
225379,-82.902105680598,4,1,0,70,0,0
225513,-83.334143566907,4,1,0,70,0,0
225647,-83.770708107316,4,1,0,70,0,0
226182,-85.560269528325,4,1,0,70,0,0
226316,-86.020534128203,4,1,0,70,0,0
226449,-86.482286821314,4,1,0,70,0,0
226583,-86.952551967617,4,1,0,70,0,0
226717,-87.427959402254,4,1,0,70,0,0
226851,-87.908593934297,4,1,0,70,0,0
226985,-88.394542248074,4,1,0,70,0,0
227119,-88.885892955293,4,1,0,70,0,0
227253,-89.382736648903,4,1,0,70,0,0
227387,-89.885165958786,4,1,0,70,0,0
227522,-90.397089068185,4,1,0,70,0,0
227655,-90.90716247892,4,1,0,70,0,0
227924,-91.956612700763,4,1,0,70,0,0
228191,-93.022498616221,4,1,0,70,0,0
228325,-93.566804580636,4,1,0,70,0,0
228593,-94.674752294794,4,1,0,70,0,0
228727,-95.23862436802,4,1,0,70,0,0
228861,-95.809253400999,4,1,0,70,0,0
228995,-96.386761580244,4,1,0,70,0,0
229129,-96.971274056139,4,1,0,70,0,0
229263,-97.562919033363,4,1,0,70,0,0
229799,-100.003500297525,4,1,0,70,0,0
230066,-101.265374118314,4,1,0,70,0,0
230334,-102.564409396053,4,1,0,70,0,0
230468,-103.226505762908,4,1,0,70,0,0
230736,-104.576678583194,4,1,0,70,0,0
230870,-105.26509708559,4,1,0,70,0,0
231004,-105.962639237455,4,1,0,70,0,0
231138,-106.669487623054,4,1,0,70,0,0
231272,-107.385829731254,4,1,0,70,0,0
231406,-108.111858121318,4,1,0,70,0,0
231540,-108.847770595481,4,1,0,70,0,0
231674,-109.593770378611,4,1,0,70,0,0
231740,-109.964974404372,4,1,0,70,0,0
231807,-110.344383649823,4,1,0,70,0,0
231874,-110.726420091206,4,1,0,70,0,0
231908,-90.909090909091,4,1,0,80,0,0
231941,-90.909090909091,4,1,0,80,0,0
232209,-91.954516198241,4,1,0,80,0,0
232299,-92.311005815206,4,1,0,80,0,0
232388,-92.666263080515,4,1,0,80,0,0
232477,-93.024265312324,4,1,0,80,0,0
232745,-94.119197154025,4,1,0,80,0,0
232879,-94.676386127678,4,1,0,80,0,0
233013,-95.240211546154,4,1,0,80,0,0
233147,-95.810792685653,4,1,0,80,0,0
233281,-96.388251697926,4,1,0,80,0,0
233549,-97.56430685181,4,1,0,80,0,0
233727,-98.460831610384,4,1,0,80,0,0
233906,-99.378593952884,4,1,0,80,0,0
234084,-100,4,1,0,80,0,0
234352,-101.2664209432,4,1,0,80,0,0
234620,-102.56532975974,4,1,0,80,0,0
234799,-103.561590876142,4,1,0,80,0,0
234977,-104.577396056998,4,1,0,80,0,0
235156,-105.265743196778,4,1,0,80,0,0
235424,-106.669985067198,4,1,0,80,0,0
235513,-107.144642767862,4,1,0,80,0,0
235602,-107.623543591804,4,1,0,80,0,0
235691,-108.106744690511,4,1,0,80,0,0
235870,-109.091834656893,4,1,0,80,0,0
236049,-110.095042383766,4,1,0,80,0,0
236227,-90.909090909091,4,1,0,80,0,0
236495,-93.33466075962,4,1,0,80,0,0
236584,-94.169052282658,4,1,0,80,0,0
236674,-95.028128325984,4,1,0,80,0,0
236763,-95.893213317649,4,1,0,80,0,0
237031,-98.595993058842,4,1,0,80,0,0
237120,-99.527575773661,4,1,0,80,0,0
237209,-100.476930496758,4,1,0,80,0,0
237299,-101.455548942157,4,1,0,80,0,0
237477,-103.448275862069,4,1,0,80,0,0
237656,-105.532729217088,4,1,0,80,0,0
237834,-107.690540462926,4,1,0,80,0,0
238102,-111.111111111111,4,1,0,80,0,0
238370,-100,4,1,0,80,0,0
238387,-99.683544303797,4,1,0,80,0,0
238403,-99.387527839644,4,1,0,80,0,0
238420,-99.074930619796,4,1,0,80,0,0
238437,-98.764293618591,4,1,0,81,0,0
238454,-98.455598455598,4,1,0,81,0,0
238470,-98.166819431714,4,1,0,81,0,0
238487,-97.861842105263,4,1,0,81,0,0
238504,-97.558753871379,4,1,0,81,0,0
238521,-97.25753723211,4,1,0,81,0,0
238537,-96.975733429917,4,1,0,82,0,0
238554,-96.678100740206,4,1,0,82,0,0
238571,-96.382289416847,4,1,0,82,0,0
238588,-96.088282792033,4,1,0,82,0,0
238604,-95.813204508857,4,1,0,82,0,0
238621,-95.522654298965,4,1,0,82,0,0
238638,-95.23386092833,4,1,0,83,0,0
238655,-94.946808510638,4,1,0,83,0,0
238671,-94.678217821782,4,1,0,83,0,0
238688,-94.39450026441,4,1,0,83,0,0
238705,-94.112478031634,4,1,0,83,0,0
238721,-93.84858044164,4,1,0,83,0,0
238738,-93.56980604578,4,1,0,83,0,0
238755,-93.292682926829,4,1,0,84,0,0
238772,-93.017196456488,4,1,0,84,0,0
238788,-92.759397193833,4,1,0,84,0,0
238805,-92.487046632124,4,1,0,84,0,0
238822,-92.216290683658,4,1,0,84,0,0
238839,-91.947115384615,4,1,0,84,0,0
238855,-91.695205479452,4,1,0,85,0,0
238872,-91.429059245347,4,1,0,85,0,0
238889,-91.164453524004,4,1,0,85,0,0
238906,-90.901374978781,4,1,0,85,0,0
238922,-90.655154900965,4,1,0,85,0,0
238939,-90.395003376097,4,1,0,85,0,0
238956,-90.136340683387,4,1,0,85,0,0
238973,-89.87915407855,4,1,0,86,0,0
238989,-89.638433210579,4,1,0,86,0,0
239006,-89.384076114171,4,1,0,86,0,0
239023,-89.131158455393,4,1,0,86,0,0
239040,-88.879668049793,4,1,0,86,0,0
239056,-88.64426419467,4,1,0,86,0,0
239073,-88.39551006933,4,1,0,87,0,0
239090,-88.148148148148,4,1,0,87,0,0
239107,-87.9021667761,4,1,0,87,0,0
239123,-87.671905697446,4,1,0,87,0,0
239140,-87.428571428571,4,1,0,87,0,0
239157,-87.186584174536,4,1,0,87,0,0
239174,-86.945932781296,4,1,0,88,0,0
239190,-86.720647773279,4,1,0,88,0,0
239207,-86.482558139535,4,1,0,88,0,0
239224,-86.245772266065,4,1,0,88,0,0
239240,-86.024096385542,4,1,0,88,0,0
239257,-85.789810958026,4,1,0,88,0,0
239274,-85.556798210577,4,1,0,88,0,0
239291,-85.325047801147,4,1,0,89,0,0
239307,-85.108073744437,4,1,0,89,0,0
239324,-84.878744650499,4,1,0,89,0,0
239341,-84.650648118874,4,1,0,89,0,0
239358,-84.423774239319,4,1,0,89,0,0
239374,-84.211353986476,4,1,0,89,0,0
239391,-83.986825595985,4,1,0,90,0,0
239408,-83.76349131863,4,1,0,90,0,0
239425,-83.541341653666,4,1,0,90,0,0
239441,291.26213592233,4,1,0,40,1,0
239441,-71.428571428571,4,1,0,40,0,0
239459,-72.172619047619,4,1,0,39,0,0
239477,-72.932330827068,4,1,0,39,0,0
239495,-73.70820668693,4,1,0,38,0,0
239513,-74.500768049155,4,1,0,37,0,0
239532,-75.356063875701,4,1,0,36,0,0
239550,-76.184658347151,4,1,0,36,0,0
239568,-77.031677402277,4,1,0,35,0,0
239586,-77.897742482377,4,1,0,34,0,0
239604,-78.783503293927,4,1,0,33,0,0
239623,-79.740591888929,4,1,0,33,0,0
239641,-80.669007577158,4,1,0,32,0,0
239659,-81.619296933433,4,1,0,31,0,0
239677,-82.592242194891,4,1,0,31,0,0
239695,-83.588663347376,4,1,0,30,0,0
239714,-84.666860634274,4,1,0,29,0,0
239732,-85.714285714286,4,1,0,28,0,0
239750,-86.787951088577,4,1,0,28,0,0
239768,-87.888855330716,4,1,0,27,0,0
239786,-89.018048332823,4,1,0,26,0,0
239805,-90.241885466198,4,1,0,25,0,0
239823,-91.4327607876,4,1,0,25,0,0
239841,-92.655487157716,4,1,0,24,0,0
239859,-93.911359724613,4,1,0,23,0,0
239877,-95.201744820065,4,1,0,23,0,0
239896,-96.602854929733,4,1,0,22,0,0
239914,-97.968802603524,4,1,0,21,0,0
239932,-99.373932840068,4,1,0,20,0,0
239950,-100.819956115025,4,1,0,20,0,0
239968,-102.308683932966,4,1,0,19,0,0
239987,-103.928571428571,4,1,0,18,0,0
240005,-105.511240029007,4,1,0,17,0,0
240023,-107.142857142857,4,1,0,17,0,0
240041,-108.825729244577,4,1,0,16,0,0
240059,-110.562310030395,4,1,0,15,0,0
240078,-112.456524539482,4,1,0,14,0,0
240096,-114.311902579547,4,1,0,14,0,0
240114,-116.229530022633,4,1,0,13,0,0
240132,-118.21259309411,4,1,0,12,0,0
240150,-120.26449924232,4,1,0,12,0,0
240169,-122.509121526803,4,1,0,11,0,0
240187,-124.714285714286,4,1,0,10,0,0
240205,-127.000290951411,4,1,0,9,0,0
240223,-129.37166567872,4,1,0,9,0,0
240241,-131.833282996074,4,1,0,8,0,0
240260,-134.535367545076,4,1,0,7,0,0
240278,-137.199434229137,4,1,0,6,0,0
240296,-139.97113997114,4,1,0,6,0,0
240314,-142.857142857143,4,1,0,5,0,0
240533,-142.857142857143,4,1,0,60,0,0
240606,315.789473684211,4,1,0,60,1,8
240606,-176.991150442478,4,1,0,60,0,0
240684,-176.991150442478,4,1,0,10,0,0
241158,-176.991150442478,4,1,0,60,0,0
241237,392.156862745098,4,1,0,60,1,8
241237,-142.450142450142,4,1,0,60,0,0
241335,-142.450142450142,4,1,0,10,0,0
241923,-142.450142450142,4,1,0,60,0,0
242021,-142.450142450142,4,1,0,60,0,0
242119,-142.450142450142,4,1,0,10,0,0
242707,-142.450142450142,4,1,0,60,0,0
242805,352.941176470588,4,1,0,60,1,8
242805,-158.227848101266,4,1,0,60,0,0
242893,-158.227848101266,4,1,0,10,0,0
243422,-158.227848101266,4,1,0,60,0,0
243510,372.670807453416,4,1,0,60,1,8
243510,-149.925037481259,4,1,0,60,0,0
243603,-149.925037481259,4,1,0,10,0,0
244162,-149.925037481259,4,1,0,60,0,0
244255,279.06976744186,4,1,0,40,1,8
244255,-200,4,1,0,40,0,0
244464,-200,4,1,0,40,0,0
244534,-200,4,1,0,10,0,0
244743,-200,4,1,0,40,0,0
244813,-200,4,1,0,40,0,0
244882,-200,4,1,0,10,0,0
245161,-200,4,1,0,40,0,0
245231,-200,4,1,0,40,0,0
245301,-200,4,1,0,40,0,0
245371,413.793103448276,4,1,0,40,1,8
245371,-134.952766531714,4,1,0,40,0,0
245474,-133.333333333333,4,1,0,5,0,0
247026,413.793103448276,4,1,0,5,1,8
247026,-133.333333333333,4,1,0,5,0,0
248681,324.324324324324,4,1,0,30,1,8
248681,-133.333333333333,4,1,0,30,0,0
249653,324.324324324324,4,1,0,30,1,1
249653,-33.333333333333,4,1,0,30,0,1
250950,-36.545626306907,4,1,0,30,0,1
252247,-40.443076633933,4,1,0,30,0,1
253544,-45.271060970639,4,1,0,30,0,1
254842,-51.413382710887,4,1,0,30,0,1
256139,-59.476920950802,4,1,0,30,0,1
257436,320.855614973262,4,1,0,30,1,1
257436,-70.540269212645,4,1,0,30,0,1
258719,315.789473684211,4,1,0,30,1,1
258719,-86.446720899869,4,1,0,30,0,1
259904,-111.111111111111,4,1,0,60,0,1
259982,310.880829015544,4,1,0,60,1,1
259982,-111.111111111111,4,1,0,60,0,1
260292,-109.965635738832,4,1,0,60,0,1
260603,-108.843537414966,4,1,0,60,0,1
261070,-107.202737529106,4,1,0,60,0,1
261147,-106.934030258053,4,1,0,60,0,1
261225,306.122448979592,4,1,0,60,1,0
261225,-108.32469775475,4,1,0,60,0,1
261378,-107.785711710484,4,1,0,60,0,1
261531,-107.252175994802,4,1,0,60,0,1
261837,-106.200684073284,4,1,0,60,0,1
262296,-104.661597656298,4,1,0,60,0,1
262449,301.507537688442,4,1,0,60,1,0
262449,-105.752623887339,4,1,0,60,0,1
262750,-104.745456040793,4,1,0,60,0,1
263052,-103.757291361163,4,1,0,60,0,1
263504,-102.309565960869,4,1,0,60,0,1
263579,-102.072163398678,4,1,0,60,0,1
263655,297.029702970297,4,1,0,60,1,0
263655,-103.371074010107,4,1,0,60,0,1
263803,-102.894760191816,4,1,0,60,0,1
263952,-102.42271553295,4,1,0,60,0,1
264249,-101.491599937196,4,1,0,60,0,1
264694,-100.126194197559,4,1,0,60,0,1
264843,289.855072463768,4,1,0,60,1,0
264843,-102.146558105107,4,1,0,60,0,1
265132,-101.242606263469,4,1,0,60,0,1
265422,-100.35451322607,4,1,0,60,0,1
265712,-99.481865284974,4,1,0,60,0,1
265857,-99.051253597451,4,1,0,60,0,1
265929,-98.837297135493,4,1,0,60,0,1
266002,279.06976744186,4,1,0,60,1,1
266002,-102.435828717765,4,1,0,60,0,1
266141,-101.99614327439,4,1,0,60,0,1
266281,-101.560308814195,4,1,0,60,0,1
266560,267.857142857143,4,1,0,60,1,9
266560,-104.914961505811,4,1,0,60,0,1
266827,-104.033323173829,4,1,0,60,0,1
266961,-103.598083539053,4,1,0,60,0,1
267095,267.857142857143,4,1,0,60,1,0
267095,-103.166378814047,4,1,0,60,0,1
267362,-104.033323173829,4,1,0,60,0,1
267630,-103.166378814047,4,1,0,60,0,1
267898,-102.313764113105,4,1,0,60,0,1
268032,-101.892764542934,4,1,0,60,0,1
268166,-101.475126702341,4,1,0,60,0,1
268300,-101.060898512417,4,1,0,60,0,1
268434,-100.650125672241,4,1,0,60,0,1
268702,-99.838431110368,4,1,0,60,0,1
268970,-99.039723661485,4,1,0,60,0,1
269103,-98.645185010057,4,1,0,60,0,1
269170,-76.923076923077,4,1,0,90,0,1
269237,266.666666666667,4,1,0,90,1,0
269237,-76.923076923077,4,1,0,90,0,0
269303,-125,4,1,0,60,0,0
269320,-124.589319074921,4,1,0,60,0,0
269337,-124.181327854116,4,1,0,61,0,0
269353,-123.799769555755,4,1,0,61,0,0
269370,-123.396924647483,4,1,0,61,0,0
269387,-122.996692953447,4,1,0,61,0,0
269403,-122.622368754755,4,1,0,62,0,0
269420,-122.227137710927,4,1,0,62,0,0
269437,-121.834446264332,4,1,0,62,0,0
269453,-121.467152367793,4,1,0,62,0,0
269470,-121.079321354786,4,1,0,63,0,0
269487,-120.693959061408,4,1,0,63,0,0
269503,-120.33349925336,4,1,0,63,0,0
269520,-119.952862370527,4,1,0,63,0,0
269537,-119.574625942871,4,1,0,64,0,0
269553,-119.22081124399,4,1,0,64,0,0
269570,-118.847170159159,4,1,0,64,0,0
269587,-118.475863758883,4,1,0,64,0,0
269603,-118.128512093819,4,1,0,65,0,0
269620,-117.761675698715,4,1,0,65,0,0
269637,-117.397110598519,4,1,0,65,0,0
269653,-117.056046483477,4,1,0,65,0,0
269670,-116.695830567791,4,1,0,66,0,0
269687,-116.337824831569,4,1,0,66,0,0
269703,-116.002879078695,4,1,0,66,0,0
269720,-115.649106021647,4,1,0,66,0,0
269737,-115.297484201741,4,1,0,67,0,0
269753,-114.968493639282,4,1,0,67,0,0
269770,-114.620992117584,4,1,0,67,0,0
269787,-114.275584968093,4,1,0,68,0,0
269803,-113.952392175348,4,1,0,68,0,0
269820,-113.610996886565,4,1,0,68,0,0
269837,-113.271641091718,4,1,0,68,0,0
269853,-112.95409414788,4,1,0,69,0,0
269870,-112.618645548244,4,1,0,69,0,0
269887,-112.285183464933,4,1,0,69,0,0
269903,-111.973135710977,4,1,0,69,0,0
269920,-111.643479766784,4,1,0,70,0,0
269937,-111.315759180384,4,1,0,70,0,0
269953,-111.009068993227,4,1,0,70,0,0
269970,-110.685056945001,4,1,0,70,0,0
269987,-110.362930837708,4,1,0,71,0,0
270003,-110.061461415889,4,1,0,71,0,0
270020,-109.742949554559,4,1,0,71,0,0
270037,-109.426275885481,4,1,0,71,0,0
270053,-109.129895045706,4,1,0,72,0,0
270070,-108.816744500084,4,1,0,72,0,0
270087,-108.505385996409,4,1,0,72,0,0
270103,-108.213965980304,4,1,0,72,0,0
270120,-107.906042515204,4,1,0,73,0,0
270137,-107.599866473795,4,1,0,73,0,0
270153,-107.313283764288,4,1,0,73,0,0
270170,-107.010457588668,4,1,0,73,0,0
270187,-106.709335687486,4,1,0,74,0,0
270203,-106.42747083425,4,1,0,74,0,0
270220,-106.129616418811,4,1,0,74,0,0
270237,-105.833424537594,4,1,0,74,0,0
270253,-105.556161991049,4,1,0,75,0,0
270270,-105.263157894737,4,1,0,75,0,0
270287,-104.97177594442,4,1,0,75,0,0
270303,-104.699003897791,4,1,0,76,0,0
270320,-104.41073260271,4,1,0,76,0,0
270337,-104.124044363088,4,1,0,76,0,0
270353,-103.855654602084,4,1,0,76,0,0
270370,-103.572002356343,4,1,0,77,0,0
270387,-103.289895321512,4,1,0,77,0,0
270403,-103.025783081185,4,1,0,77,0,0
270420,-102.746639749243,4,1,0,77,0,0
270437,-102.469004980396,4,1,0,78,0,0
270453,-102.209068808794,4,1,0,78,0,0
270470,-101.934327728878,4,1,0,78,0,0
270487,-101.661059714045,4,1,0,78,0,0
270503,-101.405201342282,4,1,0,79,0,0
270520,-101.134759190504,4,1,0,79,0,0
270537,-100.865755710858,4,1,0,79,0,0
270553,-100.613879929248,4,1,0,79,0,0
270570,-100.347636590048,4,1,0,80,0,0
270587,-100.082798592424,4,1,0,80,0,0
270603,-99.834813132356,4,1,0,80,0,0
270620,-99.572671574937,4,1,0,80,0,0
270637,-99.311903050221,4,1,0,81,0,0
270653,-99.067718471468,4,1,0,81,0,0
270670,-98.809584631891,4,1,0,81,0,0
270687,-98.552792498981,4,1,0,81,0,0
270703,-98.312322082147,4,1,0,82,0,0
270720,-98.058104750799,4,1,0,82,0,0
270737,-97.805198745828,4,1,0,82,0,0
270753,-97.568358389668,4,1,0,82,0,0
270770,-97.317969103809,4,1,0,83,0,0
270787,-97.068861674363,4,1,0,83,0,0
270803,-96.835569797717,4,1,0,83,0,0
270820,-96.58892273885,4,1,0,84,0,0
270837,-96.343528942911,4,1,0,84,0,0
270853,-96.113706391015,4,1,0,84,0,0
270870,-95.870718286819,4,1,0,84,0,0
270887,-95.628955696203,4,1,0,85,0,0
270903,-95.402525651144,4,1,0,85,0,0
270920,-95.16311568174,4,1,0,85,0,0
270937,-94.924904289781,4,1,0,85,0,0
270953,-94.701792184899,4,1,0,86,0,0
270970,-94.465881893225,4,1,0,86,0,0
270987,-94.231144026506,4,1,0,86,0,0
271003,-94.011277464515,4,1,0,86,0,0
271020,-93.77879067061,4,1,0,87,0,0
271037,-93.547450904518,4,1,0,87,0,0
271053,-93.330759579191,4,1,0,87,0,0
271070,-93.101622298175,4,1,0,87,0,0
271087,-92.873607376104,4,1,0,88,0,0
271103,-92.660022997317,4,1,0,88,0,0
271120,-92.434163360895,4,1,0,88,0,0
271137,-92.209402116907,4,1,0,88,0,0
271153,-91.998858338883,4,1,0,89,0,0
271170,-91.776206520192,4,1,0,89,0,0
271187,-91.554629804961,4,1,0,89,0,0
271203,-91.347062157567,4,1,0,89,0,0
271220,-91.127550299204,4,1,0,90,0,0
271237,-90.909090909091,4,1,0,90,0,0
271303,-83.333333333333,4,1,0,100,0,0
271370,-83.333333333333,4,1,0,100,0,1
286303,-76.923076923077,4,1,0,100,0,1
287370,-80,4,1,0,100,0,1
287437,-80.607388381053,4,1,0,100,0,1
287503,-81.21479677272,4,1,0,100,0,1
287570,-81.840843720038,4,1,0,100,0,1
287637,-82.476617453815,4,1,0,100,0,1
287703,-83.112634366724,4,1,0,100,0,1
287770,-83.768400392542,4,1,0,100,0,1
287837,-84.434596818865,4,1,0,100,0,1
287903,-85.101292072101,4,1,0,100,0,1
287970,-85.788944723618,4,1,0,100,0,1
288037,-86.48780092405,4,1,0,100,0,1
288103,-87.187448929564,4,1,0,100,0,1
288170,-87.909371781668,4,1,0,100,0,1
288237,-88.643349671845,4,1,0,100,0,1
288303,-89.378455352655,4,1,0,100,0,1
288437,-90.909090909091,4,1,0,100,0,0
288703,-83.112634366724,4,1,0,100,0,1
292037,-71.428571428571,4,1,0,100,0,1
292303,-75.750682438581,4,1,0,100,0,1
292570,-80.64906757084,4,1,0,100,0,1
292703,-83.333333333333,4,1,0,100,0,1
296970,-83.333333333333,4,1,0,50,0,0
296987,-124.689518132141,4,1,0,50,0,0
297003,-124.398705577097,4,1,0,50,0,0
297020,-124.091199906939,4,1,0,50,0,0
297037,-123.785210756868,4,1,0,50,0,0
297053,-123.498596277966,4,1,0,50,0,0
297070,-123.195519113062,4,1,0,50,0,0
297087,-122.89392586619,4,1,0,51,0,0
297103,-122.611419212092,4,1,0,51,0,0
297120,-122.312675571863,4,1,0,51,0,0
297137,-122.01538417546,4,1,0,51,0,0
297153,-121.736897663405,4,1,0,51,0,0
297170,-121.442395264117,4,1,0,51,0,0
297187,-121.149314329519,4,1,0,51,0,0
297203,-120.874762754596,4,1,0,51,0,0
297220,-120.584411914316,4,1,0,51,0,0
297237,-120.29545262327,4,1,0,51,0,0
297253,-120.0247531715,4,1,0,51,0,0
297270,-119.738466719048,4,1,0,51,0,0
297287,-119.453542733966,4,1,0,52,0,0
297303,-119.186614899025,4,1,0,52,0,0
297320,-118.904308086719,4,1,0,52,0,0
297337,-118.62333546468,4,1,0,52,0,0
297353,-118.360100968073,4,1,0,52,0,0
297370,-118.081691388089,4,1,0,52,0,0
297387,-117.804588498385,4,1,0,52,0,0
297403,-117.544971212914,4,1,0,52,0,0
297420,-117.270378717089,4,1,0,52,0,0
297437,-116.997066162156,4,1,0,52,0,0
297453,-116.740992038522,4,1,0,52,0,0
297470,-116.470138661426,4,1,0,52,0,0
297487,-116.200539201002,4,1,0,52,0,0
297503,-115.947936197386,4,1,0,53,0,0
297520,-115.680746082525,4,1,0,53,0,0
297537,-115.414784560872,4,1,0,53,0,0
297553,-115.165582575369,4,1,0,53,0,0
297570,-114.901981904352,4,1,0,53,0,0
297587,-114.639585180409,4,1,0,53,0,0
297603,-114.393715986167,4,1,0,53,0,0
297620,-114.133632910715,4,1,0,53,0,0
297637,-113.874729791038,4,1,0,53,0,0
297653,-113.632126973982,4,1,0,53,0,0
297670,-113.375491550643,4,1,0,53,0,0
297687,-113.120012725007,4,1,0,53,0,0
297703,-112.880611624031,4,1,0,53,0,0
297720,-112.627355751465,4,1,0,54,0,0
297737,-112.375233731005,4,1,0,54,0,0
297753,-112.138971380516,4,1,0,54,0,0
297770,-111.889028739249,4,1,0,54,0,0
297787,-111.640197797023,4,1,0,54,0,0
297803,-111.407012871727,4,1,0,54,0,0
297820,-111.160318866253,4,1,0,54,0,0
297837,-110.914714980115,4,1,0,54,0,0
297853,-110.684547741952,4,1,0,54,0,0
297870,-110.441039445077,4,1,0,54,0,0
297887,-110.198600242762,4,1,0,54,0,0
297903,-109.971392489884,4,1,0,54,0,0
297920,-109.731008589209,4,1,0,55,0,0
297937,-109.491673295527,4,1,0,55,0,0
297953,-109.267368313231,4,1,0,55,0,0
297970,-109.030049059689,4,1,0,55,0,0
297987,-108.793758445731,4,1,0,55,0,0
298003,-108.572300959263,4,1,0,55,0,0
298020,-108.337988117605,4,1,0,55,0,0
298037,-108.104684451876,4,1,0,55,0,0
298053,-107.886020581022,4,1,0,55,0,0
298070,-107.654657382178,4,1,0,55,0,0
298087,-107.424284383575,4,1,0,55,0,0
298103,-107.208361598955,4,1,0,55,0,0
298120,-106.979892694178,4,1,0,55,0,0
298137,-106.752395486728,4,1,0,56,0,0
298153,-106.539162567726,4,1,0,56,0,0
298170,-106.313533984453,4,1,0,56,0,0
298187,-106.088859053728,4,1,0,56,0,0
298203,-105.878266047989,4,1,0,56,0,0
298220,-105.655425147328,4,1,0,56,0,0
298237,-105.433520298485,4,1,0,56,0,0
298253,-105.225518482898,4,1,0,56,0,0
298270,-105.005413918693,4,1,0,56,0,0
298287,-104.786228236045,4,1,0,56,0,0
298303,-104.580770079165,4,1,0,56,0,0
298320,-104.363351758548,4,1,0,56,0,0
298337,-104.14683556662,4,1,0,57,0,0
298353,-103.943874692456,4,1,0,57,0,0
298370,-103.729093737845,4,1,0,57,0,0
298387,-103.515198563839,4,1,0,57,0,0
298403,-103.314689716956,4,1,0,57,0,0
298420,-103.102498429421,4,1,0,57,0,0
298437,-102.891176967037,4,1,0,57,0,0
298453,-102.693075978917,4,1,0,57,0,0
298470,-102.483427802863,4,1,0,57,0,0
298487,-102.274633877424,4,1,0,57,0,0
298503,-102.078897634028,4,1,0,57,0,0
298520,-101.871747123144,4,1,0,57,0,0
298537,-101.665435657954,4,1,0,57,0,0
298553,-101.472022068441,4,1,0,58,0,0
298570,-101.267324852857,4,1,0,58,0,0
298587,-101.063451836764,4,1,0,58,0,0
298603,-100.872319803314,4,1,0,58,0,0
298620,-100.67003255792,4,1,0,58,0,0
298637,-100.46855501401,4,1,0,58,0,0
298653,-100.279664402717,4,1,0,58,0,0
298670,-100.079744816587,4,1,0,58,0,0
298687,-99.880620771986,4,1,0,58,0,0
298703,-99.693932384757,4,1,0,58,0,0
298720,-99.496339131651,4,1,0,58,0,0
298737,-99.299527588374,4,1,0,58,0,0
298753,-99.115003135816,4,1,0,58,0,0
298770,-98.919695845697,4,1,0,59,0,0
298787,-98.725156752505,4,1,0,59,0,0
298803,-98.542758827741,4,1,0,59,0,0
298820,-98.349698059282,4,1,0,59,0,0
298837,-98.157392284512,4,1,0,59,0,0
298853,-97.977084337903,4,1,0,59,0,0
298870,-97.78623155193,4,1,0,59,0,0
298887,-97.596120857254,4,1,0,59,0,0
298903,-97.417867171982,4,1,0,59,0,0
298920,-97.229184705829,4,1,0,59,0,0
298937,-97.041231720907,4,1,0,59,0,0
298953,-96.86499738939,4,1,0,59,0,0
298970,-96.678448432119,4,1,0,60,0,0
298987,-96.492616630108,4,1,0,60,0,0
299003,-96.318367531207,4,1,0,60,0,0
299020,-96.133916099671,4,1,0,60,0,0
299037,-95.95016977356,4,1,0,60,0,0
299053,-95.77787255056,4,1,0,60,0,0
299070,-95.59548346626,4,1,0,60,0,0
299087,-95.413787705999,4,1,0,60,0,0
299103,-95.243409745318,4,1,0,60,0,0
299120,-95.063048612039,4,1,0,60,0,0
299137,-94.883369282426,4,1,0,60,0,0
299153,-94.714878693037,4,1,0,60,0,0
299170,-94.536511875222,4,1,0,60,0,0
299187,-94.358815594525,4,1,0,61,0,0
299203,-94.192181188053,4,1,0,61,0,0
299220,-94.015775789891,4,1,0,61,0,0
299237,-93.840029909173,4,1,0,61,0,0
299253,-93.675221180655,4,1,0,61,0,0
299270,-93.500745025857,4,1,0,61,0,0
299287,-93.326917608976,4,1,0,61,0,0
299303,-93.163904718238,4,1,0,61,0,0
299320,-92.991326330471,4,1,0,61,0,0
299337,-92.819386134737,4,1,0,61,0,0
299353,-92.658139888385,4,1,0,61,0,0
299370,-92.487428472343,4,1,0,61,0,0
299387,-92.317344929794,4,1,0,62,0,0
299403,-92.157836763785,4,1,0,62,0,0
299420,-91.988962186867,4,1,0,62,0,0
299437,-91.820705386155,4,1,0,62,0,0
299453,-91.662907348929,4,1,0,62,0,0
299470,-91.49584012351,4,1,0,62,0,0
299487,-91.329380792363,4,1,0,62,0,0
299503,-91.173265528514,4,1,0,62,0,0
299520,-91.007976794779,4,1,0,62,0,0
299537,-90.843286283026,4,1,0,62,0,0
299553,-90.688827017492,4,1,0,62,0,0
299570,-90.525288526816,4,1,0,62,0,0
299587,-90.362338789945,4,1,0,62,0,0
299603,-90.2095093127,4,1,0,63,0,0
299620,-90.047693411556,4,1,0,63,0,0
299637,-89.886456994797,4,1,0,63,0,0
299653,-89.735231646022,4,1,0,63,0,0
299670,-89.575111260391,4,1,0,63,0,0
299687,-89.415561283292,4,1,0,63,0,0
299703,-89.265914939018,4,1,0,63,0,0
299720,-89.107463559287,4,1,0,63,0,0
299737,-88.949573700778,4,1,0,63,0,0
299753,-88.801481758964,4,1,0,63,0,0
299770,-88.644673425295,4,1,0,63,0,0
299787,-88.48841790921,4,1,0,63,0,0
299803,-88.341856276268,4,1,0,63,0,0
299820,-88.186665564419,4,1,0,64,0,0
299837,-88.032019145468,4,1,0,64,0,0
299853,-87.886964223188,4,1,0,64,0,0
299870,-87.733366230776,4,1,0,64,0,0
299887,-87.580304180949,4,1,0,64,0,0
299903,-87.436732853835,4,1,0,64,0,0
299920,-87.284703187006,4,1,0,64,0,0
299937,-87.133201282392,4,1,0,64,0,0
299953,-86.991090905384,4,1,0,64,0,0
299970,-86.840605665907,4,1,0,64,0,0
299987,-86.69064017391,4,1,0,64,0,0
300003,-86.549968560475,4,1,0,64,0,0
300020,-86.401004333212,4,1,0,65,0,0
300037,-86.252552000162,4,1,0,65,0,0
300053,-86.113297410749,4,1,0,65,0,0
300070,-85.965831251511,4,1,0,65,0,0
300087,-85.818869290642,4,1,0,65,0,0
300103,-85.681010421477,4,1,0,65,0,0
300120,-85.535019845247,4,1,0,65,0,0
300137,-85.389525925037,4,1,0,65,0,0
300153,-85.253041897265,4,1,0,65,0,0
300170,-85.108504866762,4,1,0,65,0,0
300187,-84.96445709962,4,1,0,65,0,0
300203,-84.829327448758,4,1,0,65,0,0
300220,-84.686222363355,4,1,0,65,0,0
300237,-84.543599294644,4,1,0,66,0,0
300253,-84.409803960357,4,1,0,66,0,0
300270,-84.268109645312,4,1,0,66,0,0
300287,-84.1268902427,4,1,0,66,0,0
300303,-83.994409558867,4,1,0,66,0,0
300320,-83.854105254883,4,1,0,66,0,0
300337,-83.714268898001,4,1,0,66,0,0
300353,-83.583083583084,4,1,0,66,0,0
300370,-83.44414893617,4,1,0,66,0,0
300387,-83.305675406572,4,1,0,66,0,0
300403,-83.175766554258,4,1,0,66,0,0
300420,-83.038181605885,4,1,0,66,0,0
300437,-82.901051077306,4,1,0,67,0,0
300453,-82.772400147427,4,1,0,67,0,0
300470,-82.636145324967,4,1,0,67,0,0
300487,-82.50033835386,4,1,0,67,0,0
300503,-82.372927163568,4,1,0,67,0,0
300520,-82.237983271017,4,1,0,67,0,0
300537,-82.103480787362,4,1,0,67,0,0
300553,-81.977291502565,4,1,0,67,0,0
300570,-81.843639711524,4,1,0,67,0,0
300587,-81.7104230099,4,1,0,67,0,0
300603,-81.585438136938,4,1,0,67,0,0
300620,-81.453059977857,4,1,0,67,0,0
300637,-81.321110708772,4,1,0,67,0,0
300653,-81.197313086335,4,1,0,68,0,0
300670,-81.066190440003,4,1,0,68,0,0
300687,-80.935490601468,4,1,0,68,0,0
300703,-80.812863392739,4,1,0,68,0,0
300720,-80.682978482018,4,1,0,68,0,0
300737,-80.553510411357,4,1,0,68,0,0
300753,-80.432037096379,4,1,0,68,0,0
300770,-80.303372478169,4,1,0,68,0,0
300787,-80.175118844065,4,1,0,68,0,0
300803,-80.054783212322,4,1,0,68,0,0
300820,-79.927321769752,4,1,0,68,0,0
300837,-79.800265564512,4,1,0,68,0,0
300853,-79.681051707718,4,1,0,68,0,0
300870,-79.554776642554,4,1,0,69,0,0
300887,-79.428901174587,4,1,0,69,0,0
300903,-79.310793479675,4,1,0,69,0,0
300920,-79.18568830494,4,1,0,69,0,0
300937,-79.060977191455,4,1,0,69,0,0
300953,-78.943960333759,4,1,0,69,0,0
300970,-78.820008866558,4,1,0,69,0,0
300987,-78.696446026447,4,1,0,69,0,0
301003,-78.580504963076,4,1,0,69,0,0
301020,-78.457691317619,4,1,0,69,0,0
301037,-78.33526096455,4,1,0,69,0,0
301053,-78.220380927939,4,1,0,69,0,0
301070,-78.098689508749,4,1,0,70,0,0
301087,-77.977376144442,4,1,0,70,0,0
301103,-77.863542636083,4,1,0,70,0,0
301120,-77.7429581314,4,1,0,70,0,0
301137,-77.622746539084,4,1,0,70,0,0
301153,-77.509945323427,4,1,0,70,0,0
301170,-77.390452698781,4,1,0,70,0,0
301187,-77.271327936836,4,1,0,70,0,0
301203,-77.159545035352,4,1,0,70,0,0
301220,-77.041129527317,4,1,0,70,0,0
301237,-76.923076923077,4,1,0,70,0,0
301253,-77.011950752789,4,1,0,70,0,0
301270,-77.106604489752,4,1,0,70,0,0
301287,-77.201491186796,4,1,0,71,0,0
301303,-77.29100989238,4,1,0,71,0,0
301320,-77.386351268004,4,1,0,71,0,0
301337,-77.481928148498,4,1,0,71,0,0
301353,-77.572098774412,4,1,0,71,0,0
301370,-77.668135309325,4,1,0,71,0,0
301387,-77.764409931095,4,1,0,71,0,0
301403,-77.855239624776,4,1,0,71,0,0
301420,-77.951978949677,4,1,0,71,0,0
301437,-78.048958981302,4,1,0,71,0,0
301453,-78.140454995054,4,1,0,71,0,0
301470,-78.237904852731,4,1,0,71,0,0
301487,-78.335598075581,4,1,0,72,0,0
301503,-78.427767768504,4,1,0,72,0,0
301520,-78.525936015904,4,1,0,72,0,0
301537,-78.624350326219,4,1,0,72,0,0
301553,-78.717201166181,4,1,0,72,0,0
301570,-78.816095776521,4,1,0,72,0,0
301587,-78.915239187539,4,1,0,72,0,0
301603,-79.008778753195,4,1,0,72,0,0
301620,-79.108407818121,4,1,0,72,0,0
301637,-79.208288462253,4,1,0,72,0,0
301653,-79.302524445105,4,1,0,72,0,0
301670,-79.402896176898,4,1,0,72,0,0
301687,-79.50352230795,4,1,0,72,0,0
301703,-79.598462514461,4,1,0,73,0,0
301720,-79.699585248291,4,1,0,73,0,0
301737,-79.800965243743,4,1,0,73,0,0
301753,-79.896617597483,4,1,0,73,0,0
301770,-79.998499793722,4,1,0,73,0,0
301787,-80.100642157047,4,1,0,73,0,0
301803,-80.197014700906,4,1,0,73,0,0
301820,-80.299664947483,4,1,0,73,0,0
301837,-80.402578310528,4,1,0,73,0,0
301853,-80.499679208967,4,1,0,73,0,0
301870,-80.603106223784,4,1,0,73,0,0
301887,-80.7067993492,4,1,0,73,0,0
301903,-80.804636890556,4,1,0,73,0,0
301920,-80.908849523954,4,1,0,74,0,0
301937,-81.013331307684,4,1,0,74,0,0
301953,-81.111913906529,4,1,0,74,0,0
301970,-81.216921143814,4,1,0,74,0,0
301987,-81.322200617637,4,1,0,74,0,0
302003,-81.421536817193,4,1,0,74,0,0
302020,-81.527347781218,4,1,0,74,0,0
302037,-81.633434115351,4,1,0,74,0,0
302053,-81.733532589953,4,1,0,74,0,0
302070,-81.840156543759,4,1,0,74,0,0
302087,-81.947059049522,4,1,0,74,0,0
302103,-82.047928607147,4,1,0,74,0,0
302120,-82.155374956669,4,1,0,75,0,0
302137,-82.263103089205,4,1,0,75,0,0
302153,-82.364752674055,4,1,0,75,0,0
302170,-82.473030970885,4,1,0,75,0,0
302187,-82.581594331952,4,1,0,75,0,0
302203,-82.684033027096,4,1,0,75,0,0
302220,-82.793152971315,4,1,0,75,0,0
302237,-82.902561312138,4,1,0,75,0,0
302253,-83.005798342219,4,1,0,75,0,0
302270,-83.115769785294,4,1,0,75,0,0
302287,-83.226033009481,4,1,0,75,0,0
302303,-83.330077743486,4,1,0,75,0,0
302320,-83.440910691233,4,1,0,75,0,0
302337,-83.55203885777,4,1,0,76,0,0
302353,-83.65690081186,4,1,0,76,0,0
302370,-83.768605427483,4,1,0,76,0,0
302387,-83.880608753785,4,1,0,76,0,0
302403,-83.986297594204,4,1,0,76,0,0
302420,-84.098884201396,4,1,0,76,0,0
302437,-84.211773066446,4,1,0,76,0,0
302453,-84.318298612484,4,1,0,76,0,0
302470,-84.431777698611,4,1,0,76,0,0
302487,-84.545562646161,4,1,0,76,0,0
302503,-84.652934873199,4,1,0,76,0,0
302520,-84.767317092557,4,1,0,76,0,0
302537,-84.882008834414,4,1,0,77,0,0
302553,-84.990237877037,4,1,0,77,0,0
302570,-85.105534054183,4,1,0,77,0,0
302587,-85.221143473571,4,1,0,77,0,0
302603,-85.330239628755,4,1,0,77,0,0
302620,-85.446460761928,4,1,0,77,0,0
302637,-85.562998916924,4,1,0,77,0,0
302653,-85.672972647307,4,1,0,77,0,0
302670,-85.790129911917,4,1,0,77,0,0
302687,-85.907608038987,4,1,0,77,0,0
302703,-86.018469976207,4,1,0,77,0,0
302720,-86.136574728425,4,1,0,77,0,0
302737,-86.255004246027,4,1,0,77,0,0
302753,-86.366765194153,4,1,0,78,0,0
302770,-86.485828974577,4,1,0,78,0,0
302787,-86.605221486865,4,1,0,78,0,0
302803,-86.717892425906,4,1,0,78,0,0
302820,-86.837926963319,4,1,0,78,0,0
302837,-86.958294263932,4,1,0,78,0,0
302853,-87.071886353431,4,1,0,78,0,0
302870,-87.192903568655,4,1,0,78,0,0
302887,-87.314257644603,4,1,0,78,0,0
302903,-87.428782227323,4,1,0,78,0,0
302920,-87.550794237163,4,1,0,78,0,0
302937,-87.673147272802,4,1,0,78,0,0
302953,-87.788615878504,4,1,0,78,0,0
302970,-87.911634999794,4,1,0,79,0,0
302987,-88.034999380907,4,1,0,79,0,0
303003,-88.151423730214,4,1,0,79,0,0
303020,-88.275462483963,4,1,0,79,0,0
303037,-88.39985080194,4,1,0,79,0,0
303053,-88.517242810308,4,1,0,79,0,0
303070,-88.642313925944,4,1,0,79,0,0
303087,-88.767738982063,4,1,0,79,0,0
303103,-88.886110763845,4,1,0,79,0,0
303120,-89.012227183575,4,1,0,79,0,0
303137,-89.138701993397,4,1,0,79,0,0
303153,-89.258065866008,4,1,0,79,0,0
303170,-89.385240749277,4,1,0,80,0,0
303187,-89.512778547148,4,1,0,80,0,0
303203,-89.633147035341,4,1,0,80,0,0
303220,-89.761393763414,4,1,0,80,0,0
303237,-89.89000800708,4,1,0,80,0,0
303253,-90.011393847322,4,1,0,80,0,0
303270,-90.140726027976,4,1,0,80,0,0
303287,-90.270430403318,4,1,0,80,0,0
303303,-90.39284654829,4,1,0,80,0,0
303320,-90.523278020626,4,1,0,80,0,0
303337,-90.654086446513,4,1,0,80,0,0
303353,-90.777546069711,4,1,0,80,0,0
303370,-90.909090909091,4,1,0,80,0,0
303387,-90.838897215788,4,1,0,81,0,0
303403,-90.772931511823,4,1,0,81,0,0
303420,-90.702947845805,4,1,0,81,0,0
303437,-90.633072007976,4,1,0,81,0,0
303453,-90.567404791016,4,1,0,81,0,0
303470,-90.497737556561,4,1,0,81,0,0
303487,-90.428177420084,4,1,0,81,0,0
303503,-90.362806668775,4,1,0,81,0,0
303520,-90.293453724605,4,1,0,81,0,0
303537,-90.22420715478,4,1,0,81,0,0
303553,-90.159130865978,4,1,0,81,0,0
303570,-90.09009009009,4,1,0,81,0,0
303587,-90.021154971418,4,1,0,82,0,0
303603,-89.956371159987,4,1,0,82,0,0
303620,-89.887640449438,4,1,0,82,0,0
303637,-89.819014685409,4,1,0,82,0,0
303653,-89.754521384015,4,1,0,82,0,0
303670,-89.686098654709,4,1,0,82,0,0
303687,-89.617780167585,4,1,0,82,0,0
303703,-89.553575426499,4,1,0,82,0,0
303720,-89.485458612975,4,1,0,82,0,0
303737,-89.417445343587,4,1,0,82,0,0
303753,-89.353527230487,4,1,0,82,0,0
303770,-89.285714285714,4,1,0,82,0,0
303787,-89.218004193246,4,1,0,82,0,0
303803,-89.154370793028,4,1,0,83,0,0
303820,-89.086859688196,4,1,0,83,0,0
303837,-89.019450749989,4,1,0,83,0,0
303853,-88.956100164569,4,1,0,83,0,0
303870,-88.888888888889,4,1,0,83,0,0
303887,-88.821779100235,4,1,0,83,0,0
303903,-88.758709448365,4,1,0,83,0,0
303920,-88.691796008869,4,1,0,83,0,0
303937,-88.624983382816,4,1,0,83,0,0
303953,-88.562192799894,4,1,0,83,0,0
303970,-88.495575221239,4,1,0,83,0,0
303987,-88.429057788389,4,1,0,83,0,0
304003,-88.36654442628,4,1,0,83,0,0
304020,-88.300220750552,4,1,0,84,0,0
304037,-88.233996558874,4,1,0,84,0,0
304053,-88.171758585725,4,1,0,84,0,0
304070,-88.105726872247,4,1,0,84,0,0
304087,-88.039793986882,4,1,0,84,0,0
304103,-87.977829586944,4,1,0,84,0,0
304120,-87.912087912088,4,1,0,84,0,0
304137,-87.846444415162,4,1,0,84,0,0
304153,-87.784751788614,4,1,0,84,0,0
304170,-87.719298245614,4,1,0,84,0,0
304187,-87.653942236052,4,1,0,84,0,0
304203,-87.592519598826,4,1,0,84,0,0
304220,-87.527352297593,4,1,0,85,0,0
304237,-87.462281890935,4,1,0,85,0,0
304253,-87.401127474544,4,1,0,85,0,0
304270,-87.336244541485,4,1,0,85,0,0
304287,-87.271457869704,4,1,0,85,0,0
304303,-87.210569921074,4,1,0,85,0,0
304320,-87.145969498911,4,1,0,85,0,0
304337,-87.081464710236,4,1,0,85,0,0
304353,-87.020841491537,4,1,0,85,0,0
304370,-86.95652173913,4,1,0,85,0,0
304387,-86.892296997871,4,1,0,85,0,0
304403,-86.83193678635,4,1,0,85,0,0
304420,-86.767895878525,4,1,0,85,0,0
304437,-86.703949364894,4,1,0,86,0,0
304453,-86.643850452714,4,1,0,86,0,0
304470,-86.580086580087,4,1,0,86,0,0
304487,-86.516416490029,4,1,0,86,0,0
304503,-86.456577184109,4,1,0,86,0,0
304520,-86.393088552916,4,1,0,86,0,0
304537,-86.329693097941,4,1,0,86,0,0
304553,-86.270111719795,4,1,0,86,0,0
304570,-86.206896551724,4,1,0,86,0,0
304587,-86.143773958737,4,1,0,86,0,0
304603,-86.084448844316,4,1,0,86,0,0
304620,-86.021505376344,4,1,0,86,0,0
304637,-85.95865388748,4,1,0,87,0,0
304653,-85.899583387021,4,1,0,87,0,0
304670,-85.836909871245,4,1,0,87,0,0
304687,-85.774327743706,4,1,0,87,0,0
304703,-85.715510221575,4,1,0,87,0,0
304720,-85.653104925054,4,1,0,87,0,0
304737,-85.59079043095,4,1,0,87,0,0
304753,-85.532224265492,4,1,0,87,0,0
304770,-85.470085470085,4,1,0,87,0,0
304787,-85.408036896272,4,1,0,87,0,0
304803,-85.349720479665,4,1,0,87,0,0
304820,-85.287846481876,4,1,0,87,0,0
304837,-85.226062129799,4,1,0,87,0,0
304853,-85.167993867904,4,1,0,88,0,0
304870,-85.106382978723,4,1,0,88,0,0
304887,-85.044861164264,4,1,0,88,0,0
304903,-84.98703947648,4,1,0,88,0,0
304920,-84.925690021231,4,1,0,88,0,0
304937,-84.864429074553,4,1,0,88,0,0
304953,-84.806852393673,4,1,0,88,0,0
304970,-84.745762711864,4,1,0,88,0,0
304987,-84.684760977262,4,1,0,88,0,0
305003,-84.627427749334,4,1,0,88,0,0
305020,-84.566596194503,4,1,0,88,0,0
305037,-84.505852030253,4,1,0,88,0,0
305053,-84.448760714437,4,1,0,88,0,0
305070,-84.388185654008,4,1,0,89,0,0
305087,-84.327697432222,4,1,0,89,0,0
305103,-84.270846500653,4,1,0,89,0,0
305120,-84.210526315789,4,1,0,89,0,0
305137,-84.150292422266,4,1,0,89,0,0
305153,-84.093680359921,4,1,0,89,0,0
305170,-84.033613445378,4,1,0,89,0,0
305187,-83.973632279464,4,1,0,89,0,0
305203,-83.917257584022,4,1,0,89,0,0
305220,-83.857442348008,4,1,0,89,0,0
305237,-83.797712322454,4,1,0,89,0,0
305253,-83.741573504166,4,1,0,89,0,0
305270,-83.682008368201,4,1,0,90,0,0
305287,-83.622527909019,4,1,0,90,0,0
305303,-83.566623490578,4,1,0,90,0,0
305320,-83.507306889353,4,1,0,90,0,0
305337,-83.448074435682,4,1,0,90,0,0
305353,-83.392402952091,4,1,0,90,0,0
305370,-83.333333333333,4,1,0,90,0,0
305437,-76.923076923077,4,1,0,100,0,0
305503,-76.923076923077,4,1,0,100,0,1
305770,-90.909090909091,4,1,0,100,0,1
305859,-90.12792662322,4,1,0,100,0,1
305948,-89.360072751639,4,1,0,100,0,1
306037,-88.605191970006,4,1,0,100,0,1
306303,-86.423181965468,4,1,0,100,0,1
306392,-85.716909232818,4,1,0,100,0,1
306481,-85.022086615966,4,1,0,100,0,1
306570,-84.338437909382,4,1,0,100,0,1
306837,-82.351903312602,4,1,0,100,0,1
306925,-81.717512146015,4,1,0,100,0,1
307014,-81.085776330076,4,1,0,100,0,1
307103,-80.463733137956,4,1,0,100,0,1
307192,-79.851161199264,4,1,0,100,0,1
307281,-79.247845833864,4,1,0,100,0,1
307370,-78.653578801028,4,1,0,100,0,1
307459,-78.068158059795,4,1,0,100,0,1
307548,-77.491387539949,4,1,0,100,0,1
307637,-76.923076923077,4,1,0,100,0,1
307903,-90.909090909091,4,1,0,100,0,1
307992,-90.12792662322,4,1,0,100,0,1
308081,-89.360072751639,4,1,0,100,0,1
308170,-88.605191970006,4,1,0,100,0,1
308437,-86.41518167091,4,1,0,100,0,1
308525,-85.716909232818,4,1,0,100,0,1
308614,-85.022086615966,4,1,0,100,0,1
308703,-84.338437909382,4,1,0,100,0,1
308970,-82.351903312602,4,1,0,100,0,1
309059,-81.710359315506,4,1,0,100,0,1
309148,-81.078733660486,4,1,0,100,0,1
309237,-80.456798103857,4,1,0,100,0,1
309325,-79.851161199264,4,1,0,100,0,1
309414,-79.247845833864,4,1,0,100,0,1
309503,-78.653578801028,4,1,0,100,0,1
309592,-78.068158059795,4,1,0,100,0,1
309681,-77.491387539949,4,1,0,100,0,1
309770,-76.923076923077,4,1,0,100,0,1
310037,-90.909090909091,4,1,0,100,0,1
310125,-90.136218722829,4,1,0,100,0,1
310214,-89.367816091954,4,1,0,100,0,1
310303,-88.612403837022,4,1,0,100,0,1
310570,-86.420896628381,4,1,0,100,0,1
310659,-85.714285714286,4,1,0,100,0,1
310748,-85.019136139967,4,1,0,100,0,1
310837,-84.335171291693,4,1,0,100,0,1
311103,-82.355018095154,4,1,0,100,0,1
311192,-81.713084603258,4,1,0,100,0,1
311281,-81.081081081081,4,1,0,100,0,1
311370,-80.458778889272,4,1,0,100,0,1
311459,-79.8459563543,4,1,0,100,0,1
311548,-79.242398505181,4,1,0,100,0,1
311637,-78.647896822052,4,1,0,100,0,1
311725,-78.068780855159,4,1,0,100,0,1
311814,-77.491694352159,4,1,0,100,0,1
311903,-76.923076923077,4,1,0,100,0,1
312170,-90.909090909091,4,1,0,100,0,1
312259,-90.12792662322,4,1,0,100,0,1
312348,-89.360072751639,4,1,0,100,0,1
312437,-88.605191970006,4,1,0,100,0,1
312703,-86.423181965468,4,1,0,100,0,1
312792,-85.716909232818,4,1,0,100,0,1
312881,-85.022086615966,4,1,0,100,0,1
312970,-84.338437909382,4,1,0,100,0,1
313237,-82.351903312602,4,1,0,100,0,1
313325,-81.717512146015,4,1,0,100,0,1
313414,-81.085776330076,4,1,0,100,0,1
313503,-80.463733137956,4,1,0,100,0,1
313592,-79.851161199264,4,1,0,100,0,1
313681,-79.247845833864,4,1,0,100,0,1
313770,-78.653578801028,4,1,0,100,0,1
313859,-78.068158059795,4,1,0,100,0,1
313948,-77.491387539949,4,1,0,100,0,1
314037,-76.923076923077,4,1,0,100,0,1
314303,-90.909090909091,4,1,0,100,0,1
314392,-90.12792662322,4,1,0,100,0,1
314481,-89.360072751639,4,1,0,100,0,1
314570,-88.605191970006,4,1,0,100,0,1
314837,-86.41518167091,4,1,0,100,0,1
314925,-85.716909232818,4,1,0,100,0,1
315014,-85.022086615966,4,1,0,100,0,1
315103,-84.338437909382,4,1,0,100,0,1
315370,-82.351903312602,4,1,0,100,0,1
315459,-81.710359315506,4,1,0,100,0,1
315548,-81.078733660486,4,1,0,100,0,1
315637,-80.456798103857,4,1,0,100,0,1
315725,-79.851161199264,4,1,0,100,0,1
315814,-79.247845833864,4,1,0,100,0,1
315903,-78.653578801028,4,1,0,100,0,1
315992,-78.068158059795,4,1,0,100,0,1
316081,-77.491387539949,4,1,0,100,0,1
316170,-76.923076923077,4,1,0,100,0,1
316437,-90.909090909091,4,1,0,100,0,1
316525,-90.554727066015,4,1,0,100,0,1
316614,-90.199135217813,4,1,0,100,0,1
316703,-89.846325134411,4,1,0,100,0,1
316970,-88.804262836292,4,1,0,100,0,1
317059,-88.46225966046,4,1,0,100,0,1
317148,-88.122880625323,4,1,0,100,0,1
317237,-87.786095644332,4,1,0,100,0,1
317503,-86.794695801078,4,1,0,100,0,1
317592,-86.467967516355,4,1,0,100,0,1
317681,-86.143689865861,4,1,0,100,0,1
317770,-85.821835381042,4,1,0,100,0,1
317859,-85.502377002328,4,1,0,100,0,1
317948,-85.18528807156,4,1,0,100,0,1
318037,-84.870542324564,4,1,0,100,0,1
318125,-84.561611537772,4,1,0,100,0,1
318214,-84.251449295272,4,1,0,100,0,1
318303,-83.943554016507,4,1,0,100,0,1
318392,-83.63790093825,4,1,0,100,0,1
318481,-83.334465656634,4,1,0,100,0,1
318570,-83.033224120657,4,1,0,100,0,1
318659,-82.734152625828,4,1,0,100,0,1
318748,-82.437227807947,4,1,0,100,0,1
318837,-82.142426637022,4,1,0,100,0,1
318925,-81.853003590161,4,1,0,100,0,1
319014,-81.562358698832,4,1,0,100,0,1
319103,-81.273770556976,4,1,0,100,0,1
319192,-80.987217409677,4,1,0,100,0,1
319281,-80.702677807751,4,1,0,100,0,1
319370,-80.420130602397,4,1,0,100,0,1
319459,-80.139554939957,4,1,0,100,0,1
319548,-79.860930256784,4,1,0,100,0,1
319637,-79.584236274217,4,1,0,100,0,1
319725,-79.312529905466,4,1,0,100,0,1
319814,-79.039616465191,4,1,0,100,0,1
319903,-78.768574767856,4,1,0,100,0,1
319992,-78.499385623592,4,1,0,100,0,1
320081,-78.232030103961,4,1,0,100,0,1
320170,-77.966489537515,4,1,0,100,0,1
320259,-77.702745505454,4,1,0,100,0,1
320348,-77.440779837366,4,1,0,100,0,1
320437,-77.18057460705,4,1,0,100,0,1
320525,-76.925006584971,4,1,0,100,0,1
320614,-76.668250118759,4,1,0,100,0,1
320703,-76.413201928708,4,1,0,100,0,1
320792,-76.159845022849,4,1,0,100,0,1
320881,-75.908162633826,4,1,0,100,0,1
320970,-75.658138215193,4,1,0,100,0,1
321059,-75.40975543779,4,1,0,100,0,1
321148,-75.162998186186,4,1,0,100,0,1
321237,-74.917850555196,4,1,0,100,0,1
321325,-74.677024608229,4,1,0,100,0,1
321414,-74.435031677064,4,1,0,100,0,1
321503,-74.194602049334,4,1,0,100,0,1
321592,-73.955720625121,4,1,0,100,0,1
321681,-73.718372498347,4,1,0,100,0,1
321770,-73.48254295368,4,1,0,100,0,1
321859,-73.248217463483,4,1,0,100,0,1
321948,-73.015381684842,4,1,0,100,0,1
322037,-72.78402145663,4,1,0,100,0,1
322125,-72.556697859855,4,1,0,100,0,1
322214,-72.328230771045,4,1,0,100,0,1
322303,-72.101197963814,4,1,0,100,0,1
322392,-71.875585974123,4,1,0,100,0,1
322481,-71.651381505929,4,1,0,100,0,1
322570,-33.333333333333,4,1,0,100,0,1
322587,-33.431006925946,4,1,0,100,0,1
322603,-33.523459350743,4,1,0,100,0,1
322620,-33.622251989599,4,1,0,99,0,1
322637,-33.721628627426,4,1,0,99,0,1
322653,-33.815697711279,4,1,0,99,0,1
322670,-33.916222875765,4,1,0,99,0,1
322687,-34.017347491948,4,1,0,98,0,1
322703,-34.113076012919,4,1,0,98,0,1
322720,-34.21537968086,4,1,0,98,0,1
322737,-34.318298803243,4,1,0,98,0,1
322753,-34.415731062073,4,1,0,97,0,1
322770,-34.519860852682,4,1,0,97,0,1
322787,-34.624622675192,4,1,0,97,0,1
322803,-34.723804563654,4,1,0,97,0,1
322820,-34.829809811444,4,1,0,96,0,1
322837,-34.936464269339,4,1,0,96,0,1
322853,-35.037443342311,4,1,0,96,0,1
322870,-35.145375175027,4,1,0,96,0,1
322887,-35.253974024257,4,1,0,96,0,1
322903,-35.356799575752,4,1,0,95,0,1
322920,-35.466710996592,4,1,0,95,0,1
322937,-35.577307897545,4,1,0,95,0,1
322953,-35.682031040942,4,1,0,95,0,1
322970,-35.793977015351,4,1,0,94,0,1
322987,-35.90662762126,4,1,0,94,0,1
323003,-36.013301374025,4,1,0,94,0,1
323020,-36.127338921345,4,1,0,94,0,1
323037,-36.242100971665,4,1,0,93,0,1
323053,-36.350780344851,4,1,0,93,0,1
323070,-36.466968635159,4,1,0,93,0,1
323087,-36.583902054254,4,1,0,93,0,1
323103,-36.694644147088,4,1,0,93,0,1
323120,-36.813044603572,4,1,0,92,0,1
323137,-36.932211605041,4,1,0,92,0,1
323153,-37.045075704959,4,1,0,92,0,1
323170,-37.165752112185,4,1,0,92,0,1
323187,-37.287217309238,4,1,0,91,0,1
323203,-37.402264997721,4,1,0,91,0,1
323220,-37.525283616217,4,1,0,91,0,1
323237,-37.649114138491,4,1,0,91,0,1
323253,-37.766409403101,4,1,0,90,0,1
323270,-37.891839090667,4,1,0,90,0,1
323287,-38.018104707937,4,1,0,90,0,1
323303,-38.137714060992,4,1,0,90,0,1
323320,-38.26562640122,4,1,0,89,0,1
323337,-38.394399654477,4,1,0,89,0,1
323353,-38.51639225881,4,1,0,89,0,1
323370,-38.64686169731,4,1,0,89,0,1
323387,-38.778218037733,4,1,0,89,0,1
323403,-38.90266584005,4,1,0,88,0,1
323420,-39.035769828927,4,1,0,88,0,1
323437,-39.169787765293,4,1,0,88,0,1
323453,-39.296765637663,4,1,0,88,0,1
323470,-39.432584788837,4,1,0,87,0,1
323487,-39.569346043993,4,1,0,87,0,1
323503,-39.698931934055,4,1,0,87,0,1
323520,-39.837550182056,4,1,0,87,0,1
323537,-39.977139859092,4,1,0,86,0,1
323553,-40.109414949616,4,1,0,86,0,1
323570,-40.250919724554,4,1,0,86,0,1
323587,-40.393426483396,4,1,0,86,0,1
323603,-40.528475361878,4,1,0,85,0,1
323620,-40.67295777333,4,1,0,85,0,1
323637,-40.81847401852,4,1,0,85,0,1
323653,-40.95638485756,4,1,0,85,0,1
323670,-41.103939890184,4,1,0,85,0,1
323687,-41.252561970687,4,1,0,84,0,1
323703,-41.393426719957,4,1,0,84,0,1
323720,-41.544153441729,4,1,0,84,0,1
323737,-41.695981863665,4,1,0,84,0,1
323753,-41.839896454346,4,1,0,83,0,1
323770,-41.993898238362,4,1,0,83,0,1
323787,-42.149037891659,4,1,0,83,0,1
323803,-42.296102454304,4,1,0,83,0,1
323820,-42.453487215202,4,1,0,82,0,1
323837,-42.612047615243,4,1,0,82,0,1
323853,-42.762366712098,4,1,0,82,0,1
323870,-42.923247158234,4,1,0,82,0,1
323887,-43.085342703663,4,1,0,81,0,1
323903,-43.239025576588,4,1,0,81,0,1
323920,-43.403519479198,4,1,0,81,0,1
323937,-43.569269727169,4,1,0,81,0,1
323953,-43.726430562387,4,1,0,81,0,1
323970,-43.894661043103,4,1,0,80,0,1
323987,-44.064191003346,4,1,0,80,0,1
324003,-44.224949214378,4,1,0,80,0,1
324020,-44.397045052544,4,1,0,80,0,1
324037,-44.570485501797,4,1,0,79,0,1
324053,-44.734966032039,4,1,0,79,0,1
324070,-44.911061993474,4,1,0,79,0,1
324087,-45.088549811911,4,1,0,79,0,1
324103,-45.256883458487,4,1,0,78,0,1
324120,-45.437120647428,4,1,0,78,0,1
324137,-45.618799178926,4,1,0,78,0,1
324153,-45.79112293956,4,1,0,78,0,1
324170,-45.975649175735,4,1,0,78,0,1
324187,-46.16166861396,4,1,0,77,0,1
324203,-46.338126058816,4,1,0,77,0,1
324220,-46.527096281758,4,1,0,77,0,1
324237,-46.71761408426,4,1,0,77,0,1
324253,-46.898355754858,4,1,0,76,0,1
324270,-47.091932457786,4,1,0,76,0,1
324287,-47.287113790505,4,1,0,76,0,1
324303,-47.472297628054,4,1,0,76,0,1
324320,-47.670651323874,4,1,0,75,0,1
324337,-47.870669538682,4,1,0,75,0,1
324353,-48.060461344386,4,1,0,75,0,1
324370,-48.263771066621,4,1,0,75,0,1
324387,-48.468808214821,4,1,0,74,0,1
324403,-48.663382144975,4,1,0,74,0,1
324420,-48.871835986714,4,1,0,74,0,1
324437,-49.082083371676,4,1,0,74,0,1
324453,-49.281622470664,4,1,0,74,0,1
324470,-49.495418164946,4,1,0,73,0,1
324487,-49.711076937416,4,1,0,73,0,1
324503,-49.91577371204,4,1,0,73,0,1
324520,-50.135119257432,4,1,0,73,0,1
324537,-50.356401057402,4,1,0,72,0,1
324553,-50.566458096322,4,1,0,72,0,1
324570,-50.791572431853,4,1,0,72,0,1
324587,-51.018700081305,4,1,0,72,0,1
324603,-51.234330723788,4,1,0,71,0,1
324620,-51.465444457846,4,1,0,71,0,1
324637,-51.698652709121,4,1,0,71,0,1
324653,-51.920081767741,4,1,0,71,0,1
324670,-52.157437966019,4,1,0,70,0,1
324687,-52.396974311115,4,1,0,70,0,1
324703,-52.624438853535,4,1,0,70,0,1
324720,-52.868293891711,4,1,0,70,0,1
324737,-53.114419438359,4,1,0,70,0,1
324753,-53.348169633927,4,1,0,69,0,1
324770,-53.598794121342,4,1,0,69,0,1
324787,-53.85178454238,4,1,0,69,0,1
324803,-54.092084579889,4,1,0,69,0,1
324820,-54.349764361228,4,1,0,68,0,1
324837,-54.609910924542,4,1,0,68,0,1
324853,-54.857040008228,4,1,0,68,0,1
324870,-55.122077251001,4,1,0,68,0,1
324887,-55.389687938107,4,1,0,67,0,1
324903,-55.643941369777,4,1,0,67,0,1
324920,-55.916655746298,4,1,0,67,0,1
324937,-56.192056468605,4,1,0,67,0,1
324953,-56.453746824725,4,1,0,66,0,1
324970,-56.734476798298,4,1,0,66,0,1
324987,-57.01801272115,4,1,0,66,0,1
325003,-57.28747113474,4,1,0,66,0,1
325020,-57.57657536095,4,1,0,66,0,1
325037,-57.868612346751,4,1,0,65,0,1
325053,-58.146189905156,4,1,0,65,0,1
325070,-58.444048760444,4,1,0,65,0,1
325087,-58.744974943554,4,1,0,65,0,1
325103,-59.031044214487,4,1,0,64,0,1
325120,-59.338061465721,4,1,0,64,0,1
325137,-59.648288973384,4,1,0,64,0,1
325153,-59.943245673185,4,1,0,64,0,1
325170,-60.259850303629,4,1,0,63,0,1
325187,-60.579817138963,4,1,0,63,0,1
325203,-60.884081958792,4,1,0,63,0,1
325220,-61.210730167838,4,1,0,63,0,1
325237,-61.54090227299,4,1,0,62,0,1
325253,-61.854922880668,4,1,0,62,0,1
325270,-62.192100276928,4,1,0,62,0,1
325287,-62.532973796823,4,1,0,62,0,1
325303,-62.857227034353,4,1,0,62,0,1
325320,-63.20545104429,4,1,0,61,0,1
325337,-63.557554814109,4,1,0,61,0,1
325353,-63.89254911356,4,1,0,61,0,1
325370,-64.252371630778,4,1,0,61,0,1
325387,-64.616269913381,4,1,0,60,0,1
325403,-64.962547956884,4,1,0,60,0,1
325420,-65.334558260603,4,1,0,60,0,1
325437,-65.710853763706,4,1,0,60,0,1
325453,-66.068995416822,4,1,0,59,0,1
325470,-66.453823391995,4,1,0,59,0,1
325487,-66.843160599035,4,1,0,59,0,1
325503,-67.213786150841,4,1,0,59,0,1
325520,-67.612105846934,4,1,0,59,0,1
325537,-68.015174700332,4,1,0,58,0,1
325553,-68.39894844832,4,1,0,58,0,1
325570,-68.811482019029,4,1,0,58,0,1
325587,-69.22902200013,4,1,0,58,0,1
325603,-69.626656223484,4,1,0,57,0,1
325620,-70.054178295846,4,1,0,57,0,1
325637,-70.486982952293,4,1,0,57,0,1
325653,-70.899242323541,4,1,0,57,0,1
325670,-71.342584852031,4,1,0,56,0,1
325687,-71.791506830877,4,1,0,56,0,1
325703,-72.219213323404,4,1,0,56,0,1
325720,-72.679270993017,4,1,0,56,0,1
325737,-73.145227646736,4,1,0,55,0,1
325753,-73.589266004415,4,1,0,55,0,1
325770,-74.067002256553,4,1,0,55,0,1
325787,-74.550981899504,4,1,0,55,0,1
325803,-75.012305745025,4,1,0,55,0,1
325820,-75.508759511591,4,1,0,54,0,1
325837,-76.011828416702,4,1,0,54,0,1
325853,-76.491467087337,4,1,0,54,0,1
325870,-77.00776033207,4,1,0,54,0,1
325887,-77.531070571989,4,1,0,53,0,1
325903,-78.030136785897,4,1,0,53,0,1
325920,-78.567482968146,4,1,0,53,0,1
325937,-79.112281222189,4,1,0,53,0,1
325953,-79.631979695431,4,1,0,52,0,1
325970,-80.191693290735,4,1,0,52,0,1
325987,-80.759330759331,4,1,0,52,0,1
326003,-81.300967914031,4,1,0,52,0,1
326020,-81.884475148724,4,1,0,51,0,1
326037,-82.476418741302,4,1,0,51,0,1
326053,-83.041413669625,4,1,0,51,0,1
326070,-83.650264653989,4,1,0,51,0,1
326087,-84.268109645312,4,1,0,51,0,1
326103,-84.85800652295,4,1,0,50,0,1
326120,-85.4938890002,4,1,0,50,0,1
326137,-86.139373385013,4,1,0,50,0,1
326153,-86.755855562785,4,1,0,50,0,1
326170,-87.420610530629,4,1,0,49,0,1
326187,-88.095631348584,4,1,0,49,0,1
326203,-88.740537392896,4,1,0,49,0,1
326220,-89.436176902117,4,1,0,49,0,1
326237,-90.142808855839,4,1,0,48,0,1
326253,-90.818150859867,4,1,0,48,0,1
326270,-91.546878352285,4,1,0,48,0,1
326287,-92.287395103383,4,1,0,48,0,1
326303,-92.995379653038,4,1,0,48,0,1
326320,-93.759613271808,4,1,0,47,0,1
326337,-94.536511875222,4,1,0,47,0,1
326353,-95.279564130046,4,1,0,47,0,1
326370,-96.081963521729,4,1,0,47,0,1
326387,-96.897992551549,4,1,0,46,0,1
326403,-97.67878399414,4,1,0,46,0,1
326420,-98.522281228354,4,1,0,46,0,1
326437,-99.38047326253,4,1,0,46,0,1
326453,-100.201953785459,4,1,0,45,0,1
326470,-101.089789149491,4,1,0,45,0,1
326487,-101.993498422411,4,1,0,45,0,1
326503,-102.858933564748,4,1,0,45,0,1
326520,-103.794697153977,4,1,0,44,0,1
326537,-104.747643362137,4,1,0,44,0,1
326553,-105.660657686212,4,1,0,44,0,1
326570,-106.648337915521,4,1,0,44,0,1
326587,-107.654657382178,4,1,0,44,0,1
326603,-108.619285205173,4,1,0,43,0,1
326620,-109.663325623233,4,1,0,43,0,1
326637,-110.727631305792,4,1,0,43,0,1
326653,-111.74837628326,4,1,0,43,0,1
326670,-112.853742396192,4,1,0,42,0,1
326687,-113.98119457207,4,1,0,42,0,1
326703,-115.063099989214,4,1,0,42,0,1
326720,-116.235358213021,4,1,0,42,0,1
326737,-117.431748128578,4,1,0,41,0,1
326753,-118.580480213428,4,1,0,41,0,1
326770,-119.825891603482,4,1,0,41,0,1
326787,-121.097740946759,4,1,0,41,0,1
326803,-122.319688109162,4,1,0,40,0,1
326820,-123.645320197044,4,1,0,40,0,1
326837,-125,4,1,0,40,0,0
329970,-125,4,1,0,50,0,0
330037,-125,4,1,0,50,0,0
330103,-124.230840947231,4,1,0,50,0,0
330170,-123.459649773001,4,1,0,50,0,0
330237,-122.697974217311,4,1,0,50,0,0
330303,-121.956800292879,4,1,0,50,0,0
330370,-121.213499499682,4,1,0,50,0,0
330437,-120.479204339964,4,1,0,50,0,0
330503,-119.764515549164,4,1,0,50,0,0
330570,-119.047619047619,4,1,0,50,0,0
330637,-118.339253996448,4,1,0,50,0,0
330703,-117.649655659544,4,1,0,50,0,0
330770,-116.957781093654,4,1,0,50,0,0
330837,-116.273996509599,4,1,0,50,0,0
330903,-115.608190178726,4,1,0,50,0,0
330970,-114.940050030191,4,1,0,50,0,0
331037,-114.279588336192,4,1,0,50,0,0
331103,272.727272727273,4,1,0,50,1,0
331103,-111.111111111111,4,1,0,50,0,0
331375,-111.427689558,4,1,0,50,0,0
331512,-111.586593986598,4,1,0,50,0,0
331648,-111.746077153962,4,1,0,50,0,0
331784,-111.905891621382,4,1,0,50,0,0
331921,-112.066163863145,4,1,0,50,0,0
332057,-112.227021797854,4,1,0,50,0,0
332330,-112.55000033765,4,1,0,50,0,0
332466,-112.712124217778,4,1,0,50,0,0
332603,-112.874715837903,4,1,0,50,0,0
332739,-113.037905000684,4,1,0,50,0,0
332875,-113.201438563881,4,1,0,50,0,0
333012,-113.365574502722,4,1,0,50,0,0
333148,-113.530058218214,4,1,0,50,0,0
333284,279.06976744186,4,1,0,50,1,0
333284,-111.111168532904,4,1,0,50,0,0
333563,-111.435004004922,4,1,0,50,0,0
333702,-111.597758078899,4,1,0,50,0,0
333842,-111.760860452583,4,1,0,50,0,0
333981,-111.924568463113,4,1,0,50,0,0
334121,-112.088628217661,4,1,0,50,0,0
334260,-112.25316963793,4,1,0,50,0,0
334539,-112.583835684154,4,1,0,50,0,0
334679,-112.749965362162,4,1,0,50,0,0
334818,-112.916455582921,4,1,0,50,0,0
334958,-113.083438220414,4,1,0,50,0,0
335097,-113.251046703046,4,1,0,50,0,0
335237,-113.41902114004,4,1,0,50,0,0
335377,-113.587626619826,4,1,0,50,0,0
335516,285.714285714286,4,1,0,50,1,0
335516,-111.111099353323,4,1,0,50,0,0
335801,-111.442797897743,4,1,0,50,0,0
335944,-111.609325692594,4,1,0,50,0,0
336087,-111.776482802869,4,1,0,50,0,0
336230,-111.944010083917,4,1,0,50,0,0
336373,-112.112171965124,4,1,0,50,0,0
336516,-112.280707757699,4,1,0,50,0,0
336801,-112.619436934992,4,1,0,50,0,0
336944,-112.789502455428,4,1,0,50,0,0
337087,-112.960216057392,4,1,0,50,0,0
337230,-113.131313131313,4,1,0,50,0,0
337373,-113.302929301562,4,1,0,50,0,0
337516,-113.475201831857,4,1,0,50,0,0
337658,-113.647863717811,4,1,0,50,0,0
337801,292.682926829268,4,1,0,50,1,0
337801,-111.111159289392,4,1,0,50,0,0
338093,-111.450839850036,4,1,0,50,0,0
338240,-111.621593867063,4,1,0,50,0,0
338386,-111.792737791061,4,1,0,50,0,0
338532,-111.964541867311,4,1,0,50,0,0
338679,-112.136739868801,4,1,0,50,0,0
338825,-112.309468356561,4,1,0,50,0,0
339118,-112.65666282828,4,1,0,50,0,0
339264,-112.831134612277,4,1,0,50,0,0
339410,-113.006010596767,4,1,0,50,0,0
339557,-113.18156697395,4,1,0,50,0,0
339703,-113.357531756421,4,1,0,50,0,0
339849,-113.534044540126,4,1,0,50,0,0
339996,-113.711246652452,4,1,0,50,0,0
340142,300,4,1,0,50,1,0
340142,-111.111086419759,4,1,0,50,0,0
340292,-111.285049643704,4,1,0,50,0,0
340442,-111.459421804249,4,1,0,50,0,0
340592,-111.634341268637,4,1,0,50,0,0
340742,-111.809948133601,4,1,0,50,0,0
340892,-111.985970397629,4,1,0,50,0,0
341042,-112.162686143792,4,1,0,50,0,0
341192,-112.33982166952,4,1,0,50,0,0
341492,-112.695916215545,4,1,0,50,0,0
341642,-112.874741319312,4,1,0,50,0,0
341792,-113.054275435714,4,1,0,50,0,0
341942,-113.234240539647,4,1,0,50,0,0
342092,-113.414779510894,4,1,0,50,0,0
342242,-113.596037043213,4,1,0,50,0,0
342392,-113.777732468956,4,1,0,50,0,0
342542,307.692307692308,4,1,0,50,1,0
342542,-111.111149097829,4,1,0,50,0,0
342849,-111.468445283856,4,1,0,50,0,0
343003,-111.647886156258,4,1,0,50,0,0
343157,-111.827905684689,4,1,0,50,0,0
343311,-112.008648216449,4,1,0,50,0,0
343465,-112.189833944087,4,1,0,50,0,0
343618,-112.371749258174,4,1,0,50,0,0
343926,-112.737068711336,4,1,0,50,0,0
344080,-112.920764483999,4,1,0,50,0,0
344234,-113.104915539629,4,1,0,50,0,0
344388,-113.289813003254,4,1,0,50,0,0
344542,-113.475170701572,4,1,0,50,0,0
344695,-113.661135935221,4,1,0,50,0,0
344849,-113.847857926281,4,1,0,50,0,0
345003,315.789473684211,4,1,0,50,1,0
345003,-111.11107212477,4,1,0,50,0,0
345318,-111.477801366741,4,1,0,50,0,0
345476,-111.662003112902,4,1,0,50,0,0
345634,-111.846959452181,4,1,0,50,0,0
345792,-112.032384198905,4,1,0,50,0,0
345950,-112.21857059056,4,1,0,50,0,0
346108,-112.40523055851,4,1,0,50,0,0
346424,-112.780566887365,4,1,0,50,0,0
346581,-112.969102712579,4,1,0,50,0,0
346739,-113.158418212073,4,1,0,50,0,0
346897,-113.348220528389,4,1,0,50,0,0
347055,-113.538809895756,4,1,0,50,0,0
347213,-113.729891507669,4,1,0,50,0,0
347371,-113.921617370385,4,1,0,50,0,0
347529,324.324324324324,4,1,0,50,1,0
347529,-111.111137804478,4,1,0,50,0,0
347853,-111.487812694689,4,1,0,50,0,0
348015,-111.677035326042,4,1,0,50,0,0
348177,-111.866901365441,4,1,0,50,0,0
348339,-112.057563425187,4,1,0,50,0,0
348664,-112.440693611995,4,1,0,50,0,0
348826,326.086956521739,4,1,0,50,1,0
348826,-112.024339479533,4,1,0,50,0,0
348907,-112.12030215934,4,1,0,50,0,0
348989,-112.216429387873,4,1,0,50,0,0
349070,-112.312872410258,4,1,0,50,0,0
349152,-112.409330267654,4,1,0,50,0,0
349233,-112.505953949601,4,1,0,50,0,0
349315,-112.60274388408,4,1,0,50,0,0
349396,-112.699700500546,4,1,0,50,0,0
349478,-112.796976354444,4,1,0,50,0,0
349559,-112.894267891717,4,1,0,50,0,0
349641,-112.991727408932,4,1,0,50,0,0
349722,-113.089355341505,4,1,0,50,0,0
349804,-113.187152126362,4,1,0,50,0,0
349885,-113.285271646384,4,1,0,50,0,0
349967,-113.3834077186,4,1,0,50,0,0
350048,-113.481713963666,4,1,0,50,0,0
350130,333.333333333333,4,1,0,50,1,0
350130,-111.111056241454,4,1,0,50,0,0

[HitObjects]
324,228,31316,5,4,0:0:0:0:
247,154,31631,1,8,0:0:0:0:
247,154,31789,1,0,0:0:0:0:
247,154,31947,1,8,0:0:0:0:
247,154,32105,1,8,0:0:0:0:
247,154,32263,1,0,0:0:0:0:
247,154,32421,1,0,0:0:0:0:
247,154,32735,1,8,0:0:0:0:
247,154,32891,1,0,0:0:0:0:
247,154,33047,1,0,0:0:0:0:
247,154,33204,1,8,0:0:0:0:
231,170,33360,1,0,0:0:0:0:
247,154,33516,1,8,0:0:0:0:
247,154,33672,1,8,0:0:0:0:
332,236,33829,1,0,0:0:0:0:
247,154,34138,1,8,0:0:0:0:
247,154,34292,1,0,0:0:0:0:
247,154,34447,1,8,0:0:0:0:
247,154,34602,1,8,0:0:0:0:
247,154,34756,1,0,0:0:0:0:
247,154,34911,1,0,0:0:0:0:
247,154,35219,1,8,0:0:0:0:
247,154,35372,1,0,0:0:0:0:
200,181,35525,1,0,0:0:0:0:
247,154,35678,1,8,0:0:0:0:
220,117,35831,1,0,0:0:0:0:
225,100,35984,1,8,0:0:0:0:
215,130,36137,1,0,0:0:0:0:
215,130,36290,1,0,0:0:0:0:
231,170,36593,1,8,0:0:0:0:
231,170,36744,1,0,0:0:0:0:
231,170,36896,1,8,0:0:0:0:
231,170,37047,1,8,0:0:0:0:
231,170,37199,1,0,0:0:0:0:
231,170,37350,1,0,0:0:0:0:
231,170,37652,1,8,0:0:0:0:
231,170,37802,1,0,0:0:0:0:
231,170,37952,1,0,0:0:0:0:
231,170,38102,1,8,0:0:0:0:
231,170,38252,1,0,0:0:0:0:
231,170,38402,1,8,0:0:0:0:
231,170,38552,1,8,0:0:0:0:
231,170,38702,1,0,0:0:0:0:
231,170,39002,1,8,0:0:0:0:
231,170,39152,1,0,0:0:0:0:
231,170,39302,1,8,0:0:0:0:
231,170,39452,1,8,0:0:0:0:
231,170,39602,1,0,0:0:0:0:
231,170,39752,1,0,0:0:0:0:
256,192,41327,8,0,46052,0:0:0:0:
331,240,48752,5,8,0:0:0:0:
331,240,49019,1,0,0:0:0:0:
331,240,49153,1,0,0:0:0:0:
331,240,49220,1,8,0:0:0:0:
331,240,49287,1,8,0:0:0:0:
331,240,49421,1,0,0:0:0:0:
331,240,49555,1,8,0:0:0:0:
331,240,49689,1,8,0:0:0:0:
331,240,49957,1,8,0:0:0:0:
331,240,50091,1,0,0:0:0:0:
331,240,50225,1,0,0:0:0:0:
331,240,50493,1,0,0:0:0:0:
331,240,50627,1,0,0:0:0:0:
331,240,50760,1,8,0:0:0:0:
331,240,50894,1,8,0:0:0:0:
331,240,51028,1,0,0:0:0:0:
331,240,51162,1,8,0:0:0:0:
331,240,51296,1,0,0:0:0:0:
331,240,51564,1,0,0:0:0:0:
331,240,51698,1,8,0:0:0:0:
280,191,51832,1,0,0:0:0:0:
331,240,52100,1,8,0:0:0:0:
331,240,52234,1,0,0:0:0:0:
331,240,52368,1,0,0:0:0:0:
331,240,52635,1,8,0:0:0:0:
331,240,52769,1,0,0:0:0:0:
331,240,52903,1,8,0:0:0:0:
331,240,53037,1,4,0:0:0:0:
331,240,53305,1,0,0:0:0:0:
331,240,53573,1,8,0:0:0:0:
331,240,53975,1,0,0:0:0:0:
331,240,54042,1,0,0:0:0:0:
331,240,54109,1,0,0:0:0:0:
331,272,54243,1,8,0:0:0:0:
331,272,54377,1,0,0:0:0:0:
331,272,54510,1,0,0:0:0:0:
331,272,54644,1,8,0:0:0:0:
331,272,54912,1,0,0:0:0:0:
331,272,55180,1,0,0:0:0:0:
299,272,55448,1,0,0:0:0:0:
331,272,55716,1,8,0:0:0:0:
331,240,56118,1,0,0:0:0:0:
331,240,56185,1,0,0:0:0:0:
331,240,56252,1,0,0:0:0:0:
331,240,56385,1,8,0:0:0:0:
331,240,56519,1,0,0:0:0:0:
331,240,56653,1,0,0:0:0:0:
331,240,56787,1,8,0:0:0:0:
331,240,57055,1,0,0:0:0:0:
331,240,57189,1,8,0:0:0:0:
331,240,57323,1,0,0:0:0:0:
336,243,57390,1,8,0:0:0:0:
331,240,57457,1,8,0:0:0:0:
331,240,57591,1,0,0:0:0:0:
331,240,57725,1,8,0:0:0:0:
331,240,57859,1,0,0:0:0:0:
331,240,57993,1,8,0:0:0:0:
331,240,58060,1,8,0:0:0:0:
331,240,58127,1,0,0:0:0:0:
331,240,58260,1,8,0:0:0:0:
331,240,58394,1,0,0:0:0:0:
331,240,58461,1,8,0:0:0:0:
331,240,58528,1,0,0:0:0:0:
331,240,58595,1,0,0:0:0:0:
331,240,58662,1,8,0:0:0:0:
331,240,58729,1,8,0:0:0:0:
331,240,58796,1,0,0:0:0:0:
331,240,58863,1,8,0:0:0:0:
331,240,58930,1,0,0:0:0:0:
331,240,58997,1,8,0:0:0:0:
331,240,59064,1,8,0:0:0:0:
331,240,59131,1,8,0:0:0:0:
331,240,59198,1,0,0:0:0:0:
331,240,59332,1,0,0:0:0:0:
331,240,59466,1,12,0:0:0:0:
331,240,59868,1,8,0:0:0:0:
331,240,60002,1,0,0:0:0:0:
331,240,60269,1,8,0:0:0:0:
331,240,60537,1,0,0:0:0:0:
331,240,60671,1,0,0:0:0:0:
363,272,60805,1,8,0:0:0:0:
363,240,61073,1,0,0:0:0:0:
363,240,61341,1,8,0:0:0:0:
363,272,61609,5,0,0:0:0:0:
363,240,62010,1,8,0:0:0:0:
363,240,62144,1,0,0:0:0:0:
363,240,62412,1,8,0:0:0:0:
363,240,62680,1,0,0:0:0:0:
363,240,62814,1,8,0:0:0:0:
331,272,62948,1,0,0:0:0:0:
363,240,63082,1,0,0:0:0:0:
363,240,63216,1,8,0:0:0:0:
363,240,63484,1,0,0:0:0:0:
363,272,63618,1,8,0:0:0:0:
363,240,63685,1,8,0:0:0:0:
363,240,63752,1,0,0:0:0:0:
363,272,64019,1,0,0:0:0:0:
363,272,64153,1,8,0:0:0:0:
363,240,64287,1,0,0:0:0:0:
363,240,64555,1,8,0:0:0:0:
331,240,64823,1,0,0:0:0:0:
331,240,64957,1,8,0:0:0:0:
331,240,65091,1,0,0:0:0:0:
331,240,65158,1,0,0:0:0:0:
331,240,65292,1,8,0:0:0:0:
331,240,65359,1,0,0:0:0:0:
331,240,65426,1,8,0:0:0:0:
331,240,65493,1,0,0:0:0:0:
331,240,65560,1,0,0:0:0:0:
331,240,65627,1,8,0:0:0:0:
331,240,65760,1,8,0:0:0:0:
331,240,65827,1,8,0:0:0:0:
331,240,65894,1,0,0:0:0:0:
331,240,65961,1,0,0:0:0:0:
331,240,66028,1,8,0:0:0:0:
331,240,66095,1,0,0:0:0:0:
331,240,66162,1,8,0:0:0:0:
331,240,66296,1,8,0:0:0:0:
331,240,66363,1,8,0:0:0:0:
331,240,66430,1,0,0:0:0:0:
331,240,66497,1,8,0:0:0:0:
331,240,66564,1,0,0:0:0:0:
331,240,66631,1,0,0:0:0:0:
331,240,66698,1,8,0:0:0:0:
331,240,66765,1,0,0:0:0:0:
331,240,66832,1,8,0:0:0:0:
331,240,66899,5,8,0:0:0:0:
331,240,67100,1,8,0:0:0:0:
331,240,67167,1,8,0:0:0:0:
331,240,67234,1,8,0:0:0:0:
331,240,67368,1,8,0:0:0:0:
363,240,67435,1,8,0:0:0:0:
331,240,67502,1,0,0:0:0:0:
261,198,67635,1,0,0:0:0:0:
331,240,67769,1,12,0:0:0:0:
331,208,67903,1,8,0:0:0:0:
299,240,67970,1,8,0:0:0:0:
189,184,68037,1,0,0:0:0:0:
234,209,70180,1,0,0:0:0:0:
274,173,72323,1,0,0:0:0:0:
274,173,73394,1,8,0:0:0:0:
274,173,74466,1,0,0:0:0:0:
274,173,75537,1,8,0:0:0:0:
276,214,75939,1,0,0:0:0:0:
276,214,76006,1,0,0:0:0:0:
276,214,76073,1,8,0:0:0:0:
195,226,76207,1,0,0:0:0:0:
229,204,76341,1,8,0:0:0:0:
229,204,76475,1,0,0:0:0:0:
247,140,76609,1,0,0:0:0:0:
247,140,76877,1,0,0:0:0:0:
247,140,77144,1,8,0:0:0:0:
231,115,77278,1,8,0:0:0:0:
231,197,77546,1,8,0:0:0:0:
247,140,77680,1,0,0:0:0:0:
235,136,77814,1,8,0:0:0:0:
231,197,77948,1,0,0:0:0:0:
231,197,78216,1,8,0:0:0:0:
264,211,78484,1,0,0:0:0:0:
264,211,78618,1,8,0:0:0:0:
247,140,78752,1,0,0:0:0:0:
231,197,79019,1,0,0:0:0:0:
247,140,79287,1,8,0:0:0:0:
276,214,79421,1,8,0:0:0:0:
241,118,79689,1,8,0:0:0:0:
241,118,79756,1,8,0:0:0:0:
241,118,79823,1,8,0:0:0:0:
231,197,79957,1,8,0:0:0:0:
247,140,80091,1,0,0:0:0:0:
247,140,80359,1,8,0:0:0:0:
276,214,80493,1,8,0:0:0:0:
264,211,80627,1,0,0:0:0:0:
292,83,80760,1,8,0:0:0:0:
247,140,80894,1,4,0:0:0:0:
228,109,81162,1,0,0:0:0:0:
247,140,81430,1,8,0:0:0:0:
292,83,81698,1,0,0:0:0:0:
247,140,81832,1,8,0:0:0:0:
242,151,81966,1,0,0:0:0:0:
247,140,82100,1,8,0:0:0:0:
247,140,82234,1,0,0:0:0:0:
247,140,82502,1,8,0:0:0:0:
242,151,82635,1,0,0:0:0:0:
247,140,82769,1,8,0:0:0:0:
247,140,82903,1,8,0:0:0:0:
247,140,83037,1,0,0:0:0:0:
242,151,83171,1,0,0:0:0:0:
247,140,83305,1,8,0:0:0:0:
252,116,83439,1,0,0:0:0:0:
252,116,83506,1,0,0:0:0:0:
247,140,83573,1,0,0:0:0:0:
242,151,83707,1,0,0:0:0:0:
247,140,83841,1,8,0:0:0:0:
242,151,83975,1,8,0:0:0:0:
247,140,84109,1,0,0:0:0:0:
247,140,84243,1,8,0:0:0:0:
289,221,84310,1,0,0:0:0:0:
247,140,84377,1,0,0:0:0:0:
247,140,84443,1,0,0:0:0:0:
247,140,84510,1,8,0:0:0:0:
247,140,84577,1,8,0:0:0:0:
247,140,84644,1,0,0:0:0:0:
247,140,84711,1,0,0:0:0:0:
247,140,84778,1,8,0:0:0:0:
247,140,84845,1,0,0:0:0:0:
247,140,84912,1,8,0:0:0:0:
247,140,85046,1,8,0:0:0:0:
281,156,85180,1,4,0:0:0:0:
219,286,85314,1,0,0:0:0:0:
219,286,85448,1,8,0:0:0:0:
281,156,85716,1,0,0:0:0:0:
269,228,85850,1,8,0:0:0:0:
235,125,86118,1,8,0:0:0:0:
279,184,86252,1,0,0:0:0:0:
271,170,86385,1,8,0:0:0:0:
281,156,86519,1,0,0:0:0:0:
271,101,86653,1,0,0:0:0:0:
229,110,86787,1,8,0:0:0:0:
241,109,87055,1,8,0:0:0:0:
281,156,87323,1,0,0:0:0:0:
219,286,87457,1,0,0:0:0:0:
219,286,87591,1,8,0:0:0:0:
281,156,87859,1,0,0:0:0:0:
244,121,87993,1,8,0:0:0:0:
231,122,88260,1,8,0:0:0:0:
281,156,88394,1,0,0:0:0:0:
261,133,88528,1,8,0:0:0:0:
281,156,88662,1,0,0:0:0:0:
263,125,88930,1,8,0:0:0:0:
283,186,89064,1,0,0:0:0:0:
271,115,89198,1,8,0:0:0:0:
281,156,89466,1,0,0:0:0:0:
219,286,89600,1,0,0:0:0:0:
219,286,89734,1,8,0:0:0:0:
288,148,90002,1,0,0:0:0:0:
286,130,90135,1,8,0:0:0:0:
277,100,90403,1,8,0:0:0:0:
288,148,90537,1,0,0:0:0:0:
251,171,90671,1,8,0:0:0:0:
251,171,90805,1,0,0:0:0:0:
251,171,90939,1,0,0:0:0:0:
221,189,91073,1,8,0:0:0:0:
221,189,91341,1,8,0:0:0:0:
251,171,91609,1,0,0:0:0:0:
281,120,91743,1,0,0:0:0:0:
281,120,91877,1,8,0:0:0:0:
288,148,92144,1,0,0:0:0:0:
245,141,92278,1,8,0:0:0:0:
245,141,92546,1,8,0:0:0:0:
288,148,92680,1,0,0:0:0:0:
262,73,92814,1,8,0:0:0:0:
245,141,92948,1,0,0:0:0:0:
229,112,93216,1,8,0:0:0:0:
229,112,93350,1,0,0:0:0:0:
229,112,93484,1,8,0:0:0:0:
238,177,93752,1,0,0:0:0:0:
219,286,93886,1,0,0:0:0:0:
219,286,94020,1,8,0:0:0:0:
238,177,94153,1,0,0:0:0:0:
281,156,94288,1,0,0:0:0:0:
269,228,94422,1,8,0:0:0:0:
235,125,94690,1,8,0:0:0:0:
281,156,94824,1,0,0:0:0:0:
271,170,94957,1,8,0:0:0:0:
281,156,95091,1,0,0:0:0:0:
230,107,95225,1,0,0:0:0:0:
229,110,95359,1,8,0:0:0:0:
271,101,95493,1,0,0:0:0:0:
241,109,95627,1,8,0:0:0:0:
238,177,95760,1,8,0:0:0:0:
256,156,95827,1,8,0:0:0:0:
281,156,95895,1,0,0:0:0:0:
219,286,96029,1,0,0:0:0:0:
219,286,96163,1,8,0:0:0:0:
291,188,96296,1,0,0:0:0:0:
281,156,96431,1,0,0:0:0:0:
244,121,96565,1,8,0:0:0:0:
231,122,96832,1,8,0:0:0:0:
281,156,96966,1,0,0:0:0:0:
261,133,97100,1,8,0:0:0:0:
281,156,97234,1,0,0:0:0:0:
271,101,97368,1,0,0:0:0:0:
263,125,97502,1,8,0:0:0:0:
229,169,97636,1,0,0:0:0:0:
260,79,97702,1,0,0:0:0:0:
271,115,97770,1,8,0:0:0:0:
279,252,97903,1,8,0:0:0:0:
281,156,98038,1,0,0:0:0:0:
219,286,98172,1,0,0:0:0:0:
219,286,98306,1,8,0:0:0:0:
291,188,98439,1,0,0:0:0:0:
288,148,98574,1,0,0:0:0:0:
286,130,98707,1,8,0:0:0:0:
277,100,98975,1,8,0:0:0:0:
288,148,99109,1,0,0:0:0:0:
251,171,99243,1,8,0:0:0:0:
251,171,99377,1,0,0:0:0:0:
251,171,99511,1,0,0:0:0:0:
221,189,99645,1,8,0:0:0:0:
271,101,99778,1,0,0:0:0:0:
221,189,99913,1,8,0:0:0:0:
271,101,100046,1,0,0:0:0:0:
215,116,100113,1,8,0:0:0:0:
251,171,100181,5,0,0:0:0:0:
281,120,100315,1,0,0:0:0:0:
281,120,100449,1,8,0:0:0:0:
291,188,100582,1,0,0:0:0:0:
215,116,100649,1,0,0:0:0:0:
215,116,100716,1,8,0:0:0:0:
215,116,100850,1,0,0:0:0:0:
215,116,100984,1,8,0:0:0:0:
215,116,101051,1,8,0:0:0:0:
215,116,101118,1,0,0:0:0:0:
286,221,101252,1,8,0:0:0:0:
215,116,101318,1,8,0:0:0:0:
286,221,101385,1,0,0:0:0:0:
286,221,101452,1,0,0:0:0:0:
286,221,101519,1,8,0:0:0:0:
286,221,101586,1,0,0:0:0:0:
286,221,101653,1,8,0:0:0:0:
286,221,101720,1,8,0:0:0:0:
286,221,101787,1,0,0:0:0:0:
286,221,101854,1,0,0:0:0:0:
286,221,101921,1,8,0:0:0:0:
286,221,101988,1,0,0:0:0:0:
286,221,102055,1,8,0:0:0:0:
286,221,102122,1,8,0:0:0:0:
286,221,102189,1,8,0:0:0:0:
249,226,102323,1,4,0:0:0:0:
331,240,102725,1,0,0:0:0:0:
331,240,102859,1,8,0:0:0:0:
331,240,103260,1,0,0:0:0:0:
331,240,103327,1,0,0:0:0:0:
331,240,103394,1,0,0:0:0:0:
331,240,103595,1,0,0:0:0:0:
331,240,103796,1,0,0:0:0:0:
331,240,103930,1,8,0:0:0:0:
181,92,104198,1,0,0:0:0:0:
331,240,104466,1,0,0:0:0:0:
331,240,104868,1,0,0:0:0:0:
331,240,105002,1,8,0:0:0:0:
331,240,105403,1,0,0:0:0:0:
331,240,105470,1,0,0:0:0:0:
331,240,105537,1,0,0:0:0:0:
331,240,105738,1,0,0:0:0:0:
331,240,105939,1,0,0:0:0:0:
331,240,106073,1,8,0:0:0:0:
181,92,106341,1,8,0:0:0:0:
299,240,106609,1,0,0:0:0:0:
299,240,107010,1,0,0:0:0:0:
299,240,107144,1,8,0:0:0:0:
331,240,107546,1,0,0:0:0:0:
331,240,107613,1,0,0:0:0:0:
331,240,107680,1,0,0:0:0:0:
331,240,107881,1,0,0:0:0:0:
331,240,108082,1,0,0:0:0:0:
331,240,108216,1,8,0:0:0:0:
181,92,108484,1,0,0:0:0:0:
331,240,108752,1,0,0:0:0:0:
331,240,109153,1,0,0:0:0:0:
331,240,109287,1,8,0:0:0:0:
331,240,109689,1,0,0:0:0:0:
331,240,109756,1,0,0:0:0:0:
331,240,109823,1,0,0:0:0:0:
331,240,110024,1,0,0:0:0:0:
331,240,110225,1,0,0:0:0:0:
331,240,110359,1,8,0:0:0:0:
181,92,110627,1,8,0:0:0:0:
331,240,110894,1,0,0:0:0:0:
299,240,111296,1,0,0:0:0:0:
299,240,111430,1,8,0:0:0:0:
299,240,111832,1,0,0:0:0:0:
299,240,111899,1,0,0:0:0:0:
299,240,111966,1,0,0:0:0:0:
299,240,112167,1,0,0:0:0:0:
299,240,112368,1,0,0:0:0:0:
299,240,112502,1,8,0:0:0:0:
164,99,112769,1,0,0:0:0:0:
299,240,113037,1,0,0:0:0:0:
299,240,113439,1,0,0:0:0:0:
299,240,113573,1,8,0:0:0:0:
299,240,113975,1,0,0:0:0:0:
299,240,114042,1,0,0:0:0:0:
299,240,114109,1,0,0:0:0:0:
299,240,114310,1,0,0:0:0:0:
299,240,114510,1,0,0:0:0:0:
299,240,114644,1,8,0:0:0:0:
331,240,114778,1,0,0:0:0:0:
299,208,114912,1,8,0:0:0:0:
299,240,115046,1,8,0:0:0:0:
163,99,115180,1,0,0:0:0:0:
299,240,115582,1,0,0:0:0:0:
299,240,115716,1,8,0:0:0:0:
299,240,116118,1,0,0:0:0:0:
299,240,116185,1,0,0:0:0:0:
299,240,116252,1,0,0:0:0:0:
299,240,116452,1,0,0:0:0:0:
299,240,116653,1,0,0:0:0:0:
299,240,116787,1,8,0:0:0:0:
299,240,116921,1,0,0:0:0:0:
299,240,117055,1,8,0:0:0:0:
299,240,117323,1,0,0:0:0:0:
299,240,117725,1,0,0:0:0:0:
299,240,117859,1,8,0:0:0:0:
299,240,118394,1,0,0:0:0:0:
299,240,118528,1,8,0:0:0:0:
299,240,118662,1,0,0:0:0:0:
299,240,118796,1,0,0:0:0:0:
299,240,118930,1,8,0:0:0:0:
299,240,119064,1,0,0:0:0:0:
299,240,119198,1,8,0:0:0:0:
299,240,119332,1,8,0:0:0:0:
299,240,119466,1,4,0:0:0:0:
299,208,120805,1,0,0:0:0:0:
299,208,121073,1,8,0:0:0:0:
299,208,121341,1,0,0:0:0:0:
299,208,121609,1,8,0:0:0:0:
299,240,122010,1,8,0:0:0:0:
299,240,122412,1,0,0:0:0:0:
299,240,122948,1,8,0:0:0:0:
331,240,123216,1,8,0:0:0:0:
331,240,123484,1,0,0:0:0:0:
331,240,123752,1,8,0:0:0:0:
331,240,124019,1,0,0:0:0:0:
131,131,124153,1,8,0:0:0:0:
331,240,125091,1,8,0:0:0:0:
331,240,125359,1,0,0:0:0:0:
331,240,125627,1,0,0:0:0:0:
331,240,125894,1,8,0:0:0:0:
331,240,126028,1,0,0:0:0:0:
331,240,126162,1,8,0:0:0:0:
331,240,126296,1,8,0:0:0:0:
331,240,126430,1,0,0:0:0:0:
331,240,126564,1,8,0:0:0:0:
331,240,126698,1,8,0:0:0:0:
331,240,126832,1,0,0:0:0:0:
331,240,126966,5,8,0:0:0:0:
331,240,127100,1,8,0:0:0:0:
331,240,127234,1,0,0:0:0:0:
331,240,127368,1,8,0:0:0:0:
331,240,127502,1,0,0:0:0:0:
331,240,127568,1,0,0:0:0:0:
331,240,127635,1,0,0:0:0:0:
331,240,127702,1,0,0:0:0:0:
331,240,127769,1,8,0:0:0:0:
331,240,127903,1,8,0:0:0:0:
375,211,128037,5,4,0:0:0:0:
297,115,128305,1,8,0:0:0:0:
297,115,128394,1,8,0:0:0:0:
297,115,128484,1,8,0:0:0:0:
256,140,128573,1,0,0:0:0:0:
297,115,128841,1,8,0:0:0:0:
270,95,128930,1,0,0:0:0:0:
297,115,129019,1,8,0:0:0:0:
256,140,129109,1,0,0:0:0:0:
270,95,129287,1,0,0:0:0:0:
297,115,129377,1,8,0:0:0:0:
297,115,129466,1,8,0:0:0:0:
297,115,129555,1,8,0:0:0:0:
256,140,129644,1,0,0:0:0:0:
244,129,129823,1,8,0:0:0:0:
244,129,129912,1,0,0:0:0:0:
244,129,130002,1,8,0:0:0:0:
244,129,130091,1,8,0:0:0:0:
246,134,130180,1,0,0:0:0:0:
270,95,130448,1,8,0:0:0:0:
270,95,130537,1,8,0:0:0:0:
270,95,130627,1,8,0:0:0:0:
256,140,130716,1,0,0:0:0:0:
270,95,130984,1,8,0:0:0:0:
270,95,131073,1,8,0:0:0:0:
270,95,131162,1,8,0:0:0:0:
256,140,131252,1,0,0:0:0:0:
270,95,131341,1,0,0:0:0:0:
270,95,131430,1,8,0:0:0:0:
270,95,131519,1,0,0:0:0:0:
270,95,131609,1,8,0:0:0:0:
270,95,131698,1,8,0:0:0:0:
256,140,131787,1,0,0:0:0:0:
270,95,131877,1,0,0:0:0:0:
270,95,131966,1,8,0:0:0:0:
270,95,132055,1,0,0:0:0:0:
270,95,132144,1,8,0:0:0:0:
270,95,132234,1,8,0:0:0:0:
270,95,132323,1,0,0:0:0:0:
234,122,132457,1,8,0:0:0:0:
256,140,132591,1,0,0:0:0:0:
234,122,132725,1,8,0:0:0:0:
234,122,132792,1,8,0:0:0:0:
256,140,132859,1,0,0:0:0:0:
234,122,132993,1,8,0:0:0:0:
256,140,133127,1,0,0:0:0:0:
234,122,133193,1,0,0:0:0:0:
234,122,133260,1,8,0:0:0:0:
234,122,133327,1,8,0:0:0:0:
256,140,133394,1,0,0:0:0:0:
234,122,133528,1,8,0:0:0:0:
256,140,133662,1,0,0:0:0:0:
234,122,133729,1,0,0:0:0:0:
234,122,133796,1,8,0:0:0:0:
290,190,133863,1,8,0:0:0:0:
256,140,133930,1,0,0:0:0:0:
237,89,133997,1,0,0:0:0:0:
234,122,134064,1,8,0:0:0:0:
290,190,134131,1,0,0:0:0:0:
290,190,134198,1,8,0:0:0:0:
246,135,134332,1,0,0:0:0:0:
245,98,134466,1,8,0:0:0:0:
290,190,134533,1,0,0:0:0:0:
245,98,134600,1,0,0:0:0:0:
245,98,134667,1,0,0:0:0:0:
245,98,134734,1,8,0:0:0:0:
237,89,134801,1,0,0:0:0:0:
249,130,134868,1,8,0:0:0:0:
249,130,134935,1,8,0:0:0:0:
249,130,135002,1,0,0:0:0:0:
246,135,135068,1,0,0:0:0:0:
246,135,135135,1,8,0:0:0:0:
249,130,135202,1,0,0:0:0:0:
249,130,135269,1,8,0:0:0:0:
196,208,135336,1,8,0:0:0:0:
245,98,135403,1,8,0:0:0:0:
245,98,135470,1,8,0:0:0:0:
245,98,135537,1,0,0:0:0:0:
245,98,135805,1,0,0:0:0:0:
246,89,136073,1,0,0:0:0:0:
246,89,136207,1,8,0:0:0:0:
271,236,136274,1,0,0:0:0:0:
246,89,136341,1,8,0:0:0:0:
246,89,136609,1,4,0:0:0:0:
242,92,136743,1,0,0:0:0:0:
237,89,136877,1,8,0:0:0:0:
256,108,137010,1,0,0:0:0:0:
271,124,137144,1,0,0:0:0:0:
271,124,137211,1,0,0:0:0:0:
271,124,137278,1,8,0:0:0:0:
211,223,137345,1,8,0:0:0:0:
271,124,137412,1,0,0:0:0:0:
251,99,137546,1,8,0:0:0:0:
241,80,137680,1,8,0:0:0:0:
252,226,137747,1,8,0:0:0:0:
241,80,137814,1,0,0:0:0:0:
241,80,137948,1,8,0:0:0:0:
242,117,138082,1,0,0:0:0:0:
254,134,138149,5,8,0:0:0:0:
231,74,138216,1,0,0:0:0:0:
266,224,138350,1,8,0:0:0:0:
266,224,138417,1,8,0:0:0:0:
231,74,138484,1,0,0:0:0:0:
264,139,138551,1,0,0:0:0:0:
264,139,138618,1,8,0:0:0:0:
264,139,138685,1,8,0:0:0:0:
231,74,138752,1,0,0:0:0:0:
242,92,138885,1,0,0:0:0:0:
271,124,139019,1,8,0:0:0:0:
264,155,139153,1,0,0:0:0:0:
224,198,139287,1,8,0:0:0:0:
271,241,139354,1,8,0:0:0:0:
211,223,139421,1,0,0:0:0:0:
211,223,139488,1,0,0:0:0:0:
211,223,139555,1,8,0:0:0:0:
242,117,139689,1,8,0:0:0:0:
242,117,139756,1,8,0:0:0:0:
242,134,139823,1,0,0:0:0:0:
242,134,139957,1,0,0:0:0:0:
219,212,140024,1,0,0:0:0:0:
242,134,140091,1,8,0:0:0:0:
279,168,140225,1,0,0:0:0:0:
279,168,140292,1,8,0:0:0:0:
242,134,140359,1,0,0:0:0:0:
236,115,140426,1,0,0:0:0:0:
236,115,140493,1,8,0:0:0:0:
240,92,140560,1,8,0:0:0:0:
242,134,140627,1,0,0:0:0:0:
271,145,140760,1,8,0:0:0:0:
242,134,140894,1,0,0:0:0:0:
278,174,141028,1,8,0:0:0:0:
271,241,141095,1,0,0:0:0:0:
226,80,141162,1,8,0:0:0:0:
240,129,141229,1,8,0:0:0:0:
221,126,141296,1,0,0:0:0:0:
221,126,141430,1,8,0:0:0:0:
242,92,141564,1,0,0:0:0:0:
237,101,141631,1,0,0:0:0:0:
284,111,141698,1,8,0:0:0:0:
240,140,141832,1,0,0:0:0:0:
240,140,141899,1,8,0:0:0:0:
264,139,141966,1,0,0:0:0:0:
284,111,142100,1,0,0:0:0:0:
264,139,142167,1,0,0:0:0:0:
284,111,142234,1,8,0:0:0:0:
219,212,142301,1,8,0:0:0:0:
284,111,142368,1,0,0:0:0:0:
284,111,142435,1,8,0:0:0:0:
284,111,142502,1,0,0:0:0:0:
278,174,142635,1,8,0:0:0:0:
284,111,142769,1,8,0:0:0:0:
285,115,142836,1,0,0:0:0:0:
282,85,142903,1,0,0:0:0:0:
222,114,143037,1,8,0:0:0:0:
222,114,143171,1,0,0:0:0:0:
222,114,143238,1,0,0:0:0:0:
222,114,143305,1,8,0:0:0:0:
222,114,143439,1,0,0:0:0:0:
240,140,143573,1,8,0:0:0:0:
284,116,143640,1,8,0:0:0:0:
204,118,143707,1,0,0:0:0:0:
211,223,143841,1,0,0:0:0:0:
211,223,143975,1,8,0:0:0:0:
240,140,144042,1,8,0:0:0:0:
222,114,144109,1,0,0:0:0:0:
222,114,144176,1,0,0:0:0:0:
222,114,144243,1,8,0:0:0:0:
270,112,144310,1,0,0:0:0:0:
270,112,144377,1,8,0:0:0:0:
211,223,144510,1,0,0:0:0:0:
211,223,144577,1,0,0:0:0:0:
222,114,144644,1,8,0:0:0:0:
222,114,144778,1,0,0:0:0:0:
222,114,144845,1,8,0:0:0:0:
237,156,144979,1,0,0:0:0:0:
237,156,145046,1,8,0:0:0:0:
211,223,145113,1,0,0:0:0:0:
211,223,145180,1,8,0:0:0:0:
271,145,145314,1,0,0:0:0:0:
242,120,145381,1,8,0:0:0:0:
204,186,145515,1,8,0:0:0:0:
204,186,145582,1,0,0:0:0:0:
251,99,145716,1,0,0:0:0:0:
221,144,145783,1,0,0:0:0:0:
251,99,145917,1,0,0:0:0:0:
211,223,145984,1,8,0:0:0:0:
217,184,146051,1,0,0:0:0:0:
249,102,146118,1,8,0:0:0:0:
217,184,146185,1,8,0:0:0:0:
249,102,146252,1,0,0:0:0:0:
218,163,146385,1,8,0:0:0:0:
218,163,146452,1,0,0:0:0:0:
251,99,146586,1,0,0:0:0:0:
251,99,146653,1,8,0:0:0:0:
253,146,146720,1,8,0:0:0:0:
253,146,146787,1,0,0:0:0:0:
253,146,146854,1,8,0:0:0:0:
258,187,146921,1,0,0:0:0:0:
249,102,147055,1,8,0:0:0:0:
254,152,147122,1,8,0:0:0:0:
254,152,147189,1,0,0:0:0:0:
252,127,147256,1,0,0:0:0:0:
253,146,147323,1,8,0:0:0:0:
221,116,147457,1,0,0:0:0:0:
254,152,147591,1,8,0:0:0:0:
222,186,147658,1,8,0:0:0:0:
215,209,147725,1,0,0:0:0:0:
215,217,147859,1,8,0:0:0:0:
215,219,147993,1,0,0:0:0:0:
215,219,148060,1,0,0:0:0:0:
215,219,148127,1,8,0:0:0:0:
222,186,148193,1,0,0:0:0:0:
215,219,148260,1,8,0:0:0:0:
215,219,148327,1,8,0:0:0:0:
215,219,148394,1,0,0:0:0:0:
215,219,148528,1,0,0:0:0:0:
215,219,148662,1,8,0:0:0:0:
215,217,148796,1,0,0:0:0:0:
215,219,148863,1,0,0:0:0:0:
215,219,148930,1,8,0:0:0:0:
232,150,149064,1,0,0:0:0:0:
241,168,149131,1,8,0:0:0:0:
247,121,149265,5,8,0:0:0:0:
248,114,149332,1,0,0:0:0:0:
268,186,149399,1,0,0:0:0:0:
248,114,149466,1,8,0:0:0:0:
256,149,149600,1,0,0:0:0:0:
186,178,149734,1,8,0:0:0:0:
256,157,149868,1,8,0:0:0:0:
237,141,149935,1,8,0:0:0:0:
256,157,150002,1,0,0:0:0:0:
237,141,150135,1,8,0:0:0:0:
186,172,150202,1,0,0:0:0:0:
186,172,150269,1,8,0:0:0:0:
186,172,150336,1,8,0:0:0:0:
186,172,150403,1,0,0:0:0:0:
186,172,150470,1,8,0:0:0:0:
256,157,150537,1,0,0:0:0:0:
256,157,150671,1,0,0:0:0:0:
186,172,150738,1,0,0:0:0:0:
256,157,150805,1,8,0:0:0:0:
186,172,150939,1,0,0:0:0:0:
186,172,151006,1,8,0:0:0:0:
256,157,151073,1,0,0:0:0:0:
186,172,151140,1,0,0:0:0:0:
186,172,151207,1,8,0:0:0:0:
186,172,151274,1,0,0:0:0:0:
203,236,151341,1,8,0:0:0:0:
203,236,151475,1,8,0:0:0:0:
237,141,151609,1,4,0:0:0:0:
203,236,151743,1,8,0:0:0:0:
203,236,151810,1,8,0:0:0:0:
203,236,151877,1,8,0:0:0:0:
203,236,152010,1,8,0:0:0:0:
203,236,152144,1,4,0:0:0:0:
203,236,152278,1,4,0:0:0:0:
255,144,152546,1,12,0:0:0:0:
203,236,152814,1,0,0:0:0:0:
203,236,152881,1,0,0:0:0:0:
203,236,152948,1,8,0:0:0:0:
203,236,153015,1,0,0:0:0:0:
203,236,153082,1,0,0:0:0:0:
203,236,153149,1,0,0:0:0:0:
203,236,153216,1,8,0:0:0:0:
203,236,153283,1,8,0:0:0:0:
203,236,153350,1,0,0:0:0:0:
203,236,153417,1,0,0:0:0:0:
203,236,153484,1,8,0:0:0:0:
203,236,153551,1,8,0:0:0:0:
203,236,153618,1,8,0:0:0:0:
203,236,153685,1,8,0:0:0:0:
299,240,153752,1,0,0:0:0:0:
299,240,154027,1,0,0:0:0:0:
299,240,154164,1,8,0:0:0:0:
299,240,154302,1,0,0:0:0:0:
267,240,154440,1,0,0:0:0:0:
299,240,154577,1,8,0:0:0:0:
299,240,154715,1,8,0:0:0:0:
299,240,154852,1,0,0:0:0:0:
299,240,154990,1,8,0:0:0:0:
299,240,155128,1,0,0:0:0:0:
299,240,155265,1,0,0:0:0:0:
299,240,155403,1,8,0:0:0:0:
331,240,155540,1,0,0:0:0:0:
299,240,155678,1,8,0:0:0:0:
299,272,155816,1,0,0:0:0:0:
299,240,155953,1,8,0:0:0:0:
299,240,156091,1,0,0:0:0:0:
299,240,156229,1,0,0:0:0:0:
299,240,156366,1,8,0:0:0:0:
299,240,156504,1,0,0:0:0:0:
299,240,156641,1,0,0:0:0:0:
299,240,156779,1,8,0:0:0:0:
299,240,156917,1,0,0:0:0:0:
299,240,157054,1,0,0:0:0:0:
299,240,157192,1,8,0:0:0:0:
299,240,157329,1,0,0:0:0:0:
299,240,157467,1,0,0:0:0:0:
299,240,157605,1,8,0:0:0:0:
331,240,157742,1,0,0:0:0:0:
299,240,157880,1,8,0:0:0:0:
299,240,158018,1,0,0:0:0:0:
299,240,158155,1,8,0:0:0:0:
299,240,158293,1,8,0:0:0:0:
299,240,158430,1,0,0:0:0:0:
299,240,158568,1,8,0:0:0:0:
299,240,158706,1,0,0:0:0:0:
299,240,158843,1,0,0:0:0:0:
299,240,158981,1,8,0:0:0:0:
299,240,159118,1,8,0:0:0:0:
299,240,159256,1,0,0:0:0:0:
299,240,159394,1,8,0:0:0:0:
299,240,159531,1,0,0:0:0:0:
299,240,159669,1,0,0:0:0:0:
299,240,159807,1,8,0:0:0:0:
299,240,159944,1,0,0:0:0:0:
299,240,160082,1,8,0:0:0:0:
299,240,160219,1,0,0:0:0:0:
299,240,160357,1,8,0:0:0:0:
299,240,160495,1,8,0:0:0:0:
299,240,160632,1,0,0:0:0:0:
299,240,160770,1,8,0:0:0:0:
299,240,160907,1,0,0:0:0:0:
299,240,161045,1,0,0:0:0:0:
267,240,161183,1,8,0:0:0:0:
299,240,161320,1,0,0:0:0:0:
299,240,161458,1,8,0:0:0:0:
267,240,161596,1,8,0:0:0:0:
267,240,161871,1,0,0:0:0:0:
267,240,162008,1,0,0:0:0:0:
267,240,162146,1,8,0:0:0:0:
267,240,162284,1,0,0:0:0:0:
267,240,162421,1,8,0:0:0:0:
267,240,162559,1,0,0:0:0:0:
267,240,162831,1,0,0:0:0:0:
267,240,163104,1,8,0:0:0:0:
267,240,163377,1,0,0:0:0:0:
299,240,163649,1,8,0:0:0:0:
299,240,163922,1,0,0:0:0:0:
299,240,164195,1,8,0:0:0:0:
299,240,164468,1,8,0:0:0:0:
331,240,164740,1,0,0:0:0:0:
331,240,165013,1,8,0:0:0:0:
331,240,165149,1,8,0:0:0:0:
331,240,165286,1,0,0:0:0:0:
331,240,165559,1,0,0:0:0:0:
331,240,165831,1,8,0:0:0:0:
331,240,166104,1,0,0:0:0:0:
331,240,166377,1,8,0:0:0:0:
331,240,166649,1,8,0:0:0:0:
331,240,166922,1,8,0:0:0:0:
331,208,167059,1,8,0:0:0:0:
331,240,167195,1,0,0:0:0:0:
331,240,167331,1,8,0:0:0:0:
331,240,167468,1,8,0:0:0:0:
331,240,167604,1,0,0:0:0:0:
331,240,167740,1,8,0:0:0:0:
331,240,167877,1,8,0:0:0:0:
331,240,168013,1,0,0:0:0:0:
331,240,168149,1,8,0:0:0:0:
331,240,168286,1,0,0:0:0:0:
331,240,168422,1,0,0:0:0:0:
331,240,168559,1,8,0:0:0:0:
331,240,168695,1,0,0:0:0:0:
331,240,168831,1,8,0:0:0:0:
331,240,168968,1,8,0:0:0:0:
331,240,169104,1,0,0:0:0:0:
331,240,169172,1,0,0:0:0:0:
331,240,169240,1,8,0:0:0:0:
331,240,169309,1,0,0:0:0:0:
331,240,169377,1,8,0:0:0:0:
331,240,169445,1,8,0:0:0:0:
331,240,169513,1,0,0:0:0:0:
331,240,169581,1,8,0:0:0:0:
331,240,169649,1,0,0:0:0:0:
331,240,169718,1,8,0:0:0:0:
331,240,169786,1,8,0:0:0:0:
331,240,169854,1,0,0:0:0:0:
331,240,169922,1,8,0:0:0:0:
331,240,169990,1,0,0:0:0:0:
331,240,170059,1,8,0:0:0:0:
331,240,170195,1,4,0:0:0:0:
331,240,170331,1,0,0:0:0:0:
331,240,170399,1,0,0:0:0:0:
331,240,170468,1,8,0:0:0:0:
331,272,170536,1,0,0:0:0:0:
331,240,170604,1,8,0:0:0:0:
331,240,170672,1,8,0:0:0:0:
331,272,170740,1,8,0:0:0:0:
331,272,170809,1,8,0:0:0:0:
331,240,170877,1,0,0:0:0:0:
331,240,170945,1,0,0:0:0:0:
331,272,171013,1,8,0:0:0:0:
331,240,171081,1,8,0:0:0:0:
331,240,171149,1,0,0:0:0:0:
331,240,171286,1,12,0:0:0:0:
142,158,171553,1,8,0:0:0:0:
161,161,171687,1,0,0:0:0:0:
154,58,171754,1,0,0:0:0:0:
331,272,171821,1,0,0:0:0:0:
161,161,171955,1,0,0:0:0:0:
161,161,172089,1,8,0:0:0:0:
132,82,172223,1,8,0:0:0:0:
122,173,172290,1,8,0:0:0:0:
122,173,172357,1,0,0:0:0:0:
122,173,172491,1,0,0:0:0:0:
122,177,172625,1,8,0:0:0:0:
299,272,172759,1,0,0:0:0:0:
299,272,172826,1,0,0:0:0:0:
299,272,172893,1,8,0:0:0:0:
157,145,173027,1,0,0:0:0:0:
157,145,173161,1,8,0:0:0:0:
161,161,173227,1,0,0:0:0:0:
331,272,173294,1,8,0:0:0:0:
159,161,173361,1,8,0:0:0:0:
167,59,173428,1,0,0:0:0:0:
161,161,173629,1,0,0:0:0:0:
161,161,173696,1,8,0:0:0:0:
153,53,173830,1,0,0:0:0:0:
153,53,173897,1,8,0:0:0:0:
299,272,173964,1,0,0:0:0:0:
133,66,174098,1,8,0:0:0:0:
161,161,174232,1,8,0:0:0:0:
133,66,174299,1,8,0:0:0:0:
299,272,174366,1,0,0:0:0:0:
299,272,174433,1,8,0:0:0:0:
299,272,174500,1,0,0:0:0:0:
299,272,174634,1,0,0:0:0:0:
299,272,174768,1,8,0:0:0:0:
299,272,174902,1,0,0:0:0:0:
299,272,174969,1,0,0:0:0:0:
299,272,175036,1,8,0:0:0:0:
131,82,175102,1,0,0:0:0:0:
131,87,175236,1,0,0:0:0:0:
131,87,175303,1,8,0:0:0:0:
299,272,175437,1,8,0:0:0:0:
167,60,175571,1,0,0:0:0:0:
131,87,175839,1,8,0:0:0:0:
154,60,175973,1,0,0:0:0:0:
153,53,176040,1,0,0:0:0:0:
299,304,176107,1,0,0:0:0:0:
211,173,176241,1,0,0:0:0:0:
211,173,176375,1,8,0:0:0:0:
153,53,176509,1,0,0:0:0:0:
154,58,176576,1,8,0:0:0:0:
299,272,176643,1,0,0:0:0:0:
143,82,176710,1,0,0:0:0:0:
299,272,176777,1,8,0:0:0:0:
153,53,176911,1,8,0:0:0:0:
154,55,176977,1,8,0:0:0:0:
154,55,177044,1,0,0:0:0:0:
154,55,177178,1,0,0:0:0:0:
147,67,177245,1,0,0:0:0:0:
154,55,177312,1,8,0:0:0:0:
176,121,177379,1,0,0:0:0:0:
176,121,177446,1,8,0:0:0:0:
299,272,177580,1,8,0:0:0:0:
175,103,177714,1,0,0:0:0:0:
137,158,177848,1,0,0:0:0:0:
138,78,177915,1,0,0:0:0:0:
175,103,177982,1,8,0:0:0:0:
175,103,178116,1,0,0:0:0:0:
136,73,178183,1,8,0:0:0:0:
175,103,178250,1,0,0:0:0:0:
331,272,178384,1,0,0:0:0:0:
331,272,178518,1,8,0:0:0:0:
331,272,178652,1,0,0:0:0:0:
161,78,178719,1,8,0:0:0:0:
331,272,178786,1,8,0:0:0:0:
331,272,178852,1,8,0:0:0:0:
331,272,178919,1,0,0:0:0:0:
331,272,179053,1,8,0:0:0:0:
331,272,179187,1,0,0:0:0:0:
178,180,179254,1,0,0:0:0:0:
331,272,179321,1,8,0:0:0:0:
161,78,179388,1,8,0:0:0:0:
331,272,179455,1,0,0:0:0:0:
161,86,179522,1,0,0:0:0:0:
331,272,179589,1,8,0:0:0:0:
331,272,179723,1,0,0:0:0:0:
331,272,179857,1,8,0:0:0:0:
331,272,179924,1,8,0:0:0:0:
331,272,179991,1,8,0:0:0:0:
331,272,180058,1,8,0:0:0:0:
331,272,180125,1,8,0:0:0:0:
299,272,180192,1,8,0:0:0:0:
331,272,180259,1,0,0:0:0:0:
331,272,180393,1,8,0:0:0:0:
331,272,180527,1,0,0:0:0:0:
299,272,180594,1,0,0:0:0:0:
331,272,180661,1,8,0:0:0:0:
331,272,180794,1,0,0:0:0:0:
331,272,180928,1,8,0:0:0:0:
161,86,180995,1,0,0:0:0:0:
150,108,181129,1,0,0:0:0:0:
331,272,181196,1,8,0:0:0:0:
331,272,181330,1,0,0:0:0:0:
327,285,181397,1,8,0:0:0:0:
327,285,181464,1,0,0:0:0:0:
124,130,181598,1,0,0:0:0:0:
125,136,181732,1,8,0:0:0:0:
156,59,181799,1,0,0:0:0:0:
331,272,181866,1,8,0:0:0:0:
331,272,182000,1,8,0:0:0:0:
336,277,182067,1,8,0:0:0:0:
331,256,182134,1,8,0:0:0:0:
341,262,182201,1,8,0:0:0:0:
331,272,182268,1,0,0:0:0:0:
180,136,182402,1,0,0:0:0:0:
331,272,182469,1,0,0:0:0:0:
331,272,182536,1,8,0:0:0:0:
331,272,182602,1,8,0:0:0:0:
331,272,182669,1,0,0:0:0:0:
331,240,182736,1,8,0:0:0:0:
331,272,182803,1,0,0:0:0:0:
331,272,182937,1,8,0:0:0:0:
133,85,183071,1,0,0:0:0:0:
180,136,183138,1,0,0:0:0:0:
180,136,183205,1,0,0:0:0:0:
180,136,183339,1,8,0:0:0:0:
331,240,183518,1,8,0:0:0:0:
331,272,183607,1,0,0:0:0:0:
331,240,183696,1,8,0:0:0:0:
331,240,183786,1,8,0:0:0:0:
331,240,183875,1,0,0:0:0:0:
299,272,183964,1,8,0:0:0:0:
331,240,184053,1,8,0:0:0:0:
206,81,184143,1,0,0:0:0:0:
331,240,184277,1,0,0:0:0:0:
331,240,184411,1,8,0:0:0:0:
331,240,184544,1,0,0:0:0:0:
154,76,184611,1,0,0:0:0:0:
331,240,184678,1,8,0:0:0:0:
154,76,184812,1,0,0:0:0:0:
154,76,184946,1,8,0:0:0:0:
154,76,185080,1,0,0:0:0:0:
331,240,185147,1,0,0:0:0:0:
331,240,185214,1,8,0:0:0:0:
154,76,185281,1,8,0:0:0:0:
331,240,185348,1,0,0:0:0:0:
331,272,185482,1,8,0:0:0:0:
146,126,185616,1,0,0:0:0:0:
153,93,185683,1,8,0:0:0:0:
146,126,185750,1,0,0:0:0:0:
146,126,185884,1,8,0:0:0:0:
154,76,185951,1,0,0:0:0:0:
331,240,186018,1,8,0:0:0:0:
156,96,186085,1,8,0:0:0:0:
331,240,186152,1,0,0:0:0:0:
331,240,186286,1,8,0:0:0:0:
299,240,186419,1,0,0:0:0:0:
153,93,186486,1,0,0:0:0:0:
299,240,186553,1,0,0:0:0:0:
299,240,186620,1,0,0:0:0:0:
299,240,186687,1,8,0:0:0:0:
299,240,186754,1,8,0:0:0:0:
299,240,186821,1,0,0:0:0:0:
153,93,186955,1,8,0:0:0:0:
146,126,187022,1,0,0:0:0:0:
299,240,187089,1,0,0:0:0:0:
299,240,187223,1,12,0:0:0:0:
331,240,187357,5,0,0:0:0:0:
299,240,187424,1,0,0:0:0:0:
299,240,187491,1,8,0:0:0:0:
331,240,187558,1,0,0:0:0:0:
299,240,187625,1,8,0:0:0:0:
331,240,187692,1,8,0:0:0:0:
331,240,187759,1,0,0:0:0:0:
331,240,187826,1,8,0:0:0:0:
331,240,187893,1,0,0:0:0:0:
331,240,187960,1,8,0:0:0:0:
299,240,188027,1,8,0:0:0:0:
331,240,188094,1,8,0:0:0:0:
331,240,188161,1,0,0:0:0:0:
299,240,188227,1,0,0:0:0:0:
299,240,188294,1,8,0:0:0:0:
191,242,188428,5,4,0:0:0:0:
181,203,188704,1,0,0:0:0:0:
181,203,188796,1,0,0:0:0:0:
181,203,188888,1,0,0:0:0:0:
191,242,188980,1,8,0:0:0:0:
181,203,189257,1,0,0:0:0:0:
181,203,189349,1,0,0:0:0:0:
181,203,189441,1,0,0:0:0:0:
191,242,189533,1,8,0:0:0:0:
181,203,189810,1,0,0:0:0:0:
181,203,189902,1,0,0:0:0:0:
181,203,189994,1,0,0:0:0:0:
191,242,190086,1,8,0:0:0:0:
181,203,190179,1,0,0:0:0:0:
181,203,190271,1,0,0:0:0:0:
191,242,190363,1,8,0:0:0:0:
181,203,190455,1,0,0:0:0:0:
181,203,190547,1,0,0:0:0:0:
191,242,190639,1,8,0:0:0:0:
181,203,190916,1,0,0:0:0:0:
181,203,191008,1,0,0:0:0:0:
181,203,191100,1,0,0:0:0:0:
191,242,191192,1,8,0:0:0:0:
181,203,191469,1,0,0:0:0:0:
181,203,191561,1,0,0:0:0:0:
181,203,191653,1,0,0:0:0:0:
191,242,191745,1,8,0:0:0:0:
181,203,192022,1,0,0:0:0:0:
181,203,192114,1,0,0:0:0:0:
181,203,192206,1,0,0:0:0:0:
191,242,192298,1,8,0:0:0:0:
181,203,192391,1,0,0:0:0:0:
181,203,192483,1,0,0:0:0:0:
191,242,192575,1,8,0:0:0:0:
181,203,192667,1,8,0:0:0:0:
181,203,192759,1,8,0:0:0:0:
181,203,192851,1,0,0:0:0:0:
181,203,193128,1,8,0:0:0:0:
181,203,193220,1,8,0:0:0:0:
181,203,193312,1,8,0:0:0:0:
191,242,193404,1,0,0:0:0:0:
181,203,193681,1,8,0:0:0:0:
181,203,193773,1,8,0:0:0:0:
181,203,193865,1,8,0:0:0:0:
191,242,193957,1,0,0:0:0:0:
181,203,194234,1,8,0:0:0:0:
181,203,194326,1,8,0:0:0:0:
181,203,194418,1,8,0:0:0:0:
191,242,194510,1,0,0:0:0:0:
181,203,194603,1,8,0:0:0:0:
181,203,194695,1,8,0:0:0:0:
191,242,194787,1,0,0:0:0:0:
181,203,194879,1,8,0:0:0:0:
181,203,194971,1,8,0:0:0:0:
181,203,195063,1,0,0:0:0:0:
181,203,195340,1,8,0:0:0:0:
181,203,195432,1,8,0:0:0:0:
181,203,195524,1,8,0:0:0:0:
181,203,195616,1,0,0:0:0:0:
181,203,195893,1,8,0:0:0:0:
181,203,195985,1,8,0:0:0:0:
181,203,196077,1,8,0:0:0:0:
191,242,196169,1,0,0:0:0:0:
181,203,196446,1,8,0:0:0:0:
181,203,196538,1,8,0:0:0:0:
181,203,196630,1,8,0:0:0:0:
191,242,196722,1,0,0:0:0:0:
181,203,196815,1,8,0:0:0:0:
181,203,196907,1,8,0:0:0:0:
191,242,196999,1,0,0:0:0:0:
181,203,197091,1,0,0:0:0:0:
181,203,197183,1,0,0:0:0:0:
181,203,197275,1,8,0:0:0:0:
181,203,197552,1,8,0:0:0:0:
181,203,197644,1,0,0:0:0:0:
181,203,197736,1,0,0:0:0:0:
250,222,197828,1,8,0:0:0:0:
181,203,198105,1,8,0:0:0:0:
181,203,198197,1,0,0:0:0:0:
181,203,198289,1,0,0:0:0:0:
250,222,198381,1,8,0:0:0:0:
181,203,198658,1,8,0:0:0:0:
181,203,198750,1,0,0:0:0:0:
181,203,198842,1,0,0:0:0:0:
250,222,198934,1,8,0:0:0:0:
181,203,199027,1,0,0:0:0:0:
181,203,199119,1,0,0:0:0:0:
333,110,199211,1,8,0:0:0:0:
181,203,199303,1,0,0:0:0:0:
181,203,199395,1,0,0:0:0:0:
250,222,199487,1,8,0:0:0:0:
181,203,199764,1,8,0:0:0:0:
181,203,199856,1,0,0:0:0:0:
181,203,199948,1,0,0:0:0:0:
274,171,200040,1,8,0:0:0:0:
181,203,200317,1,8,0:0:0:0:
181,203,200409,1,0,0:0:0:0:
181,203,200501,1,0,0:0:0:0:
274,171,200593,1,8,0:0:0:0:
181,203,200870,1,8,0:0:0:0:
181,203,200962,1,0,0:0:0:0:
181,203,201054,1,0,0:0:0:0:
274,171,201146,1,8,0:0:0:0:
181,203,201239,1,0,0:0:0:0:
181,203,201331,1,0,0:0:0:0:
274,171,201423,1,8,0:0:0:0:
181,203,201515,1,8,0:0:0:0:
181,203,201607,1,8,0:0:0:0:
274,171,201699,1,0,0:0:0:0:
236,228,201976,1,0,0:0:0:0:
181,203,202068,1,8,0:0:0:0:
181,203,202160,1,8,0:0:0:0:
274,171,202252,1,0,0:0:0:0:
236,228,202529,1,0,0:0:0:0:
181,203,202621,1,8,0:0:0:0:
181,203,202713,1,8,0:0:0:0:
274,171,202805,1,0,0:0:0:0:
236,228,203082,1,0,0:0:0:0:
236,228,203174,1,8,0:0:0:0:
236,228,203266,1,8,0:0:0:0:
274,171,203358,1,0,0:0:0:0:
236,228,203451,1,8,0:0:0:0:
236,228,203543,1,8,0:0:0:0:
274,171,203635,1,0,0:0:0:0:
249,201,203773,5,8,0:0:0:0:
249,201,203842,1,8,0:0:0:0:
249,201,203911,5,0,0:0:0:0:
236,228,204188,1,0,0:0:0:0:
236,228,204280,1,8,0:0:0:0:
236,228,204372,1,8,0:0:0:0:
236,228,204464,1,0,0:0:0:0:
236,228,204741,1,0,0:0:0:0:
236,228,204833,1,8,0:0:0:0:
236,228,204925,1,8,0:0:0:0:
274,171,205017,1,0,0:0:0:0:
210,248,205086,1,0,0:0:0:0:
274,171,205156,1,8,0:0:0:0:
210,248,205225,1,8,0:0:0:0:
274,171,205294,1,0,0:0:0:0:
210,248,205363,1,0,0:0:0:0:
274,171,205432,1,8,0:0:0:0:
210,248,205501,1,8,0:0:0:0:
210,248,205570,1,0,0:0:0:0:
210,248,205639,1,8,0:0:0:0:
274,171,205709,1,8,0:0:0:0:
274,171,205778,1,8,0:0:0:0:
274,171,205847,1,0,0:0:0:0:
204,155,205916,1,0,0:0:0:0:
274,171,205985,1,8,0:0:0:0:
276,142,206123,1,8,0:0:0:0:
276,142,206259,1,0,0:0:0:0:
276,142,206328,1,0,0:0:0:0:
276,142,206396,1,0,0:0:0:0:
276,142,206533,1,8,0:0:0:0:
276,142,206670,1,0,0:0:0:0:
276,142,206739,1,0,0:0:0:0:
276,142,206807,1,0,0:0:0:0:
276,142,206944,1,8,0:0:0:0:
276,142,207081,1,0,0:0:0:0:
276,142,207150,1,0,0:0:0:0:
276,142,207218,1,0,0:0:0:0:
276,142,207355,1,8,0:0:0:0:
276,142,207492,1,0,0:0:0:0:
276,142,207561,1,0,0:0:0:0:
276,142,207629,1,0,0:0:0:0:
276,142,207766,1,8,0:0:0:0:
276,142,207835,1,0,0:0:0:0:
276,142,207903,1,0,0:0:0:0:
276,142,207972,1,0,0:0:0:0:
276,142,208040,1,8,0:0:0:0:
276,142,208177,1,0,0:0:0:0:
276,142,208314,1,8,0:0:0:0:
276,142,208381,1,8,0:0:0:0:
276,142,208449,1,0,0:0:0:0:
276,142,208585,1,0,0:0:0:0:
276,142,208721,1,8,0:0:0:0:
276,142,208789,1,8,0:0:0:0:
276,148,208856,1,0,0:0:0:0:
276,148,208992,1,0,0:0:0:0:
276,148,209128,1,8,0:0:0:0:
276,148,209196,1,8,0:0:0:0:
276,148,209264,1,0,0:0:0:0:
276,150,209399,1,0,0:0:0:0:
276,152,209535,1,8,0:0:0:0:
276,153,209603,1,8,0:0:0:0:
276,156,209671,1,0,0:0:0:0:
276,156,209807,1,0,0:0:0:0:
276,156,209942,1,8,0:0:0:0:
276,156,210010,1,8,0:0:0:0:
276,156,210078,1,0,0:0:0:0:
276,156,210146,1,0,0:0:0:0:
276,156,210214,1,8,0:0:0:0:
276,156,210350,1,0,0:0:0:0:
276,159,210485,1,8,0:0:0:0:
276,156,210620,1,0,0:0:0:0:
276,156,210687,1,0,0:0:0:0:
276,156,210755,1,0,0:0:0:0:
276,156,210890,1,8,0:0:0:0:
276,156,211025,1,0,0:0:0:0:
242,166,211093,1,0,0:0:0:0:
242,166,211160,1,0,0:0:0:0:
242,166,211295,1,8,0:0:0:0:
242,171,211430,1,0,0:0:0:0:
242,174,211498,1,0,0:0:0:0:
242,175,211566,1,0,0:0:0:0:
243,177,211701,1,8,0:0:0:0:
243,177,211836,1,0,0:0:0:0:
243,178,211903,1,0,0:0:0:0:
243,180,211971,1,0,0:0:0:0:
243,180,212106,1,8,0:0:0:0:
243,181,212174,1,0,0:0:0:0:
243,181,212241,1,0,0:0:0:0:
243,181,212309,1,0,0:0:0:0:
243,184,212376,1,8,0:0:0:0:
238,145,212444,1,0,0:0:0:0:
238,145,212512,1,0,0:0:0:0:
238,145,212647,1,8,0:0:0:0:
238,145,212714,1,8,0:0:0:0:
238,145,212781,1,0,0:0:0:0:
238,145,212916,1,0,0:0:0:0:
238,145,213050,1,8,0:0:0:0:
238,145,213117,1,8,0:0:0:0:
238,150,213185,1,0,0:0:0:0:
238,150,213319,1,0,0:0:0:0:
238,150,213454,1,8,0:0:0:0:
238,150,213521,1,8,0:0:0:0:
238,150,213588,1,0,0:0:0:0:
189,149,213723,1,0,0:0:0:0:
189,149,213790,1,0,0:0:0:0:
189,149,213857,1,8,0:0:0:0:
189,149,213925,1,8,0:0:0:0:
189,155,213992,1,0,0:0:0:0:
189,160,214059,1,0,0:0:0:0:
189,155,214126,1,0,0:0:0:0:
189,155,214194,1,0,0:0:0:0:
189,160,214261,1,8,0:0:0:0:
189,160,214328,1,8,0:0:0:0:
189,160,214395,1,0,0:0:0:0:
189,160,214463,1,0,0:0:0:0:
189,161,214530,1,8,0:0:0:0:
189,162,214597,1,8,0:0:0:0:
189,164,214664,1,8,0:0:0:0:
255,164,214799,1,4,0:0:0:0:
223,189,218013,1,8,0:0:0:0:
223,189,218281,1,8,0:0:0:0:
223,189,218549,1,8,0:0:0:0:
223,189,218682,1,8,0:0:0:0:
223,189,218749,1,8,0:0:0:0:
223,189,218816,1,8,0:0:0:0:
331,240,219084,5,4,0:0:0:0:
331,240,219218,1,8,0:0:0:0:
331,240,219352,1,0,0:0:0:0:
331,240,219486,1,8,0:0:0:0:
331,240,219553,1,8,0:0:0:0:
331,240,219620,1,0,0:0:0:0:
331,240,219754,1,8,0:0:0:0:
331,240,219888,1,0,0:0:0:0:
331,240,220022,1,8,0:0:0:0:
331,240,220089,1,8,0:0:0:0:
331,240,220156,1,0,0:0:0:0:
331,240,220290,1,8,0:0:0:0:
331,240,220424,1,0,0:0:0:0:
331,240,220557,1,8,0:0:0:0:
331,240,220624,1,8,0:0:0:0:
331,240,220691,1,0,0:0:0:0:
331,240,220825,1,8,0:0:0:0:
331,240,220959,1,0,0:0:0:0:
331,240,221093,1,8,0:0:0:0:
331,240,221160,1,8,0:0:0:0:
331,240,221227,1,0,0:0:0:0:
331,240,221294,1,8,0:0:0:0:
331,240,221361,1,0,0:0:0:0:
331,240,221428,1,0,0:0:0:0:
331,240,221495,1,8,0:0:0:0:
331,240,221562,1,8,0:0:0:0:
331,240,221629,1,0,0:0:0:0:
331,240,221696,1,0,0:0:0:0:
331,240,221763,1,8,0:0:0:0:
331,240,221830,1,0,0:0:0:0:
331,240,221897,1,8,0:0:0:0:
331,240,221964,1,8,0:0:0:0:
331,240,222031,1,0,0:0:0:0:
331,240,222098,1,0,0:0:0:0:
331,240,222165,1,8,0:0:0:0:
331,240,222232,1,8,0:0:0:0:
331,240,222299,1,0,0:0:0:0:
331,240,222365,1,0,0:0:0:0:
331,240,222432,1,8,0:0:0:0:
331,240,222499,1,0,0:0:0:0:
331,272,222566,1,8,0:0:0:0:
331,272,222633,1,8,0:0:0:0:
331,272,222700,1,0,0:0:0:0:
331,272,222767,1,8,0:0:0:0:
331,240,222834,1,0,0:0:0:0:
331,240,222901,1,8,0:0:0:0:
331,240,222968,1,8,0:0:0:0:
299,240,223035,1,8,0:0:0:0:
331,240,223102,1,0,0:0:0:0:
331,240,223169,1,0,0:0:0:0:
299,240,223236,1,8,0:0:0:0:
299,240,223303,1,0,0:0:0:0:
331,240,223370,1,8,0:0:0:0:
299,240,223504,1,0,0:0:0:0:
331,240,224040,1,0,0:0:0:0:
299,240,224174,1,0,0:0:0:0:
299,240,224307,1,0,0:0:0:0:
299,240,224441,1,8,0:0:0:0:
299,240,224575,1,0,0:0:0:0:
299,240,224709,1,8,0:0:0:0:
299,240,224843,1,0,0:0:0:0:
299,240,224977,1,8,0:0:0:0:
299,240,225111,1,8,0:0:0:0:
299,240,225245,1,0,0:0:0:0:
299,240,225379,1,0,0:0:0:0:
299,240,225513,1,8,0:0:0:0:
299,240,225647,1,0,0:0:0:0:
331,240,226182,1,0,0:0:0:0:
299,240,226316,1,0,0:0:0:0:
299,240,226449,1,0,0:0:0:0:
299,240,226583,1,8,0:0:0:0:
299,240,226717,1,0,0:0:0:0:
299,240,226851,1,8,0:0:0:0:
299,240,226985,1,0,0:0:0:0:
299,240,227119,1,8,0:0:0:0:
299,240,227253,1,8,0:0:0:0:
299,240,227387,1,0,0:0:0:0:
299,240,227522,1,8,0:0:0:0:
299,240,227655,1,8,0:0:0:0:
299,240,227924,1,8,0:0:0:0:
299,240,228191,1,0,0:0:0:0:
299,240,228325,1,0,0:0:0:0:
299,240,228593,1,8,0:0:0:0:
299,240,228861,1,0,0:0:0:0:
267,240,228995,1,8,0:0:0:0:
299,240,229129,1,8,0:0:0:0:
299,240,229263,1,0,0:0:0:0:
267,240,229799,1,8,0:0:0:0:
299,240,230066,1,8,0:0:0:0:
299,240,230334,1,0,0:0:0:0:
299,240,230468,1,0,0:0:0:0:
299,240,230736,1,8,0:0:0:0:
284,228,230870,1,8,0:0:0:0:
299,240,231004,1,0,0:0:0:0:
299,240,231138,1,8,0:0:0:0:
299,240,231272,1,0,0:0:0:0:
299,240,231406,1,8,0:0:0:0:
299,240,231540,1,8,0:0:0:0:
299,240,231674,1,0,0:0:0:0:
299,240,231740,1,0,0:0:0:0:
299,240,231807,1,0,0:0:0:0:
299,240,231941,1,12,0:0:0:0:
299,240,232209,1,0,0:0:0:0:
299,240,232299,1,0,0:0:0:0:
299,240,232388,1,8,0:0:0:0:
267,240,232477,1,8,0:0:0:0:
331,208,232745,1,0,0:0:0:0:
299,240,232879,1,0,0:0:0:0:
331,208,233013,1,8,0:0:0:0:
299,240,233147,1,0,0:0:0:0:
299,240,233281,1,0,0:0:0:0:
299,240,233549,1,0,0:0:0:0:
299,240,233727,1,0,0:0:0:0:
299,240,233906,1,8,0:0:0:0:
299,240,234084,1,8,0:0:0:0:
299,240,234352,1,0,0:0:0:0:
299,240,234620,1,8,0:0:0:0:
299,240,234799,1,0,0:0:0:0:
267,240,234977,1,0,0:0:0:0:
299,240,235156,1,8,0:0:0:0:
299,240,235424,1,8,0:0:0:0:
299,240,235513,1,0,0:0:0:0:
299,240,235602,1,0,0:0:0:0:
299,240,235691,1,8,0:0:0:0:
299,240,235870,1,8,0:0:0:0:
299,240,236049,1,8,0:0:0:0:
299,240,236227,1,4,0:0:0:0:
299,240,236495,1,8,0:0:0:0:
299,240,236584,1,0,0:0:0:0:
299,240,236674,1,0,0:0:0:0:
299,240,236763,1,8,0:0:0:0:
299,240,237031,1,0,0:0:0:0:
299,240,237120,1,0,0:0:0:0:
299,240,237209,1,8,0:0:0:0:
299,240,237299,1,0,0:0:0:0:
299,240,237477,1,0,0:0:0:0:
299,240,237656,1,8,0:0:0:0:
299,240,237834,1,8,0:0:0:0:
299,240,238102,1,0,0:0:0:0:
299,240,238370,1,0,0:0:0:0:
299,240,238437,1,0,0:0:0:0:
299,240,238504,1,8,0:0:0:0:
299,240,238571,1,0,0:0:0:0:
299,240,238638,1,8,0:0:0:0:
299,240,238705,1,8,0:0:0:0:
299,240,238772,1,0,0:0:0:0:
299,240,238839,1,0,0:0:0:0:
299,240,238906,1,8,0:0:0:0:
299,240,238973,1,0,0:0:0:0:
299,240,239040,1,8,0:0:0:0:
299,240,239107,1,8,0:0:0:0:
299,240,239174,1,0,0:0:0:0:
299,240,239240,1,0,0:0:0:0:
299,240,239307,1,8,0:0:0:0:
299,240,239374,1,0,0:0:0:0:
331,240,240606,1,8,0:0:0:0:
331,240,241237,1,8,0:0:0:0:
299,240,242021,1,8,0:0:0:0:
299,240,242805,1,8,0:0:0:0:
299,240,243510,1,8,0:0:0:0:
299,240,244255,1,0,0:0:0:0:
299,240,244464,1,0,0:0:0:0:
299,240,244813,1,0,0:0:0:0:
299,240,245231,1,0,0:0:0:0:
299,240,245301,1,0,0:0:0:0:
299,240,245371,1,0,0:0:0:0:
251,236,259982,5,0,0:0:0:0:
251,236,260292,1,0,0:0:0:0:
251,236,260603,1,8,0:0:0:0:
251,236,261070,1,8,0:0:0:0:
251,236,261147,1,8,0:0:0:0:
251,236,261225,1,0,0:0:0:0:
251,236,261378,1,8,0:0:0:0:
251,236,261531,1,0,0:0:0:0:
251,236,261837,1,8,0:0:0:0:
289,161,262296,1,8,0:0:0:0:
251,236,262449,1,0,0:0:0:0:
251,236,262750,1,0,0:0:0:0:
251,236,263052,1,8,0:0:0:0:
251,236,263504,1,8,0:0:0:0:
251,236,263579,1,8,0:0:0:0:
251,236,263655,1,0,0:0:0:0:
251,236,263803,1,8,0:0:0:0:
251,236,263952,1,0,0:0:0:0:
289,161,264249,1,8,0:0:0:0:
289,161,264694,1,8,0:0:0:0:
289,161,264843,1,0,0:0:0:0:
289,161,265132,1,0,0:0:0:0:
289,161,265422,1,8,0:0:0:0:
300,177,265712,1,0,0:0:0:0:
289,161,265857,1,8,0:0:0:0:
289,161,265929,1,8,0:0:0:0:
289,161,266002,1,0,0:0:0:0:
289,161,266141,1,8,0:0:0:0:
289,161,266281,1,0,0:0:0:0:
289,161,266560,1,8,0:0:0:0:
289,161,266827,1,0,0:0:0:0:
289,161,266961,1,8,0:0:0:0:
289,161,267095,1,0,0:0:0:0:
300,177,267362,1,8,0:0:0:0:
300,177,267630,1,0,0:0:0:0:
300,177,267898,1,8,0:0:0:0:
300,177,268032,1,8,0:0:0:0:
300,177,268166,1,0,0:0:0:0:
300,177,268300,1,8,0:0:0:0:
300,177,268434,1,8,0:0:0:0:
300,177,268702,1,0,0:0:0:0:
300,177,268970,1,8,0:0:0:0:
300,177,269103,1,8,0:0:0:0:
300,177,269237,1,4,0:0:0:0:
291,134,269503,1,8,0:0:0:0:
264,196,269637,1,8,0:0:0:0:
300,177,269770,1,0,0:0:0:0:
280,231,269903,1,8,0:0:0:0:
247,124,269970,1,8,0:0:0:0:
291,148,270037,1,8,0:0:0:0:
260,136,270170,1,8,0:0:0:0:
247,139,270237,1,8,0:0:0:0:
291,158,270303,1,0,0:0:0:0:
225,188,270370,1,0,0:0:0:0:
291,158,270437,1,8,0:0:0:0:
291,158,270503,1,8,0:0:0:0:
291,158,270570,1,0,0:0:0:0:
291,158,270637,1,0,0:0:0:0:
291,158,270703,1,8,0:0:0:0:
291,158,270770,1,8,0:0:0:0:
291,158,270837,1,0,0:0:0:0:
291,158,270903,1,8,0:0:0:0:
300,177,270970,1,8,0:0:0:0:
300,177,271037,1,8,0:0:0:0:
300,177,271103,1,0,0:0:0:0:
300,177,271170,1,8,0:0:0:0:
300,177,271237,1,8,0:0:0:0:
261,158,271370,1,4,0:0:0:0:
331,240,271637,1,0,0:0:0:0:
331,240,271770,1,8,0:0:0:0:
331,240,271903,1,0,0:0:0:0:
331,240,272037,1,0,0:0:0:0:
331,240,272103,1,0,0:0:0:0:
331,240,272170,1,8,0:0:0:0:
331,240,272237,1,0,0:0:0:0:
331,240,272303,1,8,0:0:0:0:
331,240,272437,1,8,0:0:0:0:
185,138,272503,1,8,0:0:0:0:
185,138,272570,1,0,0:0:0:0:
331,240,272637,1,8,0:0:0:0:
331,240,272703,1,0,0:0:0:0:
331,240,272837,1,8,0:0:0:0:
331,240,272970,1,0,0:0:0:0:
299,240,273103,1,8,0:0:0:0:
331,240,273170,1,8,0:0:0:0:
331,240,273237,1,8,0:0:0:0:
331,240,273303,1,0,0:0:0:0:
331,240,273370,1,8,0:0:0:0:
331,240,273437,1,8,0:0:0:0:
331,240,273503,1,0,0:0:0:0:
299,240,273637,1,8,0:0:0:0:
299,240,273770,1,0,0:0:0:0:
299,240,273903,1,0,0:0:0:0:
331,240,273970,1,0,0:0:0:0:
331,240,274037,1,8,0:0:0:0:
299,240,274170,1,0,0:0:0:0:
299,240,274303,1,8,0:0:0:0:
185,138,274370,1,0,0:0:0:0:
185,138,274437,1,8,0:0:0:0:
185,138,274503,1,8,0:0:0:0:
331,240,274570,1,0,0:0:0:0:
299,240,274703,1,0,0:0:0:0:
331,240,274837,1,8,0:0:0:0:
152,91,274970,1,0,0:0:0:0:
299,240,275037,1,8,0:0:0:0:
331,240,275103,1,8,0:0:0:0:
150,117,275237,1,0,0:0:0:0:
167,118,275303,1,8,0:0:0:0:
299,240,275370,1,0,0:0:0:0:
150,117,275437,1,0,0:0:0:0:
331,240,275503,1,8,0:0:0:0:
331,240,275637,1,0,0:0:0:0:
331,240,275770,1,0,0:0:0:0:
331,240,275837,1,0,0:0:0:0:
331,240,275903,1,8,0:0:0:0:
331,240,276037,1,0,0:0:0:0:
331,240,276170,1,8,0:0:0:0:
331,240,276237,1,0,0:0:0:0:
331,240,276303,1,8,0:0:0:0:
331,240,276437,1,8,0:0:0:0:
189,56,276570,1,0,0:0:0:0:
331,272,276637,1,8,0:0:0:0:
331,240,276703,1,0,0:0:0:0:
331,240,276837,1,0,0:0:0:0:
183,56,276903,1,0,0:0:0:0:
189,56,276970,1,8,0:0:0:0:
196,79,277037,1,8,0:0:0:0:
196,79,277103,1,8,0:0:0:0:
331,240,277237,1,0,0:0:0:0:
331,240,277370,1,8,0:0:0:0:
331,240,277503,1,8,0:0:0:0:
331,240,277570,1,8,0:0:0:0:
331,240,277637,1,0,0:0:0:0:
183,56,277703,1,0,0:0:0:0:
331,240,277770,1,8,0:0:0:0:
331,240,277903,1,0,0:0:0:0:
331,240,278037,1,8,0:0:0:0:
176,71,278170,1,8,0:0:0:0:
176,71,278237,1,8,0:0:0:0:
331,240,278303,1,0,0:0:0:0:
331,240,278437,1,8,0:0:0:0:
331,240,278570,1,0,0:0:0:0:
176,71,278703,1,8,0:0:0:0:
331,240,278770,1,8,0:0:0:0:
331,240,278837,1,0,0:0:0:0:
176,71,278903,1,0,0:0:0:0:
331,240,278970,1,8,0:0:0:0:
148,117,279037,1,0,0:0:0:0:
363,240,279103,1,8,0:0:0:0:
331,240,279237,1,0,0:0:0:0:
167,70,279303,1,0,0:0:0:0:
331,240,279370,1,8,0:0:0:0:
331,240,279437,1,8,0:0:0:0:
331,240,279503,1,0,0:0:0:0:
331,240,279570,1,8,0:0:0:0:
331,240,279637,1,0,0:0:0:0:
181,52,279770,1,0,0:0:0:0:
331,240,279903,1,8,0:0:0:0:
331,240,280037,1,0,0:0:0:0:
331,240,280103,1,8,0:0:0:0:
331,240,280170,1,8,0:0:0:0:
331,240,280303,1,8,0:0:0:0:
331,240,280437,1,0,0:0:0:0:
331,240,280503,1,0,0:0:0:0:
331,240,280570,1,8,0:0:0:0:
331,240,280703,1,0,0:0:0:0:
331,240,280770,1,0,0:0:0:0:
331,240,280837,1,8,0:0:0:0:
331,240,280903,1,0,0:0:0:0:
331,240,280970,1,8,0:0:0:0:
331,240,281037,1,0,0:0:0:0:
331,240,281103,1,0,0:0:0:0:
331,240,281170,1,8,0:0:0:0:
331,240,281237,1,0,0:0:0:0:
331,240,281303,1,0,0:0:0:0:
331,240,281370,1,8,0:0:0:0:
331,240,281503,1,0,0:0:0:0:
331,240,281570,1,8,0:0:0:0:
331,240,281637,1,8,0:0:0:0:
331,240,281703,1,0,0:0:0:0:
331,240,281770,1,8,0:0:0:0:
331,240,281837,1,8,0:0:0:0:
331,240,281903,1,0,0:0:0:0:
331,240,282037,1,8,0:0:0:0:
331,240,282170,1,0,0:0:0:0:
331,208,282237,1,0,0:0:0:0:
331,240,282303,1,8,0:0:0:0:
331,240,282437,1,8,0:0:0:0:
331,240,282570,1,0,0:0:0:0:
193,172,282637,1,0,0:0:0:0:
193,172,282703,1,8,0:0:0:0:
193,172,282770,1,0,0:0:0:0:
299,240,282837,1,8,0:0:0:0:
331,240,282970,1,8,0:0:0:0:
331,240,283037,1,8,0:0:0:0:
331,240,283103,1,8,0:0:0:0:
299,240,283170,1,8,0:0:0:0:
299,240,283237,1,8,0:0:0:0:
299,240,283303,1,8,0:0:0:0:
299,240,283370,1,0,0:0:0:0:
331,240,283503,1,8,0:0:0:0:
299,240,283570,1,0,0:0:0:0:
299,240,283637,1,8,0:0:0:0:
331,240,283703,1,8,0:0:0:0:
331,240,283770,1,0,0:0:0:0:
331,240,283837,1,8,0:0:0:0:
331,240,283903,1,0,0:0:0:0:
331,240,284037,1,0,0:0:0:0:
299,240,284170,1,8,0:0:0:0:
299,240,284237,1,0,0:0:0:0:
299,240,284303,1,8,0:0:0:0:
299,240,284437,1,0,0:0:0:0:
331,240,284570,1,8,0:0:0:0:
331,240,284637,1,8,0:0:0:0:
331,240,284703,1,8,0:0:0:0:
331,240,284837,1,0,0:0:0:0:
167,56,284903,1,0,0:0:0:0:
299,240,284970,1,8,0:0:0:0:
299,240,285037,1,8,0:0:0:0:
299,240,285103,1,0,0:0:0:0:
299,240,285170,1,0,0:0:0:0:
299,272,285237,1,8,0:0:0:0:
299,240,285370,1,0,0:0:0:0:
299,240,285503,1,8,0:0:0:0:
299,240,285637,1,8,0:0:0:0:
182,55,285703,1,8,0:0:0:0:
299,240,285770,1,0,0:0:0:0:
299,240,285903,1,0,0:0:0:0:
182,55,285970,1,0,0:0:0:0:
182,55,286037,1,8,0:0:0:0:
299,240,286170,1,8,0:0:0:0:
299,240,286303,1,4,0:0:0:0:
299,240,286570,1,4,0:0:0:0:
299,240,286837,1,4,0:0:0:0:
299,240,287103,1,4,0:0:0:0:
299,240,287370,5,0,0:0:0:0:
299,272,287437,1,0,0:0:0:0:
299,272,287503,1,8,0:0:0:0:
299,272,287570,1,0,0:0:0:0:
299,272,287637,1,8,0:0:0:0:
331,240,287703,1,8,0:0:0:0:
299,240,287770,1,0,0:0:0:0:
299,240,287837,1,8,0:0:0:0:
299,240,287903,1,0,0:0:0:0:
299,240,287970,1,8,0:0:0:0:
299,240,288037,1,8,0:0:0:0:
299,240,288103,1,8,0:0:0:0:
299,240,288170,1,0,0:0:0:0:
299,240,288237,1,0,0:0:0:0:
299,240,288303,1,8,0:0:0:0:
211,96,288437,5,0,0:0:0:0:
259,229,288703,1,12,0:0:0:0:
259,229,288837,1,0,0:0:0:0:
259,229,288970,1,0,0:0:0:0:
259,229,289037,1,0,0:0:0:0:
259,229,289103,1,8,0:0:0:0:
259,229,289170,1,8,0:0:0:0:
259,229,289237,1,0,0:0:0:0:
259,229,289370,1,0,0:0:0:0:
259,229,289503,1,8,0:0:0:0:
259,234,289570,1,8,0:0:0:0:
259,234,289637,1,0,0:0:0:0:
259,234,289770,1,8,0:0:0:0:
259,234,289903,1,0,0:0:0:0:
259,234,289970,1,8,0:0:0:0:
259,234,290037,1,0,0:0:0:0:
259,234,290170,1,8,0:0:0:0:
259,234,290303,1,0,0:0:0:0:
259,234,290370,1,0,0:0:0:0:
259,234,290437,1,8,0:0:0:0:
246,101,290503,1,0,0:0:0:0:
259,234,290570,1,8,0:0:0:0:
231,102,290637,1,8,0:0:0:0:
231,102,290703,1,0,0:0:0:0:
291,181,290837,1,8,0:0:0:0:
246,166,290970,1,0,0:0:0:0:
259,241,291037,1,8,0:0:0:0:
259,241,291103,1,0,0:0:0:0:
246,166,291170,1,0,0:0:0:0:
246,166,291237,1,8,0:0:0:0:
250,123,291303,1,8,0:0:0:0:
250,125,291370,1,0,0:0:0:0:
250,123,291437,1,0,0:0:0:0:
250,123,291503,1,8,0:0:0:0:
250,123,291570,1,8,0:0:0:0:
250,123,291637,1,0,0:0:0:0:
250,123,291703,1,8,0:0:0:0:
250,123,291770,1,0,0:0:0:0:
259,246,291837,1,0,0:0:0:0:
259,246,291903,1,8,0:0:0:0:
259,246,292037,1,12,0:0:0:0:
259,246,292303,1,12,0:0:0:0:
259,246,292570,1,12,0:0:0:0:
259,246,292703,1,4,0:0:0:0:
244,175,292837,1,8,0:0:0:0:
244,180,292903,1,0,0:0:0:0:
259,246,292970,1,8,0:0:0:0:
244,188,293037,1,8,0:0:0:0:
259,246,293103,1,0,0:0:0:0:
259,246,293237,1,8,0:0:0:0:
259,246,293370,1,0,0:0:0:0:
259,246,293437,1,0,0:0:0:0:
259,246,293503,1,8,0:0:0:0:
246,200,293637,1,0,0:0:0:0:
246,209,293703,1,8,0:0:0:0:
246,211,293770,1,0,0:0:0:0:
291,181,293903,1,8,0:0:0:0:
291,181,293970,1,0,0:0:0:0:
291,181,294037,1,8,0:0:0:0:
246,141,294103,1,8,0:0:0:0:
246,141,294170,1,0,0:0:0:0:
236,184,294237,1,8,0:0:0:0:
236,184,294303,1,0,0:0:0:0:
246,166,294437,1,8,0:0:0:0:
246,166,294570,1,0,0:0:0:0:
246,166,294637,1,0,0:0:0:0:
246,166,294703,1,8,0:0:0:0:
246,131,294770,1,0,0:0:0:0:
246,166,294837,1,8,0:0:0:0:
246,166,294970,1,0,0:0:0:0:
246,166,295037,1,8,0:0:0:0:
246,166,295170,1,8,0:0:0:0:
250,125,295237,1,0,0:0:0:0:
246,166,295370,1,0,0:0:0:0:
246,166,295437,1,8,0:0:0:0:
246,166,295503,1,0,0:0:0:0:
246,166,295570,1,0,0:0:0:0:
246,166,295637,1,8,0:0:0:0:
246,166,295703,1,8,0:0:0:0:
246,166,295770,1,0,0:0:0:0:
246,166,295903,1,0,0:0:0:0:
246,166,295970,1,0,0:0:0:0:
246,166,296037,1,8,0:0:0:0:
246,166,296103,1,0,0:0:0:0:
246,166,296170,1,8,0:0:0:0:
246,141,296237,1,8,0:0:0:0:
246,141,296303,1,0,0:0:0:0:
246,166,296370,1,8,0:0:0:0:
246,166,296437,1,0,0:0:0:0:
246,166,296570,1,0,0:0:0:0:
241,130,296637,1,8,0:0:0:0:
234,229,296703,1,8,0:0:0:0:
234,229,296770,1,0,0:0:0:0:
249,150,296837,1,8,0:0:0:0:
208,166,296903,1,8,0:0:0:0:
256,192,296970,12,0,301103,0:0:0:0:
276,271,301237,5,12,0:0:0:0:
276,271,301503,1,12,0:0:0:0:
276,271,301770,1,4,0:0:0:0:
276,271,302037,1,4,0:0:0:0:
276,271,302303,1,12,0:0:0:0:
276,271,302569,1,12,0:0:0:0:
276,271,302836,1,4,0:0:0:0:
247,150,303103,1,4,0:0:0:0:
254,196,303370,1,8,0:0:0:0:
241,169,303437,1,8,0:0:0:0:
241,169,303503,1,0,0:0:0:0:
230,150,303637,1,8,0:0:0:0:
230,150,303770,1,0,0:0:0:0:
231,134,303903,1,8,0:0:0:0:
261,196,303970,1,8,0:0:0:0:
231,134,304037,1,0,0:0:0:0:
231,134,304103,1,0,0:0:0:0:
231,134,304170,1,8,0:0:0:0:
231,134,304303,1,8,0:0:0:0:
231,134,304437,1,0,0:0:0:0:
241,140,304503,1,8,0:0:0:0:
231,134,304570,1,0,0:0:0:0:
231,134,304637,1,0,0:0:0:0:
231,134,304703,1,8,0:0:0:0:
231,134,304770,1,0,0:0:0:0:
231,134,304837,1,8,0:0:0:0:
231,134,304903,1,8,0:0:0:0:
231,134,304970,1,0,0:0:0:0:
231,134,305037,1,8,0:0:0:0:
231,134,305103,1,0,0:0:0:0:
231,134,305170,1,0,0:0:0:0:
231,134,305237,1,8,0:0:0:0:
231,134,305303,1,8,0:0:0:0:
231,134,305370,1,8,0:0:0:0:
236,149,305503,1,4,0:0:0:0:
331,240,305770,1,0,0:0:0:0:
331,240,305859,1,0,0:0:0:0:
331,240,305948,1,0,0:0:0:0:
331,240,306037,1,8,0:0:0:0:
331,240,306303,1,0,0:0:0:0:
331,240,306392,1,0,0:0:0:0:
331,240,306481,1,0,0:0:0:0:
331,240,306570,1,8,0:0:0:0:
299,240,306837,1,0,0:0:0:0:
299,240,306925,1,0,0:0:0:0:
299,240,307014,1,0,0:0:0:0:
299,240,307103,1,8,0:0:0:0:
299,240,307192,1,0,0:0:0:0:
299,240,307281,1,8,0:0:0:0:
299,240,307370,1,8,0:0:0:0:
299,240,307459,1,0,0:0:0:0:
299,240,307548,1,0,0:0:0:0:
299,240,307637,1,8,0:0:0:0:
299,240,307903,1,0,0:0:0:0:
299,240,307992,1,0,0:0:0:0:
299,240,308081,1,0,0:0:0:0:
299,240,308170,1,8,0:0:0:0:
299,240,308437,1,0,0:0:0:0:
299,240,308525,1,0,0:0:0:0:
299,240,308614,1,0,0:0:0:0:
299,240,308703,1,8,0:0:0:0:
299,240,308970,1,0,0:0:0:0:
299,240,309059,1,0,0:0:0:0:
299,240,309148,1,0,0:0:0:0:
299,240,309237,1,8,0:0:0:0:
299,240,309325,1,0,0:0:0:0:
299,240,309414,1,8,0:0:0:0:
299,240,309503,1,8,0:0:0:0:
299,240,309592,1,0,0:0:0:0:
299,240,309681,1,0,0:0:0:0:
299,240,309770,1,8,0:0:0:0:
331,240,310037,1,8,0:0:0:0:
299,240,310125,1,8,0:0:0:0:
299,240,310214,1,8,0:0:0:0:
299,240,310303,1,0,0:0:0:0:
299,240,310570,1,8,0:0:0:0:
299,240,310659,1,8,0:0:0:0:
299,240,310748,1,8,0:0:0:0:
299,240,310837,1,0,0:0:0:0:
299,240,311103,1,8,0:0:0:0:
299,240,311192,1,8,0:0:0:0:
299,240,311281,1,8,0:0:0:0:
299,240,311370,1,0,0:0:0:0:
299,240,311459,1,8,0:0:0:0:
299,240,311548,1,0,0:0:0:0:
299,240,311637,1,8,0:0:0:0:
299,240,311725,1,8,0:0:0:0:
299,240,311814,1,0,0:0:0:0:
299,240,311903,1,8,0:0:0:0:
299,240,312170,1,0,0:0:0:0:
299,240,312259,1,8,0:0:0:0:
299,240,312348,1,0,0:0:0:0:
299,240,312437,1,8,0:0:0:0:
299,240,312703,1,0,0:0:0:0:
299,240,312792,1,8,0:0:0:0:
299,240,312881,1,0,0:0:0:0:
299,240,312970,1,8,0:0:0:0:
299,240,313237,1,0,0:0:0:0:
299,240,313325,1,0,0:0:0:0:
299,240,313414,1,0,0:0:0:0:
299,272,313503,1,8,0:0:0:0:
299,272,313592,1,0,0:0:0:0:
299,272,313681,1,8,0:0:0:0:
299,272,313770,1,8,0:0:0:0:
299,272,313859,1,0,0:0:0:0:
299,272,313948,1,0,0:0:0:0:
299,272,314037,1,8,0:0:0:0:
299,272,314303,1,0,0:0:0:0:
299,272,314392,1,0,0:0:0:0:
299,272,314481,1,0,0:0:0:0:
299,272,314570,1,0,0:0:0:0:
299,272,314837,1,0,0:0:0:0:
299,272,314925,1,0,0:0:0:0:
299,272,315014,1,0,0:0:0:0:
299,272,315103,1,0,0:0:0:0:
299,240,315370,1,8,0:0:0:0:
299,240,315459,1,0,0:0:0:0:
299,240,315548,1,0,0:0:0:0:
299,240,315637,1,8,0:0:0:0:
299,240,315725,1,8,0:0:0:0:
299,240,315814,1,0,0:0:0:0:
299,240,315903,1,8,0:0:0:0:
299,240,315992,1,0,0:0:0:0:
299,240,316081,1,0,0:0:0:0:
299,240,316170,1,8,0:0:0:0:
299,240,316437,1,0,0:0:0:0:
299,240,316525,1,8,0:0:0:0:
299,240,316614,1,0,0:0:0:0:
299,240,316703,1,8,0:0:0:0:
299,272,316970,1,8,0:0:0:0:
299,272,317059,1,0,0:0:0:0:
331,272,317148,1,0,0:0:0:0:
299,272,317237,1,8,0:0:0:0:
331,272,317503,1,0,0:0:0:0:
331,272,317592,1,0,0:0:0:0:
331,272,317681,1,0,0:0:0:0:
331,272,317770,1,8,0:0:0:0:
331,272,317859,1,0,0:0:0:0:
331,272,317948,1,8,0:0:0:0:
331,272,318037,1,0,0:0:0:0:
331,272,318125,1,0,0:0:0:0:
331,272,318214,1,0,0:0:0:0:
331,272,318303,1,8,0:0:0:0:
331,272,318392,1,0,0:0:0:0:
331,272,318481,1,8,0:0:0:0:
331,272,318570,1,8,0:0:0:0:
331,272,318659,1,0,0:0:0:0:
331,272,318748,1,8,0:0:0:0:
331,272,318837,1,0,0:0:0:0:
331,272,318925,1,8,0:0:0:0:
331,272,319014,1,8,0:0:0:0:
331,272,319103,1,0,0:0:0:0:
331,272,319192,1,0,0:0:0:0:
331,272,319281,1,8,0:0:0:0:
331,272,319370,1,0,0:0:0:0:
331,272,319459,1,8,0:0:0:0:
331,272,319548,1,0,0:0:0:0:
331,272,319637,1,8,0:0:0:0:
331,272,319725,1,8,0:0:0:0:
331,272,319814,1,8,0:0:0:0:
331,272,319903,1,0,0:0:0:0:
331,272,319992,1,0,0:0:0:0:
331,272,320081,1,8,0:0:0:0:
331,272,320170,1,8,0:0:0:0:
331,272,320259,1,0,0:0:0:0:
331,272,320348,1,0,0:0:0:0:
331,272,320437,1,8,0:0:0:0:
331,272,320525,1,8,0:0:0:0:
331,272,320614,1,0,0:0:0:0:
331,272,320703,1,8,0:0:0:0:
331,272,320792,1,8,0:0:0:0:
331,272,320881,1,0,0:0:0:0:
331,272,320970,1,8,0:0:0:0:
331,272,321059,1,0,0:0:0:0:
331,272,321148,1,8,0:0:0:0:
331,272,321237,1,8,0:0:0:0:
331,272,321325,1,0,0:0:0:0:
331,272,321414,1,0,0:0:0:0:
331,272,321503,1,8,0:0:0:0:
331,272,321592,1,0,0:0:0:0:
331,272,321681,1,8,0:0:0:0:
331,272,321770,1,0,0:0:0:0:
331,272,321859,1,0,0:0:0:0:
331,272,321948,1,8,0:0:0:0:
331,272,322037,1,0,0:0:0:0:
363,272,322125,1,8,0:0:0:0:
331,272,322214,1,8,0:0:0:0:
331,272,322303,1,0,0:0:0:0:
331,272,322392,1,8,0:0:0:0:
331,272,322481,1,0,0:0:0:0:
256,192,322570,12,0,326770,0:0:0:0:
331,240,326837,5,0,0:0:0:0:
299,240,326970,1,8,0:0:0:0:
331,240,327103,1,8,0:0:0:0:
331,240,327237,1,0,0:0:0:0:
331,240,327370,1,8,0:0:0:0:
331,240,327503,1,0,0:0:0:0:
331,240,327637,1,8,0:0:0:0:
331,240,327770,1,8,0:0:0:0:
299,240,327903,1,0,0:0:0:0:
331,240,328037,1,8,0:0:0:0:
331,240,328170,1,8,0:0:0:0:
331,240,328303,1,0,0:0:0:0:
331,240,328437,1,8,0:0:0:0:
331,240,328570,1,8,0:0:0:0:
331,240,328703,1,0,0:0:0:0:
331,240,328837,1,0,0:0:0:0:
299,240,328970,1,8,0:0:0:0:
299,240,329103,1,0,0:0:0:0:
299,240,329237,1,8,0:0:0:0:
299,240,329370,1,0,0:0:0:0:
299,240,329503,1,8,0:0:0:0:
299,240,329637,1,0,0:0:0:0:
299,240,329770,1,8,0:0:0:0:
299,240,329903,1,8,0:0:0:0:
299,240,330037,1,0,0:0:0:0:
299,240,330103,1,0,0:0:0:0:
299,240,330170,1,8,0:0:0:0:
299,240,330237,1,0,0:0:0:0:
299,240,330303,1,8,0:0:0:0:
299,240,330370,1,8,0:0:0:0:
299,240,330437,1,0,0:0:0:0:
299,240,330503,1,8,0:0:0:0:
299,240,330570,1,0,0:0:0:0:
299,240,330637,1,8,0:0:0:0:
299,240,330703,1,8,0:0:0:0:
299,240,330770,1,8,0:0:0:0:
299,240,330837,1,0,0:0:0:0:
299,240,330903,1,0,0:0:0:0:
299,240,330970,1,8,0:0:0:0:
299,240,331037,1,0,0:0:0:0:
302,232,331103,1,0,0:0:0:0:
284,230,331375,1,8,0:0:0:0:
284,230,331512,1,0,0:0:0:0:
284,230,331648,1,8,0:0:0:0:
284,230,331784,1,8,0:0:0:0:
284,230,331921,1,8,0:0:0:0:
284,230,332057,1,0,0:0:0:0:
284,230,332330,1,8,0:0:0:0:
284,230,332466,1,0,0:0:0:0:
284,230,332603,1,8,0:0:0:0:
284,230,332739,1,8,0:0:0:0:
284,230,332875,1,0,0:0:0:0:
284,230,333012,1,8,0:0:0:0:
296,247,333148,1,8,0:0:0:0:
284,230,333284,1,0,0:0:0:0:
284,230,333563,1,8,0:0:0:0:
284,230,333702,1,0,0:0:0:0:
284,230,333842,1,8,0:0:0:0:
284,230,333981,1,8,0:0:0:0:
284,230,334121,1,8,0:0:0:0:
284,230,334260,1,0,0:0:0:0:
284,230,334539,1,8,0:0:0:0:
284,230,334679,1,0,0:0:0:0:
284,230,334818,1,8,0:0:0:0:
284,230,334958,1,8,0:0:0:0:
284,230,335097,1,0,0:0:0:0:
295,244,335237,1,8,0:0:0:0:
284,230,335377,1,0,0:0:0:0:
284,230,335516,1,0,0:0:0:0:
269,225,335801,1,8,0:0:0:0:
269,225,335944,1,0,0:0:0:0:
269,225,336087,1,8,0:0:0:0:
269,225,336230,1,8,0:0:0:0:
269,225,336373,1,8,0:0:0:0:
269,225,336516,1,0,0:0:0:0:
269,225,336801,1,8,0:0:0:0:
269,225,336944,1,0,0:0:0:0:
269,225,337087,1,8,0:0:0:0:
269,225,337230,1,8,0:0:0:0:
269,225,337373,1,0,0:0:0:0:
269,225,337516,1,8,0:0:0:0:
269,225,337658,1,0,0:0:0:0:
299,240,337801,1,0,0:0:0:0:
269,225,338093,1,8,0:0:0:0:
269,225,338240,1,0,0:0:0:0:
269,225,338386,1,8,0:0:0:0:
269,225,338532,1,8,0:0:0:0:
269,225,338679,1,8,0:0:0:0:
331,240,338825,1,0,0:0:0:0:
269,225,339118,1,8,0:0:0:0:
331,240,339264,1,0,0:0:0:0:
269,225,339410,1,8,0:0:0:0:
269,225,339557,1,8,0:0:0:0:
269,225,339703,1,0,0:0:0:0:
331,272,339849,1,8,0:0:0:0:
321,250,339996,1,8,0:0:0:0:
331,272,340142,1,0,0:0:0:0:
299,243,340292,1,0,0:0:0:0:
331,272,340442,1,8,0:0:0:0:
331,272,340592,1,0,0:0:0:0:
331,272,340742,1,8,0:0:0:0:
331,272,340892,1,8,0:0:0:0:
331,272,341042,1,8,0:0:0:0:
331,272,341192,1,0,0:0:0:0:
331,272,341492,1,8,0:0:0:0:
331,272,341642,1,0,0:0:0:0:
331,272,341792,1,8,0:0:0:0:
331,272,341942,1,8,0:0:0:0:
331,272,342092,1,0,0:0:0:0:
331,272,342242,1,8,0:0:0:0:
299,272,342392,1,8,0:0:0:0:
331,272,342542,1,0,0:0:0:0:
299,272,342849,1,8,0:0:0:0:
299,272,343003,1,0,0:0:0:0:
299,272,343157,1,8,0:0:0:0:
299,272,343311,1,8,0:0:0:0:
267,240,343465,1,8,0:0:0:0:
267,240,343618,1,0,0:0:0:0:
299,240,343926,1,8,0:0:0:0:
299,240,344080,1,0,0:0:0:0:
299,240,344234,1,8,0:0:0:0:
299,240,344388,1,8,0:0:0:0:
299,240,344542,1,0,0:0:0:0:
299,240,344695,1,8,0:0:0:0:
299,240,344849,1,0,0:0:0:0:
299,240,345003,1,0,0:0:0:0:
299,240,345318,1,8,0:0:0:0:
299,240,345476,1,0,0:0:0:0:
299,240,345634,1,8,0:0:0:0:
299,240,345792,1,8,0:0:0:0:
299,240,345950,1,8,0:0:0:0:
299,240,346108,1,0,0:0:0:0:
299,240,346424,1,8,0:0:0:0:
299,240,346581,1,0,0:0:0:0:
299,240,346739,1,8,0:0:0:0:
299,240,346897,1,8,0:0:0:0:
299,240,347055,1,0,0:0:0:0:
299,240,347213,1,0,0:0:0:0:
299,240,347371,1,0,0:0:0:0:
299,240,347529,1,0,0:0:0:0:
299,240,347853,1,8,0:0:0:0:
299,240,348015,1,0,0:0:0:0:
299,240,348177,1,8,0:0:0:0:
299,240,348339,1,8,0:0:0:0:
299,272,348664,1,0,0:0:0:0:
299,240,348826,1,0,0:0:0:0:
299,240,348907,1,0,0:0:0:0:
299,240,348989,1,8,0:0:0:0:
299,240,349070,1,0,0:0:0:0:
299,240,349152,1,8,0:0:0:0:
299,240,349233,1,8,0:0:0:0:
299,240,349315,1,0,0:0:0:0:
299,240,349396,1,8,0:0:0:0:
299,240,349478,1,0,0:0:0:0:
299,240,349559,1,8,0:0:0:0:
299,240,349641,1,8,0:0:0:0:
299,240,349722,1,8,0:0:0:0:
299,240,349804,1,0,0:0:0:0:
299,240,349885,1,0,0:0:0:0:
299,240,349967,1,8,0:0:0:0:
299,240,350048,1,0,0:0:0:0:
256,230,350130,1,0,0:0:0:0:
