osu file format v14

[General]
AudioFilename: audio.mp3
AudioLeadIn: 0
PreviewTime: 248673
Countdown: 0
SampleSet: Soft
StackLeniency: 0.5
Mode: 0
LetterboxInBreaks: 0
WidescreenStoryboard: 0

[Editor]
DistanceSpacing: 1.3
BeatDivisor: 4
GridSize: 32
TimelineZoom: 3.699998

[Metadata]
Title:Hoshi o Kakeru Adventure ~ we are forever friends! ~ [Long ver.]
TitleUnicode:☆をかけるアドベンチャー ~ we are forever friends! ~ [Long ver.]
Artist:AAAA
ArtistUnicode:ああああ
Creator:Maaadbot
Version:Memory
Source:大血戦 -THE BMS OF FIGHTERS ULTIMATE-
Tags:groundbreaking BOFU2015 Kiyoshi Guarden Nymphe Kang Sae-byeok Actiol instrumental electronic featured artist fa
BeatmapID:3789556
BeatmapSetID:1844826

[Difficulty]
HPDrainRate:5.6
CircleSize:4.2
OverallDifficulty:9.8
ApproachRate:10
SliderMultiplier:1.82
SliderTickRate:1

[Events]
//Background and Video events
0,0,"4495014.jpg",0,0
//Break Periods
2,39794,48265
2,239633,248194
//Storyboard Layer 0 (Background)
//Storyboard Layer 1 (Fail)
//Storyboard Layer 2 (Pass)
//Storyboard Layer 3 (Foreground)
//Storyboard Layer 4 (Overlay)
//Storyboard Sound Samples

[TimingPoints]
493,320.855614973262,4,2,1,30,1,0
19744,-138.888888888889,4,2,1,30,0,0
21027,-121.951219512195,4,2,1,35,0,0
21268,-121.951219512195,4,2,1,5,0,0
21348,-121.951219512195,4,2,1,35,0,0
22391,-121.951219512195,4,2,1,5,0,0
22471,-121.951219512195,4,2,1,35,0,0
23835,-121.951219512195,4,2,1,5,0,0
23915,-121.951219512195,4,2,1,35,0,0
24958,-121.951219512195,4,2,1,5,0,0
25038,-121.951219512195,4,2,1,35,0,0
26402,-121.951219512195,4,2,1,5,0,0
26482,-121.951219512195,4,2,1,35,0,0
27525,-121.951219512195,4,2,1,5,0,0
27605,-121.951219512195,4,2,1,35,0,0
28968,-121.951219512195,4,2,1,5,0,0
29049,-121.951219512195,4,2,1,35,0,0
30011,324.324324324324,4,2,1,35,1,0
30011,-121.951219512195,4,2,1,35,0,0
31308,315.789473684211,4,2,1,45,1,0
31308,-108.695652173913,4,2,1,45,0,0
32571,312.5,4,2,1,45,1,0
32727,-108.695652173913,4,2,1,45,0,0
33821,309.278350515464,4,2,1,45,1,0
33821,-108.695652173913,4,2,1,45,0,0
35058,306.122448979592,4,2,1,45,1,0
35211,-108.695652173913,4,2,1,45,0,0
36282,303.030303030303,4,2,1,45,1,0
36282,-108.695652173913,4,2,1,45,0,0
37494,300,4,2,1,45,1,0
37644,-108.695652173913,4,2,1,45,0,0
48744,267.857142857143,4,2,1,50,1,0
48744,-108.695652173913,4,2,1,50,0,0
53029,-98.0392156862745,4,2,1,60,0,0
53230,-98.0392156862745,4,2,1,5,0,0
53297,-98.0392156862745,4,2,2,60,0,0
53431,-98.0392156862745,4,2,1,60,0,0
53498,-98.0392156862745,4,2,1,5,0,0
53565,-98.0392156862745,4,2,3,60,0,0
53699,-98.0392156862745,4,2,1,60,0,0
53833,-98.0392156862745,4,2,2,60,0,0
53967,-98.0392156862745,4,2,1,60,0,0
54101,-98.0392156862745,4,2,3,60,0,0
54235,-98.0392156862745,4,2,4,60,0,0
54369,-98.0392156862745,4,2,5,60,0,0
54502,-98.0392156862745,4,2,1,60,0,0
54636,-98.0392156862745,4,2,3,60,0,0
54770,-98.0392156862745,4,2,1,60,0,0
54904,-98.0392156862745,4,2,2,60,0,0
55038,-98.0392156862745,4,2,1,60,0,0
55172,-98.0392156862745,4,2,2,60,0,0
55574,-98.0392156862745,4,2,1,60,0,0
55708,-98.0392156862745,4,2,3,60,0,0
55842,-98.0392156862745,4,2,1,60,0,0
55976,-98.0392156862745,4,2,2,60,0,0
56110,-98.0392156862745,4,2,1,60,0,0
56244,-98.0392156862745,4,2,2,60,0,0
56511,-98.0392156862745,4,2,6,60,0,0
56645,-98.0392156862745,4,2,1,60,0,0
56779,-98.0392156862745,4,2,2,60,0,0
57047,-98.0392156862745,4,2,3,60,0,0
57315,-98.0392156862745,4,2,7,45,0,0
57382,-98.0392156862745,4,2,4,45,0,0
57583,-98.0392156862745,4,2,7,50,0,0
57650,-98.0392156862745,4,2,4,50,0,0
57851,-98.0392156862745,4,2,7,55,0,0
57918,-98.0392156862745,4,2,4,55,0,0
58119,-98.0392156862745,4,2,7,60,0,0
58185,-98.0392156862745,4,2,4,60,0,0
58386,-98.0392156862745,4,2,8,60,0,0
58420,-98.0392156862745,4,2,4,60,0,0
58587,-98.0392156862745,4,2,4,50,0,0
58788,-98.0392156862745,4,2,4,60,0,0
59056,-98.0392156862745,4,2,9,60,0,0
59123,-98.0392156862745,4,2,10,60,0,0
59190,-98.0392156862745,4,2,11,60,0,0
59324,-98.0392156862745,4,2,1,60,0,0
59458,-81.9672131147541,4,2,1,65,0,0
59726,-81.9672131147541,4,2,1,65,0,0
59860,-81.9672131147541,4,2,4,65,0,0
59994,-81.9672131147541,4,2,2,65,0,0
60261,-81.9672131147541,4,2,4,65,0,0
60529,-81.9672131147541,4,2,1,65,0,0
60663,-81.9672131147541,4,2,4,65,0,0
60797,-81.9672131147541,4,2,2,65,0,0
61065,-81.9672131147541,4,2,12,65,0,0
61333,-81.9672131147541,4,2,5,65,0,0
61601,-81.9672131147541,4,2,1,65,0,0
61869,-81.9672131147541,4,2,1,65,0,0
62002,-81.9672131147541,4,2,4,65,0,0
62136,-81.9672131147541,4,2,2,65,0,0
62404,-81.9672131147541,4,2,2,65,0,0
62806,-81.9672131147541,4,2,1,65,0,0
62940,-81.9672131147541,4,2,2,65,0,0
63208,-81.9672131147541,4,2,2,65,0,0
63476,-81.9672131147541,4,2,2,65,0,0
63610,-81.9672131147541,4,2,1,65,0,0
63744,-81.9672131147541,4,2,12,65,0,0
63944,-81.9672131147541,4,2,12,5,0,0
64011,-81.9672131147541,4,2,1,65,0,0
64145,-81.9672131147541,4,2,4,65,0,0
64279,-81.9672131147541,4,2,1,65,0,0
64949,-81.9672131147541,4,2,4,65,0,0
65083,-81.9672131147541,4,2,3,65,0,0
65284,-81.9672131147541,4,2,1,65,0,0
65351,-81.9672131147541,4,2,3,65,0,0
65418,-81.9672131147541,4,2,1,65,0,0
65619,-81.9672131147541,4,2,3,65,0,0
65752,-81.9672131147541,4,2,1,65,0,0
65886,-81.9672131147541,4,2,3,65,0,0
66020,-81.9672131147541,4,2,1,65,0,0
67092,-81.9672131147541,4,2,1,65,0,0
67627,-81.9672131147541,4,2,2,65,0,0
67694,-81.9672131147541,4,2,1,65,0,0
67895,-81.9672131147541,4,2,13,65,0,0
68029,-138.888888888889,4,2,13,65,0,0
68230,-138.888888888889,4,2,13,5,0,0
68297,-138.888888888889,4,2,1,45,0,0
69703,-138.888888888889,4,2,1,5,0,0
69770,-138.888888888889,4,2,1,45,0,0
71511,-98.0392156862746,4,2,1,45,0,0
72181,-138.888888888889,4,2,1,45,0,0
72583,-238.095238095239,4,2,1,45,0,0
72784,-238.095238095239,4,2,1,5,0,0
72851,-138.888888888889,4,2,1,45,0,0
74793,-138.888888888889,4,2,1,5,0,0
74860,-138.888888888889,4,2,1,45,0,0
75864,-138.888888888889,4,2,1,5,0,0
75931,-138.888888888889,4,2,1,45,0,0
76601,-138.888888888889,4,2,1,50,0,0
77940,-138.888888888889,4,2,13,50,0,0
78074,-138.888888888889,4,2,1,50,0,0
80886,-108.695652173913,4,2,1,60,0,0
81087,-108.695652173913,4,2,1,5,0,0
81154,-108.695652173913,4,2,4,60,0,0
81288,-108.695652173913,4,2,4,60,0,0
81422,-108.695652173913,4,2,2,60,0,0
81489,-108.695652173913,4,2,1,60,0,0
81690,-108.695652173913,4,2,3,60,0,0
81824,-108.695652173913,4,2,4,60,0,0
81958,-108.695652173913,4,2,1,60,0,0
82092,-108.695652173913,4,2,4,60,0,0
82226,-108.695652173913,4,2,4,60,0,0
82360,-108.695652173913,4,2,1,60,0,0
82494,-108.695652173913,4,2,1,60,0,0
82627,-108.695652173913,4,2,1,60,0,0
82761,-108.695652173913,4,2,2,60,0,0
82895,-108.695652173913,4,2,1,60,0,0
83029,-108.695652173913,4,2,2,60,0,0
83230,-108.695652173913,4,2,2,5,0,0
83297,-108.695652173913,4,2,1,60,0,0
83431,-108.695652173913,4,2,1,60,0,0
83565,-108.695652173913,4,2,2,60,0,0
83766,-108.695652173913,4,2,2,5,0,0
83833,-108.695652173913,4,2,1,60,0,0
84101,-108.695652173913,4,2,2,60,0,0
84168,-108.695652173913,4,2,4,60,0,0
84369,-108.695652173913,4,2,2,60,0,0
84435,-108.695652173913,4,2,4,60,0,0
84636,-108.695652173913,4,2,2,60,0,0
84703,-108.695652173913,4,2,4,60,0,0
84904,-108.695652173913,4,2,2,60,0,0
84971,-108.695652173913,4,2,12,60,0,0
85172,-108.695652173913,4,2,12,55,0,0
85373,-108.695652173913,4,2,12,5,0,0
85440,-108.695652173913,4,2,2,55,0,0
86444,-108.695652173913,4,2,2,5,0,0
86511,-108.695652173913,4,2,2,55,0,0
86712,-108.695652173913,4,2,1,55,0,0
86779,-108.695652173913,4,2,9,55,0,0
86913,-108.695652173913,4,2,2,55,0,0
86980,-108.695652173913,4,2,1,55,0,0
87047,-108.695652173913,4,2,9,55,0,0
87181,-108.695652173913,4,2,2,55,0,0
87248,-108.695652173913,4,2,1,55,0,0
87315,-108.695652173913,4,2,2,55,0,0
87516,-108.695652173913,4,2,2,5,0,0
87583,-108.695652173913,4,2,2,55,0,0
88052,-108.695652173913,4,2,2,5,0,0
88119,-108.695652173913,4,2,2,55,0,0
88587,-108.695652173913,4,2,2,5,0,0
88654,-108.695652173913,4,2,2,55,0,0
88855,-108.695652173913,4,2,1,55,0,0
88922,-108.695652173913,4,2,9,55,0,0
89056,-108.695652173913,4,2,2,55,0,0
89123,-108.695652173913,4,2,1,55,0,0
89190,-108.695652173913,4,2,9,55,0,0
89324,-108.695652173913,4,2,2,55,0,0
89391,-108.695652173913,4,2,1,55,0,0
89458,-108.695652173913,4,2,2,55,0,0
89659,-108.695652173913,4,2,2,5,0,0
89726,-108.695652173913,4,2,2,55,0,0
90194,-108.695652173913,4,2,2,5,0,0
90261,-108.695652173913,4,2,2,55,0,0
90730,-108.695652173913,4,2,2,5,0,0
90797,-108.695652173913,4,2,2,55,0,0
90998,-108.695652173913,4,2,1,55,0,0
91065,-81.9672131147541,4,2,9,55,0,0
91199,-81.9672131147541,4,2,2,55,0,0
91266,-81.9672131147541,4,2,1,55,0,0
91333,-81.9672131147541,4,2,9,55,0,0
91467,-81.9672131147541,4,2,2,55,0,0
91534,-81.9672131147541,4,2,1,55,0,0
91601,-89.2857142857143,4,2,2,55,0,0
91802,-89.2857142857143,4,2,2,5,0,0
91869,-89.2857142857143,4,2,2,55,0,0
92069,-89.2857142857143,4,2,2,5,0,0
92136,-108.695652173913,4,2,2,55,0,0
92337,-108.695652173913,4,2,2,5,0,0
92404,-108.695652173913,4,2,2,55,0,0
92605,-108.695652173913,4,2,2,5,0,0
92672,-108.695652173913,4,2,2,55,0,0
92873,-108.695652173913,4,2,2,5,0,0
92940,-108.695652173913,4,2,2,55,0,0
93141,-108.695652173913,4,2,1,55,0,0
93208,-108.695652173913,4,2,9,55,0,0
93342,-108.695652173913,4,2,2,55,0,0
93409,-108.695652173913,4,2,1,55,0,0
93476,-108.695652173913,4,2,9,55,0,0
93610,-108.695652173913,4,2,1,55,0,0
93744,-98.0392156862745,4,2,2,55,0,0
93877,-98.0392156862745,4,2,1,55,0,0
94011,-98.0392156862745,4,2,1,55,0,0
94145,-98.0392156862745,4,2,1,55,0,0
94279,-98.0392156862745,4,2,1,55,0,0
94413,-98.0392156862745,4,2,1,55,0,0
94547,-98.0392156862745,4,2,1,55,0,0
94681,-98.0392156862745,4,2,1,55,0,0
94815,-98.0392156862745,4,2,1,55,0,0
94949,-98.0392156862745,4,2,1,55,0,0
95016,-98.0392156862745,4,2,1,5,0,0
95083,-98.0392156862745,4,2,1,55,0,0
95217,-98.0392156862745,4,2,1,55,0,0
95351,-98.0392156862745,4,2,10,55,0,0
95485,-98.0392156862745,4,2,1,55,0,0
95619,-98.0392156862745,4,2,10,55,0,0
95752,-98.0392156862745,4,2,1,55,0,0
95886,-98.0392156862745,4,2,1,55,0,0
96020,-98.0392156862745,4,2,1,55,0,0
96154,-98.0392156862745,4,2,2,55,0,0
96288,-98.0392156862745,4,2,1,55,0,0
96355,-98.0392156862745,4,2,1,5,0,0
96422,-98.0392156862745,4,2,2,55,0,0
97092,-98.0392156862745,4,2,1,55,0,0
97226,-98.0392156862745,4,2,1,55,0,0
97360,-98.0392156862745,4,2,2,55,0,0
97427,-98.0392156862745,4,2,1,55,0,0
97494,-98.0392156862745,4,2,10,55,0,0
97627,-98.0392156862745,4,2,2,55,0,0
97694,-98.0392156862745,4,2,1,55,0,0
97761,-98.0392156862745,4,2,9,55,0,0
97895,-98.0392156862745,4,2,2,55,0,0
97962,-98.0392156862745,4,2,1,55,0,0
98029,-98.0392156862745,4,2,2,55,0,0
98163,-98.0392156862745,4,2,1,55,0,0
98230,-98.0392156862745,4,2,1,5,0,0
98297,-98.0392156862745,4,2,1,55,0,0
98431,-98.0392156862745,4,2,1,55,0,0
98565,-98.0392156862745,4,2,1,55,0,0
98699,-98.0392156862745,4,2,1,55,0,0
98833,-98.0392156862745,4,2,1,55,0,0
98967,-98.0392156862745,4,2,1,55,0,0
99101,-98.0392156862745,4,2,1,55,0,0
99235,-98.0392156862745,4,2,1,55,0,0
99369,-98.0392156862745,4,2,1,55,0,0
99502,-98.0392156862745,4,2,1,55,0,0
99636,-98.0392156862745,4,2,10,55,0,0
99770,-98.0392156862745,4,2,1,55,0,0
99904,-98.0392156862745,4,2,10,55,0,0
100038,-98.0392156862745,4,2,2,55,0,0
100306,-98.0392156862745,4,2,1,55,0,0
100440,-98.0392156862745,4,2,1,55,0,0
100574,-98.0392156862745,4,2,1,55,0,0
100708,-98.0392156862745,4,2,1,55,0,0
100842,-98.0392156862745,4,2,1,55,0,0
100976,-98.0392156862745,4,2,1,55,0,0
101110,-98.0392156862745,4,2,1,55,0,0
101244,-98.0392156862745,4,2,7,45,0,0
101310,-98.0392156862745,4,2,5,45,0,0
101377,-98.0392156862745,4,2,4,45,0,0
101444,-98.0392156862745,4,2,5,45,0,0
101511,-98.0392156862745,4,2,7,50,0,0
101578,-98.0392156862745,4,2,5,50,0,0
101712,-98.0392156862745,4,2,4,50,0,0
101779,-98.0392156862745,4,2,8,55,0,0
101846,-98.0392156862745,4,2,5,55,0,0
101980,-98.0392156862745,4,2,4,55,0,0
102047,-98.0392156862745,4,2,8,60,0,0
102114,-98.0392156862745,4,2,5,60,0,0
102248,-98.0392156862745,4,2,4,60,0,0
102315,-70.4225352112676,4,2,7,65,0,0
102583,-70.4225352112676,4,2,1,65,0,0
102717,-70.4225352112676,4,2,1,65,0,0
102851,-98.0392156862745,4,2,6,65,0,0
103252,-98.0392156862745,4,2,3,65,0,0
103386,-98.0392156862745,4,2,3,65,0,0
103520,-98.0392156862745,4,2,3,5,0,0
103587,-98.0392156862745,4,2,3,65,0,0
103654,-98.0392156862745,4,2,1,65,0,0
103721,-98.0392156862745,4,2,1,5,0,0
103788,-98.0392156862745,4,2,1,65,0,0
103922,-98.0392156862745,4,2,9,65,0,0
104123,-98.0392156862745,4,2,9,5,0,0
104190,-98.0392156862745,4,2,1,65,0,0
104391,-98.0392156862745,4,2,1,5,0,0
104458,-98.0392156862745,4,2,2,65,0,0
104860,-98.0392156862745,4,2,1,65,0,0
104994,-98.0392156862745,4,2,6,65,0,0
105261,-98.0392156862745,4,2,1,65,0,0
105529,-98.0392156862745,4,2,3,65,0,0
105663,-98.0392156862745,4,2,3,5,0,0
105730,-98.0392156862745,4,2,3,65,0,0
105797,-98.0392156862745,4,2,1,65,0,0
105864,-98.0392156862745,4,2,1,5,0,0
105931,-98.0392156862745,4,2,1,65,0,0
106065,-98.0392156862745,4,2,9,65,0,0
106601,-70.4225352112676,4,2,2,65,0,0
107002,-70.4225352112676,4,2,1,65,0,0
107136,-98.0392156862745,4,2,9,65,0,0
107672,-98.0392156862745,4,2,2,65,0,0
107806,-98.0392156862745,4,2,2,5,0,0
107873,-98.0392156862745,4,2,2,65,0,0
108007,-98.0392156862745,4,2,2,5,0,0
108074,-98.0392156862745,4,2,1,65,0,0
108208,-98.0392156862745,4,2,6,65,0,0
108476,-98.0392156862745,4,2,1,65,0,0
108744,-98.0392156862745,4,2,2,65,0,0
109011,-98.0392156862745,4,2,1,65,0,0
109279,-98.0392156862745,4,2,9,65,0,0
109547,-98.0392156862745,4,2,1,65,0,0
109815,-98.0392156862745,4,2,2,65,0,0
109949,-98.0392156862745,4,2,2,5,0,0
110016,-98.0392156862745,4,2,2,65,0,0
110083,-98.0392156862745,4,2,1,65,0,0
110150,-98.0392156862745,4,2,1,5,0,0
110217,-98.0392156862745,4,2,1,65,0,0
110351,-98.0392156862745,4,2,9,65,0,0
110886,-98.0392156862745,4,2,2,65,0,0
111288,-98.0392156862745,4,2,1,65,0,0
111422,-98.0392156862745,4,2,9,65,0,0
111690,-98.0392156862745,4,2,1,65,0,0
111958,-98.0392156862745,4,2,3,65,0,0
112092,-98.0392156862745,4,2,1,65,0,0
112159,-98.0392156862745,4,2,1,65,0,0
112293,-98.0392156862745,4,2,1,5,0,0
112360,-98.0392156862745,4,2,1,65,0,0
112494,-98.0392156862745,4,2,6,65,0,0
112627,-98.0392156862745,4,2,1,65,0,0
113029,-81.9672131147541,4,2,2,65,0,0
113431,-81.9672131147541,4,2,1,65,0,0
113565,-98.0392156862745,4,2,9,65,0,0
113833,-98.0392156862745,4,2,1,65,0,0
114101,-98.0392156862745,4,2,3,65,0,0
114235,-98.0392156862745,4,2,1,65,0,0
114302,-98.0392156862745,4,2,1,65,0,0
114435,-98.0392156862745,4,2,1,5,0,0
114502,-98.0392156862745,4,2,1,65,0,0
114636,-98.0392156862745,4,2,6,65,0,0
114770,-98.0392156862745,4,2,1,65,0,0
114837,-98.0392156862745,4,2,1,5,0,0
114904,-98.0392156862745,4,2,9,65,0,0
114971,-98.0392156862745,4,2,9,5,0,0
115038,-98.0392156862745,4,2,1,65,0,0
115105,-98.0392156862745,4,2,1,5,0,0
115172,-98.0392156862745,4,2,2,65,0,0
115708,-98.0392156862745,4,2,6,65,0,0
116110,-98.0392156862745,4,2,3,65,0,0
116244,-98.0392156862745,4,2,3,65,0,0
116377,-98.0392156862745,4,2,3,5,0,0
116444,-98.0392156862745,4,2,3,65,0,0
116578,-98.0392156862745,4,2,3,5,0,0
116645,-98.0392156862745,4,2,1,65,0,0
116779,-98.0392156862745,4,2,6,65,0,0
116980,-98.0392156862745,4,2,6,5,0,0
117047,-98.0392156862745,4,2,1,65,0,0
117248,-98.0392156862745,4,2,1,5,0,0
117315,-81.9672131147541,4,2,2,65,0,0
117851,-98.0392156862745,4,2,6,65,0,0
118252,-98.0392156862745,4,2,2,65,0,0
118386,-98.0392156862745,4,2,2,65,0,0
118520,-98.0392156862745,4,2,1,65,0,0
118587,-98.0392156862745,4,2,1,65,0,0
118721,-98.0392156862745,4,2,1,5,0,0
118788,-98.0392156862745,4,2,1,65,0,0
118922,-98.0392156862745,4,2,9,65,0,0
119056,-98.0392156862745,4,2,1,65,0,0
119190,-98.0392156862745,4,2,9,65,0,0
119324,-98.0392156862745,4,2,1,65,0,0
119458,-138.888888888889,4,2,1,45,0,0
120797,-312.500000000001,4,2,1,45,0,0
120998,-312.500000000001,4,2,1,5,0,0
121065,-238.095238095239,4,2,1,45,0,0
121266,-238.095238095239,4,2,1,5,0,0
121333,-192.307692307693,4,2,1,45,0,0
121534,-192.307692307693,4,2,1,5,0,0
121601,-138.888888888889,4,2,1,45,0,0
121935,-138.888888888889,4,2,1,5,0,0
122002,-138.888888888889,4,2,1,45,0,0
122337,-138.888888888889,4,2,1,5,0,0
122404,-138.888888888889,4,2,1,45,0,0
122873,-138.888888888889,4,2,1,5,0,0
122940,-138.888888888889,4,2,1,45,0,0
123141,-138.888888888889,4,2,1,5,0,0
123208,-138.888888888889,4,2,1,45,0,0
123409,-138.888888888889,4,2,1,5,0,0
123476,-138.888888888889,4,2,1,45,0,0
123677,-138.888888888889,4,2,1,5,0,0
123744,-138.888888888889,4,2,4,45,0,0
124547,-138.888888888889,4,2,1,45,0,0
124681,-138.888888888889,4,2,4,45,0,0
125284,-138.888888888889,4,2,4,5,0,0
125351,-138.888888888889,4,2,4,45,0,0
125552,-138.888888888889,4,2,4,5,0,0
125619,-138.888888888889,4,2,1,45,0,0
125685,-138.888888888889,4,2,4,45,0,0
125819,-138.888888888889,4,2,4,5,0,0
125886,-138.888888888889,4,2,4,45,0,0
126154,-138.888888888889,4,2,1,45,0,0
126556,-138.888888888889,4,2,4,45,0,0
126690,-138.888888888889,4,2,1,45,0,0
126824,-138.888888888889,4,2,4,45,0,0
127092,-138.888888888889,4,2,1,45,0,0
127226,-138.888888888889,4,2,4,45,0,0
127360,-138.888888888889,4,2,1,45,0,0
127494,-138.888888888889,4,2,1,48,0,0
127627,-138.888888888889,4,2,5,51,0,0
127694,-138.888888888889,4,2,1,51,0,0
127761,-138.888888888889,4,2,1,54,0,0
127895,-138.888888888889,4,2,1,57,0,0
128029,-98.0392156862746,4,2,1,60,0,0
132315,-98.0392156862746,4,2,1,70,0,0
133453,-98.0392156862746,4,2,1,5,0,0
133520,-98.0392156862746,4,2,1,70,0,0
133587,-98.0392156862746,4,2,1,5,0,0
133654,-98.0392156862746,4,2,1,70,0,0
133721,-98.0392156862746,4,2,1,70,0,0
133788,-98.0392156862746,4,2,1,70,0,0
135529,-161.290322580645,4,2,11,55,0,0
135797,-161.290322580645,4,2,14,55,0,0
135998,-161.290322580645,4,2,14,5,0,0
136065,-121.951219512195,4,2,14,55,0,0
136199,-121.951219512195,4,2,10,55,0,0
136333,-98.0392156862745,4,2,11,65,0,0
136601,-70.4225352112676,4,2,1,80,0,1
136735,-70.4225352112676,4,2,1,80,0,1
136802,-70.4225352112676,4,2,1,5,0,1
136869,-70.4225352112676,4,2,1,80,0,1
137002,-70.4225352112676,4,2,4,80,0,1
137136,-70.4225352112676,4,2,1,80,0,1
137270,-70.4225352112676,4,2,2,80,0,1
137404,-70.4225352112676,4,2,2,80,0,1
137538,-70.4225352112676,4,2,2,80,0,1
137940,-70.4225352112676,4,2,2,80,0,1
138074,-70.4225352112676,4,2,2,80,0,1
138141,-70.4225352112676,4,2,1,80,0,1
138208,-70.4225352112676,4,2,1,80,0,1
138342,-70.4225352112676,4,2,3,80,0,1
138476,-70.4225352112676,4,2,1,80,0,1
138610,-70.4225352112676,4,2,2,80,0,1
138677,-70.4225352112676,4,2,1,80,0,1
138744,-70.4225352112676,4,2,2,80,0,1
138877,-70.4225352112676,4,2,1,80,0,1
138944,-70.4225352112676,4,2,1,5,0,1
139011,-70.4225352112676,4,2,1,80,0,1
139145,-70.4225352112676,4,2,4,80,0,1
139279,-70.4225352112676,4,2,2,80,0,1
139346,-70.4225352112676,4,2,1,80,0,1
139413,-70.4225352112676,4,2,2,80,0,1
139480,-70.4225352112676,4,2,1,80,0,1
139547,-70.4225352112676,4,2,2,80,0,1
139614,-70.4225352112676,4,2,1,80,0,1
139681,-70.4225352112676,4,2,2,80,0,1
139748,-70.4225352112676,4,2,1,80,0,1
139815,-70.4225352112676,4,2,2,80,0,1
139949,-70.4225352112676,4,2,2,80,0,1
140083,-70.4225352112676,4,2,2,80,0,1
140217,-70.4225352112676,4,2,2,80,0,1
140284,-70.4225352112676,4,2,1,80,0,1
140351,-70.4225352112676,4,2,1,80,0,1
140485,-70.4225352112676,4,2,3,80,0,1
140619,-70.4225352112676,4,2,1,80,0,1
140752,-70.4225352112676,4,2,2,80,0,1
140886,-70.4225352112676,4,2,1,80,0,1
141020,-70.4225352112676,4,2,2,80,0,1
141154,-70.4225352112676,4,2,2,80,0,1
141288,-70.4225352112676,4,2,3,80,0,1
141690,-70.4225352112676,4,2,2,80,0,1
141824,-70.4225352112676,4,2,2,80,0,1
141958,-70.4225352112676,4,2,1,80,0,1
142092,-70.4225352112676,4,2,2,80,0,1
142226,-70.4225352112676,4,2,2,80,0,1
142293,-70.4225352112676,4,2,1,80,0,1
142360,-70.4225352112676,4,2,2,80,0,1
142427,-70.4225352112676,4,2,1,80,0,1
142494,-70.4225352112676,4,2,1,80,0,1
142627,-70.4225352112676,4,2,3,80,0,1
142761,-70.4225352112676,4,2,2,80,0,1
142895,-70.4225352112676,4,2,2,80,0,1
143297,-70.4225352112676,4,2,2,80,0,1
143431,-70.4225352112676,4,2,3,80,0,1
143833,-70.4225352112676,4,2,2,80,0,1
143967,-61.7283950617284,4,2,2,80,0,1
144101,-61.7283950617284,4,2,1,80,0,1
144235,-61.7283950617284,4,2,2,80,0,1
144369,-70.4225352112676,4,2,2,80,0,1
144502,-70.4225352112676,4,2,2,80,0,1
144569,-70.4225352112676,4,2,1,80,0,1
144636,-70.4225352112676,4,2,2,80,0,1
144770,-70.4225352112676,4,2,4,80,0,1
144837,-70.4225352112676,4,2,4,80,0,1
144904,-70.4225352112676,4,2,1,80,0,1
144971,-70.4225352112676,4,2,1,5,0,1
145038,-70.4225352112676,4,2,2,80,0,1
145172,-70.4225352112676,4,2,2,80,0,1
145306,-70.4225352112676,4,2,1,80,0,1
145373,-70.4225352112676,4,2,1,80,0,1
145440,-70.4225352112676,4,2,1,80,0,1
145507,-70.4225352112676,4,2,1,5,0,1
145574,-70.4225352112676,4,2,3,80,0,1
145708,-70.4225352112676,4,2,1,80,0,1
145775,-70.4225352112676,4,2,1,80,0,1
145842,-70.4225352112676,4,2,2,80,0,1
145909,-70.4225352112676,4,2,2,5,0,1
145976,-70.4225352112676,4,2,2,80,0,1
146043,-70.4225352112676,4,2,1,80,0,1
146110,-70.4225352112676,4,2,2,80,0,1
146177,-70.4225352112676,4,2,1,80,0,1
146244,-70.4225352112676,4,2,2,80,0,1
146377,-70.4225352112676,4,2,1,80,0,1
146444,-70.4225352112676,4,2,1,80,0,1
146511,-70.4225352112676,4,2,1,80,0,1
146578,-70.4225352112676,4,2,1,5,0,1
146645,-70.4225352112676,4,2,2,80,0,1
146712,-70.4225352112676,4,2,1,80,0,1
146779,-70.4225352112676,4,2,2,80,0,1
146846,-70.4225352112676,4,2,2,80,0,1
146913,-70.4225352112676,4,2,4,80,0,1
146980,-70.4225352112676,4,2,4,5,0,1
147047,-70.4225352112676,4,2,2,80,0,1
147114,-70.4225352112676,4,2,1,80,0,1
147181,-70.4225352112676,4,2,2,80,0,1
147248,-70.4225352112676,4,2,1,80,0,1
147315,-70.4225352112676,4,2,1,80,0,1
147449,-70.4225352112676,4,2,2,80,0,1
147583,-70.4225352112676,4,2,2,80,0,1
147717,-70.4225352112676,4,2,3,80,0,1
148119,-70.4225352112676,4,2,2,80,0,1
148252,-70.4225352112676,4,2,2,80,0,1
148386,-70.4225352112676,4,2,1,80,0,1
148520,-70.4225352112676,4,2,1,80,0,1
148654,-70.4225352112676,4,2,1,80,0,1
148788,-70.4225352112676,4,2,2,80,0,1
148855,-70.4225352112676,4,2,1,80,0,1
148922,-70.4225352112676,4,2,2,80,0,1
149056,-70.4225352112676,4,2,4,80,0,1
149123,-70.4225352112676,4,2,4,80,0,1
149190,-70.4225352112676,4,2,1,80,0,1
149257,-70.4225352112676,4,2,1,5,0,1
149324,-70.4225352112676,4,2,2,80,0,1
149726,-70.4225352112676,4,2,2,80,0,1
149860,-70.4225352112676,4,2,3,80,0,1
149994,-70.4225352112676,4,2,1,80,0,1
150060,-70.4225352112676,4,2,1,5,0,1
150127,-70.4225352112676,4,2,2,80,0,1
150194,-70.4225352112676,4,2,1,80,0,1
150261,-70.4225352112676,4,2,2,80,0,1
150328,-70.4225352112676,4,2,1,80,0,1
150395,-70.4225352112676,4,2,2,80,0,1
150462,-70.4225352112676,4,2,1,80,0,1
150529,-70.4225352112676,4,2,2,80,0,1
150797,-70.4225352112676,4,2,2,80,0,1
150931,-70.4225352112676,4,2,2,80,0,1
150998,-70.4225352112676,4,2,1,80,0,1
151065,-70.4225352112676,4,2,3,80,0,1
151333,-70.4225352112676,4,2,2,80,0,1
151467,-70.4225352112676,4,2,2,80,0,1
151601,-70.4225352112676,4,2,1,70,0,1
152672,-121.951219512195,4,2,1,50,0,1
152940,-98.0392156862745,4,2,1,55,0,1
153208,-98.0392156862745,4,2,1,60,0,1
153476,-98.0392156862745,4,2,1,65,0,1
153741,275.229357798165,4,2,1,40,1,1
153741,-98.0392156862745,4,2,1,40,0,0
155323,-98.0392156862745,4,2,1,5,0,0
155392,-98.0392156862745,4,2,1,40,0,0
157525,-98.0392156862745,4,2,1,5,0,0
157594,-98.0392156862745,4,2,1,40,0,0
159727,-98.0392156862745,4,2,1,5,0,0
159796,-98.0392156862745,4,2,1,40,0,0
162548,-89.2857142857143,4,2,1,50,0,0
162551,272.727272727273,4,2,1,50,1,0
163914,-121.951219512195,4,2,1,50,0,0
164119,-121.951219512195,4,2,1,5,0,0
164187,-121.951219512195,4,2,1,50,0,0
164391,-121.951219512195,4,2,1,5,0,0
164460,-121.951219512195,4,2,1,50,0,0
164664,-121.951219512195,4,2,1,5,0,0
164732,-89.2857142857142,4,2,1,50,0,0
166096,-121.951219512195,4,2,1,50,0,0
166301,-121.951219512195,4,2,1,5,0,0
166369,-121.951219512195,4,2,1,50,0,0
166573,-121.951219512195,4,2,1,5,0,0
166641,-121.951219512195,4,2,1,50,0,0
166846,-121.951219512195,4,2,1,5,0,0
166914,-121.951219512195,4,2,15,55,0,0
167187,-121.951219512195,4,2,16,55,0,0
168278,-98.0392156862744,4,2,15,55,0,0
169096,-98.0392156862744,4,2,15,60,0,0
169369,-98.0392156862744,4,2,16,60,0,0
170187,-98.0392156862744,4,2,14,50,0,0
170323,-98.0392156862744,4,2,14,50,0,0
170460,-98.0392156862744,4,2,14,50,0,0
170528,-98.0392156862744,4,2,14,50,0,0
170869,-98.0392156862744,4,2,11,50,0,0
171005,-98.0392156862744,4,2,12,50,0,0
171278,267.857142857143,4,2,12,70,1,0
171278,-70.4225352112676,4,2,12,70,0,0
171411,-70.4225352112676,4,2,1,70,0,0
171545,-70.4225352112676,4,2,9,70,0,0
171679,-70.4225352112676,4,2,2,70,0,0
172081,-70.4225352112676,4,2,10,70,0,0
172215,-70.4225352112676,4,2,2,70,0,0
172483,-70.4225352112676,4,2,1,70,0,0
172617,-70.4225352112676,4,2,10,70,0,0
172751,-70.4225352112676,4,2,2,70,0,0
172818,-70.4225352112676,4,2,1,70,0,0
173019,-70.4225352112676,4,2,13,70,0,0
173153,-70.4225352112676,4,2,17,70,0,0
173286,-70.4225352112676,4,2,2,70,0,0
173420,-70.4225352112676,4,2,1,70,0,0
173554,-70.4225352112676,4,2,1,70,0,0
173621,-70.4225352112676,4,2,1,5,0,0
173688,-70.4225352112676,4,2,9,70,0,0
173755,-70.4225352112676,4,2,9,5,0,0
173822,-70.4225352112676,4,2,2,70,0,0
174224,-70.4225352112676,4,2,10,70,0,0
174358,-70.4225352112676,4,2,2,70,0,0
174425,-70.4225352112676,4,2,1,70,0,0
174626,-70.4225352112676,4,2,1,70,0,0
174760,-70.4225352112676,4,2,10,70,0,0
174894,-70.4225352112676,4,2,2,70,0,0
174961,-70.4225352112676,4,2,1,70,0,0
175161,-70.4225352112676,4,2,14,70,0,0
175228,-70.4225352112676,4,2,14,70,0,0
175295,-70.4225352112676,4,2,18,70,0,0
175362,-70.4225352112676,4,2,18,5,0,0
175429,-70.4225352112676,4,2,2,70,0,0
175563,-70.4225352112676,4,2,1,70,0,0
175697,-70.4225352112676,4,2,1,70,0,0
175764,-70.4225352112676,4,2,1,5,0,0
175831,-70.4225352112676,4,2,9,70,0,0
175898,-70.4225352112676,4,2,9,5,0,0
175965,-70.4225352112676,4,2,2,70,0,0
176367,-70.4225352112676,4,2,10,70,0,0
176434,-70.4225352112676,4,2,10,5,0,0
176501,-70.4225352112676,4,2,2,70,0,0
176903,-70.4225352112676,4,2,10,70,0,0
177036,-70.4225352112676,4,2,2,70,0,0
177103,-70.4225352112676,4,2,1,70,0,0
177304,-70.4225352112676,4,2,13,70,0,0
177438,-70.4225352112676,4,2,17,70,0,0
177572,-70.4225352112676,4,2,2,70,0,0
177840,-70.4225352112676,4,2,1,70,0,0
177974,-70.4225352112676,4,2,9,70,0,0
178108,-70.4225352112676,4,2,2,70,0,0
178510,-70.4225352112676,4,2,9,70,0,0
178644,-70.4225352112676,4,2,2,70,0,0
178978,-70.4225352112676,4,2,1,70,0,0
179045,-70.4225352112676,4,2,9,70,0,0
179179,-70.4225352112676,4,2,2,70,0,0
179246,-70.4225352112676,4,2,1,70,0,0
179447,-70.4225352112676,4,2,13,70,0,0
179514,-70.4225352112676,4,2,1,70,0,0
179581,-70.4225352112676,4,2,17,70,0,0
179715,-70.4225352112676,4,2,2,70,0,0
179782,-70.4225352112676,4,2,1,70,0,0
179849,-61.7283950617284,4,2,1,70,0,0
179983,-61.7283950617284,4,2,1,70,0,0
180117,-61.7283950617284,4,2,10,70,0,0
180251,-61.7283950617284,4,2,1,70,0,0
180385,-61.7283950617284,4,2,1,70,0,0
180519,-61.7283950617284,4,2,1,70,0,0
180653,-192.307692307692,4,2,9,70,0,0
180786,-192.307692307692,4,2,1,70,0,0
180853,-192.307692307692,4,2,1,5,0,0
180920,-70.4225352112676,4,2,1,70,0,0
181054,-70.4225352112676,4,2,1,70,0,0
181121,-70.4225352112676,4,2,1,5,0,0
181188,-70.4225352112676,4,2,9,70,0,0
181322,-70.4225352112676,4,2,2,70,0,0
181389,-70.4225352112676,4,2,1,70,0,0
181590,-70.4225352112676,4,2,3,70,0,0
181724,-70.4225352112676,4,2,18,70,0,0
181858,-70.4225352112676,4,2,2,70,0,0
181925,-70.4225352112676,4,2,2,5,0,0
181992,-70.4225352112676,4,2,1,70,0,0
182126,-70.4225352112676,4,2,1,70,0,0
182260,-70.4225352112676,4,2,10,70,0,0
182394,-70.4225352112676,4,2,2,70,0,0
182461,-70.4225352112676,4,2,1,70,0,0
182661,-70.4225352112676,4,2,1,70,0,0
182728,-70.4225352112676,4,2,1,70,0,0
182795,-70.4225352112676,4,2,10,70,0,0
182862,-70.4225352112676,4,2,10,5,0,0
182929,-70.4225352112676,4,2,2,70,0,0
183063,-70.4225352112676,4,2,1,70,0,0
183197,-70.4225352112676,4,2,1,70,0,0
183331,-70.4225352112676,4,2,10,70,0,0
183465,-70.4225352112676,4,2,1,70,0,0
183510,-70.4225352112676,4,2,1,70,0,0
183733,-70.4225352112676,4,2,4,70,0,0
183778,-70.4225352112676,4,2,4,70,0,0
183867,-70.4225352112676,4,2,17,70,0,0
183956,-70.4225352112676,4,2,1,70,0,0
184001,-70.4225352112676,4,2,1,70,0,0
184045,-70.4225352112676,4,2,1,70,0,0
184269,-70.4225352112676,4,2,1,70,0,0
184403,-70.4225352112676,4,2,10,70,0,0
184536,-70.4225352112676,4,2,2,70,0,0
184603,-70.4225352112676,4,2,1,70,0,0
184804,-70.4225352112676,4,2,1,70,0,0
184938,-70.4225352112676,4,2,10,70,0,0
185072,-70.4225352112676,4,2,2,70,0,0
185139,-70.4225352112676,4,2,1,70,0,0
185273,-70.4225352112676,4,2,1,5,0,0
185340,-70.4225352112676,4,2,2,70,0,0
185407,-70.4225352112676,4,2,2,5,0,0
185474,-70.4225352112676,4,2,9,70,0,0
185541,-70.4225352112676,4,2,9,5,0,0
185608,-70.4225352112676,4,2,2,70,0,0
185675,-70.4225352112676,4,2,1,70,0,0
185876,-70.4225352112676,4,2,3,70,0,0
186010,-70.4225352112676,4,2,17,70,0,0
186144,-70.4225352112676,4,2,1,70,0,0
186211,-70.4225352112676,4,2,1,5,0,0
186278,-70.4225352112676,4,2,1,65,0,0
186545,-70.4225352112676,4,2,19,65,0,0
186813,-70.4225352112676,4,2,1,65,0,0
187081,-70.4225352112676,4,2,19,65,0,0
187215,-70.4225352112676,4,2,1,65,0,0
187617,-70.4225352112676,4,2,9,65,0,0
187684,-70.4225352112676,4,2,1,65,0,0
188019,-70.4225352112676,4,2,20,65,0,0
188086,-70.4225352112676,4,2,1,65,0,0
188153,-70.4225352112676,4,2,21,65,0,0
188219,-70.4225352112676,4,2,1,65,0,0
188420,276.497695852535,4,2,1,50,1,0
188420,-98.0392156862745,4,2,1,50,0,0
189710,-98.0392156862745,4,2,1,5,0,0
189802,-98.0392156862745,4,2,1,50,0,0
198558,-98.0392156862745,4,2,1,5,0,0
198650,-98.0392156862745,4,2,1,50,0,0
200770,-98.0392156862745,4,2,1,5,0,0
200862,-98.0392156862745,4,2,1,50,0,0
206115,273.972602739726,4,2,12,80,1,0
206115,-70.4225352112676,4,2,12,80,0,0
208306,271.493212669683,4,2,12,80,1,0
208306,-70.4225352112676,4,2,12,80,0,0
210477,270.27027027027,4,2,12,80,1,0
210477,-70.4225352112676,4,2,12,80,0,0
212098,-70.4225352112676,4,2,12,80,0,0
212639,269.058295964126,4,2,12,80,1,0
213715,-100,4,2,1,80,0,0
213849,-100,4,2,15,80,0,0
213917,-100,4,2,1,80,0,0
214253,-100,4,2,22,80,0,0
214320,-100,4,2,1,80,0,0
214522,-100,4,2,22,80,0,0
214589,-100,4,2,1,80,0,0
214791,267.857142857143,4,2,1,60,1,0
214791,-312.5,4,2,1,60,0,0
217938,-312.5,4,2,1,5,0,0
218005,-89.2857142857143,4,2,20,65,0,0
218273,-89.2857142857143,4,2,19,65,0,0
218541,-89.2857142857143,4,2,20,65,0,0
218674,-89.2857142857143,4,2,19,65,0,0
218808,-89.2857142857143,4,2,23,65,0,0
219076,-70.4225352112676,4,2,1,70,0,0
222291,-89.2857142857143,4,2,1,45,0,0
222558,-89.2857142857143,4,2,1,50,0,0
222826,-89.2857142857143,4,2,1,55,0,0
223094,-89.2857142857143,4,2,1,60,0,0
223362,-121.951219512195,4,2,1,55,0,0
223429,-121.951219512195,4,2,1,5,0,0
223496,-121.951219512195,4,2,1,55,0,0
229456,-121.951219512195,4,2,1,5,0,0
229523,-121.951219512195,4,2,1,55,0,0
231465,-121.951219512195,4,2,1,5,0,0
231532,-121.951219512195,4,2,1,55,0,0
231933,-89.2857142857142,4,2,1,60,0,0
232067,-89.2857142857142,4,2,1,60,0,0
232112,-89.2857142857142,4,2,1,5,0,0
232201,-89.2857142857142,4,2,2,60,0,0
232291,-89.2857142857142,4,2,1,60,0,0
232335,-89.2857142857142,4,2,1,60,0,0
232380,-89.2857142857142,4,2,1,60,0,0
232469,-89.2857142857142,4,2,2,60,0,0
232603,-89.2857142857142,4,2,1,60,0,0
232737,-89.2857142857142,4,2,1,60,0,0
232826,-89.2857142857142,4,2,1,60,0,0
232871,-89.2857142857142,4,2,2,60,0,0
232916,-89.2857142857142,4,2,1,60,0,0
233005,-89.2857142857142,4,2,2,60,0,0
233474,-89.2857142857142,4,2,1,60,0,0
233541,-89.2857142857142,4,2,9,60,0,0
233674,-89.2857142857142,4,2,1,60,0,0
233741,-89.2857142857142,4,2,2,60,0,0
233808,-89.2857142857142,4,2,10,60,0,0
233875,-89.2857142857142,4,2,10,5,0,0
233942,-89.2857142857142,4,2,2,60,0,0
234009,-89.2857142857142,4,2,1,60,0,0
234076,-89.2857142857142,4,2,2,60,0,0
234210,-89.2857142857142,4,2,1,60,0,0
234277,-89.2857142857142,4,2,1,5,0,0
234344,-89.2857142857142,4,2,2,60,0,0
234478,-89.2857142857142,4,2,1,60,0,0
234545,-89.2857142857142,4,2,1,5,0,0
234612,-89.2857142857142,4,2,2,60,0,0
234701,-89.2857142857142,4,2,2,5,0,0
234746,-89.2857142857142,4,2,1,60,0,0
234791,-89.2857142857142,4,2,1,60,0,0
234880,-89.2857142857142,4,2,1,60,0,0
234969,-89.2857142857142,4,2,1,60,0,0
235014,-89.2857142857142,4,2,1,60,0,0
235058,-89.2857142857142,4,2,1,5,0,0
235148,-89.2857142857142,4,2,2,60,0,0
235505,-89.2857142857142,4,2,1,60,0,0
235549,-89.2857142857142,4,2,1,60,0,0
235594,-89.2857142857142,4,2,1,60,0,0
235616,-89.2857142857142,4,2,1,60,0,0
235683,-89.2857142857142,4,2,9,60,0,0
235773,-89.2857142857142,4,2,9,5,0,0
235817,-89.2857142857142,4,2,1,60,0,0
235862,-89.2857142857142,4,2,1,60,0,0
235884,-89.2857142857142,4,2,1,60,0,0
235951,-89.2857142857142,4,2,10,60,0,0
236041,-89.2857142857142,4,2,1,60,0,0
236085,-89.2857142857142,4,2,1,60,0,0
236130,-89.2857142857142,4,2,1,5,0,0
236219,-89.2857142857142,4,2,2,65,0,0
236353,-89.2857142857142,4,2,1,65,0,0
236576,-89.2857142857142,4,2,1,65,0,0
236621,-89.2857142857142,4,2,1,65,0,0
236666,-89.2857142857142,4,2,1,65,0,0
236755,-89.2857142857142,4,2,2,65,0,0
236889,-89.2857142857142,4,2,1,65,0,0
237112,-89.2857142857142,4,2,1,65,0,0
237157,-89.2857142857142,4,2,1,65,0,0
237201,-89.2857142857142,4,2,1,65,0,0
237291,-89.2857142857142,4,2,2,65,0,0
237380,-89.2857142857142,4,2,2,5,0,0
237424,-89.2857142857142,4,2,1,65,0,0
237469,-89.2857142857142,4,2,1,65,0,0
237558,-89.2857142857142,4,2,1,65,0,0
237648,-89.2857142857142,4,2,1,65,0,0
237692,-89.2857142857142,4,2,1,65,0,0
237737,-89.2857142857142,4,2,1,5,0,0
237826,-81.9672131147541,4,2,2,70,0,0
237960,-81.9672131147541,4,2,1,70,0,0
238094,-81.9672131147541,4,2,2,70,0,0
238228,-81.9672131147541,4,2,1,70,0,0
238295,-81.9672131147541,4,2,2,70,0,0
238362,-81.9672131147541,4,2,2,70,0,0
238429,-81.9672131147541,4,2,1,70,0,0
238496,-81.9672131147541,4,2,2,70,0,0
238563,-81.9672131147541,4,2,4,70,0,0
238630,-81.9672131147541,4,2,2,70,0,0
238697,-81.9672131147541,4,2,1,70,0,0
238764,-81.9672131147541,4,2,2,70,0,0
238831,-81.9672131147541,4,2,4,70,0,0
238898,-81.9672131147541,4,2,2,70,0,0
238965,-81.9672131147541,4,2,1,70,0,0
239032,-81.9672131147541,4,2,2,70,0,0
239099,-81.9672131147541,4,2,4,70,0,0
239166,-81.9672131147541,4,2,2,70,0,0
239232,-81.9672131147541,4,2,1,70,0,0
239299,-81.9672131147541,4,2,2,70,0,0
239366,-81.9672131147541,4,2,4,70,0,0
239433,291.26213592233,4,2,4,70,1,0
240598,315.789473684211,4,2,4,70,1,0
241229,392.156862745098,4,2,4,70,1,0
242797,352.941176470588,4,2,4,70,1,0
243502,372.670807453416,4,2,4,70,1,0
244247,279.06976744186,4,2,4,70,1,0
245363,413.793103448276,4,2,4,70,1,0
248673,324.324324324324,4,2,4,45,1,0
248673,-192.307692307692,4,2,4,45,0,0
249645,324.324324324324,4,2,4,50,1,0
249645,-138.888888888889,4,2,4,50,0,0
251428,-312.500000000001,4,2,4,50,0,0
251672,-312.500000000001,4,2,4,5,0,0
251753,-138.888888888889,4,2,4,50,0,0
252239,-108.695652173913,4,2,4,50,0,0
252888,-138.888888888889,4,2,4,50,0,0
253617,-138.888888888889,4,2,4,5,0,0
253699,-138.888888888889,4,2,4,50,0,0
254266,-138.888888888889,4,2,4,5,0,0
254347,-138.888888888889,4,2,4,50,0,0
254590,-138.888888888889,4,2,4,5,0,0
254672,-138.888888888889,4,2,4,50,0,0
256861,-138.888888888889,4,2,4,5,0,0
256942,-138.888888888889,4,2,4,50,0,0
257428,320.855614973262,4,2,4,50,1,0
259026,315.789473684211,4,2,4,50,1,0
259500,-100,4,2,4,5,0,0
259579,-100,4,2,4,50,0,0
259737,-100,4,2,4,5,0,0
259816,-100,4,2,4,50,0,0
259974,310.880829015544,4,2,1,55,1,0
259974,-108.695652173913,4,2,1,55,0,0
261217,306.122448979592,4,2,1,55,1,0
261217,-108.695652173913,4,2,1,55,0,0
262441,301.507537688442,4,2,1,55,1,0
262441,-108.695652173913,4,2,1,55,0,0
263647,297.029702970297,4,2,1,55,1,0
263647,-108.695652173913,4,2,1,55,0,0
263944,-161.290322580645,4,2,1,55,0,0
264166,-161.290322580645,4,2,1,55,0,0
264241,-108.695652173913,4,2,1,55,0,0
264835,289.855072463768,4,2,1,60,1,0
264835,-108.695652173913,4,2,1,60,0,0
265994,279.06976744186,4,2,1,60,1,0
265994,-108.695652173913,4,2,1,60,0,0
266552,267.857142857143,4,2,1,60,1,0
266552,-108.695652173913,4,2,1,60,0,0
267087,267.857142857143,4,2,1,65,1,0
267087,-98.0392156862745,4,2,1,65,0,0
269229,266.666666666667,4,2,1,55,1,0
269229,-89.2857142857143,4,2,1,55,0,0
269762,-89.2857142857143,4,2,24,60,0,0
270295,-89.2857142857143,4,2,25,65,0,0
270362,-89.2857142857143,4,2,19,65,0,0
270562,-89.2857142857143,4,2,19,65,0,0
270829,-89.2857142857143,4,2,26,70,0,0
270895,-89.2857142857143,4,2,19,70,0,0
270962,-89.2857142857143,4,2,19,70,0,0
271095,-89.2857142857143,4,2,23,75,0,0
271362,-70.4225352112676,4,2,27,80,0,1
271495,-70.4225352112676,4,2,1,80,0,1
271562,-70.4225352112676,4,2,1,5,0,1
271629,-70.4225352112676,4,2,1,80,0,1
271762,-70.4225352112676,4,2,4,80,0,1
271895,-70.4225352112676,4,2,1,80,0,1
272029,-70.4225352112676,4,2,28,80,0,1
272162,-70.4225352112676,4,2,29,80,0,1
272295,-70.4225352112676,4,2,30,80,0,1
272429,-70.4225352112676,4,2,28,80,0,1
272562,-70.4225352112676,4,2,31,80,0,1
272695,-70.4225352112676,4,2,32,80,0,1
272829,-70.4225352112676,4,2,33,80,0,1
272895,-70.4225352112676,4,2,1,80,0,1
272962,-70.4225352112676,4,2,1,80,0,1
273095,-70.4225352112676,4,2,34,80,0,1
273229,-70.4225352112676,4,2,1,80,0,1
273362,-70.4225352112676,4,2,35,80,0,1
273429,-70.4225352112676,4,2,36,80,0,1
273495,-70.4225352112676,4,2,37,80,0,1
273629,-70.4225352112676,4,2,1,80,0,1
273762,-70.4225352112676,4,2,1,80,0,1
273895,-70.4225352112676,4,2,4,80,0,1
274029,-70.4225352112676,4,2,38,80,0,1
274095,-70.4225352112676,4,2,1,80,0,1
274162,-70.4225352112676,4,2,39,80,0,1
274229,-70.4225352112676,4,2,1,80,0,1
274295,-70.4225352112676,4,2,38,80,0,1
274362,-70.4225352112676,4,2,1,80,0,1
274429,-70.4225352112676,4,2,40,80,0,1
274495,-70.4225352112676,4,2,1,80,0,1
274562,-70.4225352112676,4,2,2,80,0,1
274695,-70.4225352112676,4,2,41,80,0,1
274829,-70.4225352112676,4,2,42,80,0,1
274962,-70.4225352112676,4,2,43,80,0,1
275095,-70.4225352112676,4,2,1,80,0,1
275162,-70.4225352112676,4,2,1,5,0,1
275229,-70.4225352112676,4,2,44,80,0,1
275295,-70.4225352112676,4,2,44,5,0,1
275362,-70.4225352112676,4,2,45,80,0,1
275429,-70.4225352112676,4,2,45,5,0,1
275495,-70.4225352112676,4,2,38,80,0,1
275629,-70.4225352112676,4,2,1,80,0,1
275762,-70.4225352112676,4,2,46,80,0,1
275895,-70.4225352112676,4,2,38,80,0,1
276029,-70.4225352112676,4,2,46,80,0,1
276162,-70.4225352112676,4,2,38,80,0,1
276429,-70.4225352112676,4,2,45,80,0,1
276562,-70.4225352112676,4,2,47,80,0,1
276695,-70.4225352112676,4,2,1,80,0,1
276829,-70.4225352112676,4,2,31,80,0,1
276962,-70.4225352112676,4,2,48,80,0,1
277029,-70.4225352112676,4,2,49,80,0,1
277095,-70.4225352112676,4,2,34,80,0,1
277229,-70.4225352112676,4,2,1,80,0,1
277295,-70.4225352112676,4,2,1,5,0,1
277362,-70.4225352112676,4,2,50,80,0,1
277495,-70.4225352112676,4,2,39,80,0,1
277629,-70.4225352112676,4,2,51,80,0,1
277762,-70.4225352112676,4,2,52,80,0,1
277895,-70.4225352112676,4,2,35,80,0,1
278029,-70.4225352112676,4,2,48,80,0,1
278162,-70.4225352112676,4,2,53,80,0,1
278295,-70.4225352112676,4,2,54,80,0,1
278429,-70.4225352112676,4,2,53,80,0,1
278562,-70.4225352112676,4,2,55,80,0,1
278695,-70.4225352112676,4,2,43,80,0,1
278829,-70.4225352112676,4,2,1,80,0,1
278895,-70.4225352112676,4,2,1,5,0,1
278962,-70.4225352112676,4,2,56,80,0,1
279095,-70.4225352112676,4,2,57,80,0,1
279229,-70.4225352112676,4,2,54,80,0,1
279295,-70.4225352112676,4,2,58,80,0,1
279362,-70.4225352112676,4,2,59,80,0,1
279495,-70.4225352112676,4,2,4,80,0,1
279562,-70.4225352112676,4,2,60,80,0,1
279629,-70.4225352112676,4,2,1,80,0,1
279695,-70.4225352112676,4,2,1,5,0,1
279762,-70.4225352112676,4,2,39,80,0,1
279895,-70.4225352112676,4,2,61,80,0,1
280029,-70.4225352112676,4,2,1,80,0,1
280095,-70.4225352112676,4,2,62,80,0,1
280162,-70.4225352112676,4,2,1,80,0,1
280229,-70.4225352112676,4,2,1,5,0,1
280295,-70.4225352112676,4,2,63,80,0,1
280429,-70.4225352112676,4,2,1,80,0,1
280495,-70.4225352112676,4,2,64,80,0,1
280562,-70.4225352112676,4,2,1,80,0,1
280629,-70.4225352112676,4,2,1,5,0,1
280695,-70.4225352112676,4,2,51,80,0,1
280762,-70.4225352112676,4,2,65,80,0,1
280829,-70.4225352112676,4,2,35,80,0,1
280895,-70.4225352112676,4,2,66,80,0,1
280962,-70.4225352112676,4,2,67,80,0,1
281095,-70.4225352112676,4,2,1,80,0,1
281162,-70.4225352112676,4,2,68,80,0,1
281229,-70.4225352112676,4,2,1,80,0,1
281295,-70.4225352112676,4,2,1,5,0,1
281362,-70.4225352112676,4,2,69,80,0,1
281495,-70.4225352112676,4,2,1,80,0,1
281562,-70.4225352112676,4,2,70,80,0,1
281629,-70.4225352112676,4,2,4,80,0,1
281695,-70.4225352112676,4,2,4,5,0,1
281762,-70.4225352112676,4,2,52,80,0,1
281829,-70.4225352112676,4,2,71,80,0,1
281895,-70.4225352112676,4,2,72,80,0,1
281962,-70.4225352112676,4,2,73,80,0,1
282029,-70.4225352112676,4,2,1,80,0,1
282162,-70.4225352112676,4,2,31,80,0,1
282295,-70.4225352112676,4,2,74,80,0,1
282429,-70.4225352112676,4,2,50,80,0,1
282562,-70.4225352112676,4,2,39,80,0,1
282695,-70.4225352112676,4,2,38,80,0,1
282829,-70.4225352112676,4,2,45,80,0,1
282962,-70.4225352112676,4,2,75,80,0,1
283095,-70.4225352112676,4,2,1,80,0,1
283229,-70.4225352112676,4,2,1,80,0,1
283362,-70.4225352112676,4,2,1,80,0,1
283495,-70.4225352112676,4,2,76,80,0,1
283562,-70.4225352112676,4,2,77,80,0,1
283629,-70.4225352112676,4,2,78,80,0,1
283762,-70.4225352112676,4,2,4,80,0,1
283829,-70.4225352112676,4,2,79,80,0,1
283895,-70.4225352112676,4,2,1,80,0,1
283962,-70.4225352112676,4,2,1,5,0,1
284029,-70.4225352112676,4,2,80,80,0,1
284162,-70.4225352112676,4,2,56,80,0,1
284295,-70.4225352112676,4,2,57,80,0,1
284429,-70.4225352112676,4,2,80,80,0,1
284562,-70.4225352112676,4,2,43,80,0,1
284695,-70.4225352112676,4,2,1,80,0,1
284829,-70.4225352112676,4,2,81,80,0,1
284895,-70.4225352112676,4,2,82,80,0,1
284962,-70.4225352112676,4,2,81,80,0,1
285029,-70.4225352112676,4,2,83,80,0,1
285095,-70.4225352112676,4,2,35,80,0,1
285162,-70.4225352112676,4,2,71,80,0,1
285229,-70.4225352112676,4,2,28,80,0,1
285362,-70.4225352112676,4,2,30,80,0,1
285495,-70.4225352112676,4,2,74,80,0,1
285629,-70.4225352112676,4,2,50,80,0,1
285762,-70.4225352112676,4,2,39,80,0,1
285895,-70.4225352112676,4,2,50,80,0,1
286029,-70.4225352112676,4,2,45,80,0,1
286162,-70.4225352112676,4,2,41,80,0,1
286295,-70.4225352112676,4,2,84,80,0,1
286429,-70.4225352112676,4,2,1,80,0,1
286562,-70.4225352112676,4,2,1,80,0,1
286695,-70.4225352112676,4,2,85,80,0,1
286829,-70.4225352112676,4,2,1,80,0,1
286895,-70.4225352112676,4,2,1,80,0,1
286962,-70.4225352112676,4,2,86,80,0,1
287095,-70.4225352112676,4,2,38,80,0,1
287229,-70.4225352112676,4,2,87,80,0,1
287362,-70.4225352112676,4,2,15,80,0,1
287495,-70.4225352112676,4,2,16,80,0,1
287562,-70.4225352112676,4,2,1,80,0,1
287629,-70.4225352112676,4,2,88,80,0,1
287762,-70.4225352112676,4,2,16,80,0,1
287829,-70.4225352112676,4,2,1,80,0,1
287895,-70.4225352112676,4,2,89,80,0,1
287962,-70.4225352112676,4,2,1,80,0,1
288029,-70.4225352112676,4,2,16,80,0,1
288095,-70.4225352112676,4,2,43,80,0,1
288295,-70.4225352112676,4,2,16,80,0,1
288362,-70.4225352112676,4,2,90,80,0,1
288695,-54.9450549450549,4,2,15,80,0,1
288829,-54.9450549450549,4,2,4,80,0,1
288895,-54.9450549450549,4,2,4,5,0,1
288962,-70.4225352112676,4,2,2,80,0,1
289229,-70.4225352112676,4,2,1,80,0,1
289362,-70.4225352112676,4,2,30,80,0,1
289495,-70.4225352112676,4,2,46,80,0,1
289629,-70.4225352112676,4,2,39,80,0,1
289762,-70.4225352112676,4,2,91,80,0,1
289895,-70.4225352112676,4,2,92,80,0,1
289962,-70.4225352112676,4,2,1,80,0,1
290029,-70.4225352112676,4,2,1,80,0,1
290162,-70.4225352112676,4,2,47,80,0,1
290295,-70.4225352112676,4,2,1,80,0,1
290429,-70.4225352112676,4,2,45,80,0,1
290562,-70.4225352112676,4,2,93,80,0,1
290695,-70.4225352112676,4,2,2,80,0,1
290829,-70.4225352112676,4,2,2,80,0,1
290962,-70.4225352112676,4,2,3,80,0,1
291029,-70.4225352112676,4,2,1,80,0,1
291095,-70.4225352112676,4,2,50,80,0,1
291162,-70.4225352112676,4,2,1,80,0,1
291229,-70.4225352112676,4,2,94,80,0,1
291295,-70.4225352112676,4,2,1,80,0,1
291362,-70.4225352112676,4,2,95,80,0,1
291429,-70.4225352112676,4,2,1,80,0,1
291495,-70.4225352112676,4,2,40,80,0,1
291562,-70.4225352112676,4,2,1,80,0,1
291629,-70.4225352112676,4,2,3,80,0,1
291695,-70.4225352112676,4,2,1,80,0,1
291762,-70.4225352112676,4,2,41,80,0,1
291895,-70.4225352112676,4,2,96,80,0,1
291962,-70.4225352112676,4,2,1,80,0,1
292029,-70.4225352112676,4,2,97,80,0,1
292295,-70.4225352112676,4,2,98,80,0,1
292562,-70.4225352112676,4,2,99,80,0,1
292829,-70.4225352112676,4,2,46,80,0,1
292962,-70.4225352112676,4,2,38,80,0,1
293095,-70.4225352112676,4,2,46,80,0,1
293229,-70.4225352112676,4,2,38,80,0,1
293495,-70.4225352112676,4,2,45,80,0,1
293629,-70.4225352112676,4,2,41,80,0,1
293762,-70.4225352112676,4,2,1,80,0,1
293895,-70.4225352112676,4,2,100,80,0,1
294029,-70.4225352112676,4,2,101,80,0,1
294162,-70.4225352112676,4,2,43,80,0,1
294295,-70.4225352112676,4,2,1,80,0,1
294429,-70.4225352112676,4,2,102,80,0,1
294562,-70.4225352112676,4,2,103,80,0,1
294695,-70.4225352112676,4,2,42,80,0,1
294829,-70.4225352112676,4,2,57,80,0,1
294962,-70.4225352112676,4,2,38,80,0,1
295095,-70.4225352112676,4,2,45,80,0,1
295229,-70.4225352112676,4,2,50,80,0,1
295362,-70.4225352112676,4,2,41,80,0,1
295495,-70.4225352112676,4,2,38,80,0,1
295629,-70.4225352112676,4,2,45,80,0,1
295762,-70.4225352112676,4,2,38,80,0,1
295895,-70.4225352112676,4,2,45,80,0,1
296029,-70.4225352112676,4,2,41,80,0,1
296162,-70.4225352112676,4,2,42,80,0,1
296295,-70.4225352112676,4,2,105,80,0,1
296429,-70.4225352112676,4,2,42,80,0,1
296562,-70.4225352112676,4,2,4,80,0,1
296629,-70.4225352112676,4,2,104,80,0,1
296695,-70.4225352112676,4,2,16,80,0,1
296762,-70.4225352112676,4,2,94,80,0,1
296962,-89.2857142857143,4,2,61,72,0,1
297095,-89.2857142857143,4,2,1,72,0,1
297162,-89.2857142857143,4,2,62,72,0,1
297229,-89.2857142857143,4,2,1,72,0,1
297295,-89.2857142857143,4,2,1,5,0,1
297362,-89.2857142857143,4,2,63,72,0,1
297495,-89.2857142857143,4,2,1,72,0,1
297562,-89.2857142857143,4,2,64,72,0,1
297629,-89.2857142857143,4,2,1,72,0,1
297695,-89.2857142857143,4,2,1,5,0,1
297762,-89.2857142857143,4,2,51,72,0,1
297829,-89.2857142857143,4,2,65,72,0,1
297895,-89.2857142857143,4,2,35,72,0,1
297962,-89.2857142857143,4,2,66,72,0,1
298029,-89.2857142857143,4,2,67,72,0,1
298162,-89.2857142857143,4,2,1,72,0,1
298229,-89.2857142857143,4,2,68,72,0,1
298295,-89.2857142857143,4,2,1,72,0,1
298362,-89.2857142857143,4,2,1,5,0,1
298429,-89.2857142857143,4,2,69,72,0,1
298562,-89.2857142857143,4,2,1,72,0,1
298629,-89.2857142857143,4,2,70,72,0,1
298695,-89.2857142857143,4,2,1,72,0,1
298762,-89.2857142857143,4,2,1,5,0,1
298829,-89.2857142857143,4,2,52,72,0,1
298895,-89.2857142857143,4,2,71,72,0,1
298962,-89.2857142857143,4,2,72,72,0,1
299029,-89.2857142857143,4,2,73,72,0,1
299095,-89.2857142857143,4,2,1,72,0,1
299229,-89.2857142857143,4,2,31,72,0,1
299362,-89.2857142857143,4,2,46,72,0,1
299495,-89.2857142857143,4,2,38,72,0,1
299629,-89.2857142857143,4,2,39,72,0,1
299762,-89.2857142857143,4,2,38,72,0,1
299895,-89.2857142857143,4,2,45,72,0,1
300029,-89.2857142857143,4,2,75,72,0,1
300162,-89.2857142857143,4,2,1,72,0,1
300562,-89.2857142857143,4,2,76,72,0,1
300629,-89.2857142857143,4,2,77,72,0,1
300695,-89.2857142857143,4,2,78,72,0,1
300829,-89.2857142857143,4,2,1,72,0,1
300895,-89.2857142857143,4,2,79,72,0,1
300962,-89.2857142857143,4,2,1,72,0,1
301029,-89.2857142857143,4,2,1,5,0,1
301095,-89.2857142857143,4,2,80,72,0,1
301229,-70.4225352112676,4,2,56,80,0,1
301362,-70.4225352112676,4,2,105,80,0,1
301495,-70.4225352112676,4,2,106,80,0,1
301562,-70.4225352112676,4,2,43,80,0,1
301762,-70.4225352112676,4,2,15,80,0,1
301829,-70.4225352112676,4,2,107,80,0,1
301962,-70.4225352112676,4,2,82,80,0,1
302029,-70.4225352112676,4,2,107,80,0,1
302095,-70.4225352112676,4,2,83,80,0,1
302162,-70.4225352112676,4,2,35,80,0,1
302229,-70.4225352112676,4,2,71,80,0,1
302295,-70.4225352112676,4,2,28,80,0,1
302429,-70.4225352112676,4,2,30,80,0,1
302562,-70.4225352112676,4,2,46,80,0,1
302695,-70.4225352112676,4,2,50,80,0,1
302829,-70.4225352112676,4,2,94,80,0,1
302962,-70.4225352112676,4,2,50,80,0,1
303095,-70.4225352112676,4,2,108,80,0,1
303162,-70.4225352112676,4,2,41,80,0,1
303362,-70.4225352112676,4,2,84,80,0,1
303429,-70.4225352112676,4,2,1,80,0,1
303495,-70.4225352112676,4,2,4,80,0,1
303562,-70.4225352112676,4,2,1,80,0,1
303629,-70.4225352112676,4,2,15,80,0,1
303695,-70.4225352112676,4,2,85,80,0,1
303895,-70.4225352112676,4,2,3,80,0,1
303962,-70.4225352112676,4,2,86,80,0,1
304162,-70.4225352112676,4,2,50,80,0,1
304295,-70.4225352112676,4,2,87,80,0,1
304429,-70.4225352112676,4,2,15,80,0,1
304495,-70.4225352112676,4,2,1,80,0,1
304562,-70.4225352112676,4,2,15,80,0,1
304629,-70.4225352112676,4,2,1,80,0,1
304695,-70.4225352112676,4,2,109,80,0,1
304762,-70.4225352112676,4,2,1,80,0,1
304829,-70.4225352112676,4,2,3,80,0,1
304895,-70.4225352112676,4,2,1,80,0,1
304962,-70.4225352112676,4,2,110,80,0,1
305029,-70.4225352112676,4,2,1,80,0,1
305095,-70.4225352112676,4,2,15,80,0,1
305162,-70.4225352112676,4,2,43,80,0,1
305362,-70.4225352112676,4,2,15,80,0,1
305429,-70.4225352112676,4,2,1,80,0,1
305495,-89.2857142857143,4,2,111,75,0,0
305673,-89.2857142857143,4,2,111,75,0,0
305762,-89.2857142857143,4,2,1,75,0,0
306029,-89.2857142857143,4,2,15,75,0,0
306206,-89.2857142857143,4,2,15,5,0,0
306295,-89.2857142857143,4,2,1,75,0,0
306562,-89.2857142857143,4,2,15,75,0,0
306829,-89.2857142857143,4,2,1,75,0,0
307095,-89.2857142857143,4,2,15,75,0,0
307184,-89.2857142857143,4,2,1,75,0,0
307629,-89.2857142857143,4,2,15,75,0,0
307895,-89.2857142857143,4,2,1,75,0,0
308162,-89.2857142857143,4,2,112,75,0,0
308429,-89.2857142857143,4,2,1,75,0,0
308695,-89.2857142857143,4,2,113,75,0,0
308962,-89.2857142857143,4,2,1,75,0,0
309229,-89.2857142857143,4,2,112,75,0,0
309317,-89.2857142857143,4,2,1,75,0,0
309762,-89.2857142857143,4,2,114,75,0,0
310029,-89.2857142857143,4,2,1,75,0,0
310295,-89.2857142857143,4,2,15,75,0,0
310562,-89.2857142857143,4,2,1,75,0,0
310829,-89.2857142857143,4,2,15,75,0,0
311006,-89.2857142857143,4,2,15,5,0,0
311095,-89.2857142857143,4,2,115,75,0,0
311184,-89.2857142857143,4,2,1,75,0,0
311362,-89.2857142857143,4,2,116,75,0,0
311451,-89.2857142857143,4,2,1,75,0,0
311629,-89.2857142857143,4,2,117,75,0,0
311717,-89.2857142857143,4,2,1,75,0,0
311895,-89.2857142857143,4,2,118,75,0,0
312162,-89.2857142857143,4,2,119,75,0,0
312251,-89.2857142857143,4,2,1,75,0,0
312429,-89.2857142857143,4,2,116,75,0,0
312695,-89.2857142857143,4,2,120,75,0,0
312784,-89.2857142857143,4,2,1,75,0,0
312962,-89.2857142857143,4,2,121,75,0,0
313229,-89.2857142857143,4,2,1,75,0,0
313495,-89.2857142857143,4,2,122,75,0,0
313584,-89.2857142857143,4,2,1,75,0,0
314029,-89.2857142857143,4,2,123,75,0,0
314295,-89.2857142857143,4,2,1,75,0,0
314562,-89.2857142857143,4,2,15,75,0,0
314829,-89.2857142857143,4,2,1,75,0,0
315095,-89.2857142857143,4,2,15,75,0,0
315362,-89.2857142857143,4,2,1,75,0,0
315629,-89.2857142857143,4,2,124,75,0,0
315717,-89.2857142857143,4,2,1,75,0,0
315895,-89.2857142857143,4,2,125,75,0,0
315984,-89.2857142857143,4,2,1,75,0,0
316162,-89.2857142857143,4,2,126,75,0,0
316340,-89.2857142857143,4,2,126,5,0,0
316429,-89.2857142857143,4,2,127,75,0,0
316517,-89.2857142857143,4,2,1,75,0,0
316695,-89.2857142857143,4,2,128,75,0,0
316873,-89.2857142857143,4,2,128,5,0,0
316962,-89.2857142857143,4,2,125,75,0,0
317051,-89.2857142857143,4,2,1,75,0,0
317229,-89.2857142857143,4,2,129,75,0,0
317495,-89.2857142857143,4,2,1,75,0,0
317762,-89.2857142857143,4,2,130,75,0,0
317851,-89.2857142857143,4,2,1,75,0,0
318295,-81.9672131147541,4,2,131,75,0,0
318473,-81.9672131147541,4,2,1,75,0,0
318829,-81.9672131147541,4,2,15,75,0,0
319006,-81.9672131147541,4,2,1,75,0,0
319362,-81.9672131147541,4,2,15,75,0,0
319540,-81.9672131147541,4,2,1,75,0,0
319629,-81.9672131147541,4,2,132,75,0,0
319717,-81.9672131147541,4,2,1,75,0,0
319895,-81.9672131147541,4,2,133,75,0,0
319984,-81.9672131147541,4,2,1,75,0,0
320162,-81.9672131147541,4,2,132,75,0,0
320251,-81.9672131147541,4,2,1,75,0,0
320429,-81.9672131147541,4,2,134,75,0,0
320606,-81.9672131147541,4,2,1,75,0,0
320962,-81.9672131147541,4,2,15,75,0,0
321140,-81.9672131147541,4,2,1,75,0,0
321495,-81.9672131147541,4,2,135,75,0,0
321673,-81.9672131147541,4,2,1,75,0,0
322029,-81.9672131147541,4,2,15,75,0,0
322117,-81.9672131147541,4,2,1,75,0,0
322562,-204.081632653061,4,2,136,75,0,0
324695,-454.545454545455,4,2,1,75,0,0
326829,-138.888888888889,4,2,1,75,0,0
326962,-138.888888888889,4,2,1,45,0,0
330029,-138.888888888889,4,2,73,55,0,0
330095,-138.888888888889,4,2,66,55,0,0
330162,-138.888888888889,4,2,137,55,0,0
330229,-138.888888888889,4,2,138,55,0,0
330295,-138.888888888889,4,2,83,55,0,0
330362,-138.888888888889,4,2,139,55,0,0
330429,-138.888888888889,4,2,138,55,0,0
330495,-138.888888888889,4,2,83,55,0,0
330562,-138.888888888889,4,2,139,55,0,0
330629,-138.888888888889,4,2,77,55,0,0
330695,-138.888888888889,4,2,140,55,0,0
330762,-138.888888888889,4,2,141,55,0,0
330829,-138.888888888889,4,2,77,55,0,0
330895,-138.888888888889,4,2,141,55,0,0
330962,-138.888888888889,4,2,142,55,0,0
331029,-138.888888888889,4,2,141,55,0,0
331095,272.727272727273,4,2,143,50,1,0
331095,-121.951219512195,4,2,143,50,0,0
331231,-121.951219512195,4,2,1,50,0,0
331299,-121.951219512195,4,2,1,5,0,0
331367,-121.951219512195,4,2,144,50,0,0
331504,-121.951219512195,4,2,145,50,0,0
331640,-121.951219512195,4,2,146,50,0,0
331777,-121.951219512195,4,2,147,50,0,0
331913,-121.951219512195,4,2,144,50,0,0
332050,-121.951219512195,4,2,143,50,0,0
332254,-121.951219512195,4,2,143,5,0,0
332322,-121.951219512195,4,2,144,50,0,0
332459,-121.951219512195,4,2,145,50,0,0
332595,-121.951219512195,4,2,146,50,0,0
332731,-121.951219512195,4,2,147,50,0,0
332868,-121.951219512195,4,2,144,50,0,0
333004,-121.951219512195,4,2,148,50,0,0
333140,-121.951219512195,4,2,145,50,0,0
333276,279.06976744186,4,2,149,50,1,0
333276,-121.951219512195,4,2,149,50,0,0
333415,-121.951219512195,4,2,1,50,0,0
333485,-121.951219512195,4,2,1,5,0,0
333555,-121.951219512195,4,2,144,50,0,0
333695,-121.951219512195,4,2,150,50,0,0
333834,-121.951219512195,4,2,146,50,0,0
333974,-121.951219512195,4,2,147,50,0,0
334113,-121.951219512195,4,2,144,50,0,0
334253,-121.951219512195,4,2,149,50,0,0
334462,-121.951219512195,4,2,149,5,0,0
334531,-121.951219512195,4,2,144,50,0,0
334671,-121.951219512195,4,2,150,50,0,0
334811,-121.951219512195,4,2,146,50,0,0
334950,-121.951219512195,4,2,147,50,0,0
335090,-121.951219512195,4,2,144,50,0,0
335229,-121.951219512195,4,2,148,50,0,0
335369,-121.951219512195,4,2,145,50,0,0
335508,285.714285714286,4,2,151,50,1,0
335508,-121.951219512195,4,2,151,50,0,0
335650,-121.951219512195,4,2,1,50,0,0
335722,-121.951219512195,4,2,1,5,0,0
335793,-121.951219512195,4,2,144,50,0,0
335937,-121.951219512195,4,2,152,50,0,0
336079,-121.951219512195,4,2,146,50,0,0
336222,-121.951219512195,4,2,147,50,0,0
336365,-121.951219512195,4,2,144,50,0,0
336508,-121.951219512195,4,2,151,50,0,0
336722,-121.951219512195,4,2,151,5,0,0
336793,-121.951219512195,4,2,144,50,0,0
336937,-121.951219512195,4,2,152,50,0,0
337079,-121.951219512195,4,2,146,50,0,0
337222,-121.951219512195,4,2,147,50,0,0
337365,-121.951219512195,4,2,144,50,0,0
337508,-121.951219512195,4,2,148,50,0,0
337651,-121.951219512195,4,2,145,50,0,0
337793,292.682926829268,4,2,153,50,1,0
337793,-121.951219512195,4,2,153,50,0,0
337939,-121.951219512195,4,2,1,50,0,0
338012,-121.951219512195,4,2,1,5,0,0
338085,-121.951219512195,4,2,154,50,0,0
338232,-121.951219512195,4,2,155,50,0,0
338378,-121.951219512195,4,2,146,50,0,0
338525,-121.951219512195,4,2,147,50,0,0
338671,-121.951219512195,4,2,154,50,0,0
338817,-121.951219512195,4,2,153,50,0,0
339036,-121.951219512195,4,2,153,5,0,0
339110,-121.951219512195,4,2,154,50,0,0
339256,-121.951219512195,4,2,155,50,0,0
339403,-121.951219512195,4,2,146,50,0,0
339549,-121.951219512195,4,2,147,50,0,0
339695,-121.951219512195,4,2,154,50,0,0
339842,-121.951219512195,4,2,156,50,0,0
339988,-121.951219512195,4,2,155,50,0,0
340134,300,4,2,143,45,1,0
340134,-121.951219512195,4,2,143,45,0,0
340359,-121.951219512195,4,2,143,5,0,0
340434,-121.951219512195,4,2,144,45,0,0
340584,-121.951219512195,4,2,145,45,0,0
340734,-121.951219512195,4,2,146,45,0,0
340884,-121.951219512195,4,2,147,45,0,0
341034,-121.951219512195,4,2,144,45,0,0
341184,-121.951219512195,4,2,143,45,0,0
341409,-121.951219512195,4,2,143,5,0,0
341484,-121.951219512195,4,2,144,45,0,0
341634,-121.951219512195,4,2,145,45,0,0
341784,-121.951219512195,4,2,146,45,0,0
341934,-121.951219512195,4,2,147,45,0,0
342084,-121.951219512195,4,2,144,45,0,0
342234,-121.951219512195,4,2,148,45,0,0
342384,-121.951219512195,4,2,145,45,0,0
342534,307.692307692308,4,2,149,40,1,0
342534,-121.951219512195,4,2,149,40,0,0
342764,-121.951219512195,4,2,149,5,0,0
342841,-121.951219512195,4,2,144,40,0,0
342996,-121.951219512195,4,2,150,40,0,0
343149,-121.951219512195,4,2,146,40,0,0
343303,-121.951219512195,4,2,147,40,0,0
343457,-121.951219512195,4,2,144,40,0,0
343611,-121.951219512195,4,2,149,40,0,0
343841,-121.951219512195,4,2,149,5,0,0
343918,-121.951219512195,4,2,144,40,0,0
344072,-121.951219512195,4,2,150,40,0,0
344226,-121.951219512195,4,2,146,40,0,0
344380,-121.951219512195,4,2,147,40,0,0
344534,-121.951219512195,4,2,144,40,0,0
344688,-121.951219512195,4,2,148,40,0,0
344842,-121.951219512195,4,2,145,40,0,0
344995,315.789473684211,4,2,151,30,1,0
344995,-121.951219512195,4,2,151,30,0,0
345231,-121.951219512195,4,2,151,5,0,0
345310,-121.951219512195,4,2,144,30,0,0
345469,-121.951219512195,4,2,152,30,0,0
345627,-121.951219512195,4,2,146,30,0,0
345784,-121.951219512195,4,2,147,30,0,0
345942,-121.951219512195,4,2,144,30,0,0
346100,-121.951219512195,4,2,151,30,0,0
346337,-121.951219512195,4,2,151,5,0,0
346416,-121.951219512195,4,2,144,30,0,0
346574,-121.951219512195,4,2,152,30,0,0
346732,-121.951219512195,4,2,146,30,0,0
346890,-121.951219512195,4,2,147,30,0,0
347048,-121.951219512195,4,2,144,30,0,0
347206,-121.951219512195,4,2,148,30,0,0
347363,-121.951219512195,4,2,145,30,0,0
347521,324.324324324324,4,2,153,20,1,0
347521,-121.951219512195,4,2,153,20,0,0
347764,-121.951219512195,4,2,153,5,0,0
347845,-121.951219512195,4,2,154,20,0,0
348007,-121.951219512195,4,2,155,20,0,0
348170,-121.951219512195,4,2,146,20,0,0
348332,-121.951219512195,4,2,147,20,0,0
348494,-121.951219512195,4,2,154,20,0,0
348656,-121.951219512195,4,2,153,20,0,0
348818,326.086956521739,4,2,73,40,1,0
348818,-121.951219512195,4,2,73,40,0,0
348900,-121.951219512195,4,2,66,40,0,0
348981,-121.951219512195,4,2,137,40,0,0
349063,-121.951219512195,4,2,138,40,0,0
349144,-121.951219512195,4,2,83,40,0,0
349226,-121.951219512195,4,2,139,40,0,0
349307,-121.951219512195,4,2,138,40,0,0
349389,-121.951219512195,4,2,83,40,0,0
349470,-121.951219512195,4,2,139,40,0,0
349552,-121.951219512195,4,2,77,40,0,0
349633,-121.951219512195,4,2,140,40,0,0
349715,-121.951219512195,4,2,141,40,0,0
349796,-121.951219512195,4,2,77,40,0,0
349878,-121.951219512195,4,2,141,40,0,0
349959,-121.951219512195,4,2,142,40,0,0
350041,-121.951219512195,4,2,141,40,0,0
350122,333.333333333333,4,2,4,60,1,0
350122,-238.095238095238,4,2,4,60,0,0

[Colours]
Combo1 : 0,47,236
Combo2 : 235,137,169

[HitObjects]
105,91,19744,6,0,P|101:76|114:83,3,32.7600007998047,2|2|2|2,2:2|2:2|2:2|2:2,0:0:0:0:
187,36,20065,2,0,P|194:23|199:36,3,32.7600007998047,2|2|2|2,2:2|2:2|2:2|2:2,0:0:0:0:
283,55,20386,1,2,2:2:0:0:
292,64,20466,1,2,2:2:0:0:
298,75,20546,1,2,2:2:0:0:
300,87,20626,1,2,2:2:0:0:
301,100,20706,2,0,P|295:119|279:133,1,32.7600007998047,2|2,2:2|2:2,0:0:0:0:
255,198,20867,2,0,P|236:192|222:176,1,32.7600007998047,2|2,2:2|2:2,0:0:0:0:
371,151,21027,6,0,P|411:169|487:197,1,111.930001707916,6|0,2:2|0:0,0:0:0:0:
505,206,21348,2,0,P|481:234|470:270,1,74.6200011386109,2|2,2:2|2:2,0:0:0:0:
497,361,21669,1,2,2:2:0:0:
378,260,21829,1,2,2:2:0:0:
378,260,21990,1,2,2:2:0:0:
389,363,22150,6,0,P|345:345|275:323,1,111.930001707916,2|0,2:2|0:0,0:0:0:0:
266,299,22471,2,0,P|232:316|197:327,1,74.6200011386109,2|2,2:2|2:2,0:0:0:0:
122,381,22792,1,2,2:2:0:0:
65,274,22952,1,2,2:2:0:0:
125,183,23113,1,2,2:2:0:0:
212,188,23273,1,2,2:2:0:0:
246,155,23434,1,2,2:2:0:0:
243,124,23594,6,0,L|122:88,1,111.930001707916,2|0,2:2|0:0,0:0:0:0:
109,80,23915,2,0,P|93:43|121:9,1,74.6200011386109,2|2,2:2|2:2,0:0:0:0:
207,28,24236,1,2,2:2:0:0:
125,183,24396,1,2,2:2:0:0:
125,183,24557,1,2,2:2:0:0:
19,217,24717,6,0,B|32:228|58:244|58:244|64:257|64:257|85:268|107:282,1,111.930001707916,2|0,2:2|0:0,0:0:0:0:
131,297,25038,2,0,P|116:330|110:367,1,74.6200011386109,2|2,2:2|2:2,0:0:0:0:
250,376,25359,1,2,2:2:0:0:
363,306,25519,1,2,2:2:0:0:
370,201,25680,1,2,2:2:0:0:
306,154,25840,1,2,2:2:0:0:
286,112,26001,1,2,2:2:0:0:
302,78,26161,6,0,P|352:97|422:88,1,111.930001707916,2|0,2:2|0:0,0:0:0:0:
436,82,26482,2,0,P|441:33|423:0,1,74.6200011386109,2|2,2:2|2:2,0:0:0:0:
340,7,26803,1,2,2:2:0:0:
453,166,26963,1,2,2:2:0:0:
453,166,27124,1,2,2:2:0:0:
407,244,27284,6,0,P|393:290|379:365,1,111.930001707916,2|0,2:2|0:0,0:0:0:0:
365,382,27605,2,0,P|351:347|332:315,1,74.6200011386109,2|2,2:2|2:2,0:0:0:0:
271,197,27926,1,2,2:2:0:0:
165,156,28086,1,2,2:2:0:0:
78,220,28247,1,2,2:2:0:0:
81,302,28407,1,2,2:2:0:0:
48,352,28567,1,2,2:2:0:0:
12,350,28728,6,0,P|37:312|100:333,1,111.930001707916,2|0,2:2|0:0,0:0:0:0:
119,348,29049,2,0,P|163:359|198:347,1,74.6200011386109,2|2,2:2|2:2,0:0:0:0:
309,215,29370,1,2,2:2:0:0:
351,384,29530,1,2,2:2:0:0:
267,306,29690,2,0,P|302:295|337:305,1,74.6200011386109,2|2,2:2|2:2,0:0:0:0:
438,359,30011,6,0,P|427:346|448:344,3,37.3100005693054,2|2|2|2,2:2|2:2|2:2|2:2,0:0:0:0:
409,260,30335,2,0,P|410:243|426:256,3,37.3100005693054,2|2|2|2,2:2|2:2|2:2|2:2,0:0:0:0:
458,169,30659,1,2,2:2:0:0:
470,160,30740,1,2,2:2:0:0:
479,148,30821,1,2,2:2:0:0:
485,134,30902,1,2,2:2:0:0:
487,119,30983,2,0,P|475:88|456:74,1,37.3100005693054,2|2,2:2|2:2,0:0:0:0:
450,9,31146,2,0,P|419:21|405:40,1,37.3100005693054,2|2,2:2|2:2,0:0:0:0:
325,25,31308,6,0,P|339:64|346:105,1,83.7199971895753,6|2,1:2|2:2,0:0:0:0:
185,153,31623,1,2,2:2:0:0:
185,153,31781,2,0,P|211:120|244:94,1,83.7199971895753,2|2,2:2|2:2,0:0:0:0:
366,211,32097,1,2,2:2:0:0:
366,211,32255,2,0,P|324:203|285:189,1,83.7199971895753,2|2,2:2|2:2,0:0:0:0:
139,65,32571,5,2,2:2:0:0:
139,65,32727,2,0,P|97:72|58:86,1,83.7199971895753,2|2,2:2|2:2,0:0:0:0:
20,164,33039,1,2,2:2:0:0:
163,233,33196,2,0,P|177:193|184:152,1,83.7199971895753,2|2,2:2|2:2,0:0:0:0:
72,238,33508,1,2,2:2:0:0:
121,314,33664,1,2,2:2:0:0:
212,309,33821,6,0,B|229:298|252:298|252:298|260:319|279:327,1,83.7199971895753,2|2,2:2|2:2,0:0:0:0:
300,189,34130,1,2,2:2:0:0:
300,189,34284,2,0,B|319:193|336:209|336:209|326:230|334:250,1,83.7199971895753,2|2,2:2|2:2,0:0:0:0:
447,166,34594,1,2,2:2:0:0:
447,166,34748,2,0,B|458:183|458:206|458:206|437:214|428:233,1,83.7199971895753,2|2,2:2|2:2,0:0:0:0:
443,372,35058,5,2,2:2:0:0:
443,372,35211,2,0,B|422:373|402:361|402:361|406:339|394:321,1,83.7199971895753,2|2,2:2|2:2,0:0:0:0:
333,249,35517,1,2,2:2:0:0:
404,82,35670,2,0,P|426:46|441:7,1,83.7199971895753,2|2,2:2|2:2,0:0:0:0:
262,0,35976,1,2,2:2:0:0:
347,16,36129,1,2,2:2:0:0:
192,61,36282,6,0,P|151:68|117:46,1,83.7199971895753,2|2,2:2|2:2,0:0:0:0:
216,211,36585,1,2,2:2:0:0:
216,211,36736,2,0,P|182:187|174:146,1,83.7199971895753,2|2,2:2|2:2,0:0:0:0:
127,333,37039,1,2,2:2:0:0:
127,333,37191,2,0,P|120:292|142:258,1,83.7199971895753,2|2,2:2|2:2,0:0:0:0:
38,137,37494,5,2,2:2:0:0:
38,137,37644,2,0,P|77:151|95:187,1,83.7199971895753,2|2,2:2|2:2,0:0:0:0:
36,256,37944,1,2,2:2:0:0:
216,309,38094,2,0,P|256:324|293:343,1,83.7199971895753,2|2,2:2|2:2,0:0:0:0:
398,227,38394,1,2,2:2:0:0:
317,257,38544,1,2,2:2:0:0:
466,373,38694,5,2,2:2:0:0:
476,331,38844,1,2,2:2:0:0:
486,289,38994,1,2,2:2:0:0:
398,227,39144,5,2,2:2:0:0:
380,151,39294,1,2,2:2:0:0:
362,75,39444,1,2,2:2:0:0:
439,12,39594,5,2,2:2:0:0:
421,349,48744,6,0,P|474:294|428:232,1,167.439994379151,10|8,2:2|2:2,0:0:0:0:
300,208,49145,1,2,2:2:0:0:
300,208,49212,1,2,2:2:0:0:
300,208,49279,2,0,P|275:168|291:126,1,83.7199971895753,10|2,2:2|2:2,0:0:0:0:
445,28,49547,1,10,2:2:0:0:
378,133,49681,5,10,2:2:0:0:
371,120,49748,1,8,2:2:0:0:
372,105,49815,1,8,2:2:0:0:
495,184,49949,1,10,2:2:0:0:
383,298,50083,1,10,2:2:0:0:
305,185,50217,2,0,P|261:165|220:141,1,83.7199971895753,2|8,2:2|2:2,0:0:0:0:
122,103,50485,1,2,2:2:0:0:
136,184,50619,1,10,2:2:0:0:
160,275,50752,1,10,2:2:0:0:
160,275,50819,1,8,2:2:0:0:
160,275,50886,6,0,P|114:299|77:327,1,83.7199971895753,10|0,2:2|0:0,0:0:0:0:
47,208,51154,1,10,2:2:0:0:
207,384,51288,2,0,P|269:335|249:258,1,167.439994379151,2|2,2:2|2:2,0:0:0:0:
158,165,51690,1,10,2:2:0:0:
168,57,51824,5,10,2:2:0:0:
168,57,51891,1,8,2:2:0:0:
168,57,51958,1,8,2:2:0:0:
339,0,52092,1,10,2:2:0:0:
264,55,52226,1,10,2:2:0:0:
430,134,52360,2,0,P|445:95|468:59,1,83.7199971895753,2|8,2:2|2:2,0:0:0:0:
323,134,52627,1,2,2:2:0:0:
345,215,52761,1,10,2:2:0:0:
354,244,52895,1,10,2:2:0:0:
423,316,53029,6,0,B|320:359|320:359|334:321,1,139.230000849792,14|0,1:2|0:0,0:0:0:0:
272,267,53297,2,0,B|169:224|169:224|183:262,1,139.230000849792,2|0,1:2|0:0,0:0:0:0:
124,309,53565,2,0,L|29:345,1,92.8200005665283,10|2,2:2|2:2,0:0:0:0:
2,268,53833,1,2,2:2:0:0:
196,365,53967,1,2,1:2:0:0:
196,365,54034,1,0,1:1:0:0:
196,365,54101,6,0,B|243:359|243:359|208:328,1,92.8200005665283,2|10,1:2|2:2,0:0:0:0:
90,237,54369,1,2,1:2:0:0:
273,134,54502,1,2,1:2:0:0:
160,100,54636,2,0,P|177:143|189:187,1,92.8200005665283,10|2,2:2|2:2,0:0:0:0:
229,352,54904,1,2,1:2:0:0:
329,229,55038,1,2,1:2:0:0:
329,229,55105,1,0,1:1:0:0:
329,229,55172,6,0,P|285:246|241:258,1,92.8200005665283,2|0,1:2|0:0,0:0:0:0:
157,296,55440,1,2,1:2:0:0:
332,384,55574,1,2,2:2:0:0:
396,304,55708,2,0,P|408:259|425:216,1,92.8200005665283,10|2,2:2|2:2,0:0:0:0:
282,105,55976,1,2,2:2:0:0:
370,149,56110,1,2,1:2:0:0:
370,149,56177,1,0,1:1:0:0:
370,149,56244,5,2,1:2:0:0:
210,204,56377,2,0,P|198:159|181:116,1,92.8200005665283,8|2,2:2|1:2,0:0:0:0:
83,8,56645,1,2,1:2:0:0:
0,259,56779,2,0,P|12:214|29:171,1,92.8200005665283,10|0,2:2|0:0,0:0:0:0:
115,195,57047,2,0,P|97:238|86:282,1,92.8200005665283,2|0,1:2|0:0,0:0:0:0:
8,364,57315,5,2,1:2:0:0:
10,360,57382,1,0,1:1:0:0:
16,353,57449,1,0,1:1:0:0:
28,346,57516,1,0,1:1:0:0:
46,342,57583,1,2,1:2:0:0:
69,344,57650,1,0,1:1:0:0:
91,360,57717,1,0,1:1:0:0:
122,367,57784,1,0,1:1:0:0:
157,356,57851,1,2,1:2:0:0:
183,323,57918,1,0,1:1:0:0:
186,276,57985,1,0,1:1:0:0:
159,232,58052,1,0,1:1:0:0:
103,223,58119,1,2,1:2:0:0:
53,190,58185,1,0,1:1:0:0:
39,131,58252,1,0,1:1:0:0:
63,70,58319,1,0,1:1:0:0:
127,43,58386,6,0,L|157:54,10,23.2050001416321,2|0|2|0|2|0|2|0|2|0|2,1:2|1:1|1:2|1:1|1:2|1:1|1:2|1:1|1:2|1:1|1:2,0:0:0:0:
224,81,58788,1,2,1:2:0:0:
362,190,58922,1,2,2:2:0:0:
362,190,58989,1,0,0:0:0:0:
362,190,59056,2,0,P|379:167|374:137,1,46.4100002832642,2|2,2:2|2:2,0:0:0:0:
312,29,59190,2,0,P|314:51|329:69,1,46.4100002832642,2|0,2:2|0:0,0:0:0:0:
468,175,59324,1,2,2:2:0:0:
216,384,59458,6,0,B|239:286|239:286|237:267|237:267|261:167,1,222.039990852234,4|2,1:2|2:3,0:0:0:0:
376,356,59860,1,0,1:1:0:0:
376,356,59994,2,0,P|369:291|318:280,1,111.019995426117,8|0,1:2|0:0,0:0:0:0:
150,293,60261,2,0,P|104:319|60:291,1,111.019995426117,2|0,1:3|0:0,0:0:0:0:
2,99,60529,5,0,1:1:0:0:
113,224,60663,1,0,1:1:0:0:
244,11,60797,2,0,P|236:-10|224:16,3,55.5099977130586,2|0|0|0,2:3|0:0|0:0|0:0,0:0:0:0:
89,134,61065,1,10,1:2:0:0:
89,134,61132,1,0,0:0:0:0:
89,134,61199,2,0,P|111:137|94:114,1,55.5099977130586
274,207,61333,1,2,1:3:0:0:
302,180,61400,1,0,0:0:0:0:
339,170,61467,1,0,0:0:0:0:
377,177,61534,1,0,0:0:0:0:
407,201,61601,6,0,B|447:254|423:322|354:352|301:279|350:241,1,222.039990852234,2|2,1:2|2:3,0:0:0:0:
339,24,62002,1,2,1:2:0:0:
459,94,62136,2,0,B|489:115|486:142|486:142|469:113|434:109,1,111.019995426117,8|0,1:2|0:0,0:0:0:0:
210,149,62404,6,0,B|250:85|252:17|252:17|249:77|297:108,1,222.039990852234,2|0,2:3|1:1,0:0:0:0:
265,339,62806,1,10,2:3:0:0:
146,242,62940,2,0,P|126:189|100:141,1,111.019995426117,2|0,2:3|0:0,0:0:0:0:
381,57,63208,2,0,P|354:105|335:157,1,111.019995426117,10|0,1:3|0:0,0:0:0:0:
383,372,63476,1,10,2:3:0:0:
248,231,63610,1,8,2:2:0:0:
248,231,63677,1,8,2:2:0:0:
248,231,63744,6,0,P|237:268|324:248,1,166.529993139176,10|0,1:2|0:0,0:0:0:0:
316,183,64011,2,0,B|285:139|285:139|228:144,1,111.019995426117,2|0,1:3|1:1,0:0:0:0:
76,291,64279,2,0,B|129:286|129:286|153:234,1,111.019995426117,0|0,1:1|0:0,0:0:0:0:
102,29,64547,2,0,B|79:77|79:77|112:124,1,111.019995426117,10|0,1:3|0:0,0:0:0:0:
345,186,64815,6,0,P|383:135|346:96,1,111.019995426117,0|0,1:1|1:1,0:0:0:0:
244,226,65083,2,0,P|293:251|337:285,1,111.019995426117,10|0,1:3|0:0,0:0:0:0:
436,325,65284,1,8,2:2:0:0:
436,325,65351,2,0,P|386:350|342:384,1,111.019995426117,10|0,1:3|0:0,0:0:0:0:
142,238,65619,1,10,1:3:0:0:
256,356,65752,1,8,2:2:0:0:
261,345,65819,1,8,2:2:0:0:
266,334,65886,6,0,B|255:285|255:285|255:280|255:280|243:225,1,111.019995426117,10|8,1:3|1:2,0:0:0:0:
238,191,66087,1,8,2:2:0:0:
238,191,66154,1,8,1:2:0:0:
150,345,66288,1,8,1:2:0:0:
345,206,66422,1,8,1:2:0:0:
356,151,66489,1,8,2:2:0:0:
332,100,66556,1,8,1:2:0:0:
282,74,66623,1,8,2:2:0:0:
227,82,66690,1,8,1:2:0:0:
184,117,66757,1,8,2:2:0:0:
128,117,66824,1,8,1:2:0:0:
84,82,66891,1,8,2:2:0:0:
78,26,66958,5,0,0:0:0:0:
313,247,67092,5,2,2:2:0:0:
325,208,67159,1,2,2:2:0:0:
337,169,67226,1,2,2:2:0:0:
31,276,67360,5,2,2:2:0:0:
21,244,67427,1,2,2:2:0:0:
11,213,67494,1,2,2:2:0:0:
216,307,67627,5,2,2:2:0:0:
223,283,67694,1,2,2:2:0:0:
230,260,67761,1,6,2:2:0:0:
116,362,67895,5,2,2:2:0:0:
111,344,67962,1,2,2:2:0:0:
106,324,68029,6,0,P|126:279|144:233,1,98.2800023994141
143,156,68297,2,0,B|176:154|196:119|196:119|190:161|202:182,1,131.040003199219,2|2,2:2|2:2,0:0:0:0:
280,126,68699,1,2,2:2:0:0:
280,126,68833,1,2,2:2:0:0:
127,54,68967,6,0,P|170:5|233:22,1,131.040003199219,2|2,2:2|2:2,0:0:0:0:
320,37,69369,1,2,2:2:0:0:
320,37,69502,2,0,P|302:64|278:136,1,98.2800023994141,2|0,2:2|0:0,0:0:0:0:
275,150,69770,1,2,2:2:0:0:
205,250,69904,1,2,2:2:0:0:
205,250,70038,6,0,P|198:217|181:189,1,65.5200015996094,2|0,2:2|0:0,0:0:0:0:
354,196,70306,1,2,2:2:0:0:
354,196,70373,1,2,2:2:0:0:
354,196,70440,1,2,2:2:0:0:
307,304,70574,1,2,2:2:0:0:
450,375,70708,1,2,2:2:0:0:
460,350,70842,1,2,2:2:0:0:
448,325,70976,1,2,2:2:0:0:
236,384,71110,6,0,P|193:339|218:283,1,131.040003199219,2|2,2:2|2:2,0:0:0:0:
292,326,71511,1,2,2:2:0:0:
69,327,71645,2,0,P|122:257|79:181,1,185.640001133057,2|2,2:2|2:2,0:0:0:0:
38,251,72047,1,2,2:2:0:0:
226,145,72181,5,2,2:2:0:0:
226,145,72315,2,0,P|211:174|201:205,1,65.5200015996094
112,68,72583,2,0,P|115:102|130:92,1,57.3299982504273,2|0,2:2|0:0,0:0:0:0:
139,80,72851,2,0,P|168:50|310:75,1,196.560004798828,2|2,2:2|2:2,0:0:0:0:
399,123,73319,1,2,2:2:0:0:
399,123,73386,6,0,B|417:95|393:61|393:61|401:102|360:132,1,131.040003199219,2|0,2:2|0:0,0:0:0:0:
287,157,73788,1,2,2:2:0:0:
287,157,73922,2,0,B|288:175|281:189|281:189|291:177|308:170,1,65.5200015996094,2|0,2:2|0:0,0:0:0:0:
399,205,74190,2,0,B|398:223|405:237|405:237|387:219|378:218,1,65.5200015996094,2|0,2:2|0:0,0:0:0:0:
230,362,74458,6,0,P|303:378|333:308,1,163.800003999024,2|0,2:2|0:0,0:0:0:0:
323,280,74860,2,0,P|292:273|268:293,1,65.5200015996094,2|0,2:2|0:0,0:0:0:0:
208,230,75127,2,0,P|181:247|177:278,1,65.5200015996094,2|0,2:2|0:0,0:0:0:0:
25,328,75395,6,0,B|-4:365|69:435|161:344|65:244,1,229.320005598633,2|0,2:2|0:0,0:0:0:0:
57,235,75931,2,0,P|31:177|60:120,1,131.040003199219,2|2,2:2|2:2,0:0:0:0:
130,70,76333,1,2,2:2:0:0:
130,70,76400,1,2,2:2:0:0:
130,70,76467,1,2,2:2:0:0:
198,128,76601,6,0,P|219:104|220:72,1,65.5200015996094,8|2,2:2|2:2,0:0:0:0:
179,0,76869,1,10,2:2:0:0:
179,0,77002,1,2,2:2:0:0:
127,182,77136,1,10,2:2:0:0:
138,264,77270,1,2,2:2:0:0:
149,346,77404,1,2,2:2:0:0:
225,290,77538,5,10,2:2:0:0:
225,290,77605,1,8,2:2:0:0:
225,290,77672,1,8,2:2:0:0:
64,314,77806,2,0,P|43:284|59:250,1,65.5200015996094,2|10,2:2|2:2,0:0:0:0:
235,200,78074,2,0,P|265:214|296:225,1,65.5200015996094,2|8,2:2|2:2,0:0:0:0:
367,340,78342,1,2,2:2:0:0:
225,290,78476,1,10,2:2:0:0:
404,191,78610,5,10,2:2:0:0:
404,191,78677,1,8,2:2:0:0:
404,191,78744,2,0,P|391:221|381:252,1,65.5200015996094,8|2,2:2|2:2,0:0:0:0:
322,143,79011,1,10,2:2:0:0:
322,143,79145,1,2,2:2:0:0:
501,199,79279,1,10,2:2:0:0:
484,115,79413,1,2,2:2:0:0:
467,31,79547,1,10,2:2:0:0:
404,191,79681,5,10,2:2:0:0:
404,191,79748,1,8,2:2:0:0:
404,191,79815,1,8,2:2:0:0:
299,25,79949,2,0,P|329:37|359:50,1,65.5200015996094,2|8,2:2|2:2,0:0:0:0:
232,193,80217,1,2,2:2:0:0:
232,193,80351,2,0,P|205:162|250:91,1,131.040003199219,8|8,2:2|2:2,0:0:0:0:
326,285,80752,1,10,2:2:0:0:
326,285,80819,1,10,2:2:0:0:
326,285,80886,6,0,B|283:308|283:308|269:326|269:326|220:349,1,125.579995784363,14|0,1:2|0:0,0:0:0:0:
199,382,81154,2,0,P|158:370|117:361,1,83.7199971895753,10|2,2:3|2:2,0:0:0:0:
88,355,81355,1,2,2:2:0:0:
88,355,81422,1,10,2:3:0:0:
33,272,81556,1,10,2:2:0:0:
77,182,81690,1,10,2:3:0:0:
176,175,81824,6,0,B|208:191|208:191|212:196|212:196|257:215,1,83.7199971895753,10|2,2:2|1:3,0:0:0:0:
397,105,82092,2,0,B|367:124|367:124|360:125|360:125|321:155,1,83.7199971895753,10|10,2:2|2:3,0:0:0:0:
347,331,82360,1,10,2:2:0:0:
347,331,82494,2,0,B|344:295|344:295|347:289|347:289|341:240,1,83.7199971895753,10|2,1:3|2:2,0:0:0:0:
245,106,82761,1,10,2:3:0:0:
417,197,82895,1,2,2:2:0:0:
244,316,83029,6,0,P|196:332|163:260,1,125.579995784363,2|0,1:3|0:0,0:0:0:0:
163,248,83297,2,0,P|205:231|251:217,1,83.7199971895753,10|2,1:3|2:2,0:0:0:0:
326,200,83498,1,2,2:2:0:0:
326,200,83565,2,0,P|370:172|330:102,1,125.579995784363,2|0,1:3|0:0,0:0:0:0:
327,90,83833,2,0,P|275:97|234:109,1,83.7199971895753,10|0,1:3|0:0,0:0:0:0:
139,135,84101,5,2,1:3:0:0:
256,254,84235,1,10,2:2:0:0:
88,205,84369,1,10,1:3:0:0:
327,90,84502,5,10,2:2:0:0:
327,90,84569,1,10,2:2:0:0:
327,90,84636,1,10,1:3:0:0:
122,276,84770,1,10,2:2:0:0:
441,179,84904,1,10,1:3:0:0:
71,45,85038,5,10,2:2:0:0:
71,45,85105,1,10,2:2:0:0:
71,44,85172,2,0,P|94:99|153:98,1,125.579995784363,6|0,1:2|0:0,0:0:0:0:
183,91,85440,2,0,P|202:55|190:16,1,83.7199971895753,2|2,1:3|2:3,0:0:0:0:
45,190,85708,1,2,1:3:0:0:
45,190,85842,2,0,P|63:227|73:268,1,83.7199971895753,2|2,2:3|1:3,0:0:0:0:
228,359,86110,1,2,2:3:0:0:
228,359,86244,6,0,B|248:356|260:340|260:340|239:290|167:311,1,125.579995784363,2|0,1:3|0:0,0:0:0:0:
160,314,86511,2,0,P|115:333|74:375,1,83.7199971895753,2|2,1:3|2:3,0:0:0:0:
75,381,86712,1,2,2:3:0:0:
75,381,86779,1,2,1:3:0:0:
0,196,86913,1,2,2:3:0:0:
0,196,86980,1,2,2:3:0:0:
0,196,87047,2,0,P|32:222|71:237,1,83.7199971895753,2|2,1:3|2:3,0:0:0:0:
132,93,87315,6,0,P|125:47|119:95,1,125.579995784363,2|0,1:3|0:0,0:0:0:0:
129,169,87583,2,0,B|148:179|154:199|154:199|154:178|167:159,1,83.7199971895753,2|2,1:3|2:3,0:0:0:0:
303,96,87851,6,0,P|330:59|292:88,1,125.579995784363,2|0,1:3|0:0,0:0:0:0:
247,148,88119,2,0,B|253:169|243:187|243:187|258:173|281:168,1,83.7199971895753,2|2,1:3|2:3,0:0:0:0:
421,219,88386,6,0,P|466:212|418:206,1,125.579995784363,2|0,1:3|0:0,0:0:0:0:
345,216,88654,2,0,B|334:235|314:241|314:241|335:241|354:254,1,83.7199971895753,2|2,1:3|2:3,0:0:0:0:
389,370,88855,1,2,2:3:0:0:
389,370,88922,2,0,P|421:347|416:308,1,83.7199971895753,2|2,1:3|2:3,0:0:0:0:
306,322,89123,1,2,2:3:0:0:
306,322,89190,2,0,P|266:333|218:359,1,83.7199971895753,2|2,1:3|2:3,0:0:0:0:
167,297,89391,1,2,2:3:0:0:
167,297,89458,6,0,B|140:314|140:353|140:353|132:322|104:306,1,125.579995784363,2|0,1:3|0:0,0:0:0:0:
29,306,89726,2,0,P|35:346|66:373,1,83.7199971895753,2|2,1:3|2:3,0:0:0:0:
119,231,89994,2,0,P|103:170|85:109,1,125.579995784363,2|0,1:3|0:0,0:0:0:0:
17,47,90261,2,0,P|56:37|113:13,1,83.7199971895753,2|2,1:3|2:3,0:0:0:0:
190,188,90529,6,0,P|217:149|203:60,1,125.579995784363,2|0,1:3|0:0,0:0:0:0:
181,3,90797,1,2,1:3:0:0:
311,181,90931,1,2,2:3:0:0:
311,181,90998,1,2,2:3:0:0:
311,181,91065,2,0,P|317:127|334:45,1,111.019995426117,2|2,1:3|2:3,0:0:0:0:
284,9,91266,1,2,2:3:0:0:
284,9,91333,2,0,P|336:-7|394:43,1,111.019995426117,2|2,1:3|2:3,0:0:0:0:
489,95,91601,6,0,P|421:98|461:181,1,152.880001866211,2|0,1:3|0:0,0:0:0:0:
438,192,91869,2,0,P|449:257|361:247,1,152.880001866211,2|0,1:3|0:0,0:0:0:0:
301,254,92136,2,0,B|300:221|333:201|333:201|302:196|279:222,1,125.579995784363,2|0,1:3|0:0,0:0:0:0:
286,334,92404,2,0,B|313:349|314:387|314:387|334:363|324:330,1,125.579995784363,2|0,1:3|0:0,0:0:0:0:
226,285,92672,6,0,P|174:293|91:315,1,125.579995784363,2|0,1:3|0:0,0:0:0:0:
49,361,92940,2,0,P|21:328|35:290,1,83.7199971895753,2|2,1:3|2:3,0:0:0:0:
91,232,93141,1,2,2:3:0:0:
91,232,93208,2,0,P|141:219|183:206,1,83.7199971895753,2|2,1:3|2:3,0:0:0:0:
153,139,93409,1,2,2:3:0:0:
152,139,93476,2,0,P|110:148|70:160,1,83.7199971895753,2|2,1:3|2:3,0:0:0:0:
36,48,93677,1,2,2:3:0:0:
36,48,93744,6,0,B|37:32|21:14|21:14|109:62|109:62|184:57,1,185.640001133057,2|2,1:3|1:3,0:0:0:0:
232,41,94145,1,2,2:3:0:0:
232,41,94279,2,0,P|271:73|270:118,1,92.8200005665283,2|2,1:3|2:3,0:0:0:0:
278,253,94547,2,0,P|286:203|325:181,1,92.8200005665283,2|2,1:3|2:3,0:0:0:0:
445,80,94815,6,0,P|422:145|404:213,1,139.230000849792,2|0,1:3|0:0,0:0:0:0:
386,221,95083,2,0,P|400:272|410:328,1,92.8200005665283,2|2,1:3|2:3,0:0:0:0:
340,353,95284,1,2,2:3:0:0:
340,353,95351,2,0,P|305:354|329:321,1,92.8200005665283,2|2,1:3|2:3,0:0:0:0:
492,337,95552,1,2,2:3:0:0:
492,337,95619,2,0,P|510:366|469:362,1,92.8200005665283,2|2,1:3|2:3,0:0:0:0:
407,311,95819,1,2,2:3:0:0:
407,311,95886,6,0,P|398:265|386:221,1,92.8200005665283,2|2,1:3|2:3,0:0:0:0:
429,98,96154,2,0,B|374:127|374:127|363:144|363:144|312:170,1,139.230000849792,2|0,1:3|0:0,0:0:0:0:
287,188,96422,1,2,1:3:0:0:
154,162,96556,1,2,2:3:0:0:
122,50,96690,1,2,1:3:0:0:
198,0,96824,1,2,2:3:0:0:
227,20,96958,6,0,B|206:111|206:111|207:119|207:119|190:201,1,185.640001133057,2|2,1:3|1:3,0:0:0:0:
80,291,97360,2,0,P|55:254|83:221,1,92.8200005665283,2|2,2:3|1:3,0:0:0:0:
293,236,97627,1,2,2:3:0:0:
379,273,97761,1,2,1:3:0:0:
465,310,97895,1,2,2:3:0:0:
506,95,98029,6,0,P|452:123|365:151,1,139.230000849792,2|0,1:3|0:0,0:0:0:0:
345,159,98297,2,0,P|308:135|315:92,1,92.8200005665283,2|2,1:3|2:3,0:0:0:0:
192,193,98565,2,0,P|182:150|217:124,1,92.8200005665283,2|2,1:3|2:3,0:0:0:0:
59,108,98833,2,0,P|82:70|125:77,1,92.8200005665283,2|2,1:3|2:3,0:0:0:0:
130,255,99101,6,0,P|86:239|41:226,1,92.8200005665283,2|2,1:3|2:3,0:0:0:0:
14,313,99369,2,0,P|58:326|102:341,1,92.8200005665283,2|2,1:3|2:3,0:0:0:0:
189,341,99569,1,2,2:3:0:0:
189,341,99636,2,0,B|205:330|233:331|233:331|211:321|200:292,1,92.8200005665283,2|2,1:3|2:3,0:0:0:0:
275,262,99837,1,2,2:3:0:0:
275,262,99904,2,0,B|293:268|308:292|308:292|304:268|321:243,1,92.8200005665283,2|2,1:3|2:3,0:0:0:0:
379,349,100105,1,2,2:3:0:0:
379,349,100172,6,0,P|402:259|425:169,2,185.640001133057,2|2|2,1:3|1:3|1:3,0:0:0:0:
509,209,100842,1,2,2:3:0:0:
509,209,100909,1,0,0:0:0:0:
509,209,100976,2,0,P|516:254|467:291,1,92.8200005665283,2|2,1:3|2:3,0:0:0:0:
315,272,101244,5,10,1:3:0:0:
292,243,101310,1,8,1:2:0:0:
251,230,101377,1,10,1:3:0:0:
206,243,101444,1,8,1:2:0:0:
174,283,101511,1,2,1:3:0:0:
169,338,101578,1,0,1:1:0:0:
125,380,101645,1,2,1:3:0:0:
60,384,101712,1,2,1:3:0:0:
12,333,101779,6,0,P|2:302|16:280,1,46.4100002832642,2|0,1:3|1:1,0:0:0:0:
0,212,101913,2,0,P|14:183|40:177,1,46.4100002832642,2|2,1:3|1:3,0:0:0:0:
213,159,102047,2,0,P|223:128|209:106,1,46.4100002832642,10|8,1:3|1:2,0:0:0:0:
225,38,102181,2,0,P|210:9|184:3,1,46.4100002832642,10|10,1:3|1:3,0:0:0:0:
26,27,102315,6,0,B|-37:48|-56:168|91:190|122:110|196:185|174:278|110:285,1,387.659980479768,14|0,1:3|1:1,0:0:0:0:
29,239,102851,2,0,P|51:184|114:58,1,185.640001133057,10|0,2:3|0:0,0:0:0:0:
187,118,103252,5,0,1:1:0:0:
187,118,103319,1,0,1:1:0:0:
187,118,103386,2,0,P|218:150|263:148,1,92.8200005665283,2|0,1:2|0:0,0:0:0:0:
312,213,103587,2,0,P|344:182|342:137,1,92.8200005665283,0|0,1:1|0:0,0:0:0:0:
293,74,103788,1,0,1:1:0:0:
125,213,103922,2,0,B|95:222|95:222|84:263|84:263|121:253|121:253|131:212,1,139.230000849792,10|0,2:3|0:0,0:0:0:0:
216,281,104190,2,0,B|230:305|230:305|211:338|211:338|190:301|190:301|205:274,1,139.230000849792,2|0,2:2|0:0,0:0:0:0:
321,283,104458,6,0,B|200:324|200:324|189:335|189:335|57:379,1,278.460001699585,2|2,1:2|1:2,0:0:0:0:
28,243,104994,2,0,B|0:200|0:200|54:222|54:222|61:231|61:231|136:261,1,185.640001133057,10|2,2:3|2:2,0:0:0:0:
214,130,105395,5,0,1:1:0:0:
214,130,105462,1,0,1:1:0:0:
214,130,105529,2,0,P|169:143|125:158,1,92.8200005665283,2|0,1:2|0:0,0:0:0:0:
96,82,105730,2,0,P|140:67|184:53,1,92.8200005665283,0|0,1:1|0:0,0:0:0:0:
265,64,105931,1,0,1:1:0:0:
16,119,106065,2,0,P|6:74|-13:33,1,92.8200005665283,10|0,2:3|0:0,0:0:0:0:
275,233,106333,2,0,P|285:187|305:146,1,92.8200005665283,10|0,2:3|0:0,0:0:0:0:
34,352,106601,6,0,B|-3:373|-40:341|-37:254|25:250|109:264|148:305|93:327|139:387|223:393|252:343,1,387.659980479768,2|2,1:2|1:2,0:0:0:0:
328,158,107136,2,0,B|371:117|314:46|228:61|210:186|280:236,1,278.460001699585,10|0,2:3|1:1,0:0:0:0:
388,265,107605,5,0,1:1:0:0:
388,265,107672,2,0,P|391:227|358:246,1,92.8200005665283,2|0,1:2|0:0,0:0:0:0:
313,319,107873,2,0,P|278:335|311:354,1,92.8200005665283,0|0,1:1|0:0,0:0:0:0:
400,351,108074,1,2,1:2:0:0:
415,93,108208,6,0,P|289:153|162:211,1,278.460001699585,10|0,2:3|0:0,0:0:0:0:
122,97,108744,6,0,B|86:54|86:54|147:75|147:75|153:82|153:82|207:100,1,185.640001133057,2|2,1:2|2:2,0:0:0:0:
282,57,109145,1,0,1:1:0:0:
397,226,109279,2,0,B|427:180|427:180|369:207|369:207|364:214|364:214|312:238,1,185.640001133057,10|2,2:3|2:2,0:0:0:0:
222,352,109681,5,0,1:1:0:0:
222,352,109748,1,0,1:1:0:0:
222,352,109815,2,0,P|205:307|155:306,1,92.8200005665283,2|0,1:2|0:0,0:0:0:0:
138,225,110016,2,0,P|93:241|92:291,1,92.8200005665283,0|0,1:1|0:0,0:0:0:0:
40,351,110217,1,0,1:1:0:0:
244,193,110351,6,0,B|239:177|248:149|248:149|234:175|214:180,1,92.8200005665283,10|0,2:3|0:0,0:0:0:0:
4,72,110619,2,0,B|10:56|1:28|1:28|15:54|35:59,1,92.8200005665283,10|0,2:3|0:0,0:0:0:0:
327,0,110886,6,0,B|309:14|296:41|296:41|251:4|159:30|142:84|142:84|171:91|185:122,1,278.460001699585,2|2,1:2|1:2,0:0:0:0:
116,268,111422,2,0,B|91:271|77:290|77:290|43:256|56:175|122:173,1,185.640001133057,10|2,2:3|2:2,0:0:0:0:
227,319,111824,5,2,1:2:0:0:
227,319,111891,1,0,1:1:0:0:
227,319,111958,2,0,P|183:334|142:356,1,92.8200005665283,2|2,1:2|2:2,0:0:0:0:
228,224,112159,2,0,P|268:245|312:260,1,92.8200005665283,0|0,1:1|0:0,0:0:0:0:
364,326,112360,1,2,1:2:0:0:
460,164,112494,2,0,P|416:178|375:200,1,92.8200005665283,10|2,2:3|2:2,0:0:0:0:
296,163,112761,1,2,2:2:0:0:
290,78,112895,1,2,2:2:0:0:
402,14,113029,6,0,B|432:45|425:82|425:82|354:34|244:22|179:86,1,333.059986278351,2|2,1:2|1:2,0:0:0:0:
0,135,113565,2,0,B|5:93|60:70|102:95|102:95|104:130|130:144,1,185.640001133057,10|2,2:3|2:2,0:0:0:0:
44,332,113967,5,2,1:2:0:0:
44,332,114034,1,0,1:1:0:0:
44,332,114101,2,0,P|31:287|16:243,1,92.8200005665283,2|2,1:2|2:2,0:0:0:0:
94,216,114302,2,0,P|108:260|121:304,1,92.8200005665283,0|0,1:1|0:0,0:0:0:0:
109,384,114502,1,2,1:2:0:0:
32,163,114636,1,10,2:3:0:0:
188,231,114770,6,0,P|208:244|231:241,1,46.4100002832642,2|0,2:2|0:0,0:0:0:0:
291,297,114904,2,0,P|313:291|327:274,1,46.4100002832642,10|0,2:3|0:0,0:0:0:0:
374,184,115038,2,0,P|393:171|416:174,1,46.4100002832642,2|0,2:2|0:0,0:0:0:0:
476,118,115172,6,0,P|524:155|396:248,1,278.460001699585,2|0,1:2|1:1,0:0:0:0:
289,182,115708,2,0,P|305:123|331:-4,1,185.640001133057,10|0,2:3|0:0,0:0:0:0:
476,1,116110,5,0,1:1:0:0:
476,1,116177,1,0,1:1:0:0:
476,1,116244,2,0,B|486:26|501:42|501:42|485:32|455:41,1,92.8200005665283,2|0,1:2|0:0,0:0:0:0:
476,118,116444,2,0,B|465:142|464:164|464:164|460:146|432:131,1,92.8200005665283,0|0,1:1|0:0,0:0:0:0:
393,202,116645,1,2,1:2:0:0:
190,75,116779,6,0,P|175:25|231:57,1,139.230000849792,10|0,2:3|0:0,0:0:0:0:
223,74,117047,2,0,P|207:131|190:222,1,139.230000849792,2|0,2:2|0:0,0:0:0:0:
100,334,117315,6,0,B|92:356|43:354|-21:299|31:232|96:217|154:244|115:273|147:313|213:304|245:266,1,333.059986278351,2|0,1:2|1:1,0:0:0:0:
393,202,117851,2,0,B|441:152|373:77|283:137|291:233|356:293,1,278.460001699585,10|0,2:3|1:1,0:0:0:0:
376,358,118319,1,0,1:1:0:0:
376,358,118386,2,0,P|423:327|411:269,1,92.8200005665283,2|2,1:2|2:2,0:0:0:0:
507,301,118587,2,0,P|503:244|447:226,1,92.8200005665283,0|0,1:1|0:0,0:0:0:0:
393,202,118788,1,2,1:2:0:0:
284,349,118922,5,10,2:3:0:0:
361,114,119056,1,2,2:2:0:0:
205,293,119190,5,10,2:3:0:0:
153,17,119324,1,2,2:2:0:0:
66,233,119458,6,0,B|56:251|-7:255|-28:209|-11:145|24:113|68:108|150:133|169:213|198:259|254:276|344:232|348:129|263:116|233:141,1,524.160012796875,4|0,1:2|0:0,0:0:0:0:
232,145,120797,6,0,P|231:164|254:173,1,43.68,2|0,2:2|0:0,0:0:0:0:
270,244,121065,2,0,P|294:240|320:206,1,57.3299982504273,2|0,2:2|0:0,0:0:0:0:
386,255,121333,2,0,P|397:221|389:187,1,70.9799995667725,2|0,2:2|0:0,0:0:0:0:
441,90,121601,6,0,B|325:133|325:133|349:115|356:83,1,163.800003999024,2|0,2:2|0:0,0:0:0:0:
252,91,122002,2,0,B|241:50|196:48|196:48|253:19|289:82,1,163.800003999024,2|0,2:2|0:0,0:0:0:0:
250,173,122404,6,0,B|261:205|287:212|287:212|233:249|148:200|191:109,1,229.320005598633,2|0,2:2|0:0,0:0:0:0:
252,91,122940,6,0,B|270:99|291:93|291:93|330:114|314:157,1,98.2800023994141,2|0,2:2|0:0,0:0:0:0:
369,204,123208,2,0,B|365:223|377:242|377:242|366:285|321:280,1,98.2800023994141,2|0,2:2|0:0,0:0:0:0:
290,346,123476,2,0,B|270:348|255:363|255:363|210:365|203:319,1,98.2800023994141,2|0,2:2|0:0,0:0:0:0:
145,278,123744,2,0,B|165:252|161:214|161:214|175:246|207:253,1,131.040003199219,2|2,1:2|2:2,0:0:0:0:
122,362,124145,6,0,P|25:373|93:230,1,327.600007998047,2|0,2:2|0:0,0:0:0:0:
67,304,125083,2,0,P|50:264|85:225,1,98.2800023994141,2|0,2:2|0:0,0:0:0:0:
43,148,125351,2,0,P|89:156|103:201,1,98.2800023994141,2|0,2:2|0:0,0:0:0:0:
188,205,125619,2,0,P|159:241|113:231,1,98.2800023994141,10|0,2:2|0:0,0:0:0:0:
169,124,125886,6,0,P|180:94|186:60,1,65.5200015996094,2|0,1:2|1:1,0:0:0:0:
265,185,126154,1,10,2:2:0:0:
309,32,126288,2,0,P|320:62|326:95,1,65.5200015996094,2|0,2:2|0:0,0:0:0:0:
411,0,126556,1,2,1:2:0:0:
473,150,126690,2,0,P|484:120|490:86,1,65.5200015996094,10|0,2:2|1:1,0:0:0:0:
356,178,126958,5,2,1:2:0:0:
356,178,127025,1,0,1:1:0:0:
356,178,127092,1,10,2:2:0:0:
492,249,127226,1,0,1:1:0:0:
326,331,127360,5,10,2:2:0:0:
312,344,127427,1,8,2:2:0:0:
291,353,127494,1,10,2:2:0:0:
263,355,127560,1,8,2:2:0:0:
232,344,127627,1,8,1:2:0:0:
211,313,127694,1,10,2:2:0:0:
207,271,127761,1,8,2:2:0:0:
183,230,127828,1,8,2:2:0:0:
141,201,127895,1,10,2:2:0:0:
85,199,127962,1,8,2:2:0:0:
32,226,128029,6,0,P|64:288|74:362,1,123.760000755371,14|0,1:2|0:0,0:0:0:0:
151,384,128297,1,8,2:2:0:0:
151,384,128386,2,0,P|165:350|193:320,1,61.8800003776855,8|10,2:2|2:2,0:0:0:0:
256,203,128565,2,0,P|324:233|388:245,1,123.760000755371,14|0,1:2|0:0,0:0:0:0:
427,303,128833,1,10,2:2:0:0:
427,303,128922,2,0,P|445:278|456:249,1,61.8800003776855,10|10,2:2|2:2,0:0:0:0:
503,102,129101,5,14,1:2:0:0:
453,39,129190,1,0,0:0:0:0:
380,24,129279,1,0,0:0:0:0:
316,50,129369,1,10,2:2:0:0:
287,104,129458,1,10,2:2:0:0:
237,129,129547,1,10,2:2:0:0:
188,117,129636,1,14,1:2:0:0:
167,78,129726,1,0,0:0:0:0:
182,44,129815,1,10,2:2:0:0:
212,41,129904,1,2,2:2:0:0:
229,58,129994,1,10,2:2:0:0:
229,76,130083,1,10,2:2:0:0:
221,92,130172,6,0,P|188:158|170:224,1,123.760000755371,14|0,1:2|0:0,0:0:0:0:
104,259,130440,1,8,2:2:0:0:
104,259,130529,2,0,P|118:287|126:317,1,61.8800003776855,8|10,2:2|2:2,0:0:0:0:
322,305,130708,6,0,P|323:257|244:238,1,123.760000755371,14|0,1:2|0:0,0:0:0:0:
218,303,130976,1,10,2:2:0:0:
218,303,131065,2,0,P|204:330|196:360,1,61.8800003776855,10|10,2:2|2:2,0:0:0:0:
423,384,131244,5,14,1:2:0:0:
475,331,131333,1,2,2:2:0:0:
475,256,131422,1,2,2:2:0:0:
420,206,131511,1,10,2:2:0:0:
388,167,131601,1,10,2:2:0:0:
394,118,131690,1,10,2:2:0:0:
439,98,131779,5,14,1:2:0:0:
421,170,131869,1,2,2:2:0:0:
357,208,131958,1,10,2:2:0:0:
283,198,132047,1,10,2:2:0:0:
250,160,132136,1,10,2:2:0:0:
200,152,132226,1,10,2:2:0:0:
156,175,132315,6,0,P|170:218|183:263,1,92.8200005665283,14|2,1:2|2:2,0:0:0:0:
246,74,132583,1,14,1:2:0:0:
63,190,132717,1,10,2:2:0:0:
66,172,132784,1,8,2:2:0:0:
70,155,132851,1,14,1:2:0:0:
194,0,132985,1,10,2:2:0:0:
303,260,133119,1,14,1:2:0:0:
333,280,133185,1,2,2:2:0:0:
369,284,133252,1,10,2:2:0:0:
402,268,133319,1,10,2:2:0:0:
421,236,133386,6,0,P|409:215|401:193,1,46.4100002832642,14|0,1:2|0:0,0:0:0:0:
292,8,133520,2,0,P|279:27|265:45,1,46.4100002832642,10|0,2:2|0:0,0:0:0:0:
160,234,133654,2,0,P|183:234|206:238,1,46.4100002832642,14|8,1:2|2:2,0:0:0:0:
472,335,133788,2,0,P|489:292|512:251,1,92.8200005665283,10|12,2:2|1:2,0:0:0:0:
406,64,134056,1,10,2:2:0:0:
206,238,134190,2,0,P|188:195|165:154,1,92.8200005665283,14|8,1:2|2:2,0:0:0:0:
481,108,134458,5,14,1:2:0:0:
380,349,134592,1,8,2:2:0:0:
290,43,134726,5,8,1:2:0:0:
311,294,134860,1,10,2:2:0:0:
165,58,134994,6,0,P|189:74|212:86,1,46.4100002832642,10|8,1:2|2:2,0:0:0:0:
393,130,135127,2,0,P|373:143|353:154,1,46.4100002832642,10|8,2:2|2:2,0:0:0:0:
76,213,135261,2,0,P|95:226|115:237,1,46.4100002832642,10|8,1:2|2:2,0:0:0:0:
449,275,135395,2,0,P|429:288|409:299,1,46.4100002832642,10|8,2:2|2:2,0:0:0:0:
85,376,135529,5,8,1:2:0:0:
73,354,135797,6,0,P|90:326|118:363,1,84.6299966424867,2|0,1:2|0:0,0:0:0:0:
220,377,136065,2,0,P|203:345|223:316,1,74.6200011386109,2|2,1:2|2:2,0:0:0:0:
283,262,136266,1,2,2:2:0:0:
283,262,136333,2,0,P|304:270|327:275,1,46.4100002832642,10|8,2:2|2:2,0:0:0:0:
409,384,136467,2,0,P|401:361|397:338,1,46.4100002832642,8|8,2:2|2:2,0:0:0:0:
512,53,136601,6,0,P|471:140|427:227,1,193.829990239884,14|0,1:2|0:0,0:0:0:0:
413,250,136869,1,10,1:3:0:0:
286,5,137002,2,0,P|342:36|401:63,1,129.219993493256,10|2,2:3|1:3,0:0:0:0:
139,272,137270,5,2,2:3:0:0:
276,189,137404,1,10,1:3:0:0:
136,112,137538,1,2,2:3:0:0:
278,349,137672,5,2,1:3:0:0:
0,194,137806,1,2,2:3:0:0:
273,29,137940,1,10,1:3:0:0:
129,298,138074,1,2,2:3:0:0:
132,316,138141,1,8,2:2:0:0:
137,335,138208,1,2,1:3:0:0:
451,381,138342,2,0,B|522:322|412:264|401:294|310:240|375:177,1,258.439986986512,10|2,2:3|2:3,0:0:0:0:
451,200,138677,1,2,2:2:0:0:
451,200,138744,6,0,P|403:284|362:372,1,193.829990239884,2|0,1:3|0:0,0:0:0:0:
286,369,139011,2,0,B|257:384|257:384|312:283,1,129.219993493256,10|10,1:3|2:3,0:0:0:0:
429,38,139279,1,2,1:3:0:0:
453,59,139346,1,2,2:2:0:0:
450,97,139413,1,2,2:3:0:0:
413,124,139480,1,2,2:2:0:0:
361,116,139547,1,10,1:3:0:0:
331,66,139614,1,2,2:2:0:0:
275,33,139681,1,2,2:3:0:0:
204,41,139748,1,2,2:2:0:0:
148,94,139815,5,2,1:3:0:0:
232,382,139949,1,2,2:3:0:0:
248,120,140083,5,10,1:3:0:0:
142,350,140217,1,2,2:3:0:0:
142,350,140284,1,8,2:2:0:0:
142,350,140351,1,2,1:3:0:0:
66,172,140485,2,0,P|123:200|183:225,1,129.219993493256,10|10,2:3|1:3,0:0:0:0:
427,110,140752,6,0,B|474:88|448:-2|359:3|315:104|364:175,1,258.439986986512,2|2,2:3|2:3,0:0:0:0:
407,367,141154,5,10,1:3:0:0:
503,166,141288,1,10,2:3:0:0:
309,326,141422,5,2,1:3:0:0:
248,37,141556,1,2,2:3:0:0:
106,354,141690,5,10,1:3:0:0:
168,158,141824,2,0,P|150:96|135:33,1,129.219993493256,2|2,2:3|1:3,0:0:0:0:
64,255,142092,1,2,2:3:0:0:
304,180,142226,1,10,1:3:0:0:
304,180,142293,1,2,2:2:0:0:
304,180,142360,2,0,P|308:141|272:117,1,64.609996746628,2|8,2:3|2:2,0:0:0:0:
39,30,142494,1,2,1:3:0:0:
368,80,142627,1,10,2:3:0:0:
175,305,142761,2,0,P|164:232|214:208,1,129.219993493256,10|2,1:3|2:3,0:0:0:0:
434,231,143029,5,2,1:3:0:0:
471,347,143163,1,2,2:3:0:0:
353,384,143297,1,10,1:3:0:0:
316,267,143431,1,10,2:3:0:0:
484,69,143565,5,2,1:3:0:0:
422,260,143699,1,2,2:3:0:0:
231,199,143833,1,10,1:3:0:0:
292,10,143967,6,0,B|340:55|340:55|255:77|255:77|247:84|247:84|120:114,1,294.840007198242,2|2,2:3|2:3,0:0:0:0:
418,16,144369,2,0,B|509:49|509:49|467:81,1,129.219993493256,10|2,1:3|2:3,0:0:0:0:
407,165,144569,1,10,2:2:0:0:
407,165,144636,2,0,B|349:133|349:133|427:111,1,129.219993493256,2|10,1:3|2:3,0:0:0:0:
497,146,144837,2,0,B|476:205|476:205|477:212|477:212|458:268,1,129.219993493256,2|0,2:2|0:0,0:0:0:0:
429,339,145038,1,2,2:3:0:0:
196,259,145172,6,0,B|257:247|257:247|263:243|263:243|321:230,1,129.219993493256,6|2,1:3|2:3,0:0:0:0:
341,306,145373,2,0,B|283:319|283:319|277:323|277:323|216:335,1,129.219993493256,2|0,2:2|0:0,0:0:0:0:
179,181,145574,2,0,B|202:85|202:85|205:108|225:130,1,129.219993493256,10|2,2:3|1:3,0:0:0:0:
315,137,145775,2,0,B|292:41|292:41|289:64|269:86,1,129.219993493256
221,9,145976,1,10,1:3:0:0:
183,18,146043,1,2,2:2:0:0:
145,28,146110,1,2,2:3:0:0:
107,38,146177,1,2,2:2:0:0:
69,48,146244,6,0,P|37:111|73:159,1,129.219993493256,2|2,1:3|2:3,0:0:0:0:
64,241,146444,2,0,P|131:223|151:172,1,129.219993493256,2|0,2:2|0:0,0:0:0:0:
232,140,146645,2,0,P|253:72|313:64,1,129.219993493256,2|2,2:3|1:3,0:0:0:0:
363,0,146845,2,0,P|397:60|375:110,1,129.219993493256
457,156,147047,1,10,1:3:0:0:
457,156,147114,1,2,2:2:0:0:
457,156,147181,2,0,P|439:182|425:232,1,64.609996746628,2|2,2:3|2:2,0:0:0:0:
379,379,147315,1,2,1:3:0:0:
207,196,147449,5,2,2:3:0:0:
294,358,147583,1,10,1:3:0:0:
362,134,147717,1,10,2:3:0:0:
134,335,147851,5,2,1:3:0:0:
278,28,147985,1,2,2:3:0:0:
410,373,148119,1,10,1:3:0:0:
113,180,148252,5,2,2:3:0:0:
113,180,148319,1,0,0:0:0:0:
113,180,148386,2,0,B|130:81|214:84|214:84|180:146|96:112,1,258.439986986512,2|10,1:3|1:3,0:0:0:0:
46,33,148788,1,2,2:3:0:0:
46,33,148855,1,10,2:2:0:0:
46,33,148922,2,0,P|82:9|58:52,1,129.219993493256,2|10,1:3|2:3,0:0:0:0:
21,167,149123,2,0,P|-17:147|31:147,1,129.219993493256,2|0,2:2|0:0,0:0:0:0:
126,121,149324,1,2,2:3:0:0:
20,269,149458,5,2,1:3:0:0:
229,133,149592,1,2,2:3:0:0:
0,293,149726,1,10,1:3:0:0:
355,354,149860,2,0,P|408:288|505:361,1,193.829990239884,10|0,2:3|0:0,0:0:0:0:
429,361,150127,1,2,2:3:0:0:
367,325,150194,1,2,2:2:0:0:
360,262,150261,1,10,1:3:0:0:
397,217,150328,1,2,2:2:0:0:
448,211,150395,1,2,2:3:0:0:
475,173,150462,1,2,2:2:0:0:
465,134,150529,5,2,1:3:0:0:
166,14,150663,1,2,2:3:0:0:
382,134,150797,1,10,1:3:0:0:
100,253,150931,1,2,2:3:0:0:
100,253,150998,1,8,2:2:0:0:
100,253,151065,1,2,1:3:0:0:
319,31,151199,1,10,2:3:0:0:
198,358,151333,1,10,1:3:0:0:
45,91,151467,1,2,2:3:0:0:
300,313,151601,5,14,1:2:0:0:
349,297,151668,1,0,0:0:0:0:
398,281,151735,1,0,0:0:0:0:
447,265,151802,1,8,2:2:0:0:
496,249,151869,2,0,L|475:327,1,64.609996746628,8|8,2:2|2:2,0:0:0:0:
245,249,152002,2,0,L|224:171,1,64.609996746628,10|8,2:2|2:2,0:0:0:0:
483,11,152136,2,0,B|465:71|465:71|461:76|461:76|445:134,1,129.219993493256,10|8,1:2|1:2,0:0:0:0:
463,352,152404,1,0,0:0:0:0:
323,106,152538,1,14,1:2:0:0:
190,351,152672,5,2,2:2:0:0:
190,351,152739,1,2,2:2:0:0:
190,351,152806,2,0,P|172:363|147:363,1,37.3100005693054,2|2,2:2|2:2,0:0:0:0:
35,286,152940,1,2,2:2:0:0:
35,286,153007,1,2,2:2:0:0:
35,286,153074,2,0,P|53:290|79:311,1,46.4100002832642,2|2,2:2|2:2,0:0:0:0:
266,294,153208,1,10,2:2:0:0:
288,265,153275,1,10,2:2:0:0:
297,223,153342,1,10,2:2:0:0:
282,177,153409,1,10,2:2:0:0:
237,145,153476,1,10,2:2:0:0:
177,158,153543,1,10,2:2:0:0:
113,137,153610,1,10,2:2:0:0:
81,71,153677,1,10,2:2:0:0:
104,0,153741,6,0,B|135:15|179:31|179:31|200:52|200:52|231:60|276:77,2,185.640001133057,14|10|2,1:2|1:2|1:2,0:0:0:0:
128,102,154429,1,10,2:2:0:0:
128,102,154566,2,0,P|111:150|102:199,1,92.8200005665283,10|2,1:2|2:2,0:0:0:0:
37,270,154841,5,10,1:2:0:0:
37,270,154979,1,10,2:2:0:0:
198,208,155117,2,0,P|214:259|226:361,1,139.230000849792,2|0,1:2|0:0,0:0:0:0:
221,375,155392,1,10,1:2:0:0:
300,344,155529,1,2,2:2:0:0:
329,202,155667,1,10,1:2:0:0:
283,144,155805,1,10,2:2:0:0:
283,144,155874,1,8,2:2:0:0:
283,144,155942,6,0,P|243:97|294:-13,1,185.640001133057,8|10,1:2|1:2,0:0:0:0:
373,50,156355,1,10,2:2:0:0:
373,50,156493,2,0,B|351:69|329:69|329:69|352:76|367:99,1,92.8200005665283,0|10,1:1|2:2,0:0:0:0:
426,160,156768,6,0,P|472:119|439:3,1,185.640001133057,10|10,1:2|1:2,0:0:0:0:
351,213,157181,1,10,2:2:0:0:
387,300,157318,2,0,B|452:257|452:257|500:254|511:308,1,139.230000849792,2|0,1:2|0:0,0:0:0:0:
507,308,157594,1,10,1:2:0:0:
442,366,157731,1,2,2:2:0:0:
291,363,157869,1,10,1:2:0:0:
226,305,158006,1,10,2:2:0:0:
226,305,158075,1,8,2:2:0:0:
226,305,158144,6,0,B|243:219|243:219|247:209|247:209|261:122,1,185.640001133057,8|10,1:2|1:2,0:0:0:0:
181,28,158557,2,0,B|153:29|135:13|135:13|95:53|119:120|188:113,1,185.640001133057,10|10,2:2|2:2,0:0:0:0:
392,168,158970,2,0,B|408:124|389:79|330:70|330:70|349:96|343:128,1,185.640001133057,10|10,1:2|1:2,0:0:0:0:
354,263,159383,5,10,2:2:0:0:
354,263,159520,2,0,P|377:216|465:257,1,139.230000849792,2|0,1:2|0:0,0:0:0:0:
430,310,159796,2,0,P|341:282|250:262,1,185.640001133057,10|10,1:2|1:2,0:0:0:0:
75,376,160208,5,10,2:2:0:0:
75,376,160277,1,8,2:2:0:0:
75,376,160346,2,0,B|126:390|176:357|181:315|181:315|159:295|162:262,1,185.640001133057,8|10,1:2|1:2,0:0:0:0:
157,123,160759,2,0,P|157:167|194:191,1,92.8200005665283,10|2,2:2|1:2,0:0:0:0:
324,114,161034,1,10,2:2:0:0:
324,114,161172,2,0,P|285:91|245:112,1,92.8200005665283,10|2,1:2|2:2,0:0:0:0:
248,263,161447,1,10,1:2:0:0:
248,263,161585,2,0,P|286:240|288:195,1,92.8200005665283,10|2,2:2|1:2,0:0:0:0:
89,222,161860,5,10,2:2:0:0:
151,90,161997,1,10,1:2:0:0:
232,138,162135,5,2,2:2:0:0:
170,6,162272,1,10,1:2:0:0:
20,145,162410,5,10,2:2:0:0:
20,145,162479,1,8,2:2:0:0:
20,145,162551,2,0,P|97:191|179:232,1,182,8|0,1:2|1:1,0:0:0:0:
273,72,162960,2,0,P|193:116|117:165,1,182
209,327,163369,2,0,P|210:236|205:145,1,182,0|0,1:1|1:1,0:0:0:0:
80,357,163778,5,0,0:0:0:0:
80,357,163914,2,0,B|67:340|45:339|45:339|78:305|123:329,1,111.930001707916,2|0,1:2|0:0,0:0:0:0:
182,300,164187,2,0,B|184:279|170:262|170:262|216:262|232:310,1,111.930001707916,2|0,1:2|0:0,0:0:0:0:
294,331,164460,2,0,B|310:318|311:296|311:296|345:329|321:374,1,111.930001707916,2|0,1:2|0:0,0:0:0:0:
407,385,164732,6,0,B|432:310|373:243|373:243|395:254|422:245,1,203.840002488281,2|0,1:2|1:1,0:0:0:0:
333,142,165141,2,0,B|328:109|300:93|300:93|357:73|406:115|400:188,1,203.840002488281,2|0,2:2|0:0,0:0:0:0:
252,276,165551,2,0,B|213:318|162:309|162:309|127:243|173:157|265:161,1,305.760003732422,2|0,1:2|0:0,0:0:0:0:
432,55,166096,6,0,P|414:108|399:162,1,111.930001707916,2|0,1:2|0:0,0:0:0:0:
312,19,166369,2,0,P|319:74|328:129,1,111.930001707916,2|0,1:2|0:0,0:0:0:0:
188,37,166641,2,0,P|217:84|249:130,1,111.930001707916,2|0,1:2|0:0,0:0:0:0:
160,174,166914,5,2,1:2:0:0:
82,127,167051,1,0,1:1:0:0:
93,38,167187,1,2,1:2:0:0:
158,205,167323,5,0,1:1:0:0:
156,296,167460,1,2,1:2:0:0:
73,331,167596,1,0,1:1:0:0:
186,192,167732,5,2,1:2:0:0:
265,147,167869,1,0,1:1:0:0:
337,201,168005,1,2,1:2:0:0:
317,288,168141,1,0,1:1:0:0:
212,373,168278,6,0,B|191:356|189:332|189:332|208:318|210:290,1,92.8200005665283,2|0,1:2|1:1,0:0:0:0:
436,171,168551,2,0,B|431:197|411:211|411:211|390:201|365:213,1,92.8200005665283,2|0,1:2|1:1,0:0:0:0:
150,79,168823,2,0,B|175:69|197:79|197:79|199:103|221:119,1,92.8200005665283,2|0,1:2|1:1,0:0:0:0:
279,218,169096,5,2,1:2:0:0:
266,223,169164,1,0,1:1:0:0:
253,218,169232,1,0,1:1:0:0:
247,205,169301,1,0,1:1:0:0:
253,192,169369,1,2,1:2:0:0:
266,186,169437,1,0,1:1:0:0:
279,192,169505,1,0,1:1:0:0:
284,205,169573,1,0,1:1:0:0:
279,218,169641,1,2,1:2:0:0:
266,223,169709,1,0,1:1:0:0:
253,218,169777,1,0,1:1:0:0:
247,205,169846,1,0,1:1:0:0:
253,192,169914,1,2,1:2:0:0:
266,186,169982,1,0,1:1:0:0:
279,192,170050,1,0,1:1:0:0:
284,205,170118,1,0,0:0:0:0:
266,205,170187,5,0,1:1:0:0:
253,378,170323,1,2,2:2:0:0:
235,384,170391,1,2,2:2:0:0:
211,380,170460,1,2,1:2:0:0:
192,359,170528,1,2,2:2:0:0:
187,326,170596,1,2,2:2:0:0:
206,294,170664,1,2,2:2:0:0:
247,286,170732,1,2,2:2:0:0:
286,261,170801,1,2,2:2:0:0:
301,212,170869,1,10,2:3:0:0:
285,158,170937,1,10,2:3:0:0:
230,131,171005,1,10,2:3:0:0:
170,157,171073,1,2,2:2:0:0:
102,142,171141,1,2,2:2:0:0:
60,79,171210,1,2,2:2:0:0:
78,0,171278,6,0,B|128:-36|243:-2|253:57|253:57|225:47|197:61,1,258.439986986512,6|10,1:2|1:2,0:0:0:0:
73,279,171679,2,0,B|55:250|38:194|38:194|35:219|25:235,1,129.219993493256,2|0,2:3|1:1,0:0:0:0:
362,108,171947,2,0,B|344:137|327:193|327:193|324:168|314:152,1,129.219993493256,2|10,2:3|1:2,0:0:0:0:
164,380,172215,6,0,B|181:299|236:-5,1,387.659980479768,2|10,2:3|1:2,0:0:0:0:
100,255,172751,1,2,2:3:0:0:
100,255,172818,1,10,2:2:0:0:
100,255,172885,1,2,1:2:0:0:
310,37,173019,1,10,2:3:0:0:
381,319,173153,1,10,1:2:0:0:
182,134,173286,1,2,2:3:0:0:
249,267,173420,6,0,B|327:231|327:231|334:231|334:231|444:185,1,193.829990239884,2|0,1:2|0:0,0:0:0:0:
457,176,173688,2,0,P|446:204|436:248,1,64.609996746628,10|0,1:2|0:0,0:0:0:0:
186,371,173822,2,0,P|166:309|138:251,1,129.219993493256,2|0,2:3|1:1,0:0:0:0:
369,5,174090,2,0,P|343:64|320:124,2,129.219993493256,2|10|2,2:3|1:2|2:3,0:0:0:0:
236,26,174425,1,2,2:2:0:0:
236,26,174492,6,0,B|265:51|270:83|270:83|332:48|399:53|399:53|411:87|437:102,1,258.439986986512,2|10,1:2|1:2,0:0:0:0:
512,290,174894,1,2,2:3:0:0:
512,290,174961,1,10,2:2:0:0:
512,290,175028,2,0,P|476:240|415:268,1,129.219993493256,2|10,1:2|2:3,0:0:0:0:
362,358,175228,2,0,B|390:367|429:343|429:343|393:352|358:319,1,129.219993493256,2|0,2:2|0:0,0:0:0:0:
291,318,175429,1,2,2:3:0:0:
158,376,175563,6,0,P|213:303|170:222,1,193.829990239884,2|0,1:2|0:0,0:0:0:0:
143,236,175831,2,0,P|124:273|139:310,1,64.609996746628,10|0,1:2|0:0,0:0:0:0:
239,160,175965,2,0,P|179:136|118:151,1,129.219993493256,2|0,2:3|1:1,0:0:0:0:
269,0,176233,2,0,B|253:65|297:118|344:115|344:115|353:90|385:76,1,193.829990239884,2|0,2:3|0:0,0:0:0:0:
414,149,176501,6,0,B|487:122|435:23|321:44|322:154|343:213,1,258.439986986512,2|2,2:3|2:3,0:0:0:0:
455,278,176903,2,0,B|487:282|511:249|511:249|490:287|510:322,1,129.219993493256,10|2,1:2|2:3,0:0:0:0:
442,356,177103,1,8,2:2:0:0:
442,356,177170,1,0,1:1:0:0:
510,165,177304,1,10,2:3:0:0:
350,297,177438,1,10,1:2:0:0:
271,36,177572,1,2,2:3:0:0:
377,164,177706,6,0,B|277:224|277:224|268:246|268:246|174:304|174:304|192:270,1,258.439986986512,2|10,1:3|1:2,0:0:0:0:
58,107,178108,2,0,B|114:138|114:138|120:146|120:146|169:169,1,129.219993493256,2|0,2:3|1:1,0:0:0:0:
45,232,178376,1,2,2:3:0:0:
258,125,178510,1,10,1:2:0:0:
122,384,178644,6,0,B|69:326|132:231|203:267|203:267|214:313|253:317,1,258.439986986512,2|2,2:3|2:3,0:0:0:0:
309,337,178978,1,2,2:2:0:0:
309,337,179045,2,0,P|325:271|276:243,1,129.219993493256,10|2,1:2|2:3,0:0:0:0:
246,159,179246,1,10,2:2:0:0:
246,159,179313,2,0,P|295:205|343:177,1,129.219993493256,2|10,1:2|2:3,0:0:0:0:
431,193,179514,1,2,2:2:0:0:
431,193,179581,2,0,P|365:212|366:268,1,129.219993493256,10|2,1:2|2:3,0:0:0:0:
499,368,179849,6,0,P|469:223|448:77,2,294.840007198242,6|10|0,1:2|1:2|1:1,0:0:0:0:
363,263,180519,1,2,2:3:0:0:
470,368,180653,2,0,P|506:359|478:337,1,70.9799995667725,10|0,1:2|0:0,0:0:0:0:
463,260,180920,6,0,B|380:297|380:297|372:306|372:306|273:349,1,193.829990239884,2|0,1:2|0:0,0:0:0:0:
262,357,181188,1,10,1:2:0:0:
92,204,181322,1,2,2:3:0:0:
95,219,181389,1,8,2:2:0:0:
98,234,181456,1,0,1:1:0:0:
288,259,181590,2,0,P|308:205|245:160,1,129.219993493256,10|10,2:3|1:2,0:0:0:0:
91,121,181858,2,0,P|63:108|51:79,1,64.609996746628,2|0,2:3|0:0,0:0:0:0:
250,0,181992,6,0,B|267:28|306:34|306:34|234:29|167:98|169:162,1,258.439986986512,2|10,1:2|1:2,0:0:0:0:
11,284,182394,1,2,2:3:0:0:
11,284,182461,1,2,2:2:0:0:
11,284,182528,2,0,P|69:310|113:357,1,129.219993493256,2|2,1:2|2:3,0:0:0:0:
16,375,182728,2,0,P|59:327|118:301,1,129.219993493256,2|0,2:2|0:0,0:0:0:0:
189,331,182929,1,2,2:3:0:0:
409,346,183063,2,0,B|447:356|452:387|452:387|485:315|425:265|373:257|320:294,1,258.439986986512,2|10,1:2|1:2,0:0:0:0:
215,190,183465,2,0,P|234:215|246:245,1,64.609996746628,2|8,2:3|2:2,0:0:0:0:
476,225,183599,5,2,1:2:0:0:
495,177,183688,5,2,2:2:0:0:
468,122,183778,5,2,2:2:0:0:
400,110,183867,5,10,1:2:0:0:
334,151,183956,5,2,2:2:0:0:
252,123,184045,5,2,2:2:0:0:
229,30,184135,6,0,B|260:33|289:0|289:0|335:59|343:143|229:164,1,258.439986986512,2|10,1:2|1:2,0:0:0:0:
83,248,184536,1,2,2:3:0:0:
83,248,184603,1,2,2:2:0:0:
83,248,184670,2,0,P|126:128|149:-1,1,258.439986986512,2|10,1:2|1:2,0:0:0:0:
15,79,185072,5,2,2:3:0:0:
15,79,185139,1,2,2:2:0:0:
15,79,185206,2,0,P|20:109|48:123,1,64.609996746628,2|0,1:2|0:0,0:0:0:0:
30,205,185340,2,0,P|55:222|85:213,1,64.609996746628,2|0,2:3|0:0,0:0:0:0:
129,283,185474,2,0,P|159:277|173:249,1,64.609996746628,10|0,1:2|0:0,0:0:0:0:
262,212,185608,1,2,2:3:0:0:
256,186,185675,1,8,2:2:0:0:
251,160,185742,1,0,1:1:0:0:
77,11,185876,1,10,2:3:0:0:
277,49,186010,2,0,B|205:85|205:85|191:105|191:105|106:146,1,193.829990239884,10|0,1:2|0:0,0:0:0:0:
29,157,186278,6,0,P|89:176|136:220,1,129.219993493256,6|8,1:2|2:2,0:0:0:0:
147,245,186478,1,8,2:2:0:0:
143,264,186545,1,10,2:2:0:0:
140,283,186612,1,8,2:2:0:0:
137,302,186679,1,8,2:2:0:0:
134,321,186746,1,8,2:2:0:0:
131,340,186813,6,0,P|191:320|238:276,1,129.219993493256,4|8,1:2|2:2,0:0:0:0:
251,258,187014,1,8,2:2:0:0:
251,258,187081,1,10,2:2:0:0:
39,261,187215,1,12,1:2:0:0:
308,370,187349,6,0,P|334:353|342:322,3,64.609996746628,2|2|10|2,1:2|2:2|2:2|2:2,0:0:0:0:
417,280,187617,1,10,1:2:0:0:
421,261,187684,1,2,2:2:0:0:
417,235,187751,1,10,2:2:0:0:
397,209,187818,1,10,2:2:0:0:
359,198,187885,1,10,1:2:0:0:
315,209,187952,1,10,2:2:0:0:
282,249,188019,1,10,2:2:0:0:
228,270,188086,1,10,2:2:0:0:
164,258,188153,1,10,1:2:0:0:
122,201,188219,1,10,2:2:0:0:
125,123,188286,1,10,2:2:0:0:
181,65,188353,1,10,2:2:0:0:
273,62,188420,6,0,P|360:92|451:111,1,185.640001133057,6|8,1:2|2:2,0:0:0:0:
493,50,188788,2,0,P|517:69|527:99,1,61.8800003776855,8|8,2:2|2:2,0:0:0:0:
455,193,188972,2,0,P|364:212|276:242,1,185.640001133057,8|8,2:2|2:2,0:0:0:0:
235,179,189341,2,0,P|211:197|201:227,1,61.8800003776855,8|8,2:2|2:2,0:0:0:0:
326,378,189525,6,0,P|379:341|342:290,1,123.760000755371,8|0,2:2|0:0,0:0:0:0:
219,302,189802,1,10,2:2:0:0:
171,315,189894,1,8,2:2:0:0:
123,328,189986,1,8,2:2:0:0:
75,342,190078,2,0,P|81:370|112:387,2,61.8800003776855,10|8|8,2:2|2:2|2:2,0:0:0:0:
13,283,190355,1,10,2:2:0:0:
53,254,190447,1,8,2:2:0:0:
63,205,190539,1,8,2:2:0:0:
34,164,190631,6,0,B|15:198|-12:205|-12:205|31:245|82:234|124:196,1,185.640001133057,10|8,2:2|2:2,0:0:0:0:
184,210,191000,2,0,P|173:180|168:150,1,61.8800003776855,8|8,2:2|2:2,0:0:0:0:
314,25,191184,2,0,B|333:59|360:66|360:66|317:106|266:95|224:57,1,185.640001133057,10|8,2:2|2:2,0:0:0:0:
163,71,191553,2,0,P|173:41|178:11,1,61.8800003776855,8|8,2:2|2:2,0:0:0:0:
468,2,191737,6,0,P|438:89|417:180,1,185.640001133057,10|8,2:2|2:2,0:0:0:0:
466,242,192106,2,0,P|488:222|492:180,1,61.8800003776855,8|8,2:2|2:2,0:0:0:0:
333,167,192290,1,10,2:2:0:0:
280,200,192383,1,8,2:2:0:0:
267,254,192475,1,8,2:2:0:0:
292,296,192567,1,8,2:2:0:0:
335,296,192659,1,8,2:2:0:0:
352,263,192751,1,8,2:2:0:0:
335,236,192843,6,0,B|297:250|258:264|258:264|246:277|246:277|200:290|164:303,1,185.640001133057,10|8,2:2|2:2,0:0:0:0:
83,292,193212,2,0,P|83:322|96:350,1,61.8800003776855,8|8,2:2|2:2,0:0:0:0:
198,205,193396,6,0,B|207:165|215:124|215:124|226:111|226:111|232:63|241:26,1,185.640001133057,8|8,2:2|2:2,0:0:0:0:
161,5,193765,2,0,P|156:35|149:65,1,61.8800003776855,8|8,2:2|2:2,0:0:0:0:
285,168,193949,2,0,P|357:127|313:57,1,185.640001133057,8|10,2:2|2:2,0:0:0:0:
241,26,194318,2,0,P|236:56|229:86,1,61.8800003776855,8|8,2:2|2:2,0:0:0:0:
217,236,194502,5,10,2:2:0:0:
159,283,194595,1,8,2:2:0:0:
84,281,194687,1,8,2:2:0:0:
33,226,194779,5,10,2:2:0:0:
55,196,194871,1,8,2:2:0:0:
90,184,194963,1,8,2:2:0:0:
126,187,195055,6,0,B|179:199|181:261|181:261|139:280|136:334,1,185.640001133057,10|8,2:2|2:2,0:0:0:0:
189,384,195424,2,0,P|214:367|217:337,1,61.8800003776855,8|8,2:2|2:2,0:0:0:0:
71,251,195608,2,0,P|36:185|125:101,1,185.640001133057,8|8,2:2|2:2,0:0:0:0:
180,121,195977,2,0,P|208:135|250:150,1,61.8800003776855,8|8,2:2|2:2,0:0:0:0:
388,143,196161,6,0,B|394:97|336:49|286:74|286:74|306:85|313:103,1,185.640001133057,10|8,2:2|2:2,0:0:0:0:
310,186,196530,2,0,P|298:215|290:251,1,61.8800003776855,8|8,2:2|2:2,0:0:0:0:
413,377,196714,1,10,2:2:0:0:
443,370,196807,1,8,2:2:0:0:
465,340,196899,1,8,2:2:0:0:
457,297,196991,1,8,2:2:0:0:
416,268,197083,1,8,2:2:0:0:
361,276,197175,1,8,2:2:0:0:
317,319,197267,6,0,B|275:353|222:320|247:304|182:275|147:316,1,185.640001133057,10|8,2:2|2:2,0:0:0:0:
67,329,197636,1,8,2:2:0:0:
74,353,197728,1,8,2:2:0:0:
84,380,197820,2,0,B|110:303|110:303|117:296|117:296|152:184,1,185.640001133057,10|8,2:2|2:2,0:0:0:0:
197,145,198189,2,0,P|218:166|222:196,1,61.8800003776855,8|8,2:2|2:2,0:0:0:0:
65,185,198373,6,0,P|45:118|16:50,1,123.760000755371,8|0,2:2|0:0,0:0:0:0:
84,14,198650,1,10,2:2:0:0:
135,35,198742,1,8,2:2:0:0:
186,56,198834,1,8,2:2:0:0:
237,77,198926,2,0,P|264:59|268:18,2,61.8800003776855,10|8|8,2:2|2:2|2:2,0:0:0:0:
197,145,199203,1,10,2:2:0:0:
155,181,199295,1,8,2:2:0:0:
146,235,199387,1,8,2:2:0:0:
176,281,199479,6,0,B|249:314|249:314|265:335|265:335|351:373,1,185.640001133057,10|8,2:2|2:2,0:0:0:0:
442,383,199848,2,0,P|426:356|419:326,1,61.8800003776855,8|8,2:2|2:2,0:0:0:0:
464,169,200032,2,0,B|483:160|505:131|505:131|488:192|488:192|490:203|490:203|472:264,1,185.640001133057,8|10,2:2|2:2,0:0:0:0:
322,268,200401,5,8,2:2:0:0:
322,268,200493,1,8,2:2:0:0:
322,268,200585,2,0,P|297:236|351:170,1,123.760000755371,10|0,2:2|0:0,0:0:0:0:
433,55,200862,1,8,2:2:0:0:
427,81,200954,1,8,2:2:0:0:
402,97,201046,1,8,2:2:0:0:
377,93,201138,1,8,2:2:0:0:
345,55,201231,1,8,2:2:0:0:
299,36,201323,1,8,2:2:0:0:
243,48,201415,5,10,2:2:0:0:
247,65,201507,1,8,2:2:0:0:
251,82,201599,1,8,2:2:0:0:
255,99,201691,6,0,B|233:105|218:121|218:121|68:79,1,185.640001133057,10|8,2:2|2:2,0:0:0:0:
45,14,202060,2,0,B|13:32|13:32|7:56,1,61.8800003776855,8|8,2:2|2:2,0:0:0:0:
90,174,202244,2,0,B|227:212|227:212|241:195|264:190,1,185.640001133057,8|8,2:2|2:2,0:0:0:0:
299,119,202613,2,0,B|331:137|331:137|337:161,1,61.8800003776855,8|8,2:2|2:2,0:0:0:0:
308,345,202797,6,0,B|276:358|266:382|266:382|237:339|240:288|310:264,1,185.640001133057,8|8,2:2|2:2,0:0:0:0:
394,231,203166,2,0,P|377:257|369:287,1,61.8800003776855,8|8,2:2|2:2,0:0:0:0:
165,356,203350,1,8,2:2:0:0:
158,312,203443,1,8,2:2:0:0:
152,269,203535,1,8,2:2:0:0:
146,226,203627,1,8,2:2:0:0:
140,183,203719,1,8,2:2:0:0:
133,140,203811,1,8,2:2:0:0:
127,97,203903,6,0,B|96:132|96:132|154:151|154:151|162:156|162:156|240:173,1,185.640001133057,10|8,2:2|2:2,0:0:0:0:
315,167,204272,2,0,P|303:138|293:100,1,61.8800003776855,8|8,2:2|2:2,0:0:0:0:
42,209,204456,2,0,P|130:237|219:263,1,185.640001133057,10|8,2:2|2:2,0:0:0:0:
287,318,204825,2,0,P|298:289|306:259,1,61.8800003776855,8|8,2:2|2:2,0:0:0:0:
363,30,205009,5,10,2:2:0:0:
377,24,205078,1,2,2:2:0:0:
397,26,205148,1,2,2:2:0:0:
416,42,205217,1,2,2:2:0:0:
426,70,205286,1,10,2:2:0:0:
417,104,205355,1,2,2:2:0:0:
385,131,205424,1,2,2:2:0:0:
339,133,205493,1,2,2:2:0:0:
294,108,205562,1,10,2:2:0:0:
271,56,205631,1,2,2:2:0:0:
221,18,205701,1,2,2:2:0:0:
154,15,205770,1,2,2:2:0:0:
91,51,205839,1,10,2:2:0:0:
63,121,205908,1,2,2:2:0:0:
86,198,205977,1,2,2:2:0:0:
159,241,206046,1,2,2:2:0:0:
249,230,206115,6,0,P|272:155|294:104,1,129.219993493256,14|0,1:2|1:1,0:0:0:0:
378,320,206388,1,0,1:1:0:0:
120,77,206525,5,12,1:2:0:0:
255,384,206662,1,0,1:1:0:0:
324,117,206799,1,0,1:1:0:0:
97,342,206936,5,12,1:2:0:0:
240,29,207073,1,0,1:1:0:0:
360,297,207210,1,0,1:1:0:0:
69,141,207347,1,12,1:2:0:0:
430,245,207484,6,0,P|468:199|409:156,1,129.219993493256,2|0,1:2|1:1,0:0:0:0:
119,314,207758,2,0,P|140:370|207:340,1,129.219993493256,14|0,1:2|1:1,0:0:0:0:
214,10,208032,2,0,P|155:0|147:73,1,129.219993493256,14|0,1:2|1:1,0:0:0:0:
349,368,208306,6,0,P|371:308|409:242,1,129.219993493256,14|0,1:2|1:1,0:0:0:0:
250,89,208577,1,0,1:1:0:0:
82,364,208713,1,12,1:2:0:0:
33,46,208848,6,0,P|86:83|154:93,1,129.219993493256,2|0,1:2|1:1,0:0:0:0:
251,340,209120,1,12,1:2:0:0:
378,52,209256,1,0,1:1:0:0:
120,247,209391,6,0,P|62:217|-1:208,1,129.219993493256,2|12,1:2|1:2,0:0:0:0:
338,148,209663,1,0,1:1:0:0:
164,384,209799,1,0,1:1:0:0:
150,116,209934,6,0,P|183:61|203:-1,1,129.219993493256,14|0,1:2|1:1,0:0:0:0:
375,290,210206,1,12,1:2:0:0:
283,55,210342,1,0,1:1:0:0:
154,361,210477,6,0,P|215:340|274:314,1,129.219993493256,14|0,1:2|1:1,0:0:0:0:
475,195,210747,1,0,1:1:0:0:
64,191,210882,6,0,P|125:211|184:237,1,129.219993493256,14|0,1:2|1:1,0:0:0:0:
420,376,211152,1,0,1:1:0:0:
61,295,211287,5,12,1:2:0:0:
414,121,211422,1,0,1:1:0:0:
119,94,211558,1,0,1:1:0:0:
471,243,211693,1,12,1:2:0:0:
34,36,211828,6,0,B|69:25|99:13|99:13|115:46|131:65,1,129.219993493256,2|0,1:2|1:1,0:0:0:0:
180,384,212098,2,0,B|153:360|128:339|128:339|148:309|157:286,1,129.219993493256,14|0,1:2|1:1,0:0:0:0:
417,84,212368,2,0,B|409:119|404:152|404:152|368:149|344:153,1,129.219993493256,14|0,1:2|1:1,0:0:0:0:
55,307,212639,5,14,1:2:0:0:
209,102,212773,1,0,1:1:0:0:
323,330,212908,1,0,1:1:0:0:
45,199,213042,5,12,1:2:0:0:
306,0,213177,1,0,1:1:0:0:
390,280,213311,1,0,1:1:0:0:
83,120,213446,5,12,1:2:0:0:
443,3,213580,1,0,1:1:0:0:
392,357,213715,5,8,1:2:0:0:
375,371,213782,1,8,2:2:0:0:
349,376,213849,1,12,1:2:0:0:
318,367,213917,1,8,2:2:0:0:
298,336,213984,1,10,1:2:0:0:
305,295,214051,1,8,2:2:0:0:
343,269,214118,1,8,1:2:0:0:
361,221,214186,1,8,2:2:0:0:
347,168,214253,1,14,1:2:0:0:
298,135,214320,1,8,2:2:0:0:
236,143,214387,1,8,1:2:0:0:
192,196,214455,1,8,2:2:0:0:
198,268,214522,1,14,1:2:0:0:
154,330,214589,1,8,2:2:0:0:
74,341,214656,1,8,1:2:0:0:
6,287,214724,1,8,2:2:0:0:
2,196,214791,6,0,L|460:281,1,465.92,14|0,1:2|0:0,0:0:0:0:
473,261,217469,6,0,P|493:257|471:297,1,101.92,2|0,2:2|0:0,0:0:0:0:
397,284,218005,2,0,P|387:261|399:239,3,50.9600006220703,10|8|8|8,2:2|2:2|2:2|2:2,0:0:0:0:
330,194,218273,2,0,P|339:170|363:163,3,50.9600006220703,10|8|8|8,2:2|2:2|2:2|2:2,0:0:0:0:
461,124,218541,2,0,P|451:147|444:171,1,50.9600006220703,10|8,2:2|2:2,0:0:0:0:
319,319,218674,2,0,P|309:295|302:271,1,50.9600006220703,10|10,2:2|2:2,0:0:0:0:
250,91,218808,1,10,2:2:0:0:
253,70,218875,1,8,2:2:0:0:
256,49,218942,1,8,2:2:0:0:
259,28,219009,1,8,2:2:0:0:
262,7,219076,6,0,B|312:49|312:49|284:106,1,129.219993493256,6|8,1:2|2:2,0:0:0:0:
212,239,219344,2,0,B|162:281|162:281|191:338,1,129.219993493256,0|8,1:1|2:2,0:0:0:0:
206,362,219545,1,8,2:2:0:0:
206,362,219612,1,0,1:1:0:0:
302,196,219746,1,8,2:2:0:0:
47,240,219880,6,0,P|48:182|106:185,1,129.219993493256,0|8,1:1|2:2,0:0:0:0:
117,206,220081,1,8,2:2:0:0:
117,206,220148,1,0,1:1:0:0:
292,100,220282,1,8,2:2:0:0:
361,338,220416,2,0,P|361:280|303:283,1,129.219993493256,0|8,1:1|2:2,0:0:0:0:
291,304,220617,1,8,2:2:0:0:
291,304,220684,1,0,1:1:0:0:
202,113,220817,1,8,2:2:0:0:
380,204,220951,1,0,1:1:0:0:
298,0,221085,2,0,P|284:28|274:59,1,64.609996746628,8|8,2:2|2:2,0:0:0:0:
117,260,221219,5,2,1:2:0:0:
117,260,221286,1,0,0:0:0:0:
117,260,221353,2,0,P|102:232|111:202,1,64.609996746628,8|0,2:2|0:0,0:0:0:0:
58,118,221487,1,0,1:1:0:0:
58,118,221554,1,0,0:0:0:0:
58,118,221621,2,0,P|86:103|116:112,1,64.609996746628,8|0,2:2|0:0,0:0:0:0:
230,142,221755,2,0,P|245:178|253:210,1,64.609996746628,0|8,1:1|2:2,0:0:0:0:
288,345,221889,2,0,P|303:308|311:277,1,64.609996746628,8|8,2:2|2:2,0:0:0:0:
292,74,222023,2,0,P|321:101|342:125,1,64.609996746628,8|8,1:2|2:2,0:0:0:0:
405,379,222157,2,0,P|403:339|398:307,1,64.609996746628,8|8,2:2|2:2,0:0:0:0:
491,199,222291,5,14,2:2:0:0:
488,194,222357,1,10,2:2:0:0:
478,187,222424,1,10,2:2:0:0:
462,180,222491,1,10,2:2:0:0:
438,178,222558,1,10,2:2:0:0:
409,184,222625,1,10,2:2:0:0:
380,204,222692,1,10,2:2:0:0:
368,244,222759,1,10,2:2:0:0:
330,273,222826,1,10,2:2:0:0:
276,279,222893,1,10,2:2:0:0:
223,250,222960,1,10,2:2:0:0:
203,186,223027,1,10,2:2:0:0:
239,121,223094,1,10,2:2:0:0:
229,49,223161,1,10,2:2:0:0:
166,4,223228,1,10,2:2:0:0:
81,11,223295,1,10,2:2:0:0:
26,81,223362,6,0,P|37:97|45:114,1,37.3100005693054,6|0,2:2|0:0,0:0:0:0:
55,277,223496,2,0,P|102:232|47:198,1,149.240002277222,2|0,2:2|0:0,0:0:0:0:
17,188,224032,2,0,P|40:230|46:268,2,74.6200011386109,2|2|2,2:2|2:2|2:2,0:0:0:0:
176,245,224433,6,0,P|136:269|115:302,1,74.6200011386109,2|2,2:2|2:2,0:0:0:0:
251,376,224701,2,0,P|211:352|190:319,1,74.6200011386109,2|2,2:2|2:2,0:0:0:0:
276,293,224969,1,2,2:2:0:0:
298,301,225103,1,2,2:2:0:0:
371,360,225237,1,2,2:2:0:0:
393,352,225371,1,2,2:2:0:0:
512,242,225505,5,2,2:2:0:0:
507,334,225639,2,0,P|446:292|398:235,1,149.240002277222,2|2,2:2|2:2,0:0:0:0:
397,205,226174,2,0,P|394:241|376:274,2,74.6200011386109,2|2|2,2:2|2:2|2:2,0:0:0:0:
291,150,226576,6,0,P|288:186|313:212,1,74.6200011386109,2|2,2:2|2:2,0:0:0:0:
445,142,226844,2,0,P|416:121|380:129,1,74.6200011386109,2|2,2:2|2:2,0:0:0:0:
319,69,227112,1,2,2:2:0:0:
319,69,227179,1,2,2:2:0:0:
319,69,227246,1,2,2:2:0:0:
234,86,227380,1,2,2:2:0:0:
291,150,227514,1,2,2:2:0:0:
144,145,227648,6,0,B|115:122|115:122|154:107,1,74.6200011386109,2|0,2:2|0:0,0:0:0:0:
297,268,227916,2,0,B|326:245|326:245|287:230,1,74.6200011386109,2|0,2:2|0:0,0:0:0:0:
148,342,228183,1,2,2:2:0:0:
148,342,228317,2,0,P|156:305|163:268,1,74.6200011386109,2|0,2:2|0:0,0:0:0:0:
60,193,228585,2,0,P|68:229|75:266,1,74.6200011386109,2|2,2:2|2:2,0:0:0:0:
240,334,228853,5,2,2:2:0:0:
263,304,228987,1,2,2:2:0:0:
254,271,229121,1,2,2:2:0:0:
37,349,229255,2,0,P|89:317|137:299,1,111.930001707916,2|0,2:2|0:0,0:0:0:0:
166,293,229523,2,0,P|125:275|94:248,1,74.6200011386109,2|0,2:2|0:0,0:0:0:0:
262,129,229791,6,0,P|291:126|270:153,1,74.6200011386109,2|0,2:2|0:0,0:0:0:0:
446,260,230058,2,0,P|462:283|428:278,1,74.6200011386109,2|0,2:2|0:0,0:0:0:0:
244,371,230326,1,2,2:2:0:0:
244,371,230460,2,0,P|259:330|268:294,1,74.6200011386109,2|2,2:2|2:2,0:0:0:0:
389,166,230728,5,2,2:2:0:0:
389,166,230862,2,0,P|385:119|359:8,1,149.240002277222,2|2,2:2|2:2,0:0:0:0:
174,142,231264,2,0,P|223:163|262:121,1,111.930001707916,2|0,2:2|0:0,0:0:0:0:
265,103,231532,1,2,2:2:0:0:
176,41,231666,1,2,2:2:0:0:
81,98,231799,1,2,2:2:0:0:
81,98,231933,6,0,B|84:125|89:156|89:156|84:170|84:170|89:198|94:231,1,135.893334992188,6|0,1:2|0:0,0:0:0:0:
81,349,232201,1,2,1:3:0:0:
81,349,232291,2,0,P|94:318|125:308,1,67.9466674960938,2|2,2:2|2:2,0:0:0:0:
199,272,232469,6,0,B|221:330|287:330|287:330|297:302|331:277|368:287,1,203.840002488281,2|2,1:3|1:3,0:0:0:0:
361,364,232871,1,2,2:3:0:0:
512,237,233005,5,2,1:3:0:0:
457,330,233139,2,0,P|441:281|421:234,1,101.920001244141,2|2,2:3|1:3,0:0:0:0:
512,90,233407,1,2,2:3:0:0:
512,90,233474,1,2,2:3:0:0:
512,90,233541,2,0,P|519:138|457:147,1,101.920001244141,2|2,1:3|2:3,0:0:0:0:
443,146,233741,2,0,P|394:115|334:133,1,101.920001244141,2|0,2:3|0:0,0:0:0:0:
329,137,233942,1,2,2:3:0:0:
227,44,234076,6,0,B|241:114|241:114|240:123|240:123|254:194,1,152.880001866211,2|0,1:3|0:0,0:0:0:0:
177,211,234344,2,0,B|163:141|163:141|164:132|164:132|149:60,1,152.880001866211,2|0,1:3|0:0,0:0:0:0:
88,21,234612,2,0,P|58:29|73:56,1,67.9466674960938,2|0,1:3|0:0,0:0:0:0:
17,118,234791,2,0,P|2:145|31:153,1,67.9466674960938,2|2,2:2|1:3,0:0:0:0:
35,236,234969,2,0,P|43:265|69:251,1,67.9466674960938,2|0,2:2|0:0,0:0:0:0:
149,286,235148,6,0,B|171:295|183:318|183:318|231:274|293:286|293:286|269:305|270:341,1,203.840002488281,2|2,1:3|1:3,0:0:0:0:
385,384,235505,1,2,2:2:0:0:
385,384,235594,1,2,2:2:0:0:
385,384,235683,2,0,P|379:350|333:344,1,67.9466674960938,2|0,1:3|0:0,0:0:0:0:
362,244,235862,2,0,P|394:255|422:218,1,67.9466674960938,2|2,2:2|1:3,0:0:0:0:
494,294,236041,2,0,P|467:316|485:359,1,67.9466674960938,2|0,2:2|0:0,0:0:0:0:
270,188,236219,6,0,P|368:160|467:138,1,203.840002488281,6|2,1:3|2:3,0:0:0:0:
460,21,236576,1,2,2:2:0:0:
454,43,236666,1,2,2:2:0:0:
448,61,236755,6,0,P|348:83|250:110,1,203.840002488281,10|2,2:3|2:3,0:0:0:0:
165,15,237112,5,2,2:2:0:0:
171,32,237201,1,2,2:2:0:0:
175,50,237291,2,0,P|171:91|161:130,1,67.9466674960938,2|0,1:3|0:0,0:0:0:0:
41,196,237469,2,0,P|79:178|117:168,1,67.9466674960938,2|2,2:2|2:3,0:0:0:0:
235,240,237648,2,0,P|200:215|172:187,1,67.9466674960938,2|0,2:2|0:0,0:0:0:0:
19,44,237826,6,0,B|-16:0|33:-43|133:-39|79:120,1,222.039990852234,10|10,2:3|2:3,0:0:0:0:
33,271,238228,1,10,2:3:0:0:
27,287,238295,1,8,2:2:0:0:
21,303,238362,5,2,1:3:0:0:
46,280,238429,1,2,2:2:0:0:
83,268,238496,1,10,2:3:0:0:
126,278,238563,1,10,2:2:0:0:
149,322,238630,1,2,1:3:0:0:
197,348,238697,1,2,2:2:0:0:
257,340,238764,1,10,2:3:0:0:
301,290,238831,1,10,2:2:0:0:
300,217,238898,1,2,1:3:0:0:
249,157,238965,1,2,2:2:0:0:
165,158,239032,6,0,P|175:185|182:215,1,55.5099977130586,10|10,2:3|2:2,0:0:0:0:
381,266,239166,2,0,P|399:244|419:225,1,55.5099977130586,2|2,1:3|2:2,0:0:0:0:
368,24,239299,2,0,P|340:19|314:11,1,55.5099977130586,10|10,2:3|2:2,0:0:0:0:
304,158,239433,5,2,2:3:0:0:
29,313,248673,5,2,2:2:0:0:
33,328,248997,1,2,2:2:0:0:
37,343,249321,1,2,2:2:0:0:
41,358,249645,6,0,B|57:311|134:307|172:346|142:359|181:399|245:397|269:360,1,262.080006398438,2|0,2:2|0:0,0:0:0:0:
264,253,250455,2,0,P|230:269|224:312,2,65.5200015996094,2|2|2,2:2|2:2|2:2,0:0:0:0:
334,306,250942,5,2,2:2:0:0:
359,313,251104,1,2,2:2:0:0:
384,320,251266,1,2,2:2:0:0:
491,296,251428,2,0,P|515:303|507:311,1,43.68,2|0,2:2|0:0,0:0:0:0:
481,375,251753,6,0,P|470:327|434:239,1,131.040003199219,2|2,2:2|2:2,0:0:0:0:
479,132,252158,5,2,2:2:0:0:
479,132,252239,2,0,B|500:105|538:134|543:181|496:200|462:186|466:168|432:149|377:178|363:229,1,251.159991568726,2|0,2:2|0:0,0:0:0:0:
234,159,252888,1,2,2:2:0:0:
280,224,253050,1,2,2:2:0:0:
314,152,253212,1,2,2:2:0:0:
196,231,253374,6,0,P|161:250|109:290,1,98.2800023994141,2|0,2:2|0:0,0:0:0:0:
93,305,253699,1,2,2:2:0:0:
0,205,253861,1,2,2:2:0:0:
0,205,254023,2,0,P|42:215|77:164,1,98.2800023994141,2|0,2:2|0:0,0:0:0:0:
105,171,254347,2,0,P|117:126|80:97,1,98.2800023994141,2|0,2:2|0:0,0:0:0:0:
53,73,254672,2,0,P|26:90|-4:102,1,65.5200015996094,2|0,2:2|0:0,0:0:0:0:
175,65,254996,6,0,P|173:32|178:0,2,65.5200015996094,2|2|2,2:2|2:2|2:2,0:0:0:0:
242,117,255482,1,2,2:2:0:0:
284,132,255645,1,2,2:2:0:0:
324,115,255807,1,2,2:2:0:0:
497,61,255969,6,0,P|444:27|389:57,1,131.040003199219,2|2,2:2|2:2,0:0:0:0:
474,204,256455,1,2,2:2:0:0:
474,204,256536,1,2,2:2:0:0:
474,204,256617,2,0,B|494:193|506:163|506:163|489:186|461:192,1,98.2800023994141,2|0,2:2|0:0,0:0:0:0:
439,119,256942,1,2,2:2:0:0:
379,217,257104,2,0,P|394:245|403:277,1,65.5200015996094,2|2,2:2|2:2,0:0:0:0:
292,368,257428,5,2,2:2:0:0:
208,344,257588,1,2,2:2:0:0:
232,260,257748,1,2,2:2:0:0:
317,285,257909,1,2,2:2:0:0:
144,275,258069,5,2,2:2:0:0:
45,219,258230,1,2,2:2:0:0:
98,120,258390,1,2,2:2:0:0:
199,174,258550,2,0,P|259:175|284:54,1,182,2|2,2:2|2:2,0:0:0:0:
245,5,259026,6,0,P|272:39|317:45,1,91,2|2,2:2|2:2,0:0:0:0:
402,26,259263,1,2,2:2:0:0:
402,26,259342,2,0,B|423:22|439:0|439:0|431:30|437:44,1,91,2|0,2:2|0:0,0:0:0:0:
383,148,259579,2,0,B|369:131|341:128|341:128|371:120|380:108,1,91,2|0,2:2|0:0,0:0:0:0:
465,124,259816,1,2,2:2:0:0:
375,274,259974,6,0,B|355:275|339:263|339:263|348:241|339:219,1,83.7199971895753,10|0,2:2|0:0,0:0:0:0:
254,368,260284,2,0,B|239:354|237:333|237:333|258:325|267:303,1,83.7199971895753,8|2,2:2|2:2,0:0:0:0:
120,349,260595,2,0,B|105:317|65:314|65:314|67:270|102:219|186:221|213:271,1,251.159991568726,8|10,2:2|2:2,0:0:0:0:
267,303,261139,5,10,2:2:0:0:
267,303,261217,2,0,P|282:264|301:226,1,83.7199971895753,10|8,2:2|2:2,0:0:0:0:
193,87,261523,2,0,P|212:124|227:163,1,83.7199971895753,8|2,2:2|2:2,0:0:0:0:
396,218,261829,2,0,B|423:231|454:203|454:203|452:132|370:85|299:150,1,251.159991568726,10|10,2:2|2:2,0:0:0:0:
147,211,262441,2,0,P|115:177|138:150,1,83.7199971895753,8|2,2:2|2:2,0:0:0:0:
280,58,262742,2,0,P|312:24|289:-3,1,83.7199971895753,10|2,2:2|2:2,0:0:0:0:
91,24,263044,2,0,P|154:65|312:180,1,251.159991568726,10|10,2:2|2:2,0:0:0:0:
323,186,263571,1,8,2:2:0:0:
323,186,263647,5,8,2:2:0:0:
386,99,263795,1,8,2:2:0:0:
486,291,263944,2,0,B|505:281|511:257|511:257|499:277|475:284,1,84.6299966424867,8|2,2:2|2:2,0:0:0:0:
445,213,264241,2,0,B|348:260|348:260|334:278|334:278|225:329,1,251.159991568726,10|10,2:2|2:2,0:0:0:0:
159,381,264760,5,10,2:2:0:0:
159,381,264835,2,0,B|137:345|137:345|148:305,1,83.7199971895753,10|2,2:2|2:2,0:0:0:0:
282,209,265124,2,0,B|304:173|304:173|292:133,1,83.7199971895753,10|2,2:2|2:2,0:0:0:0:
44,80,265414,2,0,B|-5:102|-5:102|77:143|77:143|83:151|83:151|175:197,1,251.159991568726,8|10,2:2|2:2,0:0:0:0:
315,8,265994,6,0,B|281:24|281:24|276:30|276:30|241:46,1,83.7199971895753,10|10,2:2|2:2,0:0:0:0:
361,246,266273,2,0,B|364:208|364:208|361:201|361:201|364:163,1,83.7199971895753,10|2,2:2|2:2,0:0:0:0:
50,173,266552,2,0,B|158:228|158:228|163:235|163:235|272:287,1,251.159991568726,10|10,2:2|2:2,0:0:0:0:
450,350,267087,6,0,P|408:362|383:326,1,92.8200005665283,10|0,1:2|0:0,0:0:0:0:
248,183,267354,2,0,P|257:140|301:137,1,92.8200005665283,8|0,2:2|0:0,0:0:0:0:
493,91,267622,2,0,P|524:120|386:191,1,278.460001699585,0|8,1:1|2:2,0:0:0:0:
387,176,268091,5,8,2:2:0:0:
387,176,268158,2,0,B|407:115|407:115|410:132|425:148,1,92.8200005665283,8|0,1:2|0:0,0:0:0:0:
259,343,268426,2,0,B|239:282|239:282|236:299|221:315,1,92.8200005665283,8|0,2:2|0:0,0:0:0:0:
166,28,268694,2,0,B|140:12|139:-17|139:-17|126:50|126:50|128:57|128:57|115:153|115:153|110:123|91:107,1,278.460001699585,0|0,1:1|0:0,0:0:0:0:
21,176,269229,5,14,1:2:0:0:
48,226,269295,1,8,2:2:0:0:
106,245,269362,1,8,2:2:0:0:
166,237,269429,1,8,2:2:0:0:
203,190,269495,1,8,2:2:0:0:
232,139,269562,1,8,2:2:0:0:
289,121,269629,1,8,2:2:0:0:
349,129,269696,1,8,2:2:0:0:
387,176,269762,5,10,2:2:0:0:
343,234,269829,1,8,2:2:0:0:
271,248,269895,1,8,2:2:0:0:
201,224,269962,1,8,2:2:0:0:
160,162,270029,1,8,2:2:0:0:
162,89,270095,1,8,2:2:0:0:
203,28,270162,1,8,2:2:0:0:
272,4,270229,1,8,2:2:0:0:
342,21,270295,6,0,P|370:37|408:55,3,50.9600006220703,10|8|8|8,1:2|2:2|2:2|2:2,0:0:0:0:
512,169,270562,2,0,P|488:182|456:198,3,50.9600006220703,10|8|8|8,1:2|2:2|2:2|2:2,0:0:0:0:
346,338,270829,2,0,P|338:313|328:290,1,50.9600006220703,10|8,1:2|2:2,0:0:0:0:
264,78,270962,2,0,P|256:102|246:125,1,50.9600006220703,10|8,1:2|2:2,0:0:0:0:
197,384,271095,2,0,P|208:361|218:337,1,50.9600006220703,10|8,1:2|2:2,0:0:0:0:
115,23,271229,2,0,P|128:44|139:67,1,50.9600006220703,8|8,1:2|2:2,0:0:0:0:
29,384,271362,6,0,P|99:318|148:234,1,193.829990239884,14|0,1:2|0:0,0:0:0:0:
157,205,271629,1,10,1:3:0:0:
368,0,271762,2,0,P|380:63|406:122,1,129.219993493256,10|2,2:3|1:3,0:0:0:0:
294,271,272029,5,2,2:2:0:0:
232,82,272162,1,10,1:2:0:0:
303,299,272295,1,2,2:2:0:0:
479,59,272429,5,2,1:2:0:0:
377,369,272562,1,2,2:2:0:0:
490,28,272695,1,10,1:2:0:0:
250,215,272829,1,2,2:2:0:0:
230,208,272895,1,8,2:2:0:0:
210,201,272962,1,2,1:3:0:0:
474,122,273095,2,0,B|502:132|534:113|534:113|514:151|476:152,1,129.219993493256,10|10,2:2|1:3,0:0:0:0:
155,131,273362,5,2,2:2:0:0:
155,131,273429,1,2,2:2:0:0:
155,131,273495,2,0,B|123:63|182:4|254:13|254:13|245:58|282:84,1,258.439986986512,2|10,1:2|1:3,0:0:0:0:
403,283,273895,1,10,2:3:0:0:
120,261,274029,5,2,1:2:0:0:
93,244,274095,1,2,2:2:0:0:
84,205,274162,1,2,2:2:0:0:
109,166,274229,1,2,2:2:0:0:
162,162,274295,1,10,1:2:0:0:
210,201,274362,1,2,2:2:0:0:
222,269,274429,1,2,2:2:0:0:
186,336,274495,1,2,2:2:0:0:
102,357,274562,6,0,B|81:332|48:321|48:321|84:318|111:292,1,129.219993493256,2|2,1:3|2:2,0:0:0:0:
299,158,274829,1,10,1:2:0:0:
0,22,274962,2,0,B|24:113|24:113|22:121|22:121|43:210,1,193.829990239884,2|0,2:2|0:0,0:0:0:0:
51,239,275229,2,0,P|63:210|91:196,1,64.609996746628,10|0,2:2|0:0,0:0:0:0:
119,121,275362,2,0,P|150:116|176:134,1,64.609996746628,10|0,1:2|0:0,0:0:0:0:
350,266,275495,6,0,B|401:311|504:276|495:204|495:204|461:213|437:194,1,258.439986986512,2|2,2:2|2:2,0:0:0:0:
188,216,275895,5,10,1:2:0:0:
312,153,276029,1,10,2:2:0:0:
119,121,276162,5,2,1:2:0:0:
369,248,276295,1,2,2:2:0:0:
36,295,276429,5,10,1:2:0:0:
459,69,276562,2,0,B|524:31|524:31|434:12|434:12|425:15|425:15|318:-5,1,258.439986986512,2|2,2:2|2:2,0:0:0:0:
160,202,276962,5,10,1:2:0:0:
160,202,277029,1,2,2:2:0:0:
160,202,277095,2,0,B|178:233|178:233|226:69,1,193.829990239884,2|0,2:2|0:0,0:0:0:0:
230,47,277362,1,10,2:2:0:0:
266,256,277495,1,10,1:2:0:0:
104,94,277629,1,2,2:2:0:0:
198,319,277762,5,2,1:2:0:0:
262,128,277895,1,2,2:2:0:0:
389,383,278029,1,10,1:2:0:0:
453,192,278162,1,10,2:2:0:0:
171,341,278295,5,2,1:2:0:0:
468,300,278429,1,2,2:2:0:0:
427,3,278562,1,10,1:2:0:0:
130,44,278695,6,0,P|103:95|205:98,1,193.829990239884,2|0,2:2|0:0,0:0:0:0:
231,97,278962,2,0,P|218:67|211:35,1,64.609996746628,2|0,2:2|0:0,0:0:0:0:
15,203,279095,2,0,P|75:226|131:258,1,129.219993493256,10|2,1:2|2:2,0:0:0:0:
180,328,279295,1,10,2:2:0:0:
180,328,279362,2,0,P|228:332|201:268,1,129.219993493256,2|10,1:2|2:3,0:0:0:0:
297,227,279562,2,0,P|333:195|269:169,1,129.219993493256,2|0,2:2|0:0,0:0:0:0:
231,97,279762,1,2,2:2:0:0:
386,368,279895,6,0,P|441:337|500:308,1,129.219993493256,6|2,1:2|2:3,0:0:0:0:
463,237,280095,2,0,P|404:265|348:296,1,129.219993493256,2|0,2:2|0:0,0:0:0:0:
259,298,280295,2,0,P|204:267|144:238,1,129.219993493256,10|2,2:2|1:3,0:0:0:0:
182,167,280495,2,0,P|240:195|296:226,1,129.219993493256,2|0,2:2|0:0,0:0:0:0:
359,165,280695,1,10,1:2:0:0:
365,139,280762,1,2,2:2:0:0:
371,113,280829,1,2,2:2:0:0:
377,88,280895,1,2,2:2:0:0:
384,62,280962,6,0,B|365:26|334:14|334:14|310:43|273:41,1,129.219993493256,2|2,1:2|2:3,0:0:0:0:
146,88,281162,2,0,B|185:90|211:68|211:68|199:33|218:2,1,129.219993493256,2|0,2:2|0:0,0:0:0:0:
67,67,281362,2,0,B|45:100|50:133|50:133|87:140|104:172,1,129.219993493256,10|2,2:2|1:3,0:0:0:0:
208,260,281562,2,0,B|189:224|158:212|158:212|134:241|97:239,1,129.219993493256,2|0,2:2|0:0,0:0:0:0:
34,269,281762,1,10,1:2:0:0:
40,294,281829,1,2,2:2:0:0:
46,318,281895,1,2,2:2:0:0:
52,343,281962,1,2,2:2:0:0:
59,367,282029,5,2,1:3:0:0:
98,163,282162,1,2,2:2:0:0:
219,353,282295,1,10,1:2:0:0:
298,105,282429,5,10,2:2:0:0:
79,305,282562,1,2,1:2:0:0:
218,13,282695,1,2,2:2:0:0:
380,348,282829,1,10,1:2:0:0:
171,243,282962,6,0,B|227:221|273:196|273:196|298:199|298:199|350:171|406:146,1,258.439986986512,2|2,2:2|2:3,0:0:0:0:
172,156,283362,1,10,1:3:0:0:
433,238,283495,1,2,2:2:0:0:
433,238,283562,1,10,2:2:0:0:
433,238,283629,2,0,P|473:198|415:145,1,129.219993493256,2|10,1:2|2:3,0:0:0:0:
344,112,283829,2,0,B|335:146|363:167|363:167|352:130|373:103,1,129.219993493256,2|0,2:2|0:0,0:0:0:0:
441,66,284029,1,2,2:2:0:0:
339,271,284162,5,2,1:2:0:0:
248,11,284295,1,2,2:2:0:0:
491,156,284429,1,10,1:2:0:0:
182,287,284562,2,0,B|147:300|137:336|137:336|94:286|99:223|150:180|221:187,1,258.439986986512,10|2,2:2|2:2,0:0:0:0:
275,179,284895,1,2,2:2:0:0:
275,179,284962,2,0,P|258:206|249:237,1,64.609996746628,10|2,1:2|2:2,0:0:0:0:
58,371,285095,2,0,P|41:343|32:312,1,64.609996746628,2|2,2:2|2:2,0:0:0:0:
274,77,285229,5,2,1:2:0:0:
97,245,285362,1,2,2:2:0:0:
183,8,285495,1,10,1:2:0:0:
290,319,285629,1,2,2:2:0:0:
87,83,285762,5,2,1:2:0:0:
175,343,285895,1,10,2:2:0:0:
435,255,286029,1,10,1:2:0:0:
347,0,286162,1,2,2:2:0:0:
111,220,286295,6,0,B|83:251|87:291|87:291|155:208|247:233,1,258.439986986512,2|10,1:2|1:3,0:0:0:0:
464,362,286695,1,2,2:2:0:0:
361,157,286829,1,2,1:3:0:0:
356,175,286895,1,8,2:2:0:0:
351,194,286962,1,2,2:2:0:0:
207,353,287095,1,10,1:2:0:0:
253,65,287229,1,10,2:2:0:0:
258,83,287295,1,8,2:2:0:0:
263,102,287362,1,10,1:3:0:0:
359,360,287495,6,0,P|370:329|384:300,1,64.609996746628,10|8,1:3|2:2,0:0:0:0:
468,75,287629,1,10,1:2:0:0:
275,289,287762,2,0,P|263:258|249:229,1,64.609996746628,10|8,1:3|2:2,0:0:0:0:
124,0,287895,5,10,1:2:0:0:
67,31,287962,1,8,2:2:0:0:
45,92,288029,1,10,1:3:0:0:
61,153,288095,1,8,2:2:0:0:
116,187,288162,5,10,1:2:0:0:
193,182,288229,1,8,2:2:0:0:
249,233,288295,1,10,1:3:0:0:
249,310,288362,1,8,2:2:0:0:
197,368,288429,5,10,2:2:0:0:
173,358,288495,1,8,2:2:0:0:
158,336,288562,1,8,2:2:0:0:
155,310,288629,1,8,2:2:0:0:
163,285,288695,6,0,B|213:305|269:323|269:323|279:334|279:334|339:351|394:370,1,248.43000833963,12|0,1:2|0:0,0:0:0:0:
424,382,288962,2,0,B|465:328|465:328|426:280,1,129.219993493256,2|2,1:3|2:3,0:0:0:0:
192,151,289229,1,10,1:3:0:0:
463,52,289362,1,2,2:2:0:0:
170,126,289495,5,2,1:2:0:0:
400,297,289629,1,2,2:2:0:0:
295,20,289762,1,10,1:2:0:0:
137,251,289895,1,2,2:2:0:0:
131,232,289962,1,8,2:2:0:0:
126,213,290029,1,2,1:3:0:0:
391,4,290162,2,0,P|364:62|347:125,2,129.219993493256,10|10|2,2:2|1:3|2:2,0:0:0:0:
444,322,290562,6,0,B|517:275|494:174|438:150|438:150|435:186|398:201,1,258.439986986512,2|10,1:2|1:3,0:0:0:0:
161,359,290962,1,10,2:3:0:0:
142,365,291029,1,10,2:2:0:0:
116,360,291095,1,10,1:2:0:0:
97,333,291162,1,10,2:2:0:0:
104,294,291229,1,10,2:2:0:0:
145,278,291295,1,10,2:2:0:0:
193,295,291362,1,10,1:2:0:0:
216,348,291429,5,10,2:2:0:0:
272,378,291495,1,10,2:2:0:0:
342,366,291562,1,10,2:2:0:0:
389,303,291629,1,10,1:3:0:0:
373,221,291695,1,10,2:2:0:0:
301,176,291762,2,0,P|271:166|226:147,1,64.609996746628,10|8,2:2|2:2,0:0:0:0:
38,92,291895,2,0,P|68:82|113:63,1,64.609996746628,10|8,1:2|2:2,0:0:0:0:
465,12,292029,5,14,1:2:0:0:
48,193,292295,5,14,1:2:0:0:
483,341,292562,5,14,1:2:0:0:
373,221,292695,2,0,P|353:282|341:346,1,129.219993493256,0|2,1:1|2:2,0:0:0:0:
285,144,292962,1,10,1:2:0:0:
453,260,293095,1,10,2:2:0:0:
493,23,293229,5,2,1:2:0:0:
282,237,293362,1,2,2:2:0:0:
512,107,293495,1,10,1:2:0:0:
193,5,293629,6,0,B|145:54|145:54|162:112,1,129.219993493256,2|2,2:2|1:3,0:0:0:0:
247,315,293895,1,2,2:2:0:0:
350,122,294029,1,10,1:2:0:0:
130,261,294162,1,2,2:2:0:0:
127,246,294229,1,8,2:2:0:0:
124,231,294295,1,2,1:3:0:0:
262,68,294429,1,10,2:2:0:0:
54,165,294562,1,10,1:2:0:0:
303,249,294695,1,2,2:2:0:0:
14,381,294829,6,0,P|-14:342|54:307,1,129.219993493256,2|2,1:2|2:2,0:0:0:0:
65,314,295029,1,0,0:0:0:0:
65,314,295095,1,10,1:2:0:0:
358,328,295229,2,0,P|338:371|273:330,1,129.219993493256,10|2,2:2|1:2,0:0:0:0:
186,144,295495,1,2,2:2:0:0:
194,119,295562,1,0,0:0:0:0:
202,94,295629,1,10,1:2:0:0:
165,306,295762,1,2,2:2:0:0:
127,49,295895,5,2,1:2:0:0:
243,269,296029,1,2,2:2:0:0:
317,0,296162,1,10,1:2:0:0:
98,219,296295,1,2,2:2:0:0:
81,225,296362,1,8,2:2:0:0:
64,231,296429,2,0,B|30:203|-26:189|-26:189|27:177|60:150,1,193.829990239884,2|2,1:2|2:2,0:0:0:0:
137,128,296695,2,0,P|171:139|210:150,1,64.609996746628,10|8,1:3|2:2,0:0:0:0:
434,169,296829,1,10,2:2:0:0:
470,180,296895,1,8,2:2:0:0:
507,191,296962,6,0,P|499:251|457:251,1,101.920001244141,6|2,1:2|2:3,0:0:0:0:
450,284,297162,2,0,P|394:307|373:270,1,101.920001244141,2|0,2:2|0:0,0:0:0:0:
306,224,297362,2,0,P|257:187|228:216,1,101.920001244141,2|2,2:2|2:3,0:0:0:0:
199,198,297562,2,0,P|143:221|153:261,1,101.920001244141,2|0,2:2|0:0,0:0:0:0:
109,322,297762,1,2,2:2:0:0:
109,322,297829,1,2,2:2:0:0:
109,322,297895,2,0,P|85:334|59:320,1,50.9600006220703,2|2,2:2|2:2,0:0:0:0:
11,141,298029,6,0,P|23:95|45:119,1,101.920001244141,2|2,2:2|2:3,0:0:0:0:
114,63,298229,2,0,P|155:38|153:71,1,101.920001244141,2|0,2:2|0:0,0:0:0:0:
268,99,298429,2,0,P|280:145|302:121,1,101.920001244141,2|2,2:2|2:3,0:0:0:0:
371,177,298629,2,0,P|412:201|410:168,1,101.920001244141,2|0,2:2|0:0,0:0:0:0:
491,126,298829,1,2,2:2:0:0:
491,126,298895,1,2,2:2:0:0:
491,126,298962,2,0,P|497:95|467:68,1,50.9600006220703,2|2,2:2|2:2,0:0:0:0:
260,24,299095,5,2,2:3:0:0:
192,107,299229,1,2,2:2:0:0:
276,174,299362,1,2,2:2:0:0:
344,91,299495,1,2,2:2:0:0:
181,192,299629,5,2,2:2:0:0:
311,351,299762,1,2,2:2:0:0:
471,221,299895,1,2,2:2:0:0:
341,62,300029,2,0,P|324:128|281:375,1,305.760003732422,2|2,2:2|2:3,0:0:0:0:
471,221,300562,5,2,2:2:0:0:
471,221,300629,1,2,2:2:0:0:
471,221,300695,2,0,P|453:167|407:171,1,101.920001244141,2|2,2:2|2:3,0:0:0:0:
344,213,300895,2,0,P|369:267|385:322,1,101.920001244141,2|0,2:2|0:0,0:0:0:0:
409,383,301095,1,2,2:2:0:0:
512,82,301229,5,10,1:2:0:0:
502,71,301295,1,8,2:2:0:0:
489,64,301362,1,10,2:2:0:0:
476,60,301429,1,8,2:2:0:0:
462,60,301495,1,10,1:2:0:0:
448,65,301562,1,8,2:2:0:0:
436,73,301629,1,10,2:2:0:0:
428,84,301695,1,8,2:2:0:0:
423,96,301762,5,10,1:3:0:0:
413,114,301829,1,8,2:2:0:0:
398,128,301895,1,10,2:2:0:0:
379,136,301962,1,10,2:2:0:0:
358,138,302029,1,10,1:2:0:0:
338,131,302095,1,10,2:2:0:0:
321,117,302162,1,10,2:2:0:0:
312,98,302229,1,10,2:2:0:0:
311,77,302295,5,10,1:2:0:0:
344,78,302362,1,8,2:2:0:0:
372,97,302429,1,10,2:2:0:0:
387,127,302495,1,8,2:2:0:0:
389,161,302562,1,10,1:2:0:0:
380,194,302629,1,8,2:2:0:0:
358,219,302695,1,10,2:2:0:0:
328,235,302762,1,8,2:2:0:0:
293,238,302829,5,10,1:2:0:0:
255,221,302895,1,8,2:2:0:0:
232,185,302962,1,10,2:2:0:0:
195,165,303029,1,8,2:2:0:0:
154,164,303095,1,10,1:2:0:0:
116,180,303162,1,8,2:2:0:0:
90,212,303229,1,10,2:2:0:0:
79,251,303295,1,8,2:2:0:0:
93,291,303362,5,10,1:2:0:0:
150,295,303429,1,8,2:2:0:0:
198,264,303495,1,10,2:3:0:0:
221,211,303562,1,8,2:2:0:0:
212,152,303629,1,10,1:3:0:0:
175,106,303695,1,8,2:2:0:0:
119,87,303762,1,10,2:2:0:0:
61,98,303829,1,8,2:2:0:0:
9,140,303895,5,10,1:3:0:0:
42,200,303962,1,8,2:2:0:0:
109,226,304029,1,10,2:2:0:0:
180,224,304095,1,8,2:2:0:0:
241,184,304162,1,10,1:2:0:0:
271,118,304229,1,8,2:2:0:0:
328,76,304295,1,10,2:2:0:0:
401,68,304362,1,8,2:2:0:0:
469,109,304429,5,10,1:3:0:0:
505,179,304495,1,8,2:2:0:0:
494,257,304562,1,10,1:3:0:0:
436,312,304629,1,8,2:2:0:0:
360,328,304695,1,10,1:2:0:0:
284,300,304762,1,8,2:2:0:0:
230,240,304829,1,10,1:3:0:0:
153,223,304895,1,8,2:2:0:0:
77,253,304962,5,10,1:2:0:0:
108,333,305029,5,8,2:2:0:0:
180,378,305095,5,10,1:3:0:0:
267,383,305162,5,8,2:2:0:0:
345,333,305229,5,10,1:2:0:0:
373,238,305295,5,8,2:2:0:0:
337,137,305362,5,10,1:3:0:0:
242,78,305429,5,8,2:2:0:0:
124,94,305495,6,0,P|110:142|198:150,1,152.880001866211,14|0,1:2|0:0,0:0:0:0:
218,250,305762,1,8,1:2:0:0:
218,250,305851,2,0,P|248:232|255:199,1,67.9466674960938,8|8,2:2|2:2,0:0:0:0:
484,233,306029,2,0,P|501:279|413:287,1,135.893334992188,12|0,1:2|0:0,0:0:0:0:
392,378,306296,1,8,1:2:0:0:
392,378,306385,2,0,P|361:360|354:327,1,67.9466674960938,8|8,2:2|2:2,0:0:0:0:
316,89,306562,6,0,P|413:59|510:26,1,203.840002488281,12|8,1:2|1:2,0:0:0:0:
512,159,306917,2,0,P|477:141|445:130,1,67.9466674960938,8|8,2:2|2:2,0:0:0:0:
254,19,307095,5,12,1:2:0:0:
205,67,307184,1,8,2:2:0:0:
199,134,307273,1,8,2:2:0:0:
247,182,307362,5,8,1:2:0:0:
284,197,307451,1,8,2:2:0:0:
303,232,307540,1,8,2:2:0:0:
295,272,307629,6,0,B|217:306|217:306|201:323|201:323|112:358,1,203.840002488281,12|8,1:2|1:2,0:0:0:0:
33,220,307984,1,8,2:2:0:0:
17,245,308073,1,8,2:2:0:0:
28,275,308162,2,0,P|106:259|61:151,1,203.840002488281,14|8,1:2|1:2,0:0:0:0:
102,4,308517,5,8,2:2:0:0:
86,15,308606,1,8,2:2:0:0:
71,24,308695,2,0,B|26:55|26:55|168:100,1,203.840002488281,14|8,1:2|1:2,0:0:0:0:
231,160,309051,2,0,P|245:129|264:100,1,67.9466674960938,8|8,2:2|2:2,0:0:0:0:
458,16,309229,5,14,1:2:0:0:
497,70,309317,1,8,2:2:0:0:
491,137,309406,1,8,2:2:0:0:
440,182,309495,5,8,1:2:0:0:
411,163,309584,1,8,2:2:0:0:
399,130,309673,1,8,2:2:0:0:
407,96,309762,6,0,P|491:153|425:265,1,203.840002488281,14|8,1:2|1:2,0:0:0:0:
446,319,310117,1,8,2:2:0:0:
449,333,310206,1,8,2:2:0:0:
453,349,310295,2,0,P|367:309|247:272,1,203.840002488281,12|8,1:2|1:2,0:0:0:0:
105,347,310651,5,8,2:2:0:0:
116,365,310740,1,8,2:2:0:0:
129,372,310829,2,0,P|189:357|180:296,1,135.893334992188,12|0,1:2|0:0,0:0:0:0:
120,246,311095,5,10,1:2:0:0:
103,216,311184,1,8,2:2:0:0:
106,182,311273,1,8,2:2:0:0:
130,158,311362,5,14,1:2:0:0:
191,159,311451,1,8,2:2:0:0:
241,124,311540,1,8,2:2:0:0:
249,63,311629,5,10,1:2:0:0:
221,44,311717,1,8,2:2:0:0:
187,49,311806,1,8,2:2:0:0:
165,75,311895,6,0,B|242:120|242:120|252:137|252:137|337:178,1,203.840002488281,14|10,1:2|1:2,0:0:0:0:
411,209,312251,2,0,P|421:177|409:145,1,67.9466674960938,8|8,2:2|2:2,0:0:0:0:
246,227,312429,2,0,B|169:272|169:272|159:289|159:289|73:330,1,203.840002488281,14|10,1:2|1:2,0:0:0:0:
0,361,312785,2,0,P|-10:329|1:297,1,67.9466674960938,8|8,2:2|2:2,0:0:0:0:
253,353,312962,6,0,B|282:311|333:297|385:322|385:322|354:343|356:386,1,203.840002488281,14|8,1:2|1:2,0:0:0:0:
430,381,313317,2,0,P|455:358|462:326,1,67.9466674960938,8|8,2:2|2:2,0:0:0:0:
512,259,313495,1,14,1:2:0:0:
482,213,313584,1,8,2:2:0:0:
429,198,313673,1,8,2:2:0:0:
379,221,313762,1,8,1:2:0:0:
311,212,313851,1,8,2:2:0:0:
277,152,313940,1,8,2:2:0:0:
297,87,314029,6,0,B|337:68|350:24|350:24|330:92|374:161,1,203.840002488281,14|8,1:2|1:2,0:0:0:0:
433,103,314384,2,0,P|446:71|409:67,1,67.9466674960938,8|8,2:2|2:2,0:0:0:0:
264,7,314562,2,0,P|191:34|55:82,1,203.840002488281,12|8,1:2|1:2,0:0:0:0:
0,45,314917,2,0,P|20:13|57:5,1,67.9466674960938,8|8,2:2|2:2,0:0:0:0:
271,89,315095,6,0,B|301:103|305:138|305:138|279:175|205:177|186:101,1,203.840002488281,12|8,1:2|1:2,0:0:0:0:
201,32,315451,2,0,L|264:7,1,67.9466674960938,8|8,2:2|2:2,0:0:0:0:
500,163,315629,1,14,1:2:0:0:
442,198,315717,1,8,2:2:0:0:
377,176,315806,1,8,2:2:0:0:
344,116,315895,5,10,1:2:0:0:
370,95,315984,1,8,2:2:0:0:
403,95,316073,1,8,2:2:0:0:
431,114,316162,6,0,B|414:174|414:174|417:182|417:182|397:262,1,135.893334992188,14|0,1:2|0:0,0:0:0:0:
420,322,316429,1,10,1:2:0:0:
420,322,316517,2,0,B|386:335|386:335|362:314,1,67.9466674960938,8|8,2:2|2:2,0:0:0:0:
164,168,316695,2,0,B|181:228|181:228|178:236|178:236|198:316,1,135.893334992188,14|0,1:2|0:0,0:0:0:0:
175,376,316962,1,10,1:2:0:0:
175,376,317050,2,0,B|209:389|209:389|232:368,1,67.9466674960938,8|8,2:2|2:2,0:0:0:0:
301,131,317229,2,0,B|284:71|284:71|287:63|287:63|267:-17,1,135.893334992188,14|0,1:2|0:0,0:0:0:0:
198,55,317495,5,8,1:2:0:0:
192,81,317584,1,8,2:2:0:0:
186,107,317673,1,8,2:2:0:0:
180,133,317762,5,14,1:2:0:0:
227,84,317851,1,8,2:2:0:0:
294,80,317940,1,8,2:2:0:0:
342,127,318029,1,8,1:2:0:0:
389,176,318117,1,8,2:2:0:0:
456,180,318206,1,8,2:2:0:0:
504,133,318295,6,0,P|425:131|441:253,1,222.039990852234,14|8,1:2|1:2,0:0:0:0:
474,309,318651,2,0,P|503:287|510:251,1,74.0133302840781,8|8,2:2|2:2,0:0:0:0:
308,240,318829,2,0,P|250:294|348:369,1,222.039990852234,12|8,1:2|1:2,0:0:0:0:
411,384,319185,2,0,P|416:348|395:318,1,74.0133302840781,8|8,2:2|2:2,0:0:0:0:
148,145,319362,2,0,P|190:197|245:159,1,148.026660568156,12|8,1:2|2:2,0:0:0:0:
295,88,319629,5,10,1:2:0:0:
290,72,319718,2,0,P|252:46|222:69,1,74.0133302840781,8|8,2:2|2:2,0:0:0:0:
148,42,319895,1,14,1:2:0:0:
132,38,319984,2,0,P|90:57|96:94,1,74.0133302840781,8|8,2:2|2:2,0:0:0:0:
29,140,320162,1,10,1:2:0:0:
17,151,320251,2,0,P|13:196|48:210,1,74.0133302840781,8|8,2:2|2:2,0:0:0:0:
4,286,320429,6,0,B|98:327|98:327|109:341|109:341|210:389,1,222.039990852234,14|8,1:2|1:2,0:0:0:0:
419,362,320784,1,8,2:2:0:0:
430,343,320873,1,8,2:2:0:0:
431,322,320962,2,0,B|404:260|331:257|295:290|295:290|309:327|273:365,1,222.039990852234,12|8,1:2|1:2,0:0:0:0:
135,263,321317,5,8,2:2:0:0:
125,250,321406,1,8,2:2:0:0:
123,231,321495,2,0,P|184:171|231:200,1,148.026660568156,14|8,1:2|2:2,0:0:0:0:
301,284,321762,5,8,1:2:0:0:
353,308,321851,1,8,2:2:0:0:
410,289,321940,1,8,2:2:0:0:
429,233,322029,5,12,1:2:0:0:
401,167,322117,1,8,2:2:0:0:
334,142,322206,1,8,2:2:0:0:
272,177,322295,5,8,1:2:0:0:
190,180,322384,1,8,2:2:0:0:
132,121,322473,1,8,2:2:0:0:
132,38,322562,6,0,B|147:9|182:-21|256:-44|339:-17|364:50|367:97|365:162|308:205|308:205|388:229|397:307|397:307|269:378|98:347|-9:238|-24:124|-24:124|32:68|109:108|109:108|112:180|172:232|236:221,1,1426.87998693652,14|0,1:2|0:0,0:0:0:0:
494,131,326962,5,2,2:2:0:0:
494,131,327095,2,0,P|466:148|437:163,1,65.5200015996094,2|2,2:2|2:2,0:0:0:0:
318,260,327362,1,2,2:2:0:0:
318,260,327495,2,0,P|316:227|318:194,1,65.5200015996094,2|2,2:2|2:2,0:0:0:0:
304,52,327762,2,0,P|332:67|360:84,1,65.5200015996094,2|2,2:2|2:2,0:0:0:0:
227,286,328029,5,2,2:2:0:0:
227,286,328162,2,0,P|193:287|168:260,1,65.5200015996094,2|2,2:2|2:2,0:0:0:0:
16,127,328429,1,2,2:2:0:0:
16,127,328562,2,0,P|30:98|60:87,1,65.5200015996094,2|2,2:2|2:2,0:0:0:0:
76,267,328829,2,0,P|57:240|63:209,1,65.5200015996094,2|2,2:2|2:2,0:0:0:0:
154,27,329095,5,2,2:2:0:0:
154,27,329229,2,0,P|179:41|151:53,1,65.5200015996094,2|2,2:2|2:2,0:0:0:0:
208,169,329495,1,2,2:2:0:0:
208,169,329629,2,0,P|207:140|232:158,1,65.5200015996094,2|2,2:2|2:2,0:0:0:0:
304,52,329895,1,2,2:2:0:0:
320,234,330029,6,0,P|328:250|335:272,3,32.7600007998047,2|2|2|2,2:2|2:2|2:2|2:2,0:0:0:0:
401,333,330295,2,0,P|406:317|413:302,3,32.7600007998047,2|2|2|2,2:2|2:2|2:2|2:2,0:0:0:0:
492,259,330562,1,2,2:2:0:0:
503,243,330629,1,2,2:2:0:0:
508,224,330695,1,2,2:2:0:0:
503,204,330762,1,2,2:2:0:0:
488,190,330829,2,0,P|461:180|442:186,1,32.7600007998047,2|2,2:2|2:2,0:0:0:0:
391,143,330962,2,0,P|364:155|355:172,1,32.7600007998047,2|2,2:2|2:2,0:0:0:0:
221,329,331095,6,0,P|178:345|133:280,1,111.930001707916,2|0,2:2|0:0,0:0:0:0:
107,289,331367,2,0,P|105:252|130:225,1,74.6200011386109,2|2,2:2|2:2,0:0:0:0:
241,164,331640,1,2,2:2:0:0:
268,129,331776,1,2,2:2:0:0:
257,85,331913,1,2,2:2:0:0:
154,18,332049,6,0,P|141:60|112:142,1,111.930001707916,2|0,2:2|0:0,0:0:0:0:
96,145,332322,2,0,P|84:110|66:78,1,74.6200011386109,2|2,2:2|2:2,0:0:0:0:
16,216,332595,1,2,2:2:0:0:
92,283,332731,1,2,2:2:0:0:
182,263,332867,1,2,2:2:0:0:
220,207,333004,1,2,2:2:0:0:
259,205,333140,1,2,2:2:0:0:
277,221,333276,6,0,P|288:267|231:318,1,111.930001707916,2|0,2:2|0:0,0:0:0:0:
198,384,333555,2,0,P|206:348|237:330,1,74.6200011386109,2|2,2:2|2:2,0:0:0:0:
339,364,333834,1,2,2:2:0:0:
375,377,333973,1,2,2:2:0:0:
414,362,334113,1,2,2:2:0:0:
502,292,334252,6,0,B|455:267|455:267|443:268|443:268|402:245,1,111.930001707916,2|0,2:2|0:0,0:0:0:0:
384,221,334531,2,0,L|450:187,1,74.6200011386109,2|2,2:2|2:2,0:0:0:0:
495,100,334810,1,2,2:2:0:0:
404,40,334950,1,2,2:2:0:0:
309,61,335089,1,2,2:2:0:0:
267,126,335229,1,2,2:2:0:0:
225,148,335369,1,2,2:2:0:0:
191,133,335508,6,0,P|214:91|285:106,1,111.930001707916,2|0,2:2|0:0,0:0:0:0:
343,134,335793,2,0,P|321:165|313:201,1,74.6200011386109,2|2,2:2|2:2,0:0:0:0:
251,281,336079,1,2,2:2:0:0:
258,312,336222,1,2,2:2:0:0:
265,341,336365,1,2,2:2:0:0:
362,375,336508,6,0,B|407:336|407:336|470:358,1,111.930001707916,2|0,2:2|0:0,0:0:0:0:
487,376,336793,2,0,B|463:347|463:347|474:312,1,74.6200011386109,2|2,2:2|2:2,0:0:0:0:
497,163,337079,1,2,2:2:0:0:
398,234,337222,1,2,2:2:0:0:
314,169,337365,1,2,2:2:0:0:
252,221,337508,1,2,2:2:0:0:
210,192,337650,1,2,2:2:0:0:
180,215,337793,6,0,B|128:204|128:204|121:206|121:206|70:195,1,111.930001707916,2|0,2:2|0:0,0:0:0:0:
41,189,338085,2,0,B|19:160|19:160|46:119,1,74.6200011386109,2|2,2:2|2:2,0:0:0:0:
120,40,338378,1,2,2:2:0:0:
127,73,338524,1,2,2:2:0:0:
134,106,338671,1,2,2:2:0:0:
336,91,338817,6,0,P|283:70|232:47,1,111.930001707916,2|0,2:2|0:0,0:0:0:0:
206,30,339110,2,0,P|241:17|274:1,1,74.6200011386109,2|2,2:2|2:2,0:0:0:0:
455,11,339402,1,2,2:2:0:0:
353,107,339549,1,2,2:2:0:0:
443,187,339695,1,2,2:2:0:0:
390,248,339841,1,2,2:2:0:0:
421,273,339988,1,2,2:2:0:0:
412,295,340134,6,0,P|362:316|316:289,1,111.930001707916,2|0,2:2|0:0,0:0:0:0:
299,268,340434,2,0,P|255:248|218:267,1,74.6200011386109,2|2,2:2|2:2,0:0:0:0:
135,289,340734,1,2,2:2:0:0:
142,322,340884,1,2,2:2:0:0:
150,356,341034,1,2,2:2:0:0:
20,331,341184,6,0,B|34:282|34:282|39:275|39:275|52:224,1,111.930001707916,2|0,2:2|0:0,0:0:0:0:
64,195,341484,2,0,B|31:175|31:175|0:192,1,74.6200011386109,2|2,2:2|2:2,0:0:0:0:
202,229,341784,1,2,2:2:0:0:
268,141,341934,1,2,2:2:0:0:
220,55,342084,1,2,2:2:0:0:
140,39,342234,1,2,2:2:0:0:
100,67,342384,1,2,2:2:0:0:
102,96,342534,6,0,P|145:120|202:166,1,111.930001707916,2|0,2:2|0:0,0:0:0:0:
229,224,342841,2,0,P|259:203|270:167,1,74.6200011386109,2|2,2:2|2:2,0:0:0:0:
305,55,343149,1,2,2:2:0:0:
317,85,343303,1,2,2:2:0:0:
345,95,343457,1,2,2:2:0:0:
454,193,343610,6,0,P|415:167|361:207,1,111.930001707916,2|0,2:2|0:0,0:0:0:0:
358,224,343918,2,0,P|372:264|383:304,1,74.6200011386109,2|2,2:2|2:2,0:0:0:0:
218,384,344226,1,2,2:2:0:0:
153,306,344380,1,2,2:2:0:0:
182,214,344534,1,2,2:2:0:0:
254,183,344687,1,2,2:2:0:0:
280,143,344841,1,2,2:2:0:0:
262,115,344995,6,0,B|211:97|211:97|202:100|202:100|156:82,1,111.930001707916,2|0,2:2|0:0,0:0:0:0:
113,14,345310,2,0,B|79:36|79:36|76:70,1,74.6200011386109,2|2,2:2|2:2,0:0:0:0:
34,150,345626,1,2,2:2:0:0:
40,179,345784,1,2,2:2:0:0:
46,208,345942,1,2,2:2:0:0:
126,262,346100,6,0,P|98:317|84:379,1,111.930001707916,2|0,2:2|0:0,0:0:0:0:
56,384,346416,2,0,P|47:347|29:315,1,74.6200011386109,2|2,2:2|2:2,0:0:0:0:
205,189,346731,1,2,2:2:0:0:
321,198,346889,1,2,2:2:0:0:
349,294,347047,1,2,2:2:0:0:
291,348,347205,1,2,2:2:0:0:
249,339,347363,1,2,2:2:0:0:
239,315,347521,6,0,P|267:278|341:280,1,111.930001707916,2|0,2:2|0:0,0:0:0:0:
349,294,347845,2,0,P|393:310|422:295,1,74.6200011386109,2|2,2:2|2:2,0:0:0:0:
467,223,348169,1,2,2:2:0:0:
462,206,348331,1,2,2:2:0:0:
457,189,348493,2,0,P|468:153|477:117,1,74.6200011386109,2|2,2:2|2:2,0:0:0:0:
438,33,348818,6,0,P|426:47|420:29,3,37.3100005693054,2|2|2|2,2:2|2:2|2:2|2:2,0:0:0:0:
359,123,349144,2,0,P|340:124|349:107,3,37.3100005693054,2|2|2|2,2:2|2:2|2:2|2:2,0:0:0:0:
245,124,349470,1,2,2:2:0:0:
231,117,349551,1,2,2:2:0:0:
219,106,349633,1,2,2:2:0:0:
214,91,349714,1,2,2:2:0:0:
214,76,349796,2,0,P|229:52|253:50,1,37.3100005693054,2|2,2:2|2:2,0:0:0:0:
302,5,349959,2,0,P|330:5|344:25,1,37.3100005693054,2|2,2:2|2:2,0:0:0:0:
457,141,350122,5,6,2:2:0:0:
