osu file format v14

[General]
AudioFilename: audio.mp3
AudioLeadIn: 0
PreviewTime: 248673
Countdown: 0
SampleSet: Soft
StackLeniency: 0.7
Mode: 3
LetterboxInBreaks: 0
SpecialStyle: 0
WidescreenStoryboard: 1

[Editor]
Bookmarks: 493,10760,19744,21027,30011,31308,41319,46119,48749,59463,66963,68034,76606,84106,85177,93749,101249,102320,110891,118391,119463,128034,132320,135534,136606,153749,162556,166919,170192,171283,188425,206120,214796,219081,222296,223367,236224,239438,240603,244252,248678,259979,269234,271367,288434,292034,292700,296967,301234,305500,314034,321500,322567,330034,340139,348823,350127,355460
DistanceSpacing: 0.5
BeatDivisor: 4
GridSize: 32
TimelineZoom: 1.4

[Metadata]
Title:Hoshi o Kakeru Adventure ~ we are forever friends! ~ [Long ver.]
TitleUnicode:☆をかけるアドベンチャー ~ we are forever friends! ~ [Long ver.]
Artist:AAAA
ArtistUnicode:ああああ
Creator:Kawawa
Version:Best Friends!
Source:BMS
Tags:bofu2015 bms of fighters groundbreaking marathon chiptune bitpop extended
BeatmapID:1940272
BeatmapSetID:895664

[Difficulty]
HPDrainRate:8.7
CircleSize:7
OverallDifficulty:8.2
ApproachRate:5
SliderMultiplier:1.4
SliderTickRate:1

[Events]
//Background and Video events
0,0,"Background.jpg",0,0
//Break Periods
//Storyboard Layer 0 (Background)
//Storyboard Layer 1 (Fail)
//Storyboard Layer 2 (Pass)
//Storyboard Layer 3 (Foreground)
//Storyboard Sound Samples
Sample,97499,0,"BeLL.wav",30
Sample,188158,0,"Sub Rhythm-1.wav",50

[TimingPoints]
493,320.855614973262,4,2,1,15,1,0
493,-107.52688172043,4,2,1,15,0,0
19744,-106.382978723404,4,2,1,15,0,1
19904,-105.263157894737,4,2,1,15,0,1
20065,-104.166666666667,4,2,1,15,0,1
20225,-103.092783505155,4,2,1,15,0,1
20386,-102.040816326531,4,2,1,15,0,1
20546,-101.010101010101,4,2,1,15,0,1
20706,-100,4,2,1,15,0,1
20867,-99.009900990099,4,2,1,15,0,1
21027,-98.0392156862745,4,2,1,15,0,0
30011,324.324324324324,4,2,1,25,1,0
30011,-96.1538461538461,4,2,1,25,0,1
30092,-95.2380952380952,4,2,1,25,0,1
30173,-94.3396226415094,4,2,1,25,0,1
30254,-93.4579439252336,4,2,1,25,0,1
30335,-92.5925925925926,4,2,1,25,0,1
30416,-91.743119266055,4,2,1,25,0,1
30497,-90.9090909090909,4,2,1,25,0,1
30578,-90.0900900900901,4,2,1,25,0,1
30659,-89.2857142857143,4,2,1,25,0,1
30740,-88.4955752212389,4,2,1,25,0,1
30821,-87.719298245614,4,2,1,25,0,1
30902,-86.9565217391304,4,2,1,25,0,1
30983,-86.2068965517241,4,2,1,25,0,1
31065,-85.4700854700855,4,2,1,25,0,1
31146,-84.7457627118644,4,2,1,25,0,1
31227,-84.0336134453781,4,2,1,25,0,1
31308,315.789473684211,4,2,1,25,1,0
31308,-84.8214285714285,4,2,1,25,0,0
32571,312.5,4,2,1,25,1,0
32571,-85.7142857142857,4,2,1,25,0,0
33821,309.278350515464,4,2,1,25,1,0
33821,-86.6071428571428,4,2,1,25,0,0
35058,306.122448979592,4,2,1,25,1,0
35058,-87.5,4,2,1,25,0,0
36282,303.030303030303,4,2,1,25,1,0
36282,-88.3928571428572,4,2,1,25,0,0
37494,300,4,2,1,25,1,0
37494,-89.2857142857143,4,2,1,25,0,0
41469,-90.0900900900901,4,2,1,25,0,0
41544,-90.9090909090909,4,2,1,25,0,0
41619,-91.743119266055,4,2,1,25,0,0
41694,-92.5925925925926,4,2,1,25,0,0
41769,-93.4579439252336,4,2,1,25,0,0
41844,-94.3396226415094,4,2,1,25,0,0
41919,-95.2380952380952,4,2,1,25,0,0
41994,-96.1538461538461,4,2,1,25,0,0
42069,-97.0873786407767,4,2,1,25,0,0
42144,-98.0392156862745,4,2,1,25,0,0
42219,-99.009900990099,4,2,1,25,0,0
42294,-100,4,2,1,25,0,0
42369,-101.010101010101,4,2,1,25,0,0
42444,-102.040816326531,4,2,1,25,0,0
42519,-103.092783505155,4,2,1,25,0,0
42594,-104.166666666667,4,2,1,25,0,0
42669,-105.263157894737,4,2,1,25,0,0
42744,-106.382978723404,4,2,1,25,0,0
42819,-107.52688172043,4,2,1,25,0,0
42894,-108.695652173913,4,2,1,25,0,0
42969,-109.89010989011,4,2,1,25,0,0
43044,-111.111111111111,4,2,1,25,0,0
43119,-112.359550561798,4,2,1,25,0,0
43194,-113.636363636364,4,2,1,25,0,0
43269,-114.942528735632,4,2,1,25,0,0
43344,-116.279069767442,4,2,1,25,0,0
43419,-117.647058823529,4,2,1,25,0,0
43494,-119.047619047619,4,2,1,25,0,0
43569,-120.481927710843,4,2,1,25,0,0
43644,-121.951219512195,4,2,1,25,0,0
43719,-123.456790123457,4,2,1,25,0,0
43794,-125,4,2,1,25,0,0
43869,-126.582278481013,4,2,1,25,0,0
43944,-128.205128205128,4,2,1,25,0,0
44019,-129.87012987013,4,2,1,25,0,0
44094,-131.578947368421,4,2,1,25,0,0
44169,-133.333333333333,4,2,1,25,0,0
44244,-135.135135135135,4,2,1,25,0,0
44319,-136.986301369863,4,2,1,25,0,0
44394,-138.888888888889,4,2,1,25,0,0
44469,-140.845070422535,4,2,1,25,0,0
44544,-142.857142857143,4,2,1,25,0,0
44619,-144.927536231884,4,2,1,25,0,0
44694,-147.058823529412,4,2,1,25,0,0
44769,-149.253731343284,4,2,1,25,0,0
44844,-151.515151515152,4,2,1,25,0,0
44919,-153.846153846154,4,2,1,25,0,0
44994,-156.25,4,2,1,25,0,0
45069,-158.730158730159,4,2,1,25,0,0
45144,-161.290322580645,4,2,1,25,0,0
45219,-163.934426229508,4,2,1,25,0,0
45294,-166.666666666667,4,2,1,25,0,0
45369,-169.491525423729,4,2,1,25,0,0
45444,-172.413793103448,4,2,1,25,0,0
45519,-175.438596491228,4,2,1,25,0,0
45594,-178.571428571429,4,2,1,25,0,0
45669,-181.818181818182,4,2,1,25,0,0
45744,-185.185185185185,4,2,1,25,0,0
45819,-188.679245283019,4,2,1,25,0,0
45894,-192.307692307692,4,2,1,25,0,0
45969,-196.078431372549,4,2,1,25,0,0
46044,-200,4,2,1,25,0,0
46119,-204.081632653061,4,2,1,25,0,0
47094,-89.2857142857143,4,2,1,25,0,0
48749,267.857142857143,4,2,1,25,1,0
59463,-100,4,2,1,25,0,1
66963,-100,4,2,1,25,0,0
68034,-100,4,2,1,15,0,0
76606,-100,4,2,1,25,0,0
84106,-100,4,2,1,25,0,1
85177,-100,4,2,1,25,0,0
101249,-100,4,2,1,25,0,1
102320,-100,4,2,1,25,0,0
118391,-100,4,2,1,25,0,1
119463,-100,4,2,1,25,0,0
132320,-100,4,2,1,25,0,1
135534,-100,4,2,1,25,0,0
136606,-100,4,2,1,25,0,1
153749,275.229357798165,4,2,1,25,1,0
153749,-97.3214285714286,4,2,1,25,0,0
162556,272.727272727273,4,2,1,25,1,0
162556,-98.2142857142856,4,2,1,25,0,0
166919,-98.2142857142856,4,2,1,25,0,1
170192,-98.2142857142856,4,2,1,25,0,0
171283,267.857142857143,4,2,1,25,1,1
188425,276.497695852535,4,2,1,25,1,0
188425,-96.8749999999999,4,2,1,25,0,0
206120,273.972602739726,4,2,1,25,1,1
206120,-97.7678571428572,4,2,1,25,0,1
208311,271.493212669683,4,2,1,25,1,1
208311,-98.6607142857144,4,2,1,25,0,1
210482,270.27027027027,4,2,1,25,1,1
210482,-99.107142857143,4,2,1,25,0,1
212644,269.058295964126,4,2,1,25,1,1
212644,-99.5535714285713,4,2,1,25,0,1
214796,267.857142857143,4,2,1,25,1,0
219081,-100,4,2,1,25,0,1
222296,-100,4,2,1,25,0,0
236224,-100,4,2,1,25,0,1
239438,291.26213592233,4,2,1,25,1,0
239438,-91.9642857142857,4,2,1,25,0,0
240603,315.789473684211,4,2,1,25,1,0
240603,-87.719298245614,4,2,1,25,0,0
241234,392.156862745098,4,2,1,25,1,0
241234,-75.187969924812,4,2,1,25,0,0
242802,352.941176470588,4,2,1,25,1,0
242802,-86.9565217391304,4,2,1,25,0,0
243507,372.670807453416,4,2,1,25,1,0
243507,-85.4700854700855,4,2,1,25,0,0
244252,279.06976744186,4,2,1,25,1,0
244252,-117.647058823529,4,2,1,25,0,0
245368,413.793103448276,4,2,1,25,1,0
245368,-83.3333333333333,4,2,1,25,0,0
248678,324.324324324324,4,2,1,25,1,0
248678,-106.382978723404,4,2,1,25,0,0
249650,324.324324324324,4,2,1,25,1,0
249650,-103.092783505155,4,2,1,25,0,0
257433,320.855614973262,4,2,1,25,1,0
257433,-104.166666666667,4,2,1,25,0,0
258716,315.789473684211,4,2,1,25,1,0
258716,-105.263157894737,4,2,1,25,0,0
259979,310.880829015544,4,2,1,25,1,0
259979,-96.1538461538461,4,2,1,25,0,0
261222,306.122448979592,4,2,1,25,1,0
261222,-96.1538461538461,4,2,1,25,0,0
262446,301.507537688442,4,2,1,25,1,0
262446,-96.1538461538461,4,2,1,25,0,0
263652,297.029702970297,4,2,1,25,1,0
263652,-97.0873786407767,4,2,1,25,0,0
264840,289.855072463768,4,2,1,25,1,0
264840,-98.0392156862745,4,2,1,25,0,0
265999,279.06976744186,4,2,1,25,1,0
265999,-100,4,2,1,25,0,0
266557,267.857142857143,4,2,1,25,1,0
266557,-104.166666666667,4,2,1,25,0,0
267092,267.857142857143,4,2,1,25,1,0
267092,-103.092783505155,4,2,1,25,0,0
268163,-101.010101010101,4,2,1,25,0,0
269234,266.666666666667,4,2,1,25,1,0
269234,-100.446428571428,4,2,1,25,0,0
271367,-100.446428571428,4,2,1,25,0,1
288434,-58.8235294117647,4,2,1,25,0,0
288467,-333.333333333333,4,2,1,25,0,0
288500,-58.8235294117647,4,2,1,25,0,0
288533,-333.333333333333,4,2,1,25,0,0
288567,-58.8235294117647,4,2,1,25,0,0
288600,-333.333333333333,4,2,1,25,0,0
288634,-58.8235294117647,4,2,1,25,0,0
288667,-333.333333333333,4,2,1,25,0,0
288700,-100,4,2,1,25,0,1
292034,-22.2222222222222,4,2,1,25,0,0
292067,-285.714285714286,4,2,1,25,0,0
292300,-22.2222222222222,4,2,1,25,0,0
292334,-285.714285714286,4,2,1,25,0,0
292567,-22.2222222222222,4,2,1,25,0,0
292584,-285.714285714286,4,2,1,25,0,0
292700,-100,4,2,1,25,0,1
296967,-100,4,2,1,25,0,0
305500,-100,4,2,1,25,0,1
322567,-100,4,2,1,25,0,0
331100,272.727272727273,4,2,1,25,1,0
333281,279.06976744186,4,2,1,25,1,0
335513,285.714285714286,4,2,1,25,1,0
337798,292.682926829268,4,2,1,25,1,0
340139,300,4,2,1,25,1,0
342539,307.692307692308,4,2,1,25,1,0
345000,315.789473684211,4,2,1,25,1,0
347526,324.324324324324,4,2,1,25,1,0
348823,326.086956521739,4,2,1,25,1,1
350127,333.333333333333,4,2,1,25,1,0
350460,-102.040816326531,4,2,1,25,0,0
350793,-104.166666666667,4,2,1,25,0,0
351127,-106.382978723404,4,2,1,25,0,0
351460,-108.695652173913,4,2,1,25,0,0
351793,-111.111111111111,4,2,1,25,0,0
352127,-113.636363636364,4,2,1,25,0,0
352460,-116.279069767442,4,2,1,25,0,0
352793,-119.047619047619,4,2,1,25,0,0
353127,-121.951219512195,4,2,1,25,0,0
353460,-125,4,2,1,25,0,0
353793,-128.205128205128,4,2,1,25,0,0
354127,-131.578947368421,4,2,1,25,0,0
354460,-135.135135135135,4,2,1,25,0,0
354793,-138.888888888889,4,2,1,25,0,0
355127,-142.857142857143,4,2,1,25,0,0

[HitObjects]
109,192,653,5,0,0:0:0:0:
256,192,653,5,0,0:0:0:0:
109,192,813,128,0,974:0:0:0:0:
256,192,813,128,0,974:0:0:0:0:
109,192,1134,1,0,0:0:0:0:
256,192,1134,1,0,0:0:0:0:
109,192,1295,128,0,1455:0:0:0:0:
256,192,1295,128,0,1455:0:0:0:0:
109,192,1615,1,0,0:0:0:0:
256,192,1615,1,0,0:0:0:0:
109,192,1936,5,0,0:0:0:0:
256,192,1936,5,0,0:0:0:0:
109,192,2097,128,0,2257:0:0:0:0:
256,192,2097,128,0,2257:0:0:0:0:
109,192,2418,1,0,0:0:0:0:
256,192,2418,1,0,0:0:0:0:
109,192,2578,128,0,2738:0:0:0:0:
256,192,2578,128,0,2738:0:0:0:0:
109,192,2899,1,0,0:0:0:0:
256,192,2899,1,0,0:0:0:0:
475,192,3220,5,0,0:0:0:0:
329,192,3220,1,0,0:0:0:0:
475,192,3380,128,0,3541:0:0:0:0:
329,192,3380,128,0,3541:0:0:0:0:
475,192,3701,1,0,0:0:0:0:
329,192,3701,1,0,0:0:0:0:
475,192,3861,128,0,4022:0:0:0:0:
329,192,3861,128,0,4022:0:0:0:0:
475,192,4182,1,0,0:0:0:0:
329,192,4182,1,0,0:0:0:0:
475,192,4503,5,0,0:0:0:0:
329,192,4503,1,0,0:0:0:0:
475,192,4664,128,0,4824:0:0:0:0:
329,192,4664,128,0,4824:0:0:0:0:
475,192,4984,1,0,0:0:0:0:
329,192,4984,1,0,0:0:0:0:
475,192,5145,128,0,5305:0:0:0:0:
329,192,5145,128,0,5305:0:0:0:0:
475,192,5466,1,0,0:0:0:0:
329,192,5466,1,0,0:0:0:0:
109,192,5787,1,0,0:0:0:0:
256,192,5787,1,0,0:0:0:0:
109,192,5947,128,0,6107:0:0:0:0:
256,192,5947,128,0,6107:0:0:0:0:
109,192,6268,1,0,0:0:0:0:
256,192,6268,1,0,0:0:0:0:
109,192,6428,128,0,6589:0:0:0:0:
256,192,6428,128,0,6589:0:0:0:0:
109,192,6749,1,0,0:0:0:0:
256,192,6749,1,0,0:0:0:0:
109,192,7070,1,0,0:0:0:0:
256,192,7070,1,0,0:0:0:0:
109,192,7230,128,0,7391:0:0:0:0:
256,192,7230,128,0,7391:0:0:0:0:
109,192,7551,1,0,0:0:0:0:
256,192,7551,1,0,0:0:0:0:
109,192,7712,128,0,7872:0:0:0:0:
256,192,7712,128,0,7872:0:0:0:0:
109,192,8033,1,0,0:0:0:0:
256,192,8033,1,0,0:0:0:0:
475,192,8353,1,0,0:0:0:0:
329,192,8353,1,0,0:0:0:0:
475,192,8514,128,0,8674:0:0:0:0:
329,192,8514,128,0,8674:0:0:0:0:
475,192,8835,1,0,0:0:0:0:
329,192,8835,1,0,0:0:0:0:
475,192,8995,128,0,9156:0:0:0:0:
329,192,8995,128,0,9156:0:0:0:0:
475,192,9316,1,0,0:0:0:0:
329,192,9316,1,0,0:0:0:0:
475,192,9637,1,0,0:0:0:0:
329,192,9637,1,0,0:0:0:0:
475,192,9797,128,0,9958:0:0:0:0:
329,192,9797,128,0,9958:0:0:0:0:
475,192,10118,1,0,0:0:0:0:
329,192,10118,1,0,0:0:0:0:
475,192,10279,128,0,10439:0:0:0:0:
329,192,10279,128,0,10439:0:0:0:0:
475,192,10599,1,0,0:0:0:0:
329,192,10599,1,0,0:0:0:0:
36,192,10760,128,0,19744:0:0:0:0:
329,192,10920,1,0,0:0:0:0:
182,192,10920,1,0,0:0:0:0:
329,192,11081,128,0,11241:0:0:0:0:
182,192,11081,128,0,11241:0:0:0:0:
329,192,11402,1,0,0:0:0:0:
182,192,11402,1,0,0:0:0:0:
329,192,11562,128,0,11722:0:0:0:0:
182,192,11562,128,0,11722:0:0:0:0:
329,192,11883,1,0,0:0:0:0:
182,192,11883,1,0,0:0:0:0:
329,192,12204,1,0,0:0:0:0:
182,192,12204,1,0,0:0:0:0:
329,192,12364,128,0,12525:0:0:0:0:
182,192,12364,128,0,12525:0:0:0:0:
329,192,12685,1,0,0:0:0:0:
182,192,12685,1,0,0:0:0:0:
329,192,12845,128,0,13006:0:0:0:0:
182,192,12845,128,0,13006:0:0:0:0:
329,192,13166,1,0,0:0:0:0:
182,192,13166,1,0,0:0:0:0:
475,192,13327,128,0,19744:0:0:0:0:
402,192,13487,1,0,0:0:0:0:
256,192,13487,1,0,0:0:0:0:
402,192,13648,128,0,13808:0:0:0:0:
256,192,13648,128,0,13808:0:0:0:0:
402,192,13968,1,0,0:0:0:0:
256,192,13968,1,0,0:0:0:0:
402,192,14129,128,0,14289:0:0:0:0:
256,192,14129,128,0,14289:0:0:0:0:
402,192,14450,1,0,0:0:0:0:
256,192,14450,1,0,0:0:0:0:
402,192,14771,1,0,0:0:0:0:
256,192,14771,1,0,0:0:0:0:
402,192,14931,128,0,15091:0:0:0:0:
256,192,14931,128,0,15091:0:0:0:0:
402,192,15252,1,0,0:0:0:0:
256,192,15252,1,0,0:0:0:0:
402,192,15412,128,0,15573:0:0:0:0:
256,192,15412,128,0,15573:0:0:0:0:
402,192,15733,1,0,0:0:0:0:
256,192,15733,1,0,0:0:0:0:
329,192,15894,128,0,18460:0:0:0:0:
182,192,16054,1,0,0:0:0:0:
109,192,16054,1,0,0:0:0:0:
182,192,16214,128,0,16375:0:0:0:0:
109,192,16214,128,0,16375:0:0:0:0:
182,192,16535,1,0,0:0:0:0:
109,192,16535,1,0,0:0:0:0:
182,192,16696,128,0,16856:0:0:0:0:
109,192,16696,128,0,16856:0:0:0:0:
182,192,17017,1,0,0:0:0:0:
109,192,17017,1,0,0:0:0:0:
182,192,17337,1,0,0:0:0:0:
109,192,17337,1,0,0:0:0:0:
182,192,17498,128,0,17658:0:0:0:0:
109,192,17498,128,0,17658:0:0:0:0:
182,192,17819,1,0,0:0:0:0:
109,192,17819,1,0,0:0:0:0:
182,192,17979,128,0,18140:0:0:0:0:
109,192,17979,128,0,18140:0:0:0:0:
182,192,18300,1,0,0:0:0:0:
109,192,18300,1,0,0:0:0:0:
256,192,18460,128,0,20947:0:0:0:0:
402,192,18621,1,0,0:0:0:0:
109,192,18621,1,0,0:0:0:0:
402,192,18781,128,0,18942:0:0:0:0:
109,192,18781,128,0,18942:0:0:0:0:
402,192,19102,1,0,0:0:0:0:
109,192,19102,1,0,0:0:0:0:
402,192,19263,128,0,19423:0:0:0:0:
109,192,19263,128,0,19423:0:0:0:0:
402,192,19583,1,0,0:0:0:0:
109,192,19583,1,0,0:0:0:0:
329,192,19744,128,0,19824:0:0:0:0:
182,192,19744,128,0,19824:0:0:0:0:
402,192,19824,128,0,19904:0:0:0:0:
475,192,19904,128,0,19984:0:0:0:0:
109,192,19904,128,0,19984:0:0:0:0:
182,192,19984,128,0,20065:0:0:0:0:
36,192,20065,128,0,20145:0:0:0:0:
402,192,20065,128,0,20145:0:0:0:0:
109,192,20145,128,0,20225:0:0:0:0:
182,192,20225,128,0,20305:0:0:0:0:
329,192,20225,128,0,20305:0:0:0:0:
402,192,20305,128,0,20386:0:0:0:0:
36,192,20386,128,0,20466:0:0:0:0:
475,192,20386,128,0,20466:0:0:0:0:
329,192,20466,128,0,20546:0:0:0:0:
402,192,20546,128,0,20626:0:0:0:0:
36,192,20546,128,0,20626:0:0:0:0:
182,192,20626,128,0,20706:0:0:0:0:
109,192,20706,128,0,20787:0:0:0:0:
402,192,20706,128,0,20787:0:0:0:0:
329,192,20787,128,0,20867:0:0:0:0:
109,192,20867,128,0,20947:0:0:0:0:
475,192,20867,128,0,20947:0:0:0:0:
182,192,20947,128,0,21027:0:0:0:0:
402,192,21027,1,0,0:0:0:30:Sub Rhythm-1.wav
36,192,21027,128,0,21348:0:0:0:50:Highlight.wav
475,192,21027,128,0,21348:0:0:0:0:
256,192,21027,128,0,21107:0:0:0:50:Cymbal.wav
329,192,21188,1,0,0:0:0:30:Sub Rhythm-1.wav
109,192,21348,1,0,0:0:0:0:
256,192,21348,1,0,0:0:0:30:Sub Rhythm-1.wav
109,192,21509,1,0,0:0:0:0:
402,192,21509,1,0,0:0:0:30:Sub Rhythm-1.wav
182,192,21669,1,0,0:0:0:0:
329,192,21669,1,0,0:0:0:30:Sub Rhythm-1.wav
36,192,21829,1,0,0:0:0:0:
256,192,21829,1,0,0:0:0:30:Sub Rhythm-1.wav
109,192,21990,1,0,0:0:0:0:
402,192,21990,1,0,0:0:0:30:Sub Rhythm-1.wav
329,192,22150,1,0,0:0:0:30:Sub Rhythm-1.wav
36,192,22150,128,0,22471:0:0:0:50:Highlight.wav
182,192,22150,128,0,22471:0:0:0:0:
256,192,22311,1,0,0:0:0:30:Sub Rhythm-1.wav
402,192,22471,1,0,0:0:0:30:Sub Rhythm-1.wav
109,192,22471,1,0,0:0:0:0:
329,192,22632,1,0,0:0:0:30:Sub Rhythm-1.wav
109,192,22632,1,0,0:0:0:0:
36,192,22792,1,0,0:0:0:0:
256,192,22792,1,0,0:0:0:30:Sub Rhythm-1.wav
329,192,22952,1,0,0:0:0:30:Sub Rhythm-1.wav
109,192,22952,1,0,0:0:0:0:
402,192,23113,1,0,0:0:0:30:Sub Rhythm-1.wav
182,192,23113,1,0,0:0:0:0:
329,192,23273,1,0,0:0:0:30:Sub Rhythm-1.wav
109,192,23273,1,0,0:0:0:0:
402,192,23434,1,0,0:0:0:30:Sub Rhythm-1.wav
182,192,23434,1,0,0:0:0:0:
36,192,23594,1,0,0:0:0:30:Sub Rhythm-1.wav
475,192,23594,128,0,23915:0:0:0:0:
256,192,23594,128,0,23915:0:0:0:50:Highlight.wav
109,192,23755,1,0,0:0:0:30:Sub Rhythm-1.wav
329,192,23915,1,0,0:0:0:0:
182,192,23915,1,0,0:0:0:30:Sub Rhythm-1.wav
329,192,24075,1,0,0:0:0:0:
36,192,24075,1,0,0:0:0:30:Sub Rhythm-1.wav
109,192,24236,1,0,0:0:0:30:Sub Rhythm-1.wav
475,192,24236,1,0,0:0:0:0:
182,192,24396,1,0,0:0:0:30:Sub Rhythm-1.wav
329,192,24396,1,0,0:0:0:0:
475,192,24557,1,0,0:0:0:0:
36,192,24557,1,0,0:0:0:30:Sub Rhythm-1.wav
109,192,24717,1,0,0:0:0:30:Sub Rhythm-1.wav
256,192,24717,128,0,25038:0:0:0:0:
402,192,24717,128,0,25038:0:0:0:50:Highlight.wav
182,192,24878,1,0,0:0:0:30:Sub Rhythm-1.wav
329,192,25038,1,0,0:0:0:0:
36,192,25038,1,0,0:0:0:30:Sub Rhythm-1.wav
109,192,25198,1,0,0:0:0:30:Sub Rhythm-1.wav
329,192,25198,1,0,0:0:0:0:
402,192,25359,1,0,0:0:0:0:
182,192,25359,1,0,0:0:0:30:Sub Rhythm-1.wav
475,192,25519,1,0,0:0:0:0:
256,192,25519,1,0,0:0:0:30:Sub Rhythm-1.wav
329,192,25680,1,0,0:0:0:30:Sub Rhythm-1.wav
109,192,25680,1,0,0:0:0:0:
182,192,25840,1,0,0:0:0:0:
402,192,25840,1,0,0:0:0:30:Sub Rhythm-1.wav
329,192,26001,1,0,0:0:0:30:Sub Rhythm-1.wav
36,192,26001,1,0,0:0:0:0:
475,192,26161,1,0,0:0:0:30:Sub Rhythm-1.wav
109,192,26161,128,0,26482:0:0:0:50:Highlight.wav
256,192,26161,128,0,26482:0:0:0:0:
402,192,26321,1,0,0:0:0:30:Sub Rhythm-1.wav
329,192,26482,1,0,0:0:0:30:Sub Rhythm-1.wav
182,192,26482,1,0,0:0:0:0:
182,192,26642,1,0,0:0:0:0:
475,192,26642,1,0,0:0:0:30:Sub Rhythm-1.wav
402,192,26803,1,0,0:0:0:30:Sub Rhythm-1.wav
36,192,26803,1,0,0:0:0:0:
182,192,26963,1,0,0:0:0:0:
329,192,26963,1,0,0:0:0:30:Sub Rhythm-1.wav
475,192,27124,1,0,0:0:0:30:Sub Rhythm-1.wav
109,192,27124,1,0,0:0:0:0:
256,192,27284,128,0,27605:0:0:0:50:Highlight.wav
36,192,27284,128,0,27605:0:0:0:0:
402,192,27284,1,0,0:0:0:30:Sub Rhythm-1.wav
329,192,27444,1,0,0:0:0:30:Sub Rhythm-1.wav
182,192,27605,1,0,0:0:0:0:
475,192,27605,1,0,0:0:0:30:Sub Rhythm-1.wav
402,192,27765,1,0,0:0:0:30:Sub Rhythm-1.wav
182,192,27765,1,0,0:0:0:0:
36,192,27926,1,0,0:0:0:0:
329,192,27926,1,0,0:0:0:30:Sub Rhythm-1.wav
182,192,28086,1,0,0:0:0:30:Sub Rhythm-1.wav
402,192,28086,1,0,0:0:0:0:
256,192,28247,1,0,0:0:0:30:Sub Rhythm-1.wav
36,192,28247,1,0,0:0:0:0:
329,192,28407,1,0,0:0:0:30:Sub Rhythm-1.wav
109,192,28407,1,0,0:0:0:0:
182,192,28567,1,0,0:0:0:0:
402,192,28567,1,0,0:0:0:30:Sub Rhythm-1.wav
256,192,28728,1,0,0:0:0:30:Sub Rhythm-1.wav
475,192,28728,128,0,29049:0:0:0:50:Highlight.wav
329,192,28728,128,0,29049:0:0:0:0:
182,192,28888,1,0,0:0:0:30:Sub Rhythm-1.wav
402,192,29049,1,0,0:0:0:0:
109,192,29049,1,0,0:0:0:30:Sub Rhythm-1.wav
256,192,29209,1,0,0:0:0:30:Sub Rhythm-1.wav
402,192,29209,1,0,0:0:0:0:
182,192,29370,1,0,0:0:0:30:Sub Rhythm-1.wav
329,192,29370,1,0,0:0:0:0:
475,192,29530,1,0,0:0:0:0:
109,192,29530,1,0,0:0:0:30:Sub Rhythm-1.wav
256,192,29690,1,0,0:0:0:30:Sub Rhythm-1.wav
402,192,29690,1,0,0:0:0:0:
182,192,29851,1,0,0:0:0:30:Sub Rhythm-1.wav
475,192,29851,128,0,30173:0:0:0:50:Highlight.wav
36,192,29851,128,0,30173:0:0:0:0:
256,192,30011,128,0,30092:0:0:0:0:
109,192,30011,128,0,30092:0:0:0:30:Sub Rhythm-1.wav
329,192,30092,128,0,30173:0:0:0:0:
109,192,30173,128,0,30254:0:0:0:0:
402,192,30173,128,0,30254:0:0:0:0:
182,192,30254,128,0,30335:0:0:0:0:
256,192,30335,128,0,30416:0:0:0:0:
402,192,30335,128,0,30416:0:0:0:0:
475,192,30416,128,0,30497:0:0:0:0:
329,192,30497,128,0,30578:0:0:0:0:
182,192,30497,128,0,30578:0:0:0:0:
36,192,30578,128,0,30659:0:0:0:0:
256,192,30659,128,0,30740:0:0:0:0:
109,192,30659,128,0,30740:0:0:0:0:
329,192,30740,128,0,30821:0:0:0:0:
109,192,30821,128,0,30902:0:0:0:0:
475,192,30821,128,0,30902:0:0:0:0:
182,192,30902,128,0,30983:0:0:0:0:
329,192,30902,128,0,30983:0:0:0:0:
36,192,30983,128,0,31065:0:0:0:0:
402,192,30983,128,0,31065:0:0:0:0:
182,192,31065,128,0,31146:0:0:0:0:
402,192,31146,128,0,31227:0:0:0:0:
256,192,31146,128,0,31227:0:0:0:0:
475,192,31227,128,0,31308:0:0:0:0:
36,192,31308,1,0,0:0:0:50:Highlight.wav
182,192,31308,1,0,0:0:0:30:Cymbal.wav
329,192,31308,1,0,0:0:0:30:Sub Rhythm-1.wav
109,192,31308,1,0,0:0:0:0:
475,192,31465,1,0,0:0:0:30:Sub Rhythm-1.wav
109,192,31623,1,0,0:0:0:0:
182,192,31623,1,0,0:0:0:0:
402,192,31623,1,0,0:0:0:30:Sub Rhythm-1.wav
36,192,31623,1,0,0:0:0:50:Highlight.wav
329,192,31781,1,0,0:0:0:30:Sub Rhythm-1.wav
475,192,31939,1,0,0:0:0:30:Sub Rhythm-1.wav
36,192,32097,1,0,0:0:0:50:Highlight.wav
109,192,32097,1,0,0:0:0:0:
402,192,32097,1,0,0:0:0:30:Sub Rhythm-1.wav
256,192,32097,1,0,0:0:0:0:
182,192,32215,128,0,32275:0:0:0:30:Chi!.wav
329,192,32255,1,0,0:0:0:30:Sub Rhythm-1.wav
475,192,32413,1,0,0:0:0:30:Sub Rhythm-1.wav
182,192,32413,128,0,32472:0:0:0:30:Chi!.wav
402,192,32571,1,0,0:0:0:30:Sub Rhythm-1.wav
182,192,32610,128,0,32668:0:0:0:30:Chi!.wav
329,192,32727,1,0,0:0:0:30:Sub Rhythm-1.wav
475,192,32785,128,0,32844:0:0:0:30:Chi!.wav
36,192,32883,1,0,0:0:0:30:Sub Rhythm-1.wav
475,192,32981,128,0,33039:0:0:0:30:Chi!.wav
182,192,33039,1,0,0:0:0:30:Sub Rhythm-1.wav
475,192,33176,128,0,33235:0:0:0:30:Chi!.wav
329,192,33196,1,0,0:0:0:30:Sub Rhythm-1.wav
36,192,33352,1,0,0:0:0:0:
109,192,33352,1,0,0:0:0:50:Highlight.wav
256,192,33352,1,0,0:0:0:30:Sub Rhythm-1.wav
475,192,33371,128,0,33430:0:0:0:30:Chi!.wav
329,192,33508,1,0,0:0:0:30:Sub Rhythm-1.wav
182,192,33508,1,0,0:0:0:50:Highlight.wav
109,192,33508,1,0,0:0:0:0:
475,192,33567,128,0,33625:0:0:0:30:Chi!.wav
402,192,33664,1,0,0:0:0:30:Sub Rhythm-1.wav
256,192,33664,1,0,0:0:0:50:Highlight.wav
182,192,33664,1,0,0:0:0:0:
475,192,33762,128,0,33821:0:0:0:30:Chi!.wav
256,192,33821,1,0,0:0:0:0:
329,192,33821,1,0,0:0:0:50:Highlight.wav
36,192,33821,1,0,0:0:0:30:Sub Rhythm-1.wav
109,192,33975,1,0,0:0:0:30:Sub Rhythm-1.wav
329,192,34130,128,0,34284:0:0:0:0:
182,192,34130,1,0,0:0:0:30:Sub Rhythm-1.wav
475,192,34130,128,0,34284:0:0:0:0:
36,192,34284,1,0,0:0:0:50:Highlight.wav
402,192,34284,1,0,0:0:0:0:
109,192,34284,1,0,0:0:0:0:
256,192,34284,1,0,0:0:0:30:Sub Rhythm-1.wav
109,192,34439,1,0,0:0:0:0:
329,192,34439,1,0,0:0:0:30:Sub Rhythm-1.wav
36,192,34439,1,0,0:0:0:50:Highlight.wav
402,192,34594,1,0,0:0:0:0:
256,192,34594,1,0,0:0:0:30:Sub Rhythm-1.wav
475,192,34594,1,0,0:0:0:50:Highlight.wav
182,192,34748,1,0,0:0:0:30:Sub Rhythm-1.wav
329,192,34748,1,0,0:0:0:0:
402,192,34748,1,0,0:0:0:50:Highlight.wav
109,192,34903,1,0,0:0:0:30:Sub Rhythm-1.wav
256,192,34903,1,0,0:0:0:0:
329,192,34903,1,0,0:0:0:50:Highlight.wav
36,192,35058,1,0,0:0:0:30:Sub Rhythm-1.wav
182,192,35211,1,0,0:0:0:30:Sub Rhythm-1.wav
329,192,35364,1,0,0:0:0:30:Sub Rhythm-1.wav
475,192,35517,1,0,0:0:0:30:Sub Rhythm-1.wav
182,192,35593,128,0,35670:0:0:0:0:
109,192,35631,128,0,35708:0:0:0:0:
402,192,35670,128,0,35823:0:0:0:30:Sub Rhythm-1.wav
36,192,35670,128,0,36282:0:0:0:0:
256,192,35823,128,0,35976:0:0:0:30:Sub Rhythm-1.wav
402,192,35976,128,0,36129:0:0:0:30:Sub Rhythm-1.wav
256,192,36129,128,0,36282:0:0:0:30:Sub Rhythm-1.wav
109,192,36282,1,0,0:0:0:50:Highlight.wav
182,192,36282,1,0,0:0:0:0:
329,192,36282,1,0,0:0:0:0:
475,192,36282,1,0,0:0:0:30:Sub Rhythm-1.wav
182,192,36433,1,0,0:0:0:0:
402,192,36433,1,0,0:0:0:30:Sub Rhythm-1.wav
182,192,36585,1,0,0:0:0:0:
329,192,36585,1,0,0:0:0:30:Sub Rhythm-1.wav
256,192,36736,1,0,0:0:0:30:Sub Rhythm-1.wav
36,192,36736,1,0,0:0:0:0:
475,192,36736,1,0,0:0:0:0:
109,192,36736,1,0,0:0:0:50:Highlight.wav
329,192,36888,1,0,0:0:0:30:Sub Rhythm-1.wav
182,192,36888,128,0,37644:0:0:0:0:
402,192,37039,1,0,0:0:0:30:Sub Rhythm-1.wav
36,192,37191,1,0,0:0:0:0:
109,192,37191,1,0,0:0:0:50:Highlight.wav
256,192,37191,1,0,0:0:0:0:
475,192,37191,1,0,0:0:0:30:Sub Rhythm-1.wav
402,192,37342,1,0,0:0:0:30:Sub Rhythm-1.wav
329,192,37494,1,0,0:0:0:30:Sub Rhythm-1.wav
256,192,37644,1,0,0:0:0:30:Sub Rhythm-1.wav
36,192,37794,128,0,37944:0:0:0:0:
109,192,37794,128,0,37944:0:0:0:50:Highlight.wav
182,192,37794,1,0,0:0:0:0:
329,192,37794,1,0,0:0:0:30:Sub Rhythm-1.wav
402,192,37944,1,0,0:0:0:30:Sub Rhythm-1.wav
182,192,38094,128,0,38244:0:0:0:50:Highlight.wav
256,192,38094,1,0,0:0:0:0:
475,192,38094,1,0,0:0:0:30:Sub Rhythm-1.wav
109,192,38094,128,0,38244:0:0:0:0:
36,192,38244,128,0,38994:0:0:0:0:
329,192,38244,1,0,0:0:0:30:Sub Rhythm-1.wav
402,192,38394,1,0,0:0:0:0:
182,192,38394,128,0,38544:0:0:0:0:
256,192,38394,128,0,38544:0:0:0:50:Highlight.wav
475,192,38394,1,0,0:0:0:30:Sub Rhythm-1.wav
329,192,38544,1,0,0:0:0:30:Sub Rhythm-1.wav
402,192,38619,1,0,0:0:0:50:Sub Drum.wav
256,192,38694,1,0,0:0:0:50:Sub Drum.wav
182,192,38694,1,0,0:0:0:0:
109,192,38694,1,0,0:0:0:30:Sub Rhythm-1.wav
475,192,38694,1,0,0:0:0:50:Highlight.wav
402,192,38769,1,0,0:0:0:50:Sub Drum.wav
109,192,38844,1,0,0:0:0:30:Sub Rhythm-1.wav
329,192,38844,1,0,0:0:0:50:Sub Drum.wav
182,192,38894,1,0,0:0:0:50:Sub Drum.wav
475,192,38944,1,0,0:0:0:50:Sub Drum.wav
402,192,38944,1,0,0:0:0:25:Snare.wav
109,192,38994,1,0,0:0:0:30:Sub Rhythm-1.wav
256,192,38994,1,0,0:0:0:50:Sub Drum.wav
329,192,39044,1,0,0:0:0:50:Sub Drum.wav
402,192,39094,1,0,0:0:0:50:Sub Drum.wav
182,192,39144,1,0,0:0:0:30:Sub Rhythm-1.wav
36,192,39144,1,0,0:0:0:50:Sub Drum.wav
329,192,39194,1,0,0:0:0:50:Sub Drum.wav
109,192,39219,128,0,39256:0:0:0:30:Tick.wav
402,192,39244,1,0,0:0:0:50:Sub Drum.wav
256,192,39294,1,0,0:0:0:30:Sub Rhythm-1.wav
475,192,39294,1,0,0:0:0:50:Sub Drum.wav
36,192,39444,128,0,40119:0:0:0:0:
182,192,39444,128,0,39744:0:0:0:30:Tick.wav
329,192,39444,1,0,0:0:0:30:Sub Rhythm-1.wav
402,192,39594,1,0,0:0:0:30:Sub Rhythm-1.wav
256,192,39744,128,0,39894:0:0:0:0:
475,192,39744,1,0,0:0:0:30:Sub Rhythm-1.wav
329,192,39819,128,0,39969:0:0:0:0:
402,192,39894,128,0,40194:0:0:0:0:
182,192,40044,1,0,0:0:0:30:Tick.wav
182,192,40119,1,0,0:0:0:30:Tick.wav
256,192,40156,1,0,0:0:0:50:Sub Drum.wav
329,192,40194,1,0,0:0:0:50:Sub Drum.wav
109,192,40244,1,0,0:0:0:50:Sub Drum.wav
36,192,40244,1,0,0:0:0:25:Snare.wav
402,192,40269,128,0,40394:0:0:0:30:Tick.wav
182,192,40294,1,0,0:0:0:50:Sub Drum.wav
256,192,40344,1,0,0:0:0:50:Sub Drum.wav
475,192,40394,1,0,0:0:0:50:Sub Drum.wav
329,192,40444,1,0,0:0:0:50:Sub Drum.wav
36,192,40494,1,0,0:0:0:30:Tick.wav
182,192,40494,1,0,0:0:0:50:Sub Drum.wav
475,192,40544,1,0,0:0:0:50:Sub Drum.wav
36,192,40569,1,0,0:0:0:30:Tick.wav
402,192,40594,1,0,0:0:0:50:Sub Drum.wav
329,192,40644,1,0,0:0:0:50:Sub Drum.wav
256,192,40694,1,0,0:0:0:50:Sub Drum.wav
182,192,40744,1,0,0:0:0:50:Sub Drum.wav
109,192,40794,128,0,41319:0:0:0:50:Sub Drum.wav
475,192,40794,128,0,40831:0:0:0:30:Tick.wav
329,192,41019,128,0,41056:0:0:0:30:Tick.wav
402,192,41244,128,0,41394:0:0:0:30:Tick.wav
475,192,41319,128,0,46119:0:0:0:0:
36,192,41319,128,0,46119:0:0:0:0:
256,192,41319,128,0,41469:0:0:0:30:Tick.wav
329,192,41394,128,0,46119:0:0:0:30:Tick.wav
182,192,41469,128,0,46119:0:0:0:30:Tick.wav
329,192,48749,1,0,0:0:0:0:
475,192,48749,1,0,0:0:0:30:Sub Snare.wav
109,192,48749,128,0,49016:0:0:0:0:
329,192,49016,1,0,0:0:0:0:
475,192,49016,1,0,0:0:0:30:Sub Snare.wav
36,192,49150,128,0,49284:0:0:0:0:
109,192,49217,128,0,49351:0:0:0:0:
256,192,49284,1,0,0:0:0:0:
182,192,49284,128,0,49418:0:0:0:0:
475,192,49284,1,0,0:0:0:30:Sub Snare.wav
402,192,49284,1,0,0:0:0:0:
36,192,49418,128,0,49485:0:0:0:0:
182,192,49552,128,0,49619:0:0:0:0:
402,192,49552,1,0,0:0:0:0:
475,192,49552,1,0,0:0:0:30:Sub Snare.wav
109,192,49686,128,0,49954:0:0:0:0:
329,192,49686,1,0,0:0:0:30:Sub Snare.wav
402,192,49753,1,0,0:0:0:30:Sub Snare.wav
475,192,49820,1,0,0:0:0:0:
256,192,49820,1,0,0:0:0:30:Sub Snare.wav
36,192,49954,1,0,0:0:0:0:
475,192,49954,128,0,50088:0:0:0:0:
182,192,49954,1,0,0:0:0:30:Sub Snare.wav
182,192,50088,1,0,0:0:0:30:Sub Snare.wav
36,192,50088,1,0,0:0:0:0:
329,192,50088,128,0,50155:0:0:0:0:
475,192,50222,128,0,50289:0:0:0:0:
256,192,50356,1,0,0:0:0:0:
402,192,50356,1,0,0:0:0:0:
109,192,50356,1,0,0:0:0:30:Sub Snare.wav
329,192,50423,1,0,0:0:0:30:Sub Snare.wav
182,192,50490,128,0,50624:0:0:0:0:
402,192,50624,1,0,0:0:0:0:
329,192,50624,128,0,50757:0:0:0:0:
109,192,50624,1,0,0:0:0:30:Sub Snare.wav
475,192,50757,128,0,50891:0:0:0:0:
109,192,50757,1,0,0:0:0:30:Sub Snare.wav
182,192,50824,1,0,0:0:0:30:Sub Snare.wav
36,192,50891,1,0,0:0:0:0:
402,192,50891,128,0,51159:0:0:0:0:
256,192,50891,1,0,0:0:0:30:Sub Snare.wav
329,192,51025,128,0,51159:0:0:0:0:
182,192,51159,1,0,0:0:0:0:
109,192,51159,128,0,51293:0:0:0:0:
475,192,51159,1,0,0:0:0:30:Sub Snare.wav
256,192,51293,128,0,51561:0:0:0:0:
36,192,51427,1,0,0:0:0:0:
182,192,51427,1,0,0:0:0:0:
329,192,51427,1,0,0:0:0:30:Sub Snare.wav
475,192,51561,128,0,51829:0:0:0:0:
109,192,51695,1,0,0:0:0:0:
402,192,51695,128,0,51829:0:0:0:0:
256,192,51695,1,0,0:0:0:30:Sub Snare.wav
329,192,51829,128,0,52097:0:0:0:0:
36,192,51829,1,0,0:0:0:30:Sub Snare.wav
182,192,51896,1,0,0:0:0:30:Sub Snare.wav
109,192,51963,1,0,0:0:0:0:
475,192,51963,1,0,0:0:0:30:Sub Snare.wav
256,192,52097,1,0,0:0:0:0:
182,192,52097,128,0,52231:0:0:0:0:
402,192,52097,1,0,0:0:0:30:Sub Snare.wav
256,192,52231,1,0,0:0:0:0:
36,192,52231,128,0,52499:0:0:0:0:
402,192,52231,1,0,0:0:0:30:Sub Snare.wav
182,192,52365,128,0,52499:0:0:0:0:
109,192,52499,1,0,0:0:0:0:
475,192,52499,1,0,0:0:0:0:
329,192,52499,1,0,0:0:0:30:Sub Snare.wav
402,192,52632,128,0,52766:0:0:0:0:
36,192,52766,1,0,0:0:0:0:
256,192,52766,128,0,52900:0:0:0:0:
182,192,52766,1,0,0:0:0:30:Sub Snare.wav
109,192,52900,128,0,53034:0:0:0:0:
329,192,52900,1,0,0:0:0:30:Sub Snare.wav
256,192,52967,1,0,0:0:0:30:Sub Snare.wav
475,192,53034,128,0,53704:0:0:0:0:
329,192,53034,1,0,0:0:0:0:
36,192,53034,1,0,0:0:0:0:
182,192,53034,1,0,0:0:0:50:CrashL.wav
402,192,53034,1,0,0:0:0:50:Kick.wav
36,192,53302,1,0,0:0:0:0:
256,192,53302,1,0,0:0:0:0:
402,192,53302,1,0,0:0:0:50:Kick.wav
182,192,53302,128,0,53704:0:0:0:0:
329,192,53436,128,0,53704:0:0:0:0:
36,192,53570,1,0,0:0:0:0:
256,192,53570,1,0,0:0:0:0:
109,192,53570,1,0,0:0:0:50:Snare.wav
109,192,53704,128,0,53972:0:0:0:0:
402,192,53838,128,0,53972:0:0:0:0:
475,192,53972,1,0,0:0:0:0:
256,192,53972,128,0,54240:0:0:0:0:
36,192,53972,1,0,0:0:0:50:Kick.wav
329,192,54039,1,0,0:0:0:0:
182,192,54039,1,0,0:0:0:50:Kick.wav
402,192,54106,1,0,0:0:0:0:
109,192,54106,1,0,0:0:0:50:Kick.wav
36,192,54240,1,0,0:0:0:0:
182,192,54240,1,0,0:0:0:0:
329,192,54240,1,0,0:0:0:50:Snare.wav
475,192,54240,128,0,54374:0:0:0:0:
256,192,54374,1,0,0:0:0:0:
402,192,54374,128,0,54507:0:0:0:0:
109,192,54374,1,0,0:0:0:50:Sub Drum.wav
256,192,54507,1,0,0:0:0:0:
36,192,54507,1,0,0:0:0:0:
109,192,54507,1,0,0:0:0:50:Kick.wav
329,192,54507,128,0,54641:0:0:0:0:
182,192,54641,1,0,0:0:0:0:
475,192,54641,1,0,0:0:0:0:
36,192,54641,1,0,0:0:0:50:Snare.wav
109,192,54775,128,0,54909:0:0:0:0:
36,192,54909,1,0,0:0:0:0:
329,192,54909,1,0,0:0:0:0:
475,192,54909,1,0,0:0:0:50:Kick.wav
182,192,54909,128,0,55043:0:0:0:0:
256,192,55043,128,0,55177:0:0:0:0:
475,192,55043,1,0,0:0:0:50:Sub Drum.wav
402,192,55110,1,0,0:0:0:50:Sub Drum.wav
182,192,55177,1,0,0:0:0:0:
109,192,55177,1,0,0:0:0:0:
36,192,55177,1,0,0:0:0:50:Kick.wav
329,192,55177,128,0,55847:0:0:0:0:
109,192,55445,1,0,0:0:0:0:
475,192,55445,1,0,0:0:0:0:
256,192,55445,1,0,0:0:0:50:Kick.wav
36,192,55445,128,0,55847:0:0:0:0:
182,192,55579,128,0,55847:0:0:0:0:
475,192,55713,1,0,0:0:0:0:
402,192,55713,1,0,0:0:0:0:
256,192,55713,1,0,0:0:0:50:Snare.wav
109,192,55847,128,0,56115:0:0:0:0:
402,192,55981,128,0,56249:0:0:0:0:
36,192,56115,1,0,0:0:0:0:
256,192,56115,128,0,56249:0:0:0:0:
475,192,56115,1,0,0:0:0:50:Kick.wav
182,192,56182,1,0,0:0:0:0:
329,192,56182,1,0,0:0:0:50:Kick.wav
109,192,56249,128,0,56784:0:0:0:0:
36,192,56249,1,0,0:0:0:0:
475,192,56249,1,0,0:0:0:50:Kick.wav
182,192,56382,1,0,0:0:0:50:Snare.wav
329,192,56382,1,0,0:0:0:0:
475,192,56382,1,0,0:0:0:0:
402,192,56516,1,0,0:0:0:50:Sub Drum.wav
256,192,56516,1,0,0:0:0:0:
182,192,56650,1,0,0:0:0:50:Kick.wav
402,192,56650,128,0,56717:0:0:0:0:
36,192,56650,1,0,0:0:0:0:
475,192,56650,1,0,0:0:0:0:
329,192,56717,128,0,56784:0:0:0:0:
475,192,56784,1,0,0:0:0:0:
256,192,56784,128,0,57856:0:0:0:0:
36,192,56784,1,0,0:0:0:0:
182,192,56784,1,0,0:0:0:50:Snare.wav
475,192,57052,1,0,0:0:0:0:
36,192,57052,1,0,0:0:0:0:
329,192,57052,1,0,0:0:0:50:Kick.wav
182,192,57052,1,0,0:0:0:0:
329,192,57186,1,0,0:0:0:0:
36,192,57186,1,0,0:0:0:50:Sub Drum.wav
109,192,57253,1,0,0:0:0:50:Sub Drum.wav
182,192,57320,1,0,0:0:0:50:Sub Drum.wav
475,192,57320,1,0,0:0:0:50:Kick.wav
402,192,57320,1,0,0:0:0:0:
109,192,57387,1,0,0:0:0:50:Sub Drum.wav
402,192,57454,1,0,0:0:0:0:
36,192,57454,1,0,0:0:0:50:Sub Drum.wav
182,192,57521,1,0,0:0:0:50:Sub Drum.wav
36,192,57588,1,0,0:0:0:50:Sub Drum.wav
475,192,57588,1,0,0:0:0:0:
329,192,57588,1,0,0:0:0:50:Kick.wav
109,192,57655,1,0,0:0:0:50:Sub Drum.wav
182,192,57722,1,0,0:0:0:0:
329,192,57722,1,0,0:0:0:50:Sub Drum.wav
402,192,57789,1,0,0:0:0:50:Sub Drum.wav
109,192,57856,1,0,0:0:0:0:
182,192,57856,1,0,0:0:0:0:
36,192,57856,1,0,0:0:0:50:Kick.wav
475,192,57856,1,0,0:0:0:50:Sub Drum.wav
329,192,57923,1,0,0:0:0:0:
402,192,57923,1,0,0:0:0:50:Sub Drum.wav
182,192,57990,1,0,0:0:0:50:Sub Drum.wav
109,192,57990,1,0,0:0:0:0:
256,192,58057,1,0,0:0:0:0:
329,192,58057,1,0,0:0:0:50:Sub Drum.wav
109,192,58124,1,0,0:0:0:50:Sub Drum.wav
475,192,58124,1,0,0:0:0:0:
36,192,58124,1,0,0:0:0:50:Kick.wav
402,192,58124,1,0,0:0:0:0:
182,192,58190,1,0,0:0:0:0:
256,192,58190,1,0,0:0:0:50:Sub Drum.wav
402,192,58257,1,0,0:0:0:0:
329,192,58257,1,0,0:0:0:50:Sub Drum.wav
109,192,58324,1,0,0:0:0:0:
182,192,58324,1,0,0:0:0:50:Sub Drum.wav
475,192,58391,128,0,58793:0:0:0:0:
402,192,58391,128,0,58592:0:0:0:0:
256,192,58391,1,0,0:0:0:50:Kick.wav
36,192,58391,128,0,58458:0:0:0:0:
182,192,58458,128,0,58525:0:0:0:0:
329,192,58525,128,0,58592:0:0:0:0:
109,192,58592,128,0,58659:0:0:0:0:
256,192,58659,128,0,58726:0:0:0:0:
402,192,58726,128,0,58793:0:0:0:0:
36,192,58793,128,0,59329:0:0:0:0:
182,192,58793,128,0,58860:0:0:0:0:
329,192,58860,128,0,58927:0:0:0:0:
256,192,58927,128,0,59195:0:0:0:0:
475,192,58927,128,0,58994:0:0:0:0:
109,192,59061,128,0,59329:0:0:0:0:
402,192,59061,1,0,0:0:0:0:
402,192,59128,1,0,0:0:0:0:
329,192,59195,128,0,59463:0:0:0:0:
475,192,59195,1,0,0:0:0:0:
182,192,59329,128,0,59463:0:0:0:0:
475,192,59463,5,0,0:0:0:50:Kick.wav
402,192,59463,1,0,0:0:0:0:
36,192,59463,1,0,0:0:0:0:
109,192,59463,1,0,0:0:0:0:
256,192,59463,1,0,0:0:0:70:CrashL.wav
182,192,59530,1,0,0:0:0:0:
109,192,59597,1,0,0:0:0:0:
329,192,59597,1,0,0:0:0:0:
256,192,59664,1,0,0:0:0:0:
475,192,59731,1,0,0:0:0:0:
182,192,59731,1,0,0:0:0:0:
402,192,59798,1,0,0:0:0:0:
329,192,59865,1,0,0:0:0:0:
475,192,59865,1,0,0:0:0:50:Kick.wav
182,192,59865,1,0,0:0:0:0:
36,192,59865,1,0,0:0:0:50:Highlight.wav
109,192,59932,1,0,0:0:0:0:
36,192,59999,1,0,0:0:0:50:Highlight.wav
475,192,59999,1,0,0:0:0:50:Snare.wav
402,192,59999,1,0,0:0:0:0:
256,192,59999,1,0,0:0:0:0:
182,192,60065,1,0,0:0:0:0:
109,192,60132,1,0,0:0:0:0:
329,192,60132,1,0,0:0:0:0:
475,192,60199,1,0,0:0:0:0:
402,192,60266,1,0,0:0:0:0:
256,192,60266,1,0,0:0:0:70:Kick.wav
109,192,60266,1,0,0:0:0:0:
36,192,60266,1,0,0:0:0:50:Highlight.wav
475,192,60333,1,0,0:0:0:0:
182,192,60400,1,0,0:0:0:0:
329,192,60400,1,0,0:0:0:0:
109,192,60467,1,0,0:0:0:0:
256,192,60534,1,0,0:0:0:0:
36,192,60534,1,0,0:0:0:50:Kick.wav
475,192,60534,1,0,0:0:0:0:
402,192,60534,1,0,0:0:0:0:
182,192,60601,1,0,0:0:0:0:
475,192,60668,1,0,0:0:0:0:
329,192,60668,1,0,0:0:0:0:
109,192,60668,1,0,0:0:0:0:
36,192,60668,1,0,0:0:0:50:Kick.wav
256,192,60735,1,0,0:0:0:0:
475,192,60802,1,0,0:0:0:50:Snare.wav
402,192,60802,1,0,0:0:0:0:
109,192,60802,1,0,0:0:0:30:Sub Rhythm-2.wav
329,192,60869,1,0,0:0:0:0:
182,192,60869,1,0,0:0:0:30:Sub Rhythm-2.wav
256,192,60936,1,0,0:0:0:30:Sub Rhythm-2.wav
36,192,60936,1,0,0:0:0:0:
109,192,61003,1,0,0:0:0:0:
329,192,61003,1,0,0:0:0:30:Sub Rhythm-2.wav
475,192,61070,1,0,0:0:0:0:
402,192,61070,1,0,0:0:0:30:Sub Rhythm-2.wav
36,192,61070,1,0,0:0:0:50:Snare.wav
182,192,61070,1,0,0:0:0:0:
256,192,61137,1,0,0:0:0:30:Sub Rhythm-2.wav
109,192,61137,1,0,0:0:0:0:
402,192,61204,1,0,0:0:0:0:
182,192,61204,1,0,0:0:0:30:Sub Rhythm-2.wav
329,192,61271,1,0,0:0:0:0:
109,192,61271,1,0,0:0:0:30:Sub Rhythm-2.wav
256,192,61338,1,0,0:0:0:0:
475,192,61338,1,0,0:0:0:30:Sub Rhythm-2.wav
36,192,61338,1,0,0:0:0:50:Kick.wav
402,192,61405,1,0,0:0:0:30:Sub Rhythm-2.wav
182,192,61405,1,0,0:0:0:0:
329,192,61472,1,0,0:0:0:30:Sub Rhythm-2.wav
109,192,61472,1,0,0:0:0:0:
256,192,61539,1,0,0:0:0:0:
402,192,61539,1,0,0:0:0:30:Sub Rhythm-2.wav
475,192,61606,1,0,0:0:0:30:Sub Rhythm-2.wav
329,192,61606,1,0,0:0:0:0:
182,192,61606,1,0,0:0:0:50:Kick.wav
36,192,61606,1,0,0:0:0:50:Highlight.wav
109,192,61673,1,0,0:0:0:0:
256,192,61740,1,0,0:0:0:0:
475,192,61740,1,0,0:0:0:0:
36,192,61740,1,0,0:0:0:50:Highlight.wav
402,192,61740,1,0,0:0:0:30:Sub Rhythm-2.wav
329,192,61807,1,0,0:0:0:0:
109,192,61874,1,0,0:0:0:50:Highlight.wav
182,192,61874,1,0,0:0:0:0:
475,192,61874,1,0,0:0:0:0:
402,192,61874,1,0,0:0:0:30:Sub Rhythm-2.wav
36,192,61940,1,0,0:0:0:0:
329,192,62007,1,0,0:0:0:50:Kick.wav
182,192,62007,1,0,0:0:0:0:
109,192,62007,1,0,0:0:0:50:Highlight.wav
475,192,62007,1,0,0:0:0:30:Sub Rhythm-2.wav
256,192,62074,1,0,0:0:0:0:
36,192,62141,1,0,0:0:0:0:
182,192,62141,1,0,0:0:0:0:
402,192,62141,1,0,0:0:0:50:Snare.wav
329,192,62208,1,0,0:0:0:0:
36,192,62275,1,0,0:0:0:50:Highlight.wav
256,192,62275,1,0,0:0:0:0:
109,192,62275,1,0,0:0:0:30:Sub Rhythm-2.wav
475,192,62275,1,0,0:0:0:0:
402,192,62342,1,0,0:0:0:0:
36,192,62409,1,0,0:0:0:50:Highlight.wav
329,192,62409,1,0,0:0:0:50:Snare.wav
109,192,62409,1,0,0:0:0:30:Sub Rhythm-2.wav
182,192,62409,1,0,0:0:0:0:
402,192,62476,1,0,0:0:0:0:
475,192,62543,1,0,0:0:0:0:
36,192,62543,1,0,0:0:0:50:Highlight.wav
256,192,62543,1,0,0:0:0:0:
109,192,62543,1,0,0:0:0:30:Sub Rhythm-2.wav
329,192,62610,1,0,0:0:0:0:
36,192,62677,1,0,0:0:0:0:
182,192,62677,1,0,0:0:0:0:
402,192,62677,1,0,0:0:0:50:Kick.wav
256,192,62744,1,0,0:0:0:0:
475,192,62811,1,0,0:0:0:0:
329,192,62811,1,0,0:0:0:50:Snare.wav
109,192,62811,1,0,0:0:0:30:Sub Rhythm-2.wav
36,192,62811,1,0,0:0:0:50:Highlight.wav
182,192,62878,1,0,0:0:0:0:
329,192,62945,1,0,0:0:0:0:
109,192,62945,1,0,0:0:0:0:
256,192,63012,1,0,0:0:0:0:
475,192,63079,1,0,0:0:0:30:Sub Rhythm-2.wav
36,192,63079,1,0,0:0:0:0:
402,192,63079,1,0,0:0:0:50:Highlight.wav
182,192,63079,1,0,0:0:0:0:
329,192,63146,1,0,0:0:0:0:
109,192,63213,1,0,0:0:0:0:
475,192,63213,1,0,0:0:0:30:Sub Rhythm-2.wav
256,192,63213,1,0,0:0:0:50:Snare.wav
36,192,63213,1,0,0:0:0:0:
402,192,63280,1,0,0:0:0:0:
182,192,63347,1,0,0:0:0:30:Sub Rhythm-2.wav
329,192,63347,1,0,0:0:0:0:
36,192,63414,1,0,0:0:0:30:Sub Rhythm-2.wav
256,192,63414,1,0,0:0:0:0:
475,192,63481,1,0,0:0:0:50:Snare.wav
109,192,63481,1,0,0:0:0:30:Sub Rhythm-2.wav
329,192,63481,1,0,0:0:0:0:
182,192,63548,1,0,0:0:0:30:Sub Rhythm-2.wav
402,192,63548,1,0,0:0:0:0:
36,192,63615,1,0,0:0:0:50:Sub Snare.wav
475,192,63615,1,0,0:0:0:0:
256,192,63615,1,0,0:0:0:30:Sub Rhythm-2.wav
182,192,63682,1,0,0:0:0:0:
109,192,63682,1,0,0:0:0:50:Sub Snare.wav
329,192,63682,1,0,0:0:0:30:Sub Rhythm-2.wav
402,192,63749,1,0,0:0:0:30:Sub Rhythm-2.wav
36,192,63749,1,0,0:0:0:50:Kick.wav
475,192,63749,1,0,0:0:0:0:
256,192,63749,1,0,0:0:0:50:CrashL.wav
109,192,63815,1,0,0:0:0:0:
182,192,63882,1,0,0:0:0:0:
329,192,63882,1,0,0:0:0:0:
402,192,63949,1,0,0:0:0:0:
109,192,64016,1,0,0:0:0:0:
36,192,64016,1,0,0:0:0:0:
256,192,64016,1,0,0:0:0:0:
475,192,64016,1,0,0:0:0:50:Kick.wav
329,192,64083,1,0,0:0:0:0:
475,192,64150,1,0,0:0:0:50:Snare.wav
36,192,64150,1,0,0:0:0:0:
182,192,64150,1,0,0:0:0:0:
402,192,64150,1,0,0:0:0:0:
109,192,64217,1,0,0:0:0:0:
402,192,64284,1,0,0:0:0:0:
475,192,64284,1,0,0:0:0:50:Kick.wav
36,192,64284,1,0,0:0:0:0:
256,192,64284,1,0,0:0:0:0:
182,192,64351,1,0,0:0:0:0:
329,192,64418,1,0,0:0:0:0:
109,192,64418,1,0,0:0:0:0:
475,192,64485,1,0,0:0:0:0:
256,192,64552,1,0,0:0:0:0:
109,192,64552,1,0,0:0:0:50:Snare.wav
402,192,64552,1,0,0:0:0:0:
36,192,64552,1,0,0:0:0:0:
475,192,64619,1,0,0:0:0:0:
329,192,64686,1,0,0:0:0:0:
182,192,64686,1,0,0:0:0:0:
402,192,64753,1,0,0:0:0:0:
36,192,64820,1,0,0:0:0:0:
109,192,64820,1,0,0:0:0:0:
256,192,64820,1,0,0:0:0:0:
475,192,64820,1,0,0:0:0:50:Kick.wav
182,192,64887,1,0,0:0:0:0:
329,192,64954,1,0,0:0:0:0:
36,192,64954,1,0,0:0:0:0:
475,192,64954,1,0,0:0:0:50:Kick.wav
109,192,64954,1,0,0:0:0:0:
256,192,65021,1,0,0:0:0:0:
36,192,65088,1,0,0:0:0:0:
182,192,65088,1,0,0:0:0:0:
402,192,65088,1,0,0:0:0:0:
475,192,65088,1,0,0:0:0:50:Snare.wav
329,192,65155,1,0,0:0:0:0:
109,192,65222,1,0,0:0:0:0:
256,192,65222,1,0,0:0:0:0:
475,192,65289,1,0,0:0:0:30:Sub Snare.wav
402,192,65289,1,0,0:0:0:0:
182,192,65356,1,0,0:0:0:50:Kick.wav
36,192,65356,1,0,0:0:0:0:
109,192,65356,1,0,0:0:0:0:
329,192,65356,1,0,0:0:0:30:Sub Snare.wav
475,192,65423,1,0,0:0:0:30:Sub Snare.wav
402,192,65423,1,0,0:0:0:0:
109,192,65490,1,0,0:0:0:0:
256,192,65490,1,0,0:0:0:0:
329,192,65557,1,0,0:0:0:0:
36,192,65624,1,0,0:0:0:0:
402,192,65624,1,0,0:0:0:0:
182,192,65624,1,0,0:0:0:50:Snare.wav
475,192,65624,1,0,0:0:0:0:
329,192,65690,1,0,0:0:0:0:
36,192,65757,1,0,0:0:0:0:
182,192,65757,1,0,0:0:0:50:Sub Snare.wav
402,192,65757,1,0,0:0:0:0:
256,192,65824,1,0,0:0:0:50:Sub Snare.wav
109,192,65824,1,0,0:0:0:0:
475,192,65891,1,0,0:0:0:0:
329,192,65891,1,0,0:0:0:50:Kick.wav
182,192,65891,1,0,0:0:0:30:Sub Rhythm-2.wav
402,192,65891,1,0,0:0:0:0:
109,192,65958,1,0,0:0:0:0:
256,192,66025,1,0,0:0:0:30:Sub Rhythm-2.wav
475,192,66025,1,0,0:0:0:50:Sub Snare.wav
36,192,66025,1,0,0:0:0:0:
402,192,66092,1,0,0:0:0:50:Sub Snare.wav
182,192,66092,1,0,0:0:0:0:
109,192,66159,1,0,0:0:0:50:Kick.wav
329,192,66159,1,0,0:0:0:30:Sub Rhythm-2.wav
36,192,66159,1,0,0:0:0:0:
475,192,66159,1,0,0:0:0:0:
256,192,66226,1,0,0:0:0:0:
475,192,66293,1,0,0:0:0:0:
109,192,66293,1,0,0:0:0:50:Sub Snare.wav
36,192,66293,1,0,0:0:0:50:Kick.wav
402,192,66293,1,0,0:0:0:30:Sub Rhythm-2.wav
329,192,66360,1,0,0:0:0:0:
182,192,66360,1,0,0:0:0:50:Sub Snare.wav
36,192,66427,1,0,0:0:0:30:Sub Rhythm-2.wav
475,192,66427,1,0,0:0:0:50:Kick.wav
402,192,66427,1,0,0:0:0:0:
256,192,66427,1,0,0:0:0:50:Sub Snare.wav
109,192,66494,1,0,0:0:0:0:
182,192,66494,1,0,0:0:0:50:Sub Snare.wav
36,192,66561,1,0,0:0:0:30:Sub Rhythm-2.wav
475,192,66561,1,0,0:0:0:50:Kick.wav
402,192,66561,1,0,0:0:0:0:
329,192,66561,1,0,0:0:0:50:Sub Snare.wav
256,192,66628,1,0,0:0:0:50:Sub Snare.wav
182,192,66628,1,0,0:0:0:0:
475,192,66695,1,0,0:0:0:50:Kick.wav
109,192,66695,1,0,0:0:0:0:
36,192,66695,1,0,0:0:0:30:Sub Rhythm-2.wav
402,192,66695,1,0,0:0:0:50:Sub Snare.wav
256,192,66762,1,0,0:0:0:0:
329,192,66762,1,0,0:0:0:50:Sub Snare.wav
182,192,66829,1,0,0:0:0:50:Kick.wav
36,192,66829,1,0,0:0:0:30:Sub Rhythm-2.wav
475,192,66829,1,0,0:0:0:50:Sub Snare.wav
109,192,66829,1,0,0:0:0:0:
329,192,66896,1,0,0:0:0:0:
402,192,66896,1,0,0:0:0:50:Sub Snare.wav
36,192,66963,1,0,0:0:0:0:
256,192,66963,1,0,0:0:0:0:
475,192,66963,1,0,0:0:0:0:
182,192,67097,1,0,0:0:0:0:
182,192,67164,1,0,0:0:0:0:
182,192,67231,1,0,0:0:0:0:
402,192,67365,1,0,0:0:0:0:
402,192,67432,1,0,0:0:0:0:
402,192,67499,1,0,0:0:0:0:
36,192,67632,128,0,67833:0:0:0:0:
182,192,67632,128,0,67699:0:0:0:0:
329,192,67699,128,0,67766:0:0:0:0:
475,192,67766,128,0,67967:0:0:0:0:
402,192,67766,128,0,67967:0:0:0:50:Cymbal.wav
182,192,67766,128,0,67833:0:0:0:0:
256,192,67900,1,0,0:0:0:0:
256,192,67967,1,0,0:0:0:0:
109,192,68034,1,0,0:0:0:0:
36,192,68034,128,0,70177:0:0:0:30:BeLL.wav
182,192,68034,1,0,0:0:0:50:Cymbal.wav
329,192,68034,1,0,0:0:0:0:
475,192,68034,1,0,0:0:0:0:
402,192,68302,128,0,68570:0:0:0:0:
329,192,68391,128,0,68570:0:0:0:0:
182,192,68570,128,0,68704:0:0:0:0:
402,192,68704,1,0,0:0:0:0:
256,192,68838,1,0,0:0:0:0:
475,192,68972,128,0,69240:0:0:0:0:
329,192,69240,1,0,0:0:0:0:
182,192,69374,1,0,0:0:0:0:
329,192,69507,128,0,69775:0:0:0:0:
109,192,69775,128,0,69909:0:0:0:0:
256,192,69909,1,0,0:0:0:0:
182,192,70043,128,0,70177:0:0:0:0:
256,192,70177,1,0,0:0:0:0:
402,192,70177,1,0,0:0:0:0:
475,192,70177,128,0,72320:0:0:0:30:BeLL.wav
109,192,70311,1,0,0:0:0:0:
109,192,70378,1,0,0:0:0:0:
109,192,70445,1,0,0:0:0:0:
329,192,70445,1,0,0:0:0:0:
329,192,70579,1,0,0:0:0:0:
182,192,70713,128,0,70847:0:0:0:0:
402,192,70847,1,0,0:0:0:0:
256,192,70981,1,0,0:0:0:0:
109,192,71115,128,0,71382:0:0:0:0:
36,192,71382,1,0,0:0:0:0:
256,192,71382,128,0,71516:0:0:0:30:Chi!.wav
329,192,71449,128,0,71583:0:0:0:30:Chi!.wav
109,192,71516,1,0,0:0:0:0:
402,192,71516,128,0,72052:0:0:0:30:Chi!.wav
182,192,71650,128,0,71918:0:0:0:0:
329,192,71918,128,0,72052:0:0:0:0:
182,192,72052,128,0,72186:0:0:0:0:
36,192,72186,128,0,72320:0:0:0:0:
109,192,72320,1,0,0:0:0:0:
329,192,72320,128,0,72454:0:0:0:30:Chi!.wav
256,192,72320,128,0,73391:0:0:0:30:BeLL.wav
182,192,72320,1,0,0:0:0:0:
475,192,72387,128,0,72521:0:0:0:30:Chi!.wav
402,192,72454,128,0,72856:0:0:0:30:Chi!.wav
36,192,72588,128,0,73257:0:0:0:0:
182,192,72856,128,0,73257:0:0:0:0:
329,192,73257,1,0,0:0:0:0:
402,192,73324,1,0,0:0:0:0:
182,192,73391,1,0,0:0:0:0:
36,192,73391,1,0,0:0:0:0:
109,192,73391,128,0,74463:0:0:0:30:BeLL.wav
475,192,73391,128,0,73927:0:0:0:0:
329,192,73525,128,0,73659:0:0:0:30:Chi!.wav
256,192,73592,128,0,73726:0:0:0:30:Chi!.wav
182,192,73659,128,0,74195:0:0:0:30:Chi!.wav
402,192,73793,128,0,73927:0:0:0:0:
329,192,73927,128,0,74195:0:0:0:0:
402,192,74195,128,0,74463:0:0:0:0:
182,192,74463,128,0,74999:0:0:0:0:
36,192,74463,1,0,0:0:0:0:
256,192,74463,128,0,75534:0:0:0:30:BeLL.wav
475,192,74463,128,0,74597:0:0:0:30:Chi!.wav
329,192,74530,128,0,74664:0:0:0:30:Chi!.wav
402,192,74597,128,0,74999:0:0:0:30:Chi!.wav
36,192,74865,128,0,74999:0:0:0:0:
109,192,75132,128,0,75266:0:0:0:0:
182,192,75400,128,0,75802:0:0:0:0:
36,192,75534,1,0,0:0:0:0:
402,192,75534,128,0,76539:0:0:0:30:BeLL.wav
475,192,75534,1,0,0:0:0:0:
329,192,75534,1,0,0:0:0:0:
475,192,75936,1,0,0:0:0:0:
109,192,75936,128,0,76204:0:0:0:0:
329,192,76003,1,0,0:0:0:0:
475,192,76070,128,0,76539:0:0:0:30:BeLL.wav
256,192,76204,1,0,0:0:0:0:
329,192,76338,128,0,76472:0:0:0:0:
182,192,76405,128,0,76539:0:0:0:0:
36,192,76472,128,0,76606:0:0:0:0:
475,192,76606,128,0,77610:0:0:0:30:BeLL.wav
402,192,76606,1,0,0:0:0:0:
109,192,76606,1,0,0:0:0:0:
256,192,76606,1,0,0:0:0:30:Sub Snare.wav
329,192,76740,128,0,76874:0:0:0:0:
109,192,76874,128,0,76940:0:0:0:0:
256,192,76874,1,0,0:0:0:30:Sub Snare.wav
402,192,76874,1,0,0:0:0:0:
329,192,77007,128,0,77141:0:0:0:0:
109,192,77141,128,0,77208:0:0:0:0:
256,192,77141,1,0,0:0:0:30:Sub Snare.wav
402,192,77141,1,0,0:0:0:0:
109,192,77275,128,0,77342:0:0:0:0:
36,192,77409,1,0,0:0:0:0:
329,192,77409,1,0,0:0:0:50:Sub Drum.wav
182,192,77409,1,0,0:0:0:0:
109,192,77543,128,0,77677:0:0:0:0:
402,192,77543,1,0,0:0:0:30:Sub Snare.wav
402,192,77610,1,0,0:0:0:30:Sub Snare.wav
256,192,77610,128,0,77744:0:0:0:0:
329,192,77677,1,0,0:0:0:0:
475,192,77677,1,0,0:0:0:30:Sub Snare.wav
36,192,77677,128,0,78682:0:0:0:30:BeLL.wav
182,192,77811,128,0,77945:0:0:0:0:
329,192,77945,1,0,0:0:0:0:
475,192,77945,1,0,0:0:0:30:Sub Snare.wav
109,192,78079,128,0,78213:0:0:0:0:
182,192,78213,1,0,0:0:0:0:
329,192,78213,1,0,0:0:0:30:Sub Snare.wav
475,192,78347,128,0,78615:0:0:0:0:
402,192,78481,128,0,78615:0:0:0:0:
256,192,78481,1,0,0:0:0:50:Sub Drum.wav
109,192,78481,1,0,0:0:0:0:
182,192,78615,1,0,0:0:0:30:Sub Snare.wav
329,192,78615,128,0,78749:0:0:0:0:
475,192,78682,128,0,78882:0:0:0:0:
182,192,78682,1,0,0:0:0:30:Sub Snare.wav
109,192,78749,1,0,0:0:0:0:
36,192,78749,1,0,0:0:0:30:Sub Snare.wav
256,192,78749,128,0,79753:0:0:0:30:BeLL.wav
329,192,78882,128,0,78949:0:0:0:0:
109,192,79016,1,0,0:0:0:0:
475,192,79016,128,0,79150:0:0:0:0:
182,192,79016,1,0,0:0:0:30:Sub Snare.wav
329,192,79150,128,0,79217:0:0:0:0:
475,192,79284,128,0,79418:0:0:0:0:
109,192,79284,1,0,0:0:0:0:
36,192,79284,1,0,0:0:0:30:Sub Snare.wav
36,192,79418,128,0,79485:0:0:0:0:
475,192,79552,1,0,0:0:0:0:
109,192,79552,128,0,79619:0:0:0:0:
329,192,79552,1,0,0:0:0:50:Sub Drum.wav
182,192,79686,128,0,79753:0:0:0:0:
475,192,79686,1,0,0:0:0:30:Sub Snare.wav
475,192,79753,1,0,0:0:0:30:Sub Snare.wav
109,192,79820,1,0,0:0:0:0:
256,192,79820,1,0,0:0:0:0:
36,192,79820,128,0,80824:0:0:0:30:BeLL.wav
402,192,79820,1,0,0:0:0:30:Sub Snare.wav
329,192,79954,128,0,80088:0:0:0:0:
182,192,79954,1,0,0:0:0:50:Sub Drum.wav
475,192,80088,1,0,0:0:0:0:
182,192,80088,1,0,0:0:0:30:Sub Snare.wav
256,192,80222,128,0,80490:0:0:0:0:
402,192,80356,1,0,0:0:0:0:
109,192,80356,1,0,0:0:0:30:Sub Snare.wav
402,192,80757,1,0,0:0:0:0:
109,192,80757,1,0,0:0:0:30:Sub Snare.wav
329,192,80824,1,0,0:0:0:0:
182,192,80824,1,0,0:0:0:30:Sub Snare.wav
36,192,80891,128,0,81092:0:0:0:0:
402,192,80891,128,0,81092:0:0:0:50:CrashL.wav
109,192,80891,128,0,81092:0:0:0:50:Kick.wav
256,192,80891,128,0,81092:0:0:0:50:Sub Snare.wav
475,192,80891,128,0,81896:0:0:0:30:BeLL.wav
36,192,81159,1,0,0:0:0:0:
182,192,81159,1,0,0:0:0:50:Sub Snare.wav
329,192,81159,1,0,0:0:0:0:
182,192,81293,128,0,81360:0:0:0:0:
256,192,81360,128,0,81427:0:0:0:0:
329,192,81427,128,0,81494:0:0:0:0:
109,192,81427,1,0,0:0:0:50:Snare.wav
36,192,81427,1,0,0:0:0:0:
402,192,81427,1,0,0:0:0:0:
256,192,81561,128,0,81628:0:0:0:0:
329,192,81695,128,0,81762:0:0:0:0:
109,192,81695,1,0,0:0:0:0:
182,192,81695,1,0,0:0:0:30:Sub Snare.wav
256,192,81829,1,0,0:0:0:0:
402,192,81829,128,0,81896:0:0:0:0:
36,192,81829,1,0,0:0:0:0:
109,192,81829,1,0,0:0:0:50:Snare.wav
475,192,81963,1,0,0:0:0:0:
182,192,81963,1,0,0:0:0:0:
329,192,81963,1,0,0:0:0:0:
36,192,81963,1,0,0:0:0:50:Kick.wav
256,192,81963,128,0,82967:0:0:0:30:BeLL.wav
475,192,82097,1,0,0:0:0:0:
182,192,82097,128,0,82231:0:0:0:0:
402,192,82097,1,0,0:0:0:50:Snare.wav
36,192,82097,1,0,0:0:0:0:
402,192,82231,1,0,0:0:0:0:
329,192,82231,1,0,0:0:0:30:Sub Snare.wav
109,192,82365,128,0,82499:0:0:0:0:
182,192,82499,1,0,0:0:0:0:
329,192,82499,1,0,0:0:0:0:
36,192,82499,1,0,0:0:0:50:Snare.wav
475,192,82499,1,0,0:0:0:0:
475,192,82632,128,0,82699:0:0:0:0:
182,192,82766,1,0,0:0:0:0:
109,192,82766,1,0,0:0:0:0:
402,192,82766,128,0,82833:0:0:0:0:
36,192,82766,1,0,0:0:0:50:Snare.wav
329,192,82900,128,0,82967:0:0:0:0:
36,192,83034,1,0,0:0:0:0:
109,192,83034,128,0,84039:0:0:0:30:BeLL.wav
402,192,83034,1,0,0:0:0:0:
475,192,83034,1,0,0:0:0:50:Kick.wav
256,192,83034,1,0,0:0:0:0:
329,192,83302,1,0,0:0:0:0:
36,192,83302,1,0,0:0:0:0:
475,192,83302,1,0,0:0:0:50:Snare.wav
182,192,83302,1,0,0:0:0:0:
329,192,83436,128,0,83570:0:0:0:0:
182,192,83503,128,0,83637:0:0:0:0:
256,192,83570,1,0,0:0:0:0:
36,192,83570,128,0,84039:0:0:0:0:
475,192,83570,1,0,0:0:0:50:Kick.wav
402,192,83570,1,0,0:0:0:0:
402,192,83838,1,0,0:0:0:0:
182,192,83838,1,0,0:0:0:0:
475,192,83838,1,0,0:0:0:50:Snare.wav
329,192,83838,1,0,0:0:0:0:
402,192,84106,1,0,0:0:0:0:
36,192,84106,1,0,0:0:0:30:BeLL.wav
256,192,84106,1,0,0:0:0:50:Kick.wav
475,192,84106,1,0,0:0:0:0:
109,192,84173,1,0,0:0:0:0:
182,192,84240,1,0,0:0:0:0:
475,192,84240,1,0,0:0:0:0:
402,192,84240,1,0,0:0:0:0:
329,192,84240,1,0,0:0:0:50:Snare.wav
256,192,84307,1,0,0:0:0:0:
109,192,84374,1,0,0:0:0:0:
402,192,84374,1,0,0:0:0:50:Snare.wav
182,192,84374,1,0,0:0:0:0:
36,192,84374,1,0,0:0:0:0:
329,192,84440,1,0,0:0:0:0:
475,192,84507,1,0,0:0:0:0:
256,192,84507,1,0,0:0:0:0:
36,192,84507,1,0,0:0:0:30:Sub Snare.wav
402,192,84574,1,0,0:0:0:0:
109,192,84574,1,0,0:0:0:30:Sub Snare.wav
182,192,84641,1,0,0:0:0:0:
329,192,84641,1,0,0:0:0:0:
36,192,84641,1,0,0:0:0:30:Sub Snare.wav
475,192,84641,1,0,0:0:0:50:Kick.wav
256,192,84708,1,0,0:0:0:0:
36,192,84775,1,0,0:0:0:0:
329,192,84775,1,0,0:0:0:0:
109,192,84775,1,0,0:0:0:30:Sub Snare.wav
475,192,84775,1,0,0:0:0:50:Kick.wav
182,192,84842,1,0,0:0:0:0:
256,192,84909,1,0,0:0:0:0:
402,192,84909,1,0,0:0:0:0:
109,192,84909,1,0,0:0:0:30:Sub Snare.wav
475,192,84909,1,0,0:0:0:50:Kick.wav
329,192,84976,1,0,0:0:0:0:
182,192,85043,1,0,0:0:0:0:
402,192,85043,1,0,0:0:0:0:
36,192,85043,1,0,0:0:0:30:Sub Snare.wav
475,192,85043,1,0,0:0:0:50:Kick.wav
256,192,85110,1,0,0:0:0:0:
109,192,85110,1,0,0:0:0:30:Sub Snare.wav
402,192,85177,1,0,0:0:0:0:
475,192,85177,1,0,0:0:0:50:Kick.wav
329,192,85177,1,0,0:0:0:50:CrashL.wav
182,192,85177,1,0,0:0:0:30:BeLL.wav
36,192,85177,1,0,0:0:0:0:
256,192,85311,1,0,0:0:0:0:
109,192,85311,1,0,0:0:0:50:Highlight.wav
329,192,85445,1,0,0:0:0:0:
475,192,85445,1,0,0:0:0:50:Kick.wav
109,192,85445,1,0,0:0:0:50:Highlight.wav
182,192,85579,1,0,0:0:0:0:
329,192,85713,1,0,0:0:0:0:
475,192,85713,1,0,0:0:0:50:Kick.wav
109,192,85713,1,0,0:0:0:50:Highlight.wav
256,192,85847,1,0,0:0:0:0:
109,192,85847,1,0,0:0:0:50:Highlight.wav
329,192,85981,1,0,0:0:0:0:
182,192,85981,1,0,0:0:0:0:
36,192,85981,1,0,0:0:0:50:Kick.wav
256,192,86115,1,0,0:0:0:50:Highlight.wav
402,192,86115,1,0,0:0:0:0:
182,192,86249,1,0,0:0:0:30:BeLL.wav
329,192,86249,1,0,0:0:0:0:
36,192,86249,1,0,0:0:0:50:Kick.wav
475,192,86249,1,0,0:0:0:0:
402,192,86382,1,0,0:0:0:50:Highlight.wav
109,192,86382,1,0,0:0:0:0:
402,192,86516,1,0,0:0:0:50:Highlight.wav
256,192,86516,1,0,0:0:0:0:
36,192,86516,1,0,0:0:0:50:Kick.wav
182,192,86650,1,0,0:0:0:0:
329,192,86650,1,0,0:0:0:50:HihaT.wav
402,192,86717,1,0,0:0:0:50:HihaT.wav
109,192,86784,1,0,0:0:0:50:Kick.wav
36,192,86784,128,0,86918:0:0:0:0:
475,192,86784,1,0,0:0:0:50:HihaT.wav
256,192,86784,1,0,0:0:0:50:Highlight.wav
402,192,86918,1,0,0:0:0:50:HihaT.wav
256,192,86918,1,0,0:0:0:50:Highlight.wav
182,192,86985,1,0,0:0:0:50:HihaT.wav
109,192,87052,1,0,0:0:0:50:HihaT.wav
36,192,87052,128,0,87186:0:0:0:0:
329,192,87052,1,0,0:0:0:50:Kick.wav
475,192,87052,1,0,0:0:0:0:
182,192,87186,1,0,0:0:0:50:Highlight.wav
402,192,87186,1,0,0:0:0:50:HihaT.wav
329,192,87253,1,0,0:0:0:50:HihaT.wav
475,192,87320,1,0,0:0:0:50:Kick.wav
36,192,87320,1,0,0:0:0:0:
256,192,87320,1,0,0:0:0:50:HihaT.wav
109,192,87320,1,0,0:0:0:30:BeLL.wav
182,192,87454,1,0,0:0:0:0:
329,192,87454,1,0,0:0:0:50:Highlight.wav
109,192,87588,1,0,0:0:0:0:
329,192,87588,1,0,0:0:0:50:Highlight.wav
475,192,87588,1,0,0:0:0:50:Kick.wav
256,192,87722,1,0,0:0:0:0:
109,192,87856,1,0,0:0:0:0:
329,192,87856,1,0,0:0:0:50:Highlight.wav
475,192,87856,1,0,0:0:0:50:Kick.wav
182,192,87990,1,0,0:0:0:0:
329,192,87990,1,0,0:0:0:50:Highlight.wav
256,192,88124,1,0,0:0:0:0:
475,192,88124,1,0,0:0:0:0:
36,192,88124,1,0,0:0:0:50:Kick.wav
109,192,88257,1,0,0:0:0:0:
402,192,88257,1,0,0:0:0:50:Highlight.wav
475,192,88391,1,0,0:0:0:0:
329,192,88391,1,0,0:0:0:0:
182,192,88391,1,0,0:0:0:30:BeLL.wav
36,192,88391,1,0,0:0:0:50:Kick.wav
402,192,88525,1,0,0:0:0:50:Highlight.wav
256,192,88525,1,0,0:0:0:0:
36,192,88659,1,0,0:0:0:0:
182,192,88659,1,0,0:0:0:0:
402,192,88659,1,0,0:0:0:50:Highlight.wav
256,192,88793,1,0,0:0:0:50:HihaT.wav
109,192,88793,1,0,0:0:0:0:
329,192,88860,1,0,0:0:0:50:HihaT.wav
475,192,88927,128,0,89061:0:0:0:50:HihaT.wav
402,192,88927,1,0,0:0:0:40:BeLL.wav
36,192,88927,1,0,0:0:0:50:Kick.wav
182,192,88927,1,0,0:0:0:50:Highlight.wav
182,192,89061,1,0,0:0:0:50:Highlight.wav
329,192,89061,1,0,0:0:0:50:HihaT.wav
402,192,89128,1,0,0:0:0:50:HihaT.wav
36,192,89195,1,0,0:0:0:0:
109,192,89195,1,0,0:0:0:50:Kick.wav
256,192,89195,1,0,0:0:0:0:
475,192,89195,128,0,89329:0:0:0:50:HihaT.wav
329,192,89329,1,0,0:0:0:50:Highlight.wav
182,192,89329,1,0,0:0:0:50:HihaT.wav
109,192,89396,1,0,0:0:0:50:HihaT.wav
36,192,89463,1,0,0:0:0:50:Kick.wav
475,192,89463,1,0,0:0:0:40:BeLL.wav
256,192,89463,1,0,0:0:0:0:
402,192,89463,1,0,0:0:0:0:
182,192,89597,1,0,0:0:0:50:Highlight.wav
329,192,89597,1,0,0:0:0:0:
182,192,89731,1,0,0:0:0:50:Highlight.wav
402,192,89731,1,0,0:0:0:0:
36,192,89731,1,0,0:0:0:50:Kick.wav
256,192,89865,1,0,0:0:0:0:
182,192,89999,1,0,0:0:0:50:Highlight.wav
475,192,89999,1,0,0:0:0:40:BeLL.wav
329,192,89999,1,0,0:0:0:0:
36,192,89999,1,0,0:0:0:50:Kick.wav
402,192,90132,1,0,0:0:0:0:
182,192,90132,1,0,0:0:0:50:Highlight.wav
256,192,90266,1,0,0:0:0:0:
475,192,90266,1,0,0:0:0:0:
36,192,90266,1,0,0:0:0:50:Kick.wav
402,192,90400,1,0,0:0:0:0:
109,192,90400,1,0,0:0:0:50:Highlight.wav
36,192,90534,1,0,0:0:0:0:
182,192,90534,1,0,0:0:0:0:
329,192,90534,1,0,0:0:0:50:Kick.wav
475,192,90668,1,0,0:0:0:0:
256,192,90668,1,0,0:0:0:50:Highlight.wav
402,192,90802,1,0,0:0:0:0:
256,192,90802,1,0,0:0:0:50:Highlight.wav
36,192,90802,1,0,0:0:0:50:Kick.wav
329,192,90936,1,0,0:0:0:0:
109,192,90936,1,0,0:0:0:50:HihaT.wav
182,192,91003,1,0,0:0:0:50:HihaT.wav
402,192,91070,1,0,0:0:0:40:BeLL.wav
256,192,91070,128,0,91204:0:0:0:50:HihaT.wav
36,192,91070,1,0,0:0:0:50:Kick.wav
475,192,91070,1,0,0:0:0:50:Highlight.wav
402,192,91204,1,0,0:0:0:50:HihaT.wav
182,192,91204,1,0,0:0:0:50:Highlight.wav
329,192,91271,1,0,0:0:0:50:HihaT.wav
36,192,91338,1,0,0:0:0:0:
256,192,91338,128,0,91472:0:0:0:0:
109,192,91338,1,0,0:0:0:50:Kick.wav
475,192,91338,1,0,0:0:0:50:HihaT.wav
329,192,91472,1,0,0:0:0:50:HihaT.wav
182,192,91472,1,0,0:0:0:50:Highlight.wav
402,192,91539,1,0,0:0:0:50:HihaT.wav
256,192,91606,1,0,0:0:0:0:
109,192,91606,1,0,0:0:0:0:
36,192,91606,1,0,0:0:0:50:Kick.wav
475,192,91606,1,0,0:0:0:30:BeLL.wav
182,192,91740,1,0,0:0:0:0:
329,192,91740,1,0,0:0:0:50:Highlight.wav
475,192,91874,1,0,0:0:0:30:BeLL.wav
109,192,91874,1,0,0:0:0:0:
36,192,91874,1,0,0:0:0:50:Kick.wav
329,192,91874,1,0,0:0:0:50:Highlight.wav
256,192,92007,1,0,0:0:0:0:
475,192,92141,1,0,0:0:0:30:BeLL.wav
182,192,92141,1,0,0:0:0:0:
36,192,92141,1,0,0:0:0:50:Kick.wav
329,192,92141,1,0,0:0:0:50:Highlight.wav
109,192,92275,1,0,0:0:0:0:
329,192,92275,1,0,0:0:0:50:Highlight.wav
256,192,92409,1,0,0:0:0:0:
475,192,92409,1,0,0:0:0:0:
36,192,92409,1,0,0:0:0:50:Kick.wav
402,192,92409,1,0,0:0:0:30:BeLL.wav
329,192,92543,1,0,0:0:0:0:
182,192,92543,1,0,0:0:0:50:Highlight.wav
109,192,92677,1,0,0:0:0:0:
256,192,92677,1,0,0:0:0:0:
36,192,92677,1,0,0:0:0:50:Kick.wav
475,192,92677,1,0,0:0:0:30:BeLL.wav
182,192,92811,1,0,0:0:0:0:
402,192,92811,1,0,0:0:0:50:Highlight.wav
256,192,92945,1,0,0:0:0:0:
402,192,92945,1,0,0:0:0:50:Highlight.wav
36,192,92945,1,0,0:0:0:50:Kick.wav
329,192,93079,1,0,0:0:0:0:
182,192,93079,1,0,0:0:0:50:HihaT.wav
109,192,93146,1,0,0:0:0:50:HihaT.wav
256,192,93213,1,0,0:0:0:50:Highlight.wav
36,192,93213,1,0,0:0:0:50:Kick.wav
475,192,93213,1,0,0:0:0:30:BeLL.wav
402,192,93213,128,0,93347:0:0:0:50:HihaT.wav
256,192,93347,1,0,0:0:0:50:Highlight.wav
109,192,93347,1,0,0:0:0:50:HihaT.wav
329,192,93414,1,0,0:0:0:50:HihaT.wav
475,192,93481,1,0,0:0:0:0:
402,192,93481,128,0,93615:0:0:0:50:Kick.wav
36,192,93481,128,0,93749:0:0:0:0:
182,192,93481,1,0,0:0:0:50:HihaT.wav
256,192,93615,1,0,0:0:0:50:HihaT.wav
109,192,93615,1,0,0:0:0:50:Highlight.wav
329,192,93682,1,0,0:0:0:50:HihaT.wav
402,192,93749,1,0,0:0:0:50:Sub Rhythm-1.wav
109,192,93749,1,0,0:0:0:0:
182,192,93749,1,0,0:0:0:50:Kick.wav
475,192,93749,128,0,95891:0:0:0:30:BeLL.wav
182,192,93882,1,0,0:0:0:50:Highlight.wav
329,192,93882,1,0,0:0:0:50:Sub Rhythm-1.wav
256,192,94016,1,0,0:0:0:50:Sub Rhythm-1.wav
109,192,94016,1,0,0:0:0:50:Highlight.wav
36,192,94016,1,0,0:0:0:50:Kick.wav
402,192,94016,1,0,0:0:0:0:
182,192,94150,1,0,0:0:0:50:Sub Rhythm-1.wav
109,192,94150,1,0,0:0:0:0:
329,192,94284,1,0,0:0:0:0:
402,192,94284,1,0,0:0:0:50:Highlight.wav
256,192,94284,1,0,0:0:0:50:Kick.wav
36,192,94284,1,0,0:0:0:50:Sub Rhythm-1.wav
256,192,94418,1,0,0:0:0:50:Highlight.wav
109,192,94418,1,0,0:0:0:50:Sub Rhythm-1.wav
329,192,94552,1,0,0:0:0:0:
402,192,94552,1,0,0:0:0:0:
36,192,94552,1,0,0:0:0:50:Kick.wav
182,192,94552,1,0,0:0:0:50:Sub Rhythm-1.wav
402,192,94686,1,0,0:0:0:50:Highlight.wav
256,192,94686,1,0,0:0:0:50:Sub Rhythm-1.wav
109,192,94820,128,0,94954:0:0:0:0:
36,192,94820,128,0,94954:0:0:0:50:Kick.wav
329,192,94820,128,0,94954:0:0:0:50:Sub Rhythm-1.wav
182,192,94820,128,0,94954:0:0:0:30:BeLL2.wav
402,192,94954,1,0,0:0:0:50:Highlight.wav
329,192,95088,1,0,0:0:0:50:Highlight.wav
182,192,95088,1,0,0:0:0:0:
36,192,95088,1,0,0:0:0:50:Kick.wav
256,192,95222,1,0,0:0:0:0:
109,192,95222,1,0,0:0:0:50:HihaT.wav
329,192,95289,1,0,0:0:0:50:HihaT.wav
36,192,95356,128,0,95490:0:0:0:50:Kick.wav
402,192,95356,1,0,0:0:0:50:Highlight.wav
182,192,95356,1,0,0:0:0:50:HihaT.wav
402,192,95490,1,0,0:0:0:50:Highlight.wav
256,192,95490,1,0,0:0:0:50:HihaT.wav
182,192,95557,1,0,0:0:0:50:HihaT.wav
109,192,95624,1,0,0:0:0:0:
36,192,95624,128,0,95757:0:0:0:50:Kick.wav
329,192,95624,1,0,0:0:0:50:HihaT.wav
402,192,95757,1,0,0:0:0:50:Highlight.wav
182,192,95757,1,0,0:0:0:50:HihaT.wav
329,192,95824,1,0,0:0:0:50:HihaT.wav
109,192,95891,1,0,0:0:0:0:
402,192,95891,1,0,0:0:0:0:
36,192,95891,1,0,0:0:0:50:Kick.wav
256,192,95891,1,0,0:0:0:30:BeLL.wav
329,192,96025,1,0,0:0:0:50:Highlight.wav
182,192,96025,1,0,0:0:0:0:
256,192,96159,128,0,96427:0:0:0:0:
475,192,96159,1,0,0:0:0:0:
36,192,96159,1,0,0:0:0:50:Kick.wav
329,192,96159,1,0,0:0:0:50:Highlight.wav
109,192,96293,1,0,0:0:0:0:
475,192,96427,1,0,0:0:0:0:
402,192,96427,128,0,96561:0:0:0:0:
36,192,96427,1,0,0:0:0:50:Kick.wav
182,192,96427,1,0,0:0:0:50:Highlight.wav
109,192,96561,1,0,0:0:0:0:
329,192,96561,128,0,96695:0:0:0:0:
182,192,96561,1,0,0:0:0:50:Highlight.wav
109,192,96695,1,0,0:0:0:0:
36,192,96695,1,0,0:0:0:0:
402,192,96695,1,0,0:0:0:50:Kick.wav
256,192,96695,128,0,96829:0:0:0:0:
475,192,96829,1,0,0:0:0:0:
182,192,96829,128,0,96963:0:0:0:0:
329,192,96829,1,0,0:0:0:50:Highlight.wav
256,192,96963,1,0,0:0:0:0:
402,192,96963,1,0,0:0:0:30:BeLL.wav
36,192,96963,1,0,0:0:0:50:Kick.wav
109,192,96963,128,0,97231:0:0:0:0:
475,192,97097,1,0,0:0:0:0:
329,192,97097,1,0,0:0:0:50:Highlight.wav
182,192,97231,1,0,0:0:0:0:
329,192,97231,1,0,0:0:0:50:Highlight.wav
36,192,97231,1,0,0:0:0:50:Kick.wav
109,192,97365,1,0,0:0:0:0:
475,192,97365,1,0,0:0:0:50:HihaT.wav
256,192,97365,128,0,97499:0:0:0:0:
402,192,97432,1,0,0:0:0:50:HihaT.wav
329,192,97499,1,0,0:0:0:50:HihaT.wav
182,192,97499,1,0,0:0:0:50:Highlight.wav
36,192,97499,1,0,0:0:0:50:Kick.wav
402,192,97632,1,0,0:0:0:50:HihaT.wav
475,192,97632,128,0,97766:0:0:0:0:
182,192,97632,1,0,0:0:0:50:Highlight.wav
109,192,97699,1,0,0:0:0:50:HihaT.wav
256,192,97766,1,0,0:0:0:50:HihaT.wav
329,192,97766,128,0,97900:0:0:0:0:
36,192,97766,1,0,0:0:0:50:Kick.wav
109,192,97900,1,0,0:0:0:50:HihaT.wav
475,192,97900,128,0,98034:0:0:0:0:
182,192,97900,1,0,0:0:0:50:Highlight.wav
256,192,97967,1,0,0:0:0:50:HihaT.wav
109,192,98034,1,0,0:0:0:50:Sub Rhythm-2.wav
329,192,98034,1,0,0:0:0:0:
36,192,98034,1,0,0:0:0:50:Kick.wav
402,192,98034,128,0,99909:0:0:0:30:BeLL.wav
182,192,98168,1,0,0:0:0:50:Sub Rhythm-2.wav
329,192,98168,1,0,0:0:0:50:Highlight.wav
256,192,98302,1,0,0:0:0:50:Sub Rhythm-2.wav
475,192,98302,1,0,0:0:0:0:
36,192,98302,1,0,0:0:0:50:Kick.wav
109,192,98302,1,0,0:0:0:50:Highlight.wav
109,192,98436,1,0,0:0:0:0:
182,192,98436,1,0,0:0:0:50:Sub Rhythm-2.wav
329,192,98570,1,0,0:0:0:50:Sub Rhythm-2.wav
256,192,98570,1,0,0:0:0:0:
36,192,98570,1,0,0:0:0:50:Kick.wav
475,192,98570,1,0,0:0:0:50:Highlight.wav
256,192,98704,1,0,0:0:0:50:Sub Rhythm-2.wav
109,192,98704,1,0,0:0:0:50:Highlight.wav
475,192,98838,1,0,0:0:0:0:
329,192,98838,1,0,0:0:0:0:
36,192,98838,1,0,0:0:0:50:Kick.wav
182,192,98838,1,0,0:0:0:50:Sub Rhythm-2.wav
256,192,98972,1,0,0:0:0:50:Sub Rhythm-2.wav
475,192,98972,1,0,0:0:0:50:Highlight.wav
182,192,99106,1,0,0:0:0:0:
109,192,99106,1,0,0:0:0:0:
36,192,99106,1,0,0:0:0:50:Kick.wav
329,192,99106,1,0,0:0:0:50:Sub Rhythm-2.wav
256,192,99240,1,0,0:0:0:50:Sub Rhythm-2.wav
109,192,99240,1,0,0:0:0:50:Highlight.wav
329,192,99374,1,0,0:0:0:50:Sub Rhythm-2.wav
475,192,99374,1,0,0:0:0:0:
36,192,99374,1,0,0:0:0:50:Kick.wav
182,192,99374,1,0,0:0:0:50:Highlight.wav
329,192,99507,1,0,0:0:0:0:
109,192,99507,1,0,0:0:0:50:HihaT.wav
182,192,99574,1,0,0:0:0:50:HihaT.wav
36,192,99641,128,0,99775:0:0:0:50:Kick.wav
475,192,99641,1,0,0:0:0:50:HihaT.wav
256,192,99641,1,0,0:0:0:50:Highlight.wav
109,192,99775,1,0,0:0:0:50:HihaT.wav
329,192,99775,1,0,0:0:0:50:Highlight.wav
256,192,99842,1,0,0:0:0:50:HihaT.wav
36,192,99909,128,0,100043:0:0:0:50:Kick.wav
182,192,99909,1,0,0:0:0:50:HihaT.wav
475,192,99909,1,0,0:0:0:0:
256,192,100043,1,0,0:0:0:0:
109,192,100043,1,0,0:0:0:50:HihaT.wav
402,192,100043,1,0,0:0:0:50:Highlight.wav
182,192,100110,1,0,0:0:0:0:
329,192,100110,1,0,0:0:0:50:HihaT.wav
402,192,100177,1,0,0:0:0:30:BeLL.wav
475,192,100177,1,0,0:0:0:50:Kick.wav
256,192,100177,128,0,102253:0:0:0:0:
109,192,100177,1,0,0:0:0:0:
36,192,100177,1,0,0:0:0:0:
182,192,100311,1,0,0:0:0:0:
402,192,100311,1,0,0:0:0:50:Highlight.wav
36,192,100445,1,0,0:0:0:0:
475,192,100445,1,0,0:0:0:50:Kick.wav
182,192,100445,1,0,0:0:0:50:Highlight.wav
329,192,100445,1,0,0:0:0:30:BeLL.wav
329,192,100579,1,0,0:0:0:0:
109,192,100579,1,0,0:0:0:0:
402,192,100713,1,0,0:0:0:0:
109,192,100713,1,0,0:0:0:30:BeLL.wav
475,192,100713,1,0,0:0:0:50:Kick.wav
36,192,100713,1,0,0:0:0:50:Highlight.wav
475,192,100847,1,0,0:0:0:0:
182,192,100847,1,0,0:0:0:50:Highlight.wav
402,192,100981,1,0,0:0:0:0:
329,192,100981,1,0,0:0:0:30:BeLL.wav
182,192,100981,1,0,0:0:0:50:Kick.wav
36,192,100981,1,0,0:0:0:0:
109,192,101115,1,0,0:0:0:0:
329,192,101115,1,0,0:0:0:50:Highlight.wav
182,192,101249,1,0,0:0:0:50:Kick.wav
475,192,101249,1,0,0:0:0:50:Sub Snare.wav
329,192,101249,1,0,0:0:0:30:BeLL.wav
402,192,101249,1,0,0:0:0:0:
36,192,101315,1,0,0:0:0:50:Sub Snare.wav
109,192,101315,1,0,0:0:0:0:
475,192,101382,1,0,0:0:0:50:Sub Snare.wav
402,192,101382,1,0,0:0:0:0:
36,192,101449,1,0,0:0:0:50:Sub Snare.wav
109,192,101449,1,0,0:0:0:0:
329,192,101516,1,0,0:0:0:50:Kick.wav
402,192,101516,1,0,0:0:0:50:Sub Snare.wav
182,192,101583,1,0,0:0:0:0:
109,192,101583,1,0,0:0:0:50:Sub Snare.wav
329,192,101650,1,0,0:0:0:0:
402,192,101650,1,0,0:0:0:50:Sub Snare.wav
182,192,101717,1,0,0:0:0:0:
109,192,101717,1,0,0:0:0:50:Sub Snare.wav
475,192,101784,1,0,0:0:0:50:Sub Snare.wav
329,192,101784,1,0,0:0:0:50:Kick.wav
182,192,101851,1,0,0:0:0:0:
36,192,101851,1,0,0:0:0:50:Sub Snare.wav
475,192,101918,1,0,0:0:0:50:Sub Snare.wav
329,192,101918,1,0,0:0:0:0:
182,192,101985,1,0,0:0:0:0:
36,192,101985,1,0,0:0:0:50:Sub Snare.wav
329,192,102052,1,0,0:0:0:50:Kick.wav
402,192,102052,1,0,0:0:0:50:Sub Snare.wav
475,192,102052,1,0,0:0:0:0:
36,192,102119,1,0,0:0:0:0:
109,192,102119,1,0,0:0:0:50:Sub Snare.wav
182,192,102119,1,0,0:0:0:0:
402,192,102186,1,0,0:0:0:50:Sub Snare.wav
475,192,102186,1,0,0:0:0:0:
329,192,102186,1,0,0:0:0:0:
36,192,102253,5,0,0:0:0:0:
182,192,102253,1,0,0:0:0:0:
109,192,102253,1,0,0:0:0:50:Sub Snare.wav
256,192,102320,1,0,0:0:0:30:Sub Rhythm-3.wav
475,192,102320,1,0,0:0:0:50:Kick.wav
402,192,102320,1,0,0:0:0:50:CrashL.wav
36,192,102387,1,0,0:0:0:30:Sub Rhythm-3.wav
329,192,102387,1,0,0:0:0:0:
402,192,102454,1,0,0:0:0:0:
109,192,102454,1,0,0:0:0:30:Sub Rhythm-3.wav
475,192,102521,1,0,0:0:0:0:
182,192,102521,1,0,0:0:0:30:Sub Rhythm-3.wav
109,192,102588,1,0,0:0:0:30:Sub Rhythm-3.wav
329,192,102588,1,0,0:0:0:0:
182,192,102655,1,0,0:0:0:30:Sub Rhythm-3.wav
402,192,102655,1,0,0:0:0:0:
256,192,102722,1,0,0:0:0:30:Sub Rhythm-3.wav
475,192,102722,1,0,0:0:0:50:Kick.wav
36,192,102722,1,0,0:0:0:0:
109,192,102789,1,0,0:0:0:0:
329,192,102789,1,0,0:0:0:30:Sub Rhythm-3.wav
182,192,102856,1,0,0:0:0:30:Sub Rhythm-3.wav
475,192,102856,1,0,0:0:0:50:Snare.wav
402,192,102856,1,0,0:0:0:0:
256,192,102923,1,0,0:0:0:30:Sub Rhythm-3.wav
36,192,102923,1,0,0:0:0:0:
329,192,102990,1,0,0:0:0:30:Sub Rhythm-3.wav
109,192,102990,1,0,0:0:0:0:
402,192,103057,1,0,0:0:0:30:Sub Rhythm-3.wav
182,192,103057,1,0,0:0:0:0:
329,192,103124,1,0,0:0:0:0:
109,192,103124,1,0,0:0:0:30:Sub Rhythm-3.wav
402,192,103190,1,0,0:0:0:0:
182,192,103190,1,0,0:0:0:30:Sub Rhythm-3.wav
475,192,103257,1,0,0:0:0:0:
36,192,103257,1,0,0:0:0:50:Kick.wav
256,192,103257,1,0,0:0:0:30:Sub Rhythm-3.wav
329,192,103324,1,0,0:0:0:30:Sub Rhythm-3.wav
182,192,103324,1,0,0:0:0:0:
109,192,103324,1,0,0:0:0:50:Kick.wav
475,192,103391,1,0,0:0:0:30:Sub Rhythm-3.wav
256,192,103391,1,0,0:0:0:0:
36,192,103391,1,0,0:0:0:50:Kick.wav
182,192,103458,1,0,0:0:0:0:
402,192,103458,1,0,0:0:0:30:Sub Rhythm-3.wav
329,192,103525,1,0,0:0:0:30:Sub Rhythm-3.wav
109,192,103525,1,0,0:0:0:0:
36,192,103592,1,0,0:0:0:50:Kick.wav
475,192,103592,1,0,0:0:0:0:
256,192,103592,1,0,0:0:0:30:Sub Rhythm-3.wav
402,192,103659,1,0,0:0:0:0:
182,192,103659,1,0,0:0:0:30:Sub Rhythm-3.wav
329,192,103726,1,0,0:0:0:0:
109,192,103726,1,0,0:0:0:30:Sub Rhythm-3.wav
256,192,103793,1,0,0:0:0:0:
475,192,103793,1,0,0:0:0:30:Sub Rhythm-3.wav
36,192,103793,1,0,0:0:0:50:Kick.wav
182,192,103860,1,0,0:0:0:0:
402,192,103860,1,0,0:0:0:30:Sub Rhythm-3.wav
329,192,103927,1,0,0:0:0:30:Sub Rhythm-3.wav
36,192,103927,1,0,0:0:0:0:
109,192,103927,1,0,0:0:0:50:Snare.wav
402,192,103994,1,0,0:0:0:30:Sub Rhythm-3.wav
182,192,103994,1,0,0:0:0:0:
329,192,104061,1,0,0:0:0:30:Sub Rhythm-3.wav
109,192,104061,1,0,0:0:0:0:
36,192,104128,1,0,0:0:0:0:
256,192,104128,1,0,0:0:0:30:Sub Rhythm-3.wav
402,192,104195,1,0,0:0:0:30:Sub Rhythm-3.wav
182,192,104195,1,0,0:0:0:0:
109,192,104262,1,0,0:0:0:0:
329,192,104262,1,0,0:0:0:30:Sub Rhythm-3.wav
475,192,104329,1,0,0:0:0:0:
256,192,104329,1,0,0:0:0:30:Sub Rhythm-3.wav
182,192,104396,1,0,0:0:0:30:Sub Rhythm-3.wav
402,192,104396,1,0,0:0:0:0:
109,192,104463,1,0,0:0:0:30:Sub Rhythm-3.wav
329,192,104463,1,0,0:0:0:0:
36,192,104463,1,0,0:0:0:50:Kick.wav
182,192,104530,1,0,0:0:0:30:Sub Rhythm-3.wav
475,192,104530,1,0,0:0:0:0:
402,192,104597,1,0,0:0:0:0:
256,192,104597,1,0,0:0:0:30:Sub Rhythm-3.wav
475,192,104664,1,0,0:0:0:0:
109,192,104664,1,0,0:0:0:30:Sub Rhythm-3.wav
182,192,104731,1,0,0:0:0:30:Sub Rhythm-3.wav
329,192,104731,1,0,0:0:0:0:
402,192,104798,1,0,0:0:0:0:
36,192,104798,1,0,0:0:0:30:Sub Rhythm-3.wav
256,192,104865,1,0,0:0:0:0:
475,192,104865,1,0,0:0:0:50:Kick.wav
109,192,104865,1,0,0:0:0:30:Sub Rhythm-3.wav
329,192,104932,1,0,0:0:0:0:
182,192,104932,1,0,0:0:0:30:Sub Rhythm-3.wav
402,192,104999,1,0,0:0:0:30:Sub Rhythm-3.wav
256,192,104999,1,0,0:0:0:0:
36,192,104999,1,0,0:0:0:50:Snare.wav
475,192,105065,1,0,0:0:0:30:Sub Rhythm-3.wav
109,192,105065,1,0,0:0:0:0:
329,192,105132,1,0,0:0:0:30:Sub Rhythm-3.wav
182,192,105132,1,0,0:0:0:0:
402,192,105199,1,0,0:0:0:30:Sub Rhythm-3.wav
36,192,105199,1,0,0:0:0:0:
109,192,105266,1,0,0:0:0:0:
256,192,105266,1,0,0:0:0:30:Sub Rhythm-3.wav
475,192,105333,1,0,0:0:0:0:
329,192,105333,1,0,0:0:0:30:Sub Rhythm-3.wav
182,192,105400,1,0,0:0:0:0:
402,192,105400,1,0,0:0:0:30:Sub Rhythm-3.wav
36,192,105400,1,0,0:0:0:50:Kick.wav
256,192,105467,1,0,0:0:0:0:
475,192,105467,1,0,0:0:0:30:Sub Rhythm-3.wav
109,192,105467,1,0,0:0:0:50:Kick.wav
329,192,105534,1,0,0:0:0:30:Sub Rhythm-3.wav
36,192,105534,1,0,0:0:0:50:Kick.wav
182,192,105534,1,0,0:0:0:0:
475,192,105601,1,0,0:0:0:30:Sub Rhythm-3.wav
256,192,105601,1,0,0:0:0:0:
402,192,105668,1,0,0:0:0:30:Sub Rhythm-3.wav
182,192,105668,1,0,0:0:0:0:
109,192,105735,1,0,0:0:0:0:
329,192,105735,1,0,0:0:0:30:Sub Rhythm-3.wav
36,192,105735,1,0,0:0:0:50:Kick.wav
402,192,105802,1,0,0:0:0:30:Sub Rhythm-3.wav
182,192,105802,1,0,0:0:0:0:
109,192,105869,1,0,0:0:0:0:
329,192,105869,1,0,0:0:0:30:Sub Rhythm-3.wav
256,192,105936,1,0,0:0:0:30:Sub Rhythm-3.wav
36,192,105936,1,0,0:0:0:50:Kick.wav
475,192,105936,1,0,0:0:0:0:
402,192,106003,1,0,0:0:0:0:
182,192,106003,1,0,0:0:0:30:Sub Rhythm-3.wav
109,192,106070,1,0,0:0:0:30:Sub Rhythm-3.wav
36,192,106070,1,0,0:0:0:50:Snare.wav
329,192,106070,1,0,0:0:0:0:
402,192,106137,1,0,0:0:0:0:
182,192,106137,1,0,0:0:0:30:Sub Rhythm-3.wav
329,192,106204,1,0,0:0:0:0:
109,192,106204,1,0,0:0:0:30:Sub Rhythm-3.wav
36,192,106271,1,0,0:0:0:30:Sub Rhythm-3.wav
256,192,106271,1,0,0:0:0:0:
475,192,106338,1,0,0:0:0:50:Snare.wav
182,192,106338,1,0,0:0:0:0:
402,192,106338,1,0,0:0:0:30:Sub Rhythm-3.wav
109,192,106405,1,0,0:0:0:0:
329,192,106405,1,0,0:0:0:30:Sub Rhythm-3.wav
36,192,106472,1,0,0:0:0:0:
256,192,106472,1,0,0:0:0:30:Sub Rhythm-3.wav
329,192,106539,1,0,0:0:0:0:
182,192,106539,1,0,0:0:0:30:Sub Rhythm-3.wav
402,192,106606,1,0,0:0:0:0:
475,192,106606,1,0,0:0:0:50:Kick.wav
36,192,106606,1,0,0:0:0:0:
109,192,106606,1,0,0:0:0:0:
256,192,106673,1,0,0:0:0:0:
475,192,106740,1,0,0:0:0:0:
402,192,106740,1,0,0:0:0:0:
109,192,106740,1,0,0:0:0:0:
256,192,106807,1,0,0:0:0:0:
36,192,106874,1,0,0:0:0:0:
402,192,106874,1,0,0:0:0:0:
182,192,106874,1,0,0:0:0:0:
329,192,106940,1,0,0:0:0:0:
402,192,107007,1,0,0:0:0:0:
475,192,107007,1,0,0:0:0:50:Kick.wav
182,192,107007,1,0,0:0:0:0:
36,192,107007,1,0,0:0:0:0:
329,192,107074,1,0,0:0:0:0:
256,192,107141,1,0,0:0:0:0:
36,192,107141,1,0,0:0:0:0:
109,192,107141,1,0,0:0:0:0:
475,192,107141,1,0,0:0:0:50:Snare.wav
402,192,107186,1,0,0:0:0:0:
329,192,107231,1,0,0:0:0:0:
109,192,107275,1,0,0:0:0:0:
182,192,107275,1,0,0:0:0:0:
402,192,107320,1,0,0:0:0:0:
256,192,107365,1,0,0:0:0:0:
475,192,107409,1,0,0:0:0:0:
36,192,107409,1,0,0:0:0:0:
182,192,107454,1,0,0:0:0:0:
329,192,107499,1,0,0:0:0:0:
475,192,107543,1,0,0:0:0:0:
36,192,107543,1,0,0:0:0:50:Kick.wav
256,192,107543,1,0,0:0:0:0:
402,192,107588,1,0,0:0:0:0:
109,192,107610,1,0,0:0:0:50:Kick.wav
182,192,107610,1,0,0:0:0:0:
329,192,107632,1,0,0:0:0:0:
256,192,107677,1,0,0:0:0:0:
36,192,107677,1,0,0:0:0:50:Kick.wav
475,192,107677,1,0,0:0:0:0:
109,192,107722,1,0,0:0:0:0:
182,192,107766,1,0,0:0:0:0:
475,192,107811,1,0,0:0:0:0:
402,192,107811,1,0,0:0:0:0:
329,192,107856,1,0,0:0:0:0:
36,192,107878,1,0,0:0:0:50:Kick.wav
109,192,107878,1,0,0:0:0:0:
256,192,107900,1,0,0:0:0:0:
475,192,107945,1,0,0:0:0:0:
182,192,107945,1,0,0:0:0:0:
402,192,107990,1,0,0:0:0:0:
329,192,108034,1,0,0:0:0:0:
109,192,108079,1,0,0:0:0:0:
36,192,108079,1,0,0:0:0:50:Kick.wav
256,192,108079,1,0,0:0:0:0:
402,192,108124,1,0,0:0:0:0:
182,192,108168,1,0,0:0:0:0:
36,192,108213,1,0,0:0:0:50:Snare.wav
109,192,108213,1,0,0:0:0:0:
329,192,108213,1,0,0:0:0:0:
475,192,108213,1,0,0:0:0:0:
256,192,108257,1,0,0:0:0:0:
182,192,108302,1,0,0:0:0:0:
402,192,108347,1,0,0:0:0:0:
109,192,108347,1,0,0:0:0:0:
329,192,108391,1,0,0:0:0:0:
256,192,108436,1,0,0:0:0:0:
402,192,108481,1,0,0:0:0:0:
36,192,108481,1,0,0:0:0:0:
182,192,108525,1,0,0:0:0:0:
329,192,108570,1,0,0:0:0:0:
475,192,108615,1,0,0:0:0:0:
109,192,108615,1,0,0:0:0:0:
182,192,108659,1,0,0:0:0:0:
256,192,108704,1,0,0:0:0:0:
109,192,108749,128,0,108815:0:0:0:0:
36,192,108749,128,0,108815:0:0:0:0:
329,192,108749,1,0,0:0:0:50:Kick.wav
475,192,108749,1,0,0:0:0:0:
402,192,108815,1,0,0:0:0:0:
256,192,108882,1,0,0:0:0:0:
109,192,108882,1,0,0:0:0:0:
329,192,108949,1,0,0:0:0:0:
36,192,109016,1,0,0:0:0:0:
182,192,109016,1,0,0:0:0:0:
475,192,109016,128,0,109284:0:0:0:0:
256,192,109083,1,0,0:0:0:0:
402,192,109150,1,0,0:0:0:0:
329,192,109150,1,0,0:0:0:50:Kick.wav
109,192,109150,1,0,0:0:0:0:
182,192,109217,1,0,0:0:0:0:
109,192,109284,1,0,0:0:0:0:
329,192,109284,1,0,0:0:0:50:Snare.wav
36,192,109284,128,0,109552:0:0:0:0:
402,192,109284,1,0,0:0:0:0:
256,192,109351,1,0,0:0:0:0:
182,192,109418,1,0,0:0:0:0:
402,192,109418,1,0,0:0:0:0:
329,192,109485,1,0,0:0:0:0:
256,192,109552,1,0,0:0:0:0:
109,192,109552,1,0,0:0:0:0:
475,192,109552,128,0,109820:0:0:0:0:
402,192,109619,1,0,0:0:0:0:
109,192,109686,1,0,0:0:0:50:Kick.wav
256,192,109686,1,0,0:0:0:0:
36,192,109686,1,0,0:0:0:0:
329,192,109753,1,0,0:0:0:0:
182,192,109753,1,0,0:0:0:50:Kick.wav
256,192,109820,128,0,110088:0:0:0:0:
402,192,109820,1,0,0:0:0:0:
36,192,109820,1,0,0:0:0:50:Kick.wav
109,192,109887,1,0,0:0:0:0:
329,192,109954,1,0,0:0:0:0:
182,192,109954,1,0,0:0:0:0:
402,192,110021,1,0,0:0:0:50:Kick.wav
475,192,110021,1,0,0:0:0:0:
329,192,110088,1,0,0:0:0:0:
109,192,110088,1,0,0:0:0:0:
36,192,110088,128,0,110356:0:0:0:0:
182,192,110155,1,0,0:0:0:0:
475,192,110222,1,0,0:0:0:0:
402,192,110222,1,0,0:0:0:0:
109,192,110222,1,0,0:0:0:50:Kick.wav
329,192,110289,1,0,0:0:0:0:
475,192,110356,1,0,0:0:0:0:
109,192,110356,1,0,0:0:0:0:
256,192,110356,128,0,110624:0:0:0:0:
182,192,110356,1,0,0:0:0:50:Snare.wav
402,192,110423,1,0,0:0:0:0:
36,192,110490,1,0,0:0:0:0:
329,192,110490,1,0,0:0:0:0:
109,192,110557,1,0,0:0:0:0:
182,192,110624,1,0,0:0:0:0:
329,192,110624,1,0,0:0:0:0:
475,192,110624,128,0,110891:0:0:0:0:
402,192,110624,1,0,0:0:0:50:Snare.wav
109,192,110690,1,0,0:0:0:0:
256,192,110757,1,0,0:0:0:0:
36,192,110757,1,0,0:0:0:0:
329,192,110824,1,0,0:0:0:0:
36,192,110891,1,0,0:0:0:0:
402,192,110891,1,0,0:0:0:50:Kick.wav
109,192,110891,1,0,0:0:0:0:
182,192,110891,1,0,0:0:0:30:Sub Rhythm-3.wav
475,192,110958,1,0,0:0:0:0:
256,192,110958,1,0,0:0:0:30:Sub Rhythm-3.wav
402,192,111025,1,0,0:0:0:0:
182,192,111025,1,0,0:0:0:30:Sub Rhythm-3.wav
109,192,111092,1,0,0:0:0:30:Sub Rhythm-3.wav
329,192,111092,1,0,0:0:0:0:
256,192,111159,1,0,0:0:0:0:
36,192,111159,1,0,0:0:0:30:Sub Rhythm-3.wav
109,192,111226,1,0,0:0:0:30:Sub Rhythm-3.wav
329,192,111226,1,0,0:0:0:0:
475,192,111293,1,0,0:0:0:0:
182,192,111293,1,0,0:0:0:30:Sub Rhythm-3.wav
402,192,111293,1,0,0:0:0:50:Kick.wav
329,192,111360,1,0,0:0:0:0:
109,192,111360,1,0,0:0:0:30:Sub Rhythm-3.wav
475,192,111427,1,0,0:0:0:0:
256,192,111427,1,0,0:0:0:50:Snare.wav
36,192,111427,1,0,0:0:0:30:Sub Rhythm-3.wav
182,192,111494,1,0,0:0:0:0:
402,192,111494,1,0,0:0:0:30:Sub Rhythm-3.wav
109,192,111561,1,0,0:0:0:0:
329,192,111561,1,0,0:0:0:30:Sub Rhythm-3.wav
475,192,111628,1,0,0:0:0:0:
256,192,111628,1,0,0:0:0:30:Sub Rhythm-3.wav
402,192,111695,1,0,0:0:0:30:Sub Rhythm-3.wav
182,192,111695,1,0,0:0:0:0:
109,192,111762,1,0,0:0:0:0:
329,192,111762,1,0,0:0:0:30:Sub Rhythm-3.wav
256,192,111829,1,0,0:0:0:30:Sub Rhythm-3.wav
36,192,111829,1,0,0:0:0:0:
475,192,111829,1,0,0:0:0:50:Kick.wav
329,192,111896,1,0,0:0:0:0:
402,192,111896,1,0,0:0:0:50:Kick.wav
182,192,111896,1,0,0:0:0:30:Sub Rhythm-3.wav
256,192,111963,1,0,0:0:0:0:
475,192,111963,1,0,0:0:0:50:Kick.wav
36,192,111963,1,0,0:0:0:30:Sub Rhythm-3.wav
109,192,112030,1,0,0:0:0:30:Sub Rhythm-3.wav
329,192,112030,1,0,0:0:0:0:
182,192,112097,1,0,0:0:0:30:Sub Rhythm-3.wav
402,192,112097,1,0,0:0:0:0:
36,192,112164,1,0,0:0:0:50:Kick.wav
109,192,112164,1,0,0:0:0:30:Sub Rhythm-3.wav
329,192,112164,1,0,0:0:0:0:
402,192,112231,1,0,0:0:0:0:
182,192,112231,1,0,0:0:0:30:Sub Rhythm-3.wav
256,192,112298,1,0,0:0:0:30:Sub Rhythm-3.wav
475,192,112298,1,0,0:0:0:0:
109,192,112365,1,0,0:0:0:0:
36,192,112365,1,0,0:0:0:50:Kick.wav
329,192,112365,1,0,0:0:0:30:Sub Rhythm-3.wav
402,192,112432,1,0,0:0:0:30:Sub Rhythm-3.wav
182,192,112432,1,0,0:0:0:0:
36,192,112499,1,0,0:0:0:30:Sub Rhythm-3.wav
256,192,112499,1,0,0:0:0:50:Snare.wav
475,192,112499,1,0,0:0:0:0:
329,192,112565,1,0,0:0:0:0:
109,192,112565,1,0,0:0:0:30:Sub Rhythm-3.wav
402,192,112632,1,0,0:0:0:0:
182,192,112632,1,0,0:0:0:30:Sub Rhythm-3.wav
329,192,112699,1,0,0:0:0:0:
109,192,112699,1,0,0:0:0:30:Sub Rhythm-3.wav
182,192,112766,1,0,0:0:0:30:Sub Rhythm-3.wav
402,192,112766,1,0,0:0:0:0:
256,192,112833,1,0,0:0:0:30:Sub Rhythm-3.wav
475,192,112833,1,0,0:0:0:0:
109,192,112900,1,0,0:0:0:0:
329,192,112900,1,0,0:0:0:30:Sub Rhythm-3.wav
182,192,112967,1,0,0:0:0:0:
402,192,112967,1,0,0:0:0:30:Sub Rhythm-3.wav
36,192,113034,1,0,0:0:0:0:
475,192,113034,1,0,0:0:0:30:Sub Rhythm-3.wav
256,192,113034,1,0,0:0:0:50:Kick.wav
182,192,113101,1,0,0:0:0:0:
402,192,113101,1,0,0:0:0:30:Sub Rhythm-3.wav
329,192,113168,1,0,0:0:0:30:Sub Rhythm-3.wav
109,192,113168,1,0,0:0:0:0:
256,192,113235,1,0,0:0:0:30:Sub Rhythm-3.wav
36,192,113235,1,0,0:0:0:0:
402,192,113302,1,0,0:0:0:30:Sub Rhythm-3.wav
182,192,113302,1,0,0:0:0:0:
329,192,113369,1,0,0:0:0:30:Sub Rhythm-3.wav
109,192,113369,1,0,0:0:0:0:
256,192,113436,1,0,0:0:0:30:Sub Rhythm-3.wav
36,192,113436,1,0,0:0:0:0:
475,192,113436,1,0,0:0:0:50:Kick.wav
182,192,113503,1,0,0:0:0:30:Sub Rhythm-3.wav
402,192,113503,1,0,0:0:0:0:
36,192,113570,1,0,0:0:0:50:Snare.wav
329,192,113570,1,0,0:0:0:0:
109,192,113570,1,0,0:0:0:30:Sub Rhythm-3.wav
182,192,113637,1,0,0:0:0:30:Sub Rhythm-3.wav
402,192,113637,1,0,0:0:0:0:
109,192,113704,1,0,0:0:0:30:Sub Rhythm-3.wav
329,192,113704,1,0,0:0:0:0:
256,192,113771,1,0,0:0:0:0:
36,192,113771,1,0,0:0:0:30:Sub Rhythm-3.wav
182,192,113838,1,0,0:0:0:0:
475,192,113838,1,0,0:0:0:30:Sub Rhythm-3.wav
402,192,113905,1,0,0:0:0:30:Sub Rhythm-3.wav
109,192,113905,1,0,0:0:0:0:
182,192,113972,1,0,0:0:0:0:
36,192,113972,1,0,0:0:0:50:Kick.wav
329,192,113972,1,0,0:0:0:30:Sub Rhythm-3.wav
256,192,114039,1,0,0:0:0:30:Sub Rhythm-3.wav
475,192,114039,1,0,0:0:0:0:
402,192,114039,1,0,0:0:0:50:Kick.wav
109,192,114106,1,0,0:0:0:30:Sub Rhythm-3.wav
36,192,114106,1,0,0:0:0:50:Kick.wav
329,192,114106,1,0,0:0:0:0:
182,192,114173,1,0,0:0:0:30:Sub Rhythm-3.wav
402,192,114173,1,0,0:0:0:0:
256,192,114240,1,0,0:0:0:30:Sub Rhythm-3.wav
475,192,114240,1,0,0:0:0:0:
36,192,114307,1,0,0:0:0:50:Kick.wav
329,192,114307,1,0,0:0:0:30:Sub Rhythm-3.wav
109,192,114307,1,0,0:0:0:0:
402,192,114374,1,0,0:0:0:30:Sub Rhythm-3.wav
182,192,114374,1,0,0:0:0:0:
256,192,114440,1,0,0:0:0:30:Sub Rhythm-3.wav
36,192,114440,1,0,0:0:0:0:
475,192,114507,1,0,0:0:0:0:
109,192,114507,1,0,0:0:0:50:Kick.wav
329,192,114507,1,0,0:0:0:30:Sub Rhythm-3.wav
182,192,114574,1,0,0:0:0:0:
402,192,114574,1,0,0:0:0:30:Sub Rhythm-3.wav
256,192,114641,1,0,0:0:0:0:
475,192,114641,1,0,0:0:0:50:Snare.wav
36,192,114641,1,0,0:0:0:30:Sub Rhythm-3.wav
329,192,114708,1,0,0:0:0:0:
109,192,114708,1,0,0:0:0:30:Sub Rhythm-3.wav
402,192,114775,1,0,0:0:0:0:
182,192,114775,1,0,0:0:0:30:Sub Rhythm-3.wav
109,192,114842,1,0,0:0:0:30:Sub Rhythm-3.wav
329,192,114842,1,0,0:0:0:0:
475,192,114909,1,0,0:0:0:50:Snare.wav
182,192,114909,1,0,0:0:0:30:Sub Rhythm-3.wav
402,192,114909,1,0,0:0:0:0:
36,192,114976,1,0,0:0:0:0:
256,192,114976,1,0,0:0:0:30:Sub Rhythm-3.wav
329,192,115043,1,0,0:0:0:30:Sub Rhythm-3.wav
109,192,115043,1,0,0:0:0:0:
402,192,115110,1,0,0:0:0:30:Sub Rhythm-3.wav
182,192,115110,1,0,0:0:0:0:
256,192,115177,1,0,0:0:0:30:Kick.wav
109,192,115177,1,0,0:0:0:0:
36,192,115177,128,0,115244:0:0:0:30:Sub Rhythm-1.wav
475,192,115177,128,0,116449:0:0:0:0:
402,192,115244,1,0,0:0:0:0:
182,192,115311,128,0,115378:0:0:0:30:Sub Rhythm-1.wav
329,192,115311,1,0,0:0:0:0:
256,192,115378,1,0,0:0:0:0:
329,192,115445,128,0,115512:0:0:0:30:Sub Rhythm-1.wav
36,192,115445,1,0,0:0:0:0:
109,192,115512,1,0,0:0:0:0:
329,192,115579,128,0,115646:0:0:0:30:Sub Rhythm-1.wav
402,192,115579,1,0,0:0:0:0:
182,192,115579,1,0,0:0:0:50:Kick.wav
256,192,115646,1,0,0:0:0:0:
182,192,115713,1,0,0:0:0:0:
402,192,115713,1,0,0:0:0:50:Snare.wav
36,192,115713,128,0,115780:0:0:0:30:Sub Rhythm-1.wav
329,192,115780,1,0,0:0:0:0:
256,192,115847,1,0,0:0:0:0:
109,192,115847,128,0,115914:0:0:0:30:Sub Rhythm-1.wav
329,192,115914,1,0,0:0:0:0:
36,192,115981,1,0,0:0:0:0:
402,192,115981,1,0,0:0:0:0:
182,192,115981,128,0,116048:0:0:0:30:Sub Rhythm-1.wav
329,192,116048,1,0,0:0:0:0:
36,192,116115,1,0,0:0:0:0:
109,192,116115,1,0,0:0:0:50:Kick.wav
256,192,116115,128,0,116182:0:0:0:30:Sub Rhythm-1.wav
182,192,116182,1,0,0:0:0:50:Kick.wav
402,192,116182,1,0,0:0:0:0:
109,192,116249,1,0,0:0:0:50:Kick.wav
329,192,116249,128,0,116315:0:0:0:30:Sub Rhythm-1.wav
36,192,116249,1,0,0:0:0:0:
256,192,116315,1,0,0:0:0:0:
402,192,116382,128,0,116449:0:0:0:30:Sub Rhythm-1.wav
182,192,116382,1,0,0:0:0:0:
329,192,116449,1,0,0:0:0:0:
109,192,116449,1,0,0:0:0:50:Kick.wav
36,192,116449,1,0,0:0:0:0:
475,192,116516,1,0,0:0:0:30:Sub Rhythm-1.wav
256,192,116516,1,0,0:0:0:0:
402,192,116583,1,0,0:0:0:0:
36,192,116650,128,0,117052:0:0:0:0:
182,192,116650,1,0,0:0:0:0:
329,192,116650,1,0,0:0:0:30:Sub Rhythm-1.wav
109,192,116650,1,0,0:0:0:50:Kick.wav
256,192,116717,1,0,0:0:0:0:
109,192,116784,1,0,0:0:0:0:
475,192,116784,1,0,0:0:0:0:
182,192,116784,1,0,0:0:0:50:Snare.wav
402,192,116784,1,0,0:0:0:30:Sub Rhythm-1.wav
329,192,116851,1,0,0:0:0:0:
256,192,116918,1,0,0:0:0:30:Sub Rhythm-1.wav
109,192,116918,1,0,0:0:0:0:
329,192,116985,1,0,0:0:0:0:
182,192,117052,1,0,0:0:0:30:Sub Rhythm-1.wav
402,192,117052,128,0,117320:0:0:0:0:
475,192,117052,1,0,0:0:0:0:
256,192,117119,1,0,0:0:0:0:
109,192,117186,1,0,0:0:0:0:
329,192,117186,1,0,0:0:0:30:Sub Rhythm-1.wav
182,192,117253,1,0,0:0:0:0:
256,192,117320,128,0,118324:0:0:0:0:
109,192,117320,128,0,117387:0:0:0:30:Sub Rhythm-1.wav
475,192,117320,1,0,0:0:0:50:Kick.wav
36,192,117320,1,0,0:0:0:0:
329,192,117387,1,0,0:0:0:0:
109,192,117454,128,0,117521:0:0:0:30:Sub Rhythm-1.wav
475,192,117454,1,0,0:0:0:0:
402,192,117521,1,0,0:0:0:0:
329,192,117588,128,0,117655:0:0:0:30:Sub Rhythm-1.wav
36,192,117588,1,0,0:0:0:0:
109,192,117655,1,0,0:0:0:0:
182,192,117722,128,0,117789:0:0:0:30:Sub Rhythm-1.wav
36,192,117722,1,0,0:0:0:0:
475,192,117722,1,0,0:0:0:50:Kick.wav
402,192,117789,1,0,0:0:0:0:
36,192,117856,128,0,117923:0:0:0:30:Sub Rhythm-1.wav
182,192,117856,1,0,0:0:0:50:Snare.wav
329,192,117856,1,0,0:0:0:0:
475,192,117923,1,0,0:0:0:0:
109,192,117990,128,0,118057:0:0:0:30:Sub Rhythm-1.wav
402,192,117990,1,0,0:0:0:0:
475,192,118057,1,0,0:0:0:0:
329,192,118124,1,0,0:0:0:0:
182,192,118124,128,0,118190:0:0:0:30:Sub Rhythm-1.wav
475,192,118190,1,0,0:0:0:0:
402,192,118257,1,0,0:0:0:50:Kick.wav
36,192,118257,128,0,118324:0:0:0:30:Sub Rhythm-1.wav
109,192,118257,1,0,0:0:0:0:
329,192,118324,1,0,0:0:0:50:Kick.wav
182,192,118324,1,0,0:0:0:0:
256,192,118391,1,0,0:0:0:30:Sub Rhythm-1.wav
475,192,118391,1,0,0:0:0:50:Kick.wav
109,192,118391,1,0,0:0:0:0:
36,192,118391,1,0,0:0:0:50:Highlight.wav
402,192,118458,1,0,0:0:0:0:
329,192,118525,1,0,0:0:0:30:Sub Rhythm-1.wav
109,192,118525,1,0,0:0:0:50:Highlight.wav
182,192,118525,1,0,0:0:0:0:
36,192,118592,1,0,0:0:0:0:
475,192,118592,1,0,0:0:0:50:Kick.wav
256,192,118659,1,0,0:0:0:0:
182,192,118659,1,0,0:0:0:50:Highlight.wav
402,192,118659,1,0,0:0:0:30:Sub Rhythm-1.wav
109,192,118726,1,0,0:0:0:0:
329,192,118793,1,0,0:0:0:0:
475,192,118793,1,0,0:0:0:30:Sub Rhythm-1.wav
256,192,118793,1,0,0:0:0:50:Highlight.wav
36,192,118793,1,0,0:0:0:50:Kick.wav
182,192,118860,1,0,0:0:0:0:
36,192,118927,1,0,0:0:0:50:Snare.wav
109,192,118927,128,0,118994:0:0:0:50:Highlight.wav
329,192,118927,1,0,0:0:0:30:Sub Rhythm-1.wav
402,192,118927,1,0,0:0:0:0:
256,192,118994,1,0,0:0:0:0:
109,192,119061,1,0,0:0:0:0:
182,192,119061,128,0,119128:0:0:0:50:Highlight.wav
475,192,119061,1,0,0:0:0:0:
402,192,119061,1,0,0:0:0:30:Sub Rhythm-1.wav
329,192,119128,1,0,0:0:0:0:
182,192,119195,1,0,0:0:0:50:Snare.wav
256,192,119195,128,0,119262:0:0:0:50:Highlight.wav
36,192,119195,1,0,0:0:0:0:
475,192,119195,1,0,0:0:0:30:Sub Rhythm-1.wav
402,192,119262,1,0,0:0:0:0:
256,192,119329,1,0,0:0:0:0:
329,192,119329,128,0,119396:0:0:0:50:Highlight.wav
36,192,119329,1,0,0:0:0:30:Sub Rhythm-1.wav
109,192,119329,1,0,0:0:0:0:
475,192,119396,1,0,0:0:0:0:
109,192,119463,128,0,120534:0:0:0:0:
402,192,119463,1,0,0:0:0:50:Kick.wav
329,192,119463,1,0,0:0:0:0:
182,192,119463,1,0,0:0:0:50:CrashL.wav
36,192,119463,128,0,120534:0:0:0:0:
256,192,119597,1,0,0:0:0:0:
329,192,119731,1,0,0:0:0:0:
256,192,119865,1,0,0:0:0:0:
329,192,119999,1,0,0:0:0:0:
402,192,120132,1,0,0:0:0:0:
329,192,120266,1,0,0:0:0:0:
402,192,120400,1,0,0:0:0:0:
256,192,120534,1,0,0:0:0:50:Chi!.wav
475,192,120534,1,0,0:0:0:0:
329,192,120601,1,0,0:0:0:50:Chi!.wav
402,192,120668,1,0,0:0:0:50:Chi!.wav
36,192,120668,1,0,0:0:0:0:
109,192,120802,1,0,0:0:0:0:
475,192,120802,128,0,121338:0:0:0:0:
182,192,120936,1,0,0:0:0:0:
109,192,121070,1,0,0:0:0:0:
329,192,121070,128,0,121338:0:0:0:0:
182,192,121204,1,0,0:0:0:0:
256,192,121338,1,0,0:0:0:0:
36,192,121338,128,0,121606:0:0:0:0:
182,192,121472,1,0,0:0:0:0:
109,192,121606,128,0,121740:0:0:0:0:
402,192,121606,1,0,0:0:0:0:
182,192,121673,128,0,122007:0:0:0:0:
329,192,121740,1,0,0:0:0:0:
256,192,121874,1,0,0:0:0:0:
329,192,122007,1,0,0:0:0:0:
475,192,122007,128,0,122409:0:0:0:0:
256,192,122141,1,0,0:0:0:0:
182,192,122275,1,0,0:0:0:0:
256,192,122409,1,0,0:0:0:0:
329,192,122409,128,0,123213:0:0:0:0:
182,192,122543,1,0,0:0:0:0:
109,192,122677,1,0,0:0:0:0:
182,192,122811,1,0,0:0:0:0:
109,192,122945,1,0,0:0:0:0:
402,192,122945,128,0,123213:0:0:0:0:
36,192,123079,1,0,0:0:0:0:
475,192,123213,1,0,0:0:0:0:
109,192,123213,128,0,123749:0:0:0:0:
329,192,123347,1,0,0:0:0:0:
182,192,123481,1,0,0:0:0:0:
256,192,123481,128,0,123749:0:0:0:0:
329,192,123615,1,0,0:0:0:0:
182,192,123749,128,0,123882:0:0:0:0:
475,192,123749,1,0,0:0:0:0:
36,192,123815,128,0,124016:0:0:0:0:
402,192,123882,1,0,0:0:0:0:
475,192,124016,128,0,124150:0:0:0:0:
329,192,124016,1,0,0:0:0:0:
402,192,124150,1,0,0:0:0:0:
109,192,124150,128,0,124820:0:0:0:0:
329,192,124284,1,0,0:0:0:0:
256,192,124418,1,0,0:0:0:0:
329,192,124552,1,0,0:0:0:0:
256,192,124686,1,0,0:0:0:0:
182,192,124820,1,0,0:0:0:0:
256,192,124954,1,0,0:0:0:0:
182,192,125088,1,0,0:0:0:0:
475,192,125088,128,0,125222:0:0:0:0:
402,192,125155,128,0,125356:0:0:0:0:
109,192,125222,1,0,0:0:0:0:
256,192,125356,1,0,0:0:0:0:
36,192,125356,128,0,125891:0:0:0:0:
402,192,125490,1,0,0:0:0:0:
256,192,125624,1,0,0:0:0:0:
109,192,125624,128,0,125891:0:0:0:0:
402,192,125757,1,0,0:0:0:0:
182,192,125891,1,0,0:0:0:50:Sub Drum.wav
329,192,125891,128,0,126025:0:0:0:0:
256,192,126025,1,0,0:0:0:0:
475,192,126025,1,0,0:0:0:0:
402,192,126025,1,0,0:0:0:50:Kick.wav
109,192,126159,1,0,0:0:0:0:
329,192,126159,1,0,0:0:0:50:Sub Drum.wav
36,192,126159,128,0,126427:0:0:0:0:
256,192,126293,1,0,0:0:0:0:
182,192,126293,128,0,126427:0:0:0:0:
329,192,126427,1,0,0:0:0:0:
109,192,126561,128,0,126829:0:0:0:0:
182,192,126561,1,0,0:0:0:0:
402,192,126561,1,0,0:0:0:50:Kick.wav
475,192,126561,1,0,0:0:0:0:
256,192,126695,128,0,126829:0:0:0:0:
329,192,126695,1,0,0:0:0:50:Sub Drum.wav
36,192,126829,1,0,0:0:0:0:
402,192,126829,1,0,0:0:0:50:Kick.wav
182,192,126829,1,0,0:0:0:0:
36,192,126963,1,0,0:0:0:50:Sub Snare.wav
402,192,126963,1,0,0:0:0:0:
475,192,126963,128,0,127231:0:0:0:0:
256,192,126963,1,0,0:0:0:0:
109,192,127030,1,0,0:0:0:50:Sub Snare.wav
329,192,127097,128,0,127231:0:0:0:0:
182,192,127097,1,0,0:0:0:50:Sub Snare.wav
182,192,127231,1,0,0:0:0:0:
402,192,127231,1,0,0:0:0:50:Kick.wav
36,192,127231,1,0,0:0:0:0:
109,192,127365,1,0,0:0:0:50:Sub Snare.wav
329,192,127365,1,0,0:0:0:0:
256,192,127365,128,0,127499:0:0:0:0:
182,192,127432,1,0,0:0:0:50:Sub Snare.wav
402,192,127432,1,0,0:0:0:0:
36,192,127499,1,0,0:0:0:0:
109,192,127499,1,0,0:0:0:50:Sub Snare.wav
475,192,127499,128,0,127900:0:0:0:0:
329,192,127565,1,0,0:0:0:0:
402,192,127565,1,0,0:0:0:50:Sub Snare.wav
109,192,127632,1,0,0:0:0:0:
182,192,127632,1,0,0:0:0:50:Sub Snare.wav
36,192,127632,1,0,0:0:0:50:Kick.wav
329,192,127699,1,0,0:0:0:0:
256,192,127699,1,0,0:0:0:50:Sub Snare.wav
402,192,127699,128,0,127900:0:0:0:0:
109,192,127766,1,0,0:0:0:50:Sub Snare.wav
36,192,127766,1,0,0:0:0:0:
256,192,127833,1,0,0:0:0:0:
182,192,127833,1,0,0:0:0:50:Sub Snare.wav
329,192,127900,128,0,128034:0:0:0:0:
36,192,127900,1,0,0:0:0:0:
109,192,127900,1,0,0:0:0:50:Sub Snare.wav
182,192,127967,1,0,0:0:0:50:Sub Snare.wav
36,192,128034,1,0,0:0:0:0:
402,192,128034,128,0,128302:0:0:0:50:Highlight.wav
109,192,128034,128,0,128302:0:0:0:50:Kick.wav
475,192,128034,1,0,0:0:0:0:
256,192,128034,128,0,128302:0:0:0:50:CrashL.wav
475,192,128302,1,0,0:0:0:50:Sub Snare.wav
329,192,128302,1,0,0:0:0:0:
475,192,128391,1,0,0:0:0:50:Sub Snare.wav
329,192,128391,1,0,0:0:0:0:
109,192,128481,1,0,0:0:0:0:
36,192,128481,1,0,0:0:0:50:Highlight.wav
329,192,128481,1,0,0:0:0:0:
475,192,128481,1,0,0:0:0:50:Sub Snare.wav
109,192,128570,128,0,128838:0:0:0:50:Kick.wav
36,192,128570,128,0,128838:0:0:0:50:Highlight.wav
402,192,128570,1,0,0:0:0:50:CrashL.wav
256,192,128570,1,0,0:0:0:0:
329,192,128838,1,0,0:0:0:0:
182,192,128838,128,0,128927:0:0:0:0:
402,192,128838,1,0,0:0:0:50:Sub Snare.wav
109,192,128927,128,0,129016:0:0:0:0:
329,192,128927,1,0,0:0:0:0:
402,192,128927,1,0,0:0:0:50:Sub Snare.wav
329,192,129016,1,0,0:0:0:0:
256,192,129016,128,0,129106:0:0:0:0:
402,192,129016,1,0,0:0:0:50:Sub Snare.wav
182,192,129106,128,0,129195:0:0:0:0:
109,192,129106,1,0,0:0:0:50:CrashL.wav
475,192,129106,1,0,0:0:0:50:Kick.wav
36,192,129106,1,0,0:0:0:0:
329,192,129195,128,0,129284:0:0:0:0:
256,192,129284,128,0,129374:0:0:0:0:
36,192,129374,1,0,0:0:0:0:
402,192,129374,128,0,129463:0:0:0:0:
109,192,129374,1,0,0:0:0:50:Sub Snare.wav
329,192,129463,128,0,129552:0:0:0:0:
256,192,129463,1,0,0:0:0:0:
182,192,129463,1,0,0:0:0:50:Sub Snare.wav
475,192,129552,128,0,129641:0:0:0:0:
36,192,129552,1,0,0:0:0:0:
109,192,129552,1,0,0:0:0:50:Sub Snare.wav
402,192,129641,128,0,129731:0:0:0:0:
109,192,129641,1,0,0:0:0:0:
36,192,129641,1,0,0:0:0:50:CrashL.wav
256,192,129641,1,0,0:0:0:50:Kick.wav
329,192,129731,128,0,129820:0:0:0:0:
182,192,129731,1,0,0:0:0:50:Sub Drum.wav
36,192,129820,1,0,0:0:0:0:
256,192,129820,128,0,129909:0:0:0:0:
109,192,129820,1,0,0:0:0:50:Kick.wav
475,192,129820,1,0,0:0:0:0:
182,192,129909,128,0,129999:0:0:0:0:
402,192,129909,1,0,0:0:0:50:Sub Drum.wav
109,192,129999,128,0,130088:0:0:0:0:
329,192,129999,1,0,0:0:0:50:Kick.wav
475,192,129999,1,0,0:0:0:0:
402,192,130088,1,0,0:0:0:0:
256,192,130088,1,0,0:0:0:50:Sub Drum.wav
36,192,130088,128,0,130177:0:0:0:0:
329,192,130177,128,0,130445:0:0:0:50:CrashL.wav
475,192,130177,128,0,130445:0:0:0:50:Kick.wav
182,192,130177,1,0,0:0:0:0:
109,192,130177,128,0,130445:0:0:0:50:Highlight.wav
36,192,130445,1,0,0:0:0:0:
182,192,130445,1,0,0:0:0:50:Sub Snare.wav
182,192,130534,1,0,0:0:0:50:Sub Snare.wav
36,192,130534,1,0,0:0:0:0:
36,192,130624,1,0,0:0:0:0:
182,192,130624,1,0,0:0:0:50:Sub Snare.wav
475,192,130624,1,0,0:0:0:50:Highlight.wav
329,192,130624,1,0,0:0:0:0:
329,192,130713,128,0,130981:0:0:0:0:
475,192,130713,128,0,130981:0:0:0:50:Highlight.wav
256,192,130713,1,0,0:0:0:50:CrashL.wav
109,192,130713,1,0,0:0:0:50:Kick.wav
402,192,130981,128,0,131070:0:0:0:0:
182,192,130981,1,0,0:0:0:50:Sub Snare.wav
109,192,130981,1,0,0:0:0:0:
329,192,131070,128,0,131159:0:0:0:0:
182,192,131070,1,0,0:0:0:50:Sub Snare.wav
109,192,131070,1,0,0:0:0:0:
256,192,131159,128,0,131249:0:0:0:0:
109,192,131159,1,0,0:0:0:0:
182,192,131159,1,0,0:0:0:50:Sub Snare.wav
329,192,131249,1,0,0:0:0:0:
36,192,131249,128,0,131338:0:0:0:0:
402,192,131249,1,0,0:0:0:50:CrashL.wav
475,192,131249,1,0,0:0:0:50:Kick.wav
109,192,131338,128,0,131427:0:0:0:0:
182,192,131427,128,0,131516:0:0:0:0:
109,192,131516,128,0,131606:0:0:0:0:
475,192,131516,1,0,0:0:0:50:Sub Snare.wav
329,192,131516,1,0,0:0:0:0:
182,192,131606,128,0,131695:0:0:0:0:
329,192,131606,1,0,0:0:0:0:
475,192,131606,1,0,0:0:0:50:Sub Snare.wav
256,192,131695,128,0,131784:0:0:0:0:
36,192,131695,1,0,0:0:0:50:Sub Snare.wav
109,192,131695,1,0,0:0:0:0:
36,192,131784,1,0,0:0:0:50:Sub Snare.wav
109,192,131784,1,0,0:0:0:50:Kick.wav
475,192,131784,1,0,0:0:0:50:CrashL.wav
329,192,131784,128,0,131874:0:0:0:0:
182,192,131874,1,0,0:0:0:50:Sub Drum.wav
402,192,131874,128,0,131963:0:0:0:0:
36,192,131963,1,0,0:0:0:0:
475,192,131963,1,0,0:0:0:0:
329,192,131963,128,0,132052:0:0:0:0:
256,192,131963,1,0,0:0:0:50:Kick.wav
109,192,132052,1,0,0:0:0:50:Sub Drum.wav
402,192,132052,128,0,132141:0:0:0:0:
36,192,132141,1,0,0:0:0:0:
182,192,132141,1,0,0:0:0:50:Kick.wav
475,192,132141,128,0,132231:0:0:0:0:
109,192,132231,1,0,0:0:0:0:
256,192,132231,1,0,0:0:0:50:Sub Drum.wav
402,192,132231,128,0,132320:0:0:0:0:
182,192,132320,1,0,0:0:0:0:
475,192,132320,1,0,0:0:0:50:Kick.wav
329,192,132320,1,0,0:0:0:50:CrashS.wav
36,192,132320,1,0,0:0:0:0:
109,192,132454,1,0,0:0:0:0:
36,192,132454,1,0,0:0:0:0:
256,192,132454,1,0,0:0:0:50:Sub Snare.wav
402,192,132454,1,0,0:0:0:0:
475,192,132588,1,0,0:0:0:0:
402,192,132588,1,0,0:0:0:50:CrashS.wav
109,192,132588,1,0,0:0:0:0:
256,192,132588,1,0,0:0:0:50:Kick.wav
182,192,132722,1,0,0:0:0:0:
36,192,132722,1,0,0:0:0:0:
329,192,132722,1,0,0:0:0:50:Sub Snare.wav
475,192,132722,1,0,0:0:0:0:
256,192,132789,1,0,0:0:0:50:Sub Snare.wav
109,192,132789,1,0,0:0:0:0:
36,192,132856,1,0,0:0:0:0:
329,192,132856,1,0,0:0:0:50:CrashS.wav
182,192,132856,1,0,0:0:0:50:Kick.wav
475,192,132856,1,0,0:0:0:0:
109,192,132990,1,0,0:0:0:0:
475,192,132990,1,0,0:0:0:0:
402,192,132990,1,0,0:0:0:0:
256,192,132990,1,0,0:0:0:50:Sub Snare.wav
109,192,133124,1,0,0:0:0:0:
402,192,133124,1,0,0:0:0:50:CrashS.wav
256,192,133124,1,0,0:0:0:50:Kick.wav
36,192,133124,1,0,0:0:0:0:
36,192,133257,1,0,0:0:0:0:
475,192,133257,1,0,0:0:0:0:
182,192,133257,1,0,0:0:0:0:
329,192,133257,1,0,0:0:0:50:Sub Snare.wav
256,192,133324,1,0,0:0:0:50:Sub Snare.wav
402,192,133324,1,0,0:0:0:0:
182,192,133391,1,0,0:0:0:50:Kick.wav
329,192,133391,1,0,0:0:0:50:CrashS.wav
475,192,133391,1,0,0:0:0:0:
36,192,133391,1,0,0:0:0:0:
256,192,133525,1,0,0:0:0:50:Sub Snare.wav
109,192,133525,1,0,0:0:0:0:
402,192,133525,1,0,0:0:0:0:
36,192,133525,1,0,0:0:0:0:
402,192,133659,1,0,0:0:0:50:CrashS.wav
182,192,133659,1,0,0:0:0:50:Sub Snare.wav
475,192,133659,1,0,0:0:0:50:Kick.wav
36,192,133659,1,0,0:0:0:0:
256,192,133726,1,0,0:0:0:0:
329,192,133726,1,0,0:0:0:50:Sub Snare.wav
109,192,133793,1,0,0:0:0:0:
182,192,133793,1,0,0:0:0:50:Sub Snare.wav
402,192,133860,1,0,0:0:0:0:
329,192,133860,1,0,0:0:0:50:Sub Snare.wav
475,192,133927,1,0,0:0:0:0:
109,192,133927,1,0,0:0:0:50:CrashS.wav
256,192,133927,1,0,0:0:0:50:Sub Snare.wav
36,192,133927,1,0,0:0:0:50:Kick.wav
402,192,133994,1,0,0:0:0:0:
329,192,133994,1,0,0:0:0:50:Sub Snare.wav
182,192,134061,1,0,0:0:0:50:Sub Snare.wav
109,192,134061,1,0,0:0:0:0:
256,192,134128,1,0,0:0:0:50:Sub Snare.wav
329,192,134128,1,0,0:0:0:0:
109,192,134195,1,0,0:0:0:50:Sub Snare.wav
402,192,134195,1,0,0:0:0:50:CrashS.wav
475,192,134195,1,0,0:0:0:50:Kick.wav
36,192,134195,1,0,0:0:0:0:
182,192,134262,1,0,0:0:0:50:Sub Snare.wav
256,192,134262,1,0,0:0:0:0:
402,192,134329,1,0,0:0:0:0:
329,192,134329,1,0,0:0:0:50:Sub Snare.wav
109,192,134396,1,0,0:0:0:0:
182,192,134396,1,0,0:0:0:50:Sub Snare.wav
256,192,134463,1,0,0:0:0:50:CrashS.wav
36,192,134463,1,0,0:0:0:50:Kick.wav
402,192,134463,1,0,0:0:0:0:
329,192,134463,1,0,0:0:0:0:
475,192,134463,1,0,0:0:0:0:
109,192,134597,1,0,0:0:0:0:
329,192,134597,1,0,0:0:0:0:
475,192,134597,1,0,0:0:0:0:
36,192,134597,1,0,0:0:0:50:Kick.wav
182,192,134597,1,0,0:0:0:0:
475,192,134731,1,0,0:0:0:0:
256,192,134731,1,0,0:0:0:50:CrashS.wav
36,192,134731,1,0,0:0:0:50:Kick.wav
109,192,134731,1,0,0:0:0:0:
402,192,134731,1,0,0:0:0:0:
36,192,134865,1,0,0:0:0:50:Kick.wav
329,192,134865,1,0,0:0:0:0:
475,192,134865,1,0,0:0:0:0:
402,192,134865,1,0,0:0:0:0:
182,192,134865,1,0,0:0:0:0:
475,192,134999,1,0,0:0:0:0:
256,192,134999,1,0,0:0:0:0:
402,192,134999,1,0,0:0:0:50:Kick.wav
36,192,134999,1,0,0:0:0:0:
109,192,134999,1,0,0:0:0:50:Sub Rhythm-1.wav
182,192,135065,1,0,0:0:0:50:Sub Rhythm-1.wav
329,192,135065,1,0,0:0:0:50:Kick.wav
402,192,135132,1,0,0:0:0:50:Kick.wav
256,192,135132,1,0,0:0:0:0:
36,192,135132,1,0,0:0:0:50:Sub Rhythm-1.wav
475,192,135132,1,0,0:0:0:0:
109,192,135199,1,0,0:0:0:50:Kick.wav
182,192,135199,1,0,0:0:0:50:Sub Rhythm-1.wav
36,192,135266,1,0,0:0:0:50:Sub Rhythm-1.wav
475,192,135266,1,0,0:0:0:0:
402,192,135266,1,0,0:0:0:0:
329,192,135266,1,0,0:0:0:50:Kick.wav
256,192,135333,1,0,0:0:0:50:Sub Rhythm-1.wav
182,192,135333,1,0,0:0:0:50:Kick.wav
402,192,135400,1,0,0:0:0:50:Kick.wav
475,192,135400,1,0,0:0:0:0:
109,192,135400,1,0,0:0:0:50:Sub Rhythm-1.wav
36,192,135400,1,0,0:0:0:0:
256,192,135467,1,0,0:0:0:50:Kick.wav
329,192,135467,1,0,0:0:0:50:Sub Rhythm-1.wav
182,192,135534,128,0,135601:0:0:0:0:
36,192,135534,128,0,135601:0:0:0:0:
402,192,135534,1,0,0:0:0:50:Kick.wav
475,192,135534,1,0,0:0:0:0:
36,192,135802,128,0,135869:0:0:0:0:
475,192,135802,128,0,136539:0:0:0:50:Highlight.wav
182,192,135802,128,0,135869:0:0:0:0:
36,192,136070,128,0,136137:0:0:0:0:
182,192,136070,128,0,136137:0:0:0:0:
329,192,136070,128,0,136539:0:0:0:50:Highlight.wav
109,192,136204,1,0,0:0:0:0:
109,192,136271,1,0,0:0:0:0:
109,192,136338,128,0,136539:0:0:0:0:
402,192,136338,128,0,136539:0:0:0:50:Highlight.wav
36,192,136606,1,0,0:0:0:70:Highlight.wav
475,192,136606,1,0,0:0:0:50:Kick.wav
256,192,136606,1,0,0:0:0:50:CrashL.wav
109,192,136606,1,0,0:0:0:0:
402,192,136606,1,0,0:0:0:0:
329,192,136673,1,0,0:0:0:0:
402,192,136740,1,0,0:0:0:0:
182,192,136740,1,0,0:0:0:0:
256,192,136807,1,0,0:0:0:0:
36,192,136874,1,0,0:0:0:0:
475,192,136874,1,0,0:0:0:50:Snare.wav
329,192,136874,1,0,0:0:0:0:
109,192,136874,1,0,0:0:0:0:
182,192,136940,1,0,0:0:0:0:
475,192,137007,1,0,0:0:0:50:Kick.wav
329,192,137007,1,0,0:0:0:0:
402,192,137007,1,0,0:0:0:0:
109,192,137007,1,0,0:0:0:0:
256,192,137074,1,0,0:0:0:0:
36,192,137141,1,0,0:0:0:0:
182,192,137141,1,0,0:0:0:0:
402,192,137141,1,0,0:0:0:0:
475,192,137141,1,0,0:0:0:50:Kick.wav
329,192,137208,1,0,0:0:0:0:
109,192,137275,1,0,0:0:0:0:
182,192,137275,1,0,0:0:0:0:
402,192,137275,1,0,0:0:0:50:Highlight.wav
256,192,137342,1,0,0:0:0:0:
329,192,137409,1,0,0:0:0:50:Highlight.wav
475,192,137409,1,0,0:0:0:0:
36,192,137409,1,0,0:0:0:50:Snare.wav
109,192,137409,1,0,0:0:0:0:
182,192,137476,1,0,0:0:0:0:
109,192,137543,1,0,0:0:0:0:
475,192,137543,1,0,0:0:0:0:
256,192,137543,1,0,0:0:0:50:Highlight.wav
402,192,137610,1,0,0:0:0:0:
182,192,137677,1,0,0:0:0:50:Highlight.wav
329,192,137677,1,0,0:0:0:0:
475,192,137677,1,0,0:0:0:50:Kick.wav
36,192,137677,1,0,0:0:0:0:
256,192,137744,1,0,0:0:0:0:
109,192,137811,1,0,0:0:0:50:Highlight.wav
402,192,137811,1,0,0:0:0:0:
329,192,137811,1,0,0:0:0:0:
182,192,137878,1,0,0:0:0:0:
36,192,137945,1,0,0:0:0:50:Highlight.wav
256,192,137945,1,0,0:0:0:0:
475,192,137945,1,0,0:0:0:50:Snare.wav
109,192,137945,1,0,0:0:0:0:
402,192,138012,1,0,0:0:0:0:
36,192,138079,1,0,0:0:0:0:
182,192,138079,1,0,0:0:0:50:Highlight.wav
329,192,138079,1,0,0:0:0:0:
475,192,138146,1,0,0:0:0:50:Sub Snare.wav
402,192,138146,1,0,0:0:0:0:
36,192,138213,1,0,0:0:0:0:
329,192,138213,1,0,0:0:0:0:
182,192,138213,1,0,0:0:0:50:Kick.wav
109,192,138213,1,0,0:0:0:0:
256,192,138280,1,0,0:0:0:0:
402,192,138347,1,0,0:0:0:0:
329,192,138347,1,0,0:0:0:0:
475,192,138347,1,0,0:0:0:50:Snare.wav
109,192,138347,1,0,0:0:0:50:Highlight.wav
182,192,138414,1,0,0:0:0:0:
109,192,138481,1,0,0:0:0:0:
36,192,138481,1,0,0:0:0:0:
475,192,138481,1,0,0:0:0:0:
329,192,138481,1,0,0:0:0:50:Snare.wav
402,192,138548,1,0,0:0:0:0:
475,192,138615,1,0,0:0:0:0:
109,192,138615,1,0,0:0:0:0:
256,192,138615,1,0,0:0:0:50:Highlight.wav
329,192,138682,1,0,0:0:0:50:Highlight.wav
182,192,138682,1,0,0:0:0:0:
402,192,138749,1,0,0:0:0:50:Highlight.wav
475,192,138749,1,0,0:0:0:0:
36,192,138749,1,0,0:0:0:50:Kick.wav
256,192,138749,1,0,0:0:0:0:
109,192,138815,1,0,0:0:0:0:
402,192,138882,1,0,0:0:0:0:
182,192,138882,1,0,0:0:0:0:
329,192,138949,1,0,0:0:0:0:
475,192,139016,1,0,0:0:0:0:
109,192,139016,1,0,0:0:0:50:Snare.wav
256,192,139016,1,0,0:0:0:0:
36,192,139016,1,0,0:0:0:0:
402,192,139083,1,0,0:0:0:0:
109,192,139150,1,0,0:0:0:0:
475,192,139150,1,0,0:0:0:50:Kick.wav
182,192,139150,1,0,0:0:0:0:
329,192,139150,1,0,0:0:0:0:
256,192,139217,1,0,0:0:0:0:
475,192,139284,1,0,0:0:0:50:Highlight.wav
402,192,139284,1,0,0:0:0:50:Sub Rhythm-2.wav
109,192,139284,1,0,0:0:0:50:Kick.wav
36,192,139284,1,0,0:0:0:0:
329,192,139351,1,0,0:0:0:50:Sub Rhythm-2.wav
182,192,139351,1,0,0:0:0:0:
256,192,139418,1,0,0:0:0:50:Sub Rhythm-2.wav
36,192,139418,1,0,0:0:0:50:Highlight.wav
109,192,139485,1,0,0:0:0:0:
329,192,139485,1,0,0:0:0:50:Sub Rhythm-2.wav
475,192,139552,1,0,0:0:0:50:Snare.wav
402,192,139552,1,0,0:0:0:50:Highlight.wav
36,192,139552,1,0,0:0:0:0:
182,192,139552,1,0,0:0:0:50:Sub Rhythm-2.wav
256,192,139619,1,0,0:0:0:50:Sub Rhythm-2.wav
109,192,139619,1,0,0:0:0:0:
329,192,139686,1,0,0:0:0:50:Sub Rhythm-2.wav
182,192,139686,1,0,0:0:0:50:Highlight.wav
402,192,139753,1,0,0:0:0:50:Sub Rhythm-2.wav
256,192,139753,1,0,0:0:0:0:
475,192,139820,1,0,0:0:0:50:Kick.wav
329,192,139820,1,0,0:0:0:0:
109,192,139820,1,0,0:0:0:0:
36,192,139820,1,0,0:0:0:0:
182,192,139887,1,0,0:0:0:0:
256,192,139954,1,0,0:0:0:50:Highlight.wav
475,192,139954,1,0,0:0:0:0:
109,192,139954,1,0,0:0:0:0:
402,192,140021,1,0,0:0:0:0:
36,192,140088,1,0,0:0:0:0:
475,192,140088,1,0,0:0:0:50:Snare.wav
329,192,140088,1,0,0:0:0:50:Highlight.wav
182,192,140088,1,0,0:0:0:0:
256,192,140155,1,0,0:0:0:0:
36,192,140222,1,0,0:0:0:0:
402,192,140222,1,0,0:0:0:50:Highlight.wav
109,192,140222,1,0,0:0:0:0:
182,192,140289,1,0,0:0:0:50:Sub Snare.wav
329,192,140289,1,0,0:0:0:0:
475,192,140356,1,0,0:0:0:0:
36,192,140356,1,0,0:0:0:0:
402,192,140356,1,0,0:0:0:0:
256,192,140356,1,0,0:0:0:50:Kick.wav
109,192,140423,1,0,0:0:0:0:
475,192,140490,1,0,0:0:0:50:Sub Rhythm-2.wav
329,192,140490,1,0,0:0:0:50:Snare.wav
182,192,140490,1,0,0:0:0:50:Highlight.wav
256,192,140557,1,0,0:0:0:0:
402,192,140557,1,0,0:0:0:50:Sub Rhythm-2.wav
36,192,140624,1,0,0:0:0:0:
109,192,140624,1,0,0:0:0:50:Kick.wav
182,192,140624,1,0,0:0:0:0:
329,192,140624,1,0,0:0:0:50:Sub Rhythm-2.wav
475,192,140690,1,0,0:0:0:0:
256,192,140690,1,0,0:0:0:50:Sub Rhythm-2.wav
402,192,140757,1,0,0:0:0:50:Highlight.wav
182,192,140757,1,0,0:0:0:50:Sub Rhythm-2.wav
109,192,140824,1,0,0:0:0:50:Sub Rhythm-2.wav
329,192,140824,1,0,0:0:0:0:
36,192,140891,1,0,0:0:0:50:Kick.wav
256,192,140891,1,0,0:0:0:0:
402,192,140891,1,0,0:0:0:0:
475,192,140891,1,0,0:0:0:0:
109,192,140958,1,0,0:0:0:0:
475,192,141025,1,0,0:0:0:0:
182,192,141025,1,0,0:0:0:50:Highlight.wav
329,192,141025,1,0,0:0:0:0:
402,192,141092,1,0,0:0:0:0:
36,192,141159,1,0,0:0:0:50:Snare.wav
475,192,141159,1,0,0:0:0:0:
109,192,141159,1,0,0:0:0:0:
256,192,141159,1,0,0:0:0:50:Highlight.wav
182,192,141226,1,0,0:0:0:0:
36,192,141293,1,0,0:0:0:50:Kick.wav
109,192,141293,1,0,0:0:0:0:
402,192,141293,1,0,0:0:0:50:Highlight.wav
329,192,141293,1,0,0:0:0:0:
256,192,141360,1,0,0:0:0:0:
36,192,141427,1,0,0:0:0:0:
475,192,141427,1,0,0:0:0:0:
402,192,141427,1,0,0:0:0:50:Highlight.wav
182,192,141427,1,0,0:0:0:50:Kick.wav
329,192,141494,1,0,0:0:0:0:
109,192,141561,1,0,0:0:0:0:
36,192,141561,1,0,0:0:0:50:Highlight.wav
256,192,141561,1,0,0:0:0:0:
329,192,141628,1,0,0:0:0:0:
475,192,141695,1,0,0:0:0:0:
182,192,141695,1,0,0:0:0:50:Snare.wav
402,192,141695,1,0,0:0:0:0:
36,192,141695,1,0,0:0:0:50:Highlight.wav
256,192,141762,1,0,0:0:0:0:
475,192,141829,1,0,0:0:0:0:
109,192,141829,1,0,0:0:0:0:
329,192,141829,1,0,0:0:0:50:Highlight.wav
182,192,141896,1,0,0:0:0:0:
109,192,141963,1,0,0:0:0:0:
36,192,141963,1,0,0:0:0:0:
402,192,141963,1,0,0:0:0:0:
256,192,141963,1,0,0:0:0:50:Kick.wav
475,192,142030,1,0,0:0:0:0:
36,192,142097,1,0,0:0:0:0:
182,192,142097,1,0,0:0:0:0:
329,192,142097,1,0,0:0:0:50:Highlight.wav
109,192,142164,1,0,0:0:0:0:
36,192,142231,1,0,0:0:0:0:
256,192,142231,1,0,0:0:0:0:
402,192,142231,1,0,0:0:0:50:Highlight.wav
475,192,142231,1,0,0:0:0:50:Snare.wav
182,192,142298,1,0,0:0:0:0:
329,192,142298,1,0,0:0:0:50:Highlight.wav
402,192,142365,1,0,0:0:0:50:Highlight.wav
256,192,142365,1,0,0:0:0:0:
109,192,142432,1,0,0:0:0:50:Sub Snare.wav
36,192,142432,1,0,0:0:0:0:
329,192,142499,1,0,0:0:0:50:Kick.wav
475,192,142499,1,0,0:0:0:0:
182,192,142499,1,0,0:0:0:0:
402,192,142499,1,0,0:0:0:0:
109,192,142565,1,0,0:0:0:0:
256,192,142632,1,0,0:0:0:50:Highlight.wav
36,192,142632,1,0,0:0:0:0:
402,192,142632,1,0,0:0:0:0:
475,192,142632,1,0,0:0:0:50:Snare.wav
182,192,142699,1,0,0:0:0:0:
329,192,142766,1,0,0:0:0:50:Highlight.wav
475,192,142766,1,0,0:0:0:50:Snare.wav
109,192,142766,1,0,0:0:0:0:
36,192,142766,1,0,0:0:0:0:
256,192,142833,1,0,0:0:0:0:
402,192,142900,1,0,0:0:0:50:Highlight.wav
182,192,142900,1,0,0:0:0:0:
109,192,142900,1,0,0:0:0:0:
256,192,142967,1,0,0:0:0:0:
329,192,143034,1,0,0:0:0:50:Highlight.wav
475,192,143034,1,0,0:0:0:50:Kick.wav
36,192,143034,1,0,0:0:0:0:
109,192,143034,1,0,0:0:0:50:Sub Rhythm-2.wav
182,192,143101,1,0,0:0:0:0:
402,192,143168,1,0,0:0:0:0:
475,192,143168,1,0,0:0:0:50:Sub Rhythm-2.wav
256,192,143168,1,0,0:0:0:50:Highlight.wav
109,192,143235,1,0,0:0:0:0:
329,192,143235,1,0,0:0:0:50:Sub Rhythm-2.wav
36,192,143235,1,0,0:0:0:0:
402,192,143302,1,0,0:0:0:50:Snare.wav
475,192,143302,1,0,0:0:0:50:Sub Rhythm-2.wav
182,192,143302,1,0,0:0:0:50:Highlight.wav
256,192,143369,1,0,0:0:0:0:
36,192,143436,1,0,0:0:0:50:Highlight.wav
475,192,143436,1,0,0:0:0:50:Kick.wav
109,192,143436,1,0,0:0:0:50:Sub Rhythm-2.wav
329,192,143503,1,0,0:0:0:0:
182,192,143503,1,0,0:0:0:50:Sub Rhythm-2.wav
402,192,143503,1,0,0:0:0:0:
475,192,143570,1,0,0:0:0:50:Highlight.wav
36,192,143570,1,0,0:0:0:50:Kick.wav
109,192,143570,1,0,0:0:0:50:Sub Rhythm-2.wav
256,192,143637,1,0,0:0:0:0:
475,192,143704,1,0,0:0:0:50:Sub Rhythm-2.wav
182,192,143704,1,0,0:0:0:50:Highlight.wav
402,192,143704,1,0,0:0:0:0:
36,192,143771,1,0,0:0:0:0:
109,192,143771,1,0,0:0:0:0:
329,192,143771,1,0,0:0:0:50:Sub Rhythm-2.wav
182,192,143838,1,0,0:0:0:50:Highlight.wav
475,192,143838,1,0,0:0:0:50:Sub Rhythm-2.wav
402,192,143838,1,0,0:0:0:50:Snare.wav
256,192,143905,1,0,0:0:0:0:
109,192,143972,1,0,0:0:0:0:
182,192,143972,1,0,0:0:0:50:Sub Rhythm-2.wav
36,192,143972,1,0,0:0:0:50:Highlight.wav
329,192,143972,1,0,0:0:0:0:
402,192,144039,1,0,0:0:0:0:
475,192,144106,1,0,0:0:0:0:
36,192,144106,1,0,0:0:0:0:
109,192,144106,1,0,0:0:0:50:Kick.wav
256,192,144106,1,0,0:0:0:50:Sub Rhythm-2.wav
402,192,144173,1,0,0:0:0:0:
36,192,144240,1,0,0:0:0:0:
329,192,144240,1,0,0:0:0:50:Sub Rhythm-2.wav
182,192,144240,1,0,0:0:0:50:Highlight.wav
109,192,144307,1,0,0:0:0:0:
402,192,144374,1,0,0:0:0:50:Sub Rhythm-2.wav
475,192,144374,1,0,0:0:0:0:
36,192,144374,1,0,0:0:0:50:Snare.wav
256,192,144374,1,0,0:0:0:50:Highlight.wav
182,192,144440,1,0,0:0:0:0:
475,192,144507,1,0,0:0:0:50:Highlight.wav
329,192,144507,1,0,0:0:0:50:Sub Rhythm-2.wav
109,192,144507,1,0,0:0:0:0:
402,192,144574,1,0,0:0:0:50:Highlight.wav
256,192,144574,1,0,0:0:0:50:Sub Snare.wav
475,192,144641,1,0,0:0:0:50:Highlight.wav
36,192,144641,1,0,0:0:0:0:
329,192,144641,1,0,0:0:0:50:Sub Rhythm-2.wav
182,192,144641,1,0,0:0:0:50:Kick.wav
109,192,144708,1,0,0:0:0:0:
256,192,144775,1,0,0:0:0:50:Snare.wav
36,192,144775,1,0,0:0:0:0:
475,192,144775,1,0,0:0:0:0:
402,192,144775,1,0,0:0:0:50:Sub Rhythm-2.wav
329,192,144842,1,0,0:0:0:0:
182,192,144842,1,0,0:0:0:50:Highlight.wav
109,192,144909,1,0,0:0:0:50:Kick.wav
475,192,144909,1,0,0:0:0:0:
256,192,144909,1,0,0:0:0:50:Sub Rhythm-2.wav
36,192,144909,1,0,0:0:0:0:
402,192,144976,1,0,0:0:0:0:
109,192,145043,1,0,0:0:0:0:
182,192,145043,1,0,0:0:0:50:Sub Rhythm-2.wav
329,192,145043,1,0,0:0:0:50:Highlight.wav
256,192,145110,1,0,0:0:0:0:
109,192,145177,1,0,0:0:0:0:
329,192,145177,1,0,0:0:0:50:CrashL.wav
475,192,145177,1,0,0:0:0:50:Sub Rhythm-2.wav
36,192,145177,1,0,0:0:0:50:Kick.wav
402,192,145177,1,0,0:0:0:50:Highlight.wav
182,192,145244,1,0,0:0:0:0:
402,192,145311,1,0,0:0:0:0:
256,192,145311,1,0,0:0:0:50:Sub Rhythm-2.wav
36,192,145378,1,0,0:0:0:0:
329,192,145378,1,0,0:0:0:50:Sub Rhythm-2.wav
109,192,145378,1,0,0:0:0:50:Highlight.wav
475,192,145445,1,0,0:0:0:0:
402,192,145445,1,0,0:0:0:50:Snare.wav
182,192,145445,1,0,0:0:0:50:Sub Rhythm-2.wav
256,192,145512,1,0,0:0:0:50:Sub Rhythm-2.wav
36,192,145512,1,0,0:0:0:0:
109,192,145579,1,0,0:0:0:50:Highlight.wav
475,192,145579,1,0,0:0:0:50:Kick.wav
329,192,145579,1,0,0:0:0:50:Sub Rhythm-2.wav
182,192,145646,1,0,0:0:0:0:
402,192,145646,1,0,0:0:0:50:Sub Rhythm-2.wav
475,192,145713,1,0,0:0:0:50:Sub Rhythm-2.wav
36,192,145713,1,0,0:0:0:0:
256,192,145713,1,0,0:0:0:50:Kick.wav
182,192,145780,1,0,0:0:0:50:Sub Rhythm-2.wav
402,192,145780,1,0,0:0:0:0:
109,192,145780,1,0,0:0:0:50:Highlight.wav
329,192,145847,1,0,0:0:0:50:Sub Rhythm-2.wav
36,192,145847,1,0,0:0:0:0:
256,192,145914,1,0,0:0:0:0:
402,192,145914,1,0,0:0:0:50:Sub Rhythm-2.wav
329,192,145981,1,0,0:0:0:50:Snare.wav
36,192,145981,1,0,0:0:0:50:Sub Rhythm-2.wav
475,192,145981,1,0,0:0:0:0:
182,192,145981,1,0,0:0:0:50:Highlight.wav
109,192,146048,1,0,0:0:0:50:Highlight.wav
256,192,146048,1,0,0:0:0:50:Sub Rhythm-2.wav
329,192,146115,1,0,0:0:0:50:Sub Rhythm-2.wav
182,192,146115,1,0,0:0:0:50:Highlight.wav
256,192,146182,1,0,0:0:0:50:Highlight.wav
402,192,146182,1,0,0:0:0:50:Sub Rhythm-2.wav
329,192,146249,1,0,0:0:0:0:
36,192,146249,1,0,0:0:0:50:Sub Rhythm-2.wav
182,192,146249,1,0,0:0:0:50:Highlight.wav
475,192,146249,1,0,0:0:0:50:Kick.wav
109,192,146315,1,0,0:0:0:0:
256,192,146382,1,0,0:0:0:50:Sub Rhythm-2.wav
36,192,146382,1,0,0:0:0:0:
475,192,146449,1,0,0:0:0:0:
402,192,146449,1,0,0:0:0:50:Highlight.wav
182,192,146449,1,0,0:0:0:50:Sub Rhythm-2.wav
329,192,146516,1,0,0:0:0:50:Sub Rhythm-2.wav
36,192,146516,1,0,0:0:0:0:
109,192,146516,1,0,0:0:0:50:Snare.wav
256,192,146583,1,0,0:0:0:50:Sub Rhythm-2.wav
475,192,146583,1,0,0:0:0:0:
402,192,146650,1,0,0:0:0:0:
182,192,146650,1,0,0:0:0:50:Highlight.wav
109,192,146650,1,0,0:0:0:50:Sub Rhythm-2.wav
329,192,146717,1,0,0:0:0:50:Sub Snare.wav
36,192,146717,1,0,0:0:0:50:Sub Rhythm-2.wav
256,192,146784,1,0,0:0:0:50:Sub Rhythm-2.wav
475,192,146784,1,0,0:0:0:0:
402,192,146784,1,0,0:0:0:50:Kick.wav
182,192,146784,1,0,0:0:0:0:
36,192,146851,1,0,0:0:0:0:
329,192,146851,1,0,0:0:0:50:Highlight.wav
109,192,146851,1,0,0:0:0:50:Sub Rhythm-2.wav
475,192,146918,1,0,0:0:0:0:
182,192,146918,1,0,0:0:0:50:Sub Rhythm-2.wav
402,192,146918,1,0,0:0:0:50:Snare.wav
256,192,146985,1,0,0:0:0:50:Sub Rhythm-2.wav
36,192,146985,1,0,0:0:0:0:
475,192,147052,1,0,0:0:0:50:Highlight.wav
109,192,147052,1,0,0:0:0:0:
402,192,147052,1,0,0:0:0:50:Sub Rhythm-2.wav
329,192,147052,1,0,0:0:0:50:Snare.wav
36,192,147119,1,0,0:0:0:50:Highlight.wav
256,192,147119,1,0,0:0:0:50:Sub Rhythm-2.wav
402,192,147186,1,0,0:0:0:50:Sub Rhythm-2.wav
182,192,147186,1,0,0:0:0:50:Highlight.wav
329,192,147253,1,0,0:0:0:50:Highlight.wav
109,192,147253,1,0,0:0:0:50:Sub Rhythm-2.wav
256,192,147320,1,0,0:0:0:50:Sub Rhythm-2.wav
36,192,147320,1,0,0:0:0:0:
402,192,147320,1,0,0:0:0:50:Kick.wav
475,192,147320,1,0,0:0:0:50:Highlight.wav
109,192,147387,1,0,0:0:0:0:
475,192,147454,1,0,0:0:0:0:
182,192,147454,1,0,0:0:0:0:
329,192,147454,1,0,0:0:0:50:Highlight.wav
402,192,147521,1,0,0:0:0:0:
36,192,147588,1,0,0:0:0:0:
182,192,147588,1,0,0:0:0:50:Highlight.wav
329,192,147588,1,0,0:0:0:50:Snare.wav
109,192,147588,1,0,0:0:0:0:
475,192,147655,1,0,0:0:0:0:
402,192,147722,1,0,0:0:0:50:Kick.wav
36,192,147722,1,0,0:0:0:0:
109,192,147722,1,0,0:0:0:50:Highlight.wav
256,192,147722,1,0,0:0:0:0:
182,192,147789,1,0,0:0:0:0:
256,192,147856,1,0,0:0:0:50:Highlight.wav
36,192,147856,1,0,0:0:0:0:
402,192,147856,1,0,0:0:0:50:Kick.wav
475,192,147856,1,0,0:0:0:0:
109,192,147923,1,0,0:0:0:0:
402,192,147990,1,0,0:0:0:0:
329,192,147990,1,0,0:0:0:0:
182,192,147990,1,0,0:0:0:50:Highlight.wav
475,192,148057,1,0,0:0:0:0:
36,192,148124,1,0,0:0:0:0:
329,192,148124,1,0,0:0:0:0:
256,192,148124,1,0,0:0:0:50:Highlight.wav
109,192,148124,1,0,0:0:0:50:Snare.wav
475,192,148190,1,0,0:0:0:0:
182,192,148257,1,0,0:0:0:0:
36,192,148257,1,0,0:0:0:0:
402,192,148257,1,0,0:0:0:50:Highlight.wav
329,192,148324,1,0,0:0:0:50:Highlight.wav
109,192,148324,1,0,0:0:0:0:
256,192,148391,1,0,0:0:0:50:Sub Rhythm-2.wav
402,192,148391,1,0,0:0:0:0:
475,192,148391,1,0,0:0:0:0:
36,192,148391,1,0,0:0:0:50:Kick.wav
109,192,148458,1,0,0:0:0:0:
329,192,148525,1,0,0:0:0:50:Sub Rhythm-2.wav
182,192,148525,1,0,0:0:0:0:
256,192,148592,1,0,0:0:0:0:
402,192,148592,1,0,0:0:0:50:Sub Rhythm-2.wav
329,192,148659,1,0,0:0:0:0:
475,192,148659,1,0,0:0:0:50:Sub Rhythm-2.wav
36,192,148659,1,0,0:0:0:0:
109,192,148659,1,0,0:0:0:50:Snare.wav
402,192,148726,1,0,0:0:0:50:Sub Rhythm-2.wav
256,192,148726,1,0,0:0:0:0:
36,192,148793,1,0,0:0:0:0:
182,192,148793,1,0,0:0:0:50:Highlight.wav
329,192,148793,1,0,0:0:0:50:Sub Rhythm-2.wav
475,192,148860,1,0,0:0:0:50:Sub Snare.wav
256,192,148860,1,0,0:0:0:50:Sub Rhythm-2.wav
109,192,148860,1,0,0:0:0:50:Highlight.wav
36,192,148927,1,0,0:0:0:50:Highlight.wav
182,192,148927,1,0,0:0:0:50:Sub Rhythm-2.wav
402,192,148927,1,0,0:0:0:50:Kick.wav
329,192,148994,1,0,0:0:0:50:Sub Rhythm-2.wav
475,192,148994,1,0,0:0:0:0:
256,192,149061,1,0,0:0:0:50:Snare.wav
36,192,149061,1,0,0:0:0:0:
109,192,149061,1,0,0:0:0:50:Sub Rhythm-2.wav
329,192,149128,1,0,0:0:0:50:Highlight.wav
182,192,149128,1,0,0:0:0:50:Sub Rhythm-2.wav
402,192,149195,1,0,0:0:0:50:Kick.wav
475,192,149195,1,0,0:0:0:0:
256,192,149195,1,0,0:0:0:50:Sub Rhythm-2.wav
36,192,149195,1,0,0:0:0:0:
329,192,149262,1,0,0:0:0:50:Sub Rhythm-2.wav
109,192,149262,1,0,0:0:0:0:
402,192,149329,1,0,0:0:0:50:Sub Rhythm-2.wav
182,192,149329,1,0,0:0:0:50:Highlight.wav
475,192,149396,1,0,0:0:0:50:Sub Rhythm-2.wav
256,192,149396,1,0,0:0:0:0:
36,192,149463,1,0,0:0:0:0:
109,192,149463,1,0,0:0:0:50:Highlight.wav
182,192,149463,1,0,0:0:0:50:Kick.wav
402,192,149463,1,0,0:0:0:50:Sub Rhythm-2.wav
329,192,149530,1,0,0:0:0:0:
36,192,149597,1,0,0:0:0:0:
475,192,149597,1,0,0:0:0:50:Highlight.wav
256,192,149597,1,0,0:0:0:0:
182,192,149664,1,0,0:0:0:0:
329,192,149731,1,0,0:0:0:50:Snare.wav
402,192,149731,1,0,0:0:0:0:
109,192,149731,1,0,0:0:0:0:
475,192,149731,1,0,0:0:0:50:Highlight.wav
256,192,149798,1,0,0:0:0:0:
329,192,149865,1,0,0:0:0:0:
36,192,149865,1,0,0:0:0:0:
109,192,149865,1,0,0:0:0:50:Highlight.wav
182,192,149932,1,0,0:0:0:0:
402,192,149999,1,0,0:0:0:50:Kick.wav
36,192,149999,1,0,0:0:0:0:
475,192,149999,1,0,0:0:0:0:
256,192,149999,1,0,0:0:0:50:BeLL2.wav
109,192,150065,1,0,0:0:0:0:
182,192,150132,1,0,0:0:0:50:Highlight.wav
329,192,150132,1,0,0:0:0:0:
475,192,150199,1,0,0:0:0:0:
36,192,150199,1,0,0:0:0:50:Highlight.wav
256,192,150199,1,0,0:0:0:50:BeLL2.wav
402,192,150199,1,0,0:0:0:0:
329,192,150266,1,0,0:0:0:50:Snare.wav
109,192,150266,1,0,0:0:0:50:Highlight.wav
402,192,150333,1,0,0:0:0:0:
182,192,150333,1,0,0:0:0:50:Highlight.wav
475,192,150400,1,0,0:0:0:0:
36,192,150400,1,0,0:0:0:0:
109,192,150400,1,0,0:0:0:50:BeLL2.wav
256,192,150400,1,0,0:0:0:50:Highlight.wav
402,192,150467,1,0,0:0:0:0:
182,192,150467,1,0,0:0:0:50:Highlight.wav
475,192,150534,1,0,0:0:0:50:Kick.wav
329,192,150534,1,0,0:0:0:0:
109,192,150534,1,0,0:0:0:50:Highlight.wav
36,192,150534,1,0,0:0:0:0:
256,192,150601,1,0,0:0:0:0:
182,192,150668,1,0,0:0:0:50:Highlight.wav
109,192,150668,1,0,0:0:0:0:
402,192,150668,1,0,0:0:0:0:
329,192,150735,1,0,0:0:0:0:
475,192,150802,1,0,0:0:0:50:Snare.wav
109,192,150802,1,0,0:0:0:0:
256,192,150802,1,0,0:0:0:50:Highlight.wav
36,192,150802,1,0,0:0:0:0:
402,192,150869,1,0,0:0:0:0:
182,192,150936,1,0,0:0:0:0:
329,192,150936,1,0,0:0:0:50:Highlight.wav
36,192,150936,1,0,0:0:0:0:
109,192,151003,1,0,0:0:0:0:
256,192,151003,1,0,0:0:0:50:Sub Snare.wav
475,192,151070,1,0,0:0:0:0:
329,192,151070,1,0,0:0:0:50:Highlight.wav
402,192,151070,1,0,0:0:0:50:Kick.wav
182,192,151070,1,0,0:0:0:0:
109,192,151137,1,0,0:0:0:0:
36,192,151204,1,0,0:0:0:0:
256,192,151204,1,0,0:0:0:50:Highlight.wav
402,192,151204,1,0,0:0:0:50:Snare.wav
475,192,151204,1,0,0:0:0:0:
182,192,151271,1,0,0:0:0:0:
475,192,151338,1,0,0:0:0:50:Snare.wav
36,192,151338,1,0,0:0:0:0:
329,192,151338,1,0,0:0:0:50:Highlight.wav
109,192,151338,1,0,0:0:0:0:
256,192,151405,1,0,0:0:0:0:
109,192,151472,1,0,0:0:0:0:
402,192,151472,1,0,0:0:0:50:Highlight.wav
182,192,151472,1,0,0:0:0:0:
329,192,151539,1,0,0:0:0:0:
402,192,151606,1,0,0:0:0:50:Highlight.wav
475,192,151606,1,0,0:0:0:50:Kick.wav
36,192,151606,1,0,0:0:0:0:
256,192,151606,1,0,0:0:0:50:CrashL.wav
109,192,151606,1,0,0:0:0:0:
256,192,151740,1,0,0:0:0:50:Sub Snare.wav
36,192,151740,1,0,0:0:0:0:
109,192,151740,1,0,0:0:0:0:
402,192,151807,1,0,0:0:0:50:Sub Snare.wav
475,192,151807,1,0,0:0:0:0:
329,192,151874,1,0,0:0:0:50:Sub Snare.wav
109,192,151874,1,0,0:0:0:0:
182,192,151874,1,0,0:0:0:0:
475,192,151940,1,0,0:0:0:0:
402,192,151940,1,0,0:0:0:50:Sub Snare.wav
256,192,152007,1,0,0:0:0:50:Sub Snare.wav
109,192,152007,1,0,0:0:0:0:
36,192,152007,1,0,0:0:0:0:
182,192,152074,1,0,0:0:0:0:
329,192,152074,1,0,0:0:0:50:Sub Snare.wav
402,192,152141,1,0,0:0:0:50:Highlight.wav
109,192,152141,1,0,0:0:0:50:CrashS.wav
256,192,152141,1,0,0:0:0:50:Kick.wav
475,192,152141,1,0,0:0:0:0:
36,192,152141,1,0,0:0:0:0:
182,192,152275,128,0,152409:0:0:0:50:CrashS.wav
109,192,152275,128,0,152409:0:0:0:0:
36,192,152275,128,0,152409:0:0:0:0:
329,192,152275,128,0,152409:0:0:0:50:Kick.wav
402,192,152275,128,0,152409:0:0:0:50:Highlight.wav
475,192,152275,128,0,152409:0:0:0:0:
256,192,152409,1,0,0:0:0:0:
475,192,152543,1,0,0:0:0:0:
329,192,152543,1,0,0:0:0:50:CrashL.wav
182,192,152543,1,0,0:0:0:50:Kick.wav
402,192,152543,1,0,0:0:0:0:
36,192,152543,1,0,0:0:0:0:
109,192,152543,1,0,0:0:0:50:Highlight.wav
256,192,152677,128,0,153213:0:0:0:0:
475,192,152677,128,0,152744:0:0:0:0:
36,192,152677,128,0,152744:0:0:0:0:
402,192,152744,128,0,152811:0:0:0:0:
109,192,152744,128,0,152811:0:0:0:0:
329,192,152811,128,0,152878:0:0:0:0:
182,192,152811,128,0,152878:0:0:0:0:
475,192,152878,128,0,152945:0:0:0:0:
109,192,152878,128,0,152945:0:0:0:0:
402,192,152945,128,0,153012:0:0:0:0:
36,192,152945,128,0,153012:0:0:0:0:
475,192,153012,128,0,153079:0:0:0:0:
182,192,153012,128,0,153079:0:0:0:0:
109,192,153079,128,0,153146:0:0:0:0:
329,192,153079,128,0,153146:0:0:0:0:
36,192,153146,128,0,153213:0:0:0:0:
402,192,153146,128,0,153213:0:0:0:0:
475,192,153213,128,0,153280:0:0:0:0:
109,192,153213,128,0,153280:0:0:0:0:
402,192,153280,128,0,153347:0:0:0:0:
182,192,153280,128,0,153347:0:0:0:0:
109,192,153347,1,0,0:0:0:50:Sub Snare.wav
36,192,153347,1,0,0:0:0:0:
329,192,153347,128,0,153414:0:0:0:0:
475,192,153414,1,0,0:0:0:0:
402,192,153414,1,0,0:0:0:0:
182,192,153414,1,0,0:0:0:50:Sub Snare.wav
36,192,153481,1,0,0:0:0:0:
329,192,153481,1,0,0:0:0:0:
109,192,153481,1,0,0:0:0:50:Sub Snare.wav
256,192,153548,1,0,0:0:0:50:Sub Snare.wav
475,192,153548,1,0,0:0:0:0:
402,192,153548,1,0,0:0:0:0:
36,192,153615,1,0,0:0:0:0:
182,192,153615,1,0,0:0:0:50:Sub Snare.wav
109,192,153615,1,0,0:0:0:0:
402,192,153682,1,0,0:0:0:0:
475,192,153682,1,0,0:0:0:0:
329,192,153682,1,0,0:0:0:50:Sub Snare.wav
256,192,153749,128,0,153886:0:0:0:50:Highlight.wav
109,192,153749,1,0,0:0:0:50:CrashL.wav
182,192,153749,1,0,0:0:0:0:
36,192,153749,1,0,0:0:0:50:Kick.wav
402,192,153886,1,0,0:0:0:0:
402,192,154024,1,0,0:0:0:0:
109,192,154024,1,0,0:0:0:0:
36,192,154024,1,0,0:0:0:50:Kick.wav
256,192,154161,128,0,154299:0:0:0:50:Highlight.wav
402,192,154299,1,0,0:0:0:0:
109,192,154299,1,0,0:0:0:0:
36,192,154299,1,0,0:0:0:50:Kick.wav
402,192,154437,1,0,0:0:0:0:
256,192,154574,128,0,154712:0:0:0:50:Highlight.wav
36,192,154574,1,0,0:0:0:50:Kick.wav
109,192,154574,1,0,0:0:0:0:
402,192,154712,1,0,0:0:0:0:
109,192,154849,1,0,0:0:0:0:
36,192,154849,1,0,0:0:0:50:Kick.wav
402,192,154987,1,0,0:0:0:0:
256,192,154987,128,0,155125:0:0:0:50:Highlight.wav
402,192,155125,1,0,0:0:0:0:
36,192,155125,1,0,0:0:0:50:Kick.wav
109,192,155125,1,0,0:0:0:0:
475,192,155262,1,0,0:0:0:0:
256,192,155400,128,0,155537:0:0:0:50:Highlight.wav
402,192,155400,1,0,0:0:0:0:
36,192,155400,1,0,0:0:0:50:Kick.wav
109,192,155400,1,0,0:0:0:0:
402,192,155537,1,0,0:0:0:0:
256,192,155675,128,0,155813:0:0:0:50:Highlight.wav
36,192,155675,1,0,0:0:0:50:Kick.wav
109,192,155675,1,0,0:0:0:0:
402,192,155813,1,0,0:0:0:0:
182,192,155813,1,0,0:0:0:30:Sub Snare.wav
36,192,155882,1,0,0:0:0:30:Sub Snare.wav
109,192,155950,128,0,156088:0:0:0:50:Highlight.wav
475,192,155950,1,0,0:0:0:0:
329,192,155950,1,0,0:0:0:50:Kick.wav
182,192,156088,1,0,0:0:0:0:
182,192,156226,1,0,0:0:0:0:
329,192,156226,1,0,0:0:0:50:Kick.wav
475,192,156226,1,0,0:0:0:0:
109,192,156363,128,0,156501:0:0:0:50:Highlight.wav
182,192,156501,1,0,0:0:0:0:
475,192,156501,1,0,0:0:0:0:
329,192,156501,1,0,0:0:0:50:Kick.wav
182,192,156638,1,0,0:0:0:0:
109,192,156776,128,0,156914:0:0:0:50:Highlight.wav
329,192,156776,1,0,0:0:0:50:Kick.wav
475,192,156776,1,0,0:0:0:0:
182,192,156914,1,0,0:0:0:0:
475,192,157051,1,0,0:0:0:0:
329,192,157051,1,0,0:0:0:50:Kick.wav
182,192,157189,1,0,0:0:0:0:
109,192,157189,128,0,157326:0:0:0:50:Highlight.wav
182,192,157326,1,0,0:0:0:0:
329,192,157326,1,0,0:0:0:50:Kick.wav
475,192,157326,1,0,0:0:0:0:
36,192,157464,1,0,0:0:0:0:
109,192,157602,128,0,157739:0:0:0:50:Highlight.wav
182,192,157602,1,0,0:0:0:0:
329,192,157602,1,0,0:0:0:50:Kick.wav
475,192,157602,1,0,0:0:0:0:
182,192,157739,1,0,0:0:0:0:
109,192,157877,128,0,158015:0:0:0:50:Highlight.wav
329,192,157877,1,0,0:0:0:50:Kick.wav
475,192,157877,1,0,0:0:0:0:
182,192,158015,1,0,0:0:0:0:
402,192,158015,1,0,0:0:0:30:Sub Snare.wav
329,192,158083,1,0,0:0:0:30:Sub Snare.wav
256,192,158152,1,0,0:0:0:0:
36,192,158152,128,0,158290:0:0:0:50:Highlight.wav
475,192,158152,1,0,0:0:0:50:Kick.wav
109,192,158290,1,0,0:0:0:0:
256,192,158427,1,0,0:0:0:0:
475,192,158427,1,0,0:0:0:50:Kick.wav
109,192,158427,1,0,0:0:0:0:
36,192,158565,128,0,158703:0:0:0:50:Highlight.wav
256,192,158703,1,0,0:0:0:0:
109,192,158703,1,0,0:0:0:0:
475,192,158703,1,0,0:0:0:50:Kick.wav
109,192,158840,1,0,0:0:0:0:
36,192,158978,128,0,159115:0:0:0:50:Highlight.wav
475,192,158978,1,0,0:0:0:50:Kick.wav
256,192,158978,1,0,0:0:0:0:
109,192,159115,1,0,0:0:0:0:
256,192,159253,1,0,0:0:0:0:
475,192,159253,1,0,0:0:0:50:Kick.wav
36,192,159391,128,0,159528:0:0:0:50:Highlight.wav
109,192,159391,1,0,0:0:0:0:
109,192,159528,1,0,0:0:0:0:
475,192,159528,1,0,0:0:0:50:Kick.wav
256,192,159528,1,0,0:0:0:0:
182,192,159666,1,0,0:0:0:0:
256,192,159804,1,0,0:0:0:0:
36,192,159804,128,0,159941:0:0:0:50:Highlight.wav
475,192,159804,1,0,0:0:0:50:Kick.wav
109,192,159804,1,0,0:0:0:0:
109,192,159941,1,0,0:0:0:0:
36,192,160079,128,0,160216:0:0:0:50:Highlight.wav
475,192,160079,1,0,0:0:0:50:Kick.wav
256,192,160079,1,0,0:0:0:0:
109,192,160216,1,0,0:0:0:0:
329,192,160216,1,0,0:0:0:30:Sub Snare.wav
402,192,160285,1,0,0:0:0:30:Sub Snare.wav
475,192,160354,128,0,160492:0:0:0:50:Highlight.wav
36,192,160354,1,0,0:0:0:0:
182,192,160354,1,0,0:0:0:50:Kick.wav
329,192,160492,1,0,0:0:0:0:
329,192,160629,1,0,0:0:0:0:
182,192,160629,1,0,0:0:0:50:Kick.wav
36,192,160629,1,0,0:0:0:0:
475,192,160767,128,0,160904:0:0:0:50:Highlight.wav
329,192,160904,1,0,0:0:0:0:
36,192,160904,1,0,0:0:0:0:
182,192,160904,1,0,0:0:0:50:Kick.wav
329,192,161042,1,0,0:0:0:0:
475,192,161180,128,0,161317:0:0:0:50:Highlight.wav
182,192,161180,1,0,0:0:0:50:Kick.wav
36,192,161180,1,0,0:0:0:0:
329,192,161317,1,0,0:0:0:0:
36,192,161455,1,0,0:0:0:0:
182,192,161455,1,0,0:0:0:50:Kick.wav
475,192,161593,128,0,161730:0:0:0:50:Highlight.wav
329,192,161593,1,0,0:0:0:0:
329,192,161730,1,0,0:0:0:0:
182,192,161730,1,0,0:0:0:50:Kick.wav
36,192,161730,1,0,0:0:0:0:
109,192,161868,128,0,162005:0:0:0:0:
256,192,161868,1,0,0:0:0:0:
402,192,161868,1,0,0:0:0:0:
475,192,162005,128,0,162143:0:0:0:50:Highlight.wav
182,192,162005,1,0,0:0:0:50:Kick.wav
36,192,162005,1,0,0:0:0:0:
329,192,162005,1,0,0:0:0:0:
109,192,162143,1,0,0:0:0:0:
402,192,162143,128,0,162281:0:0:0:0:
256,192,162143,1,0,0:0:0:0:
36,192,162281,1,0,0:0:0:0:
475,192,162281,1,0,0:0:0:0:
329,192,162281,128,0,162418:0:0:0:50:Highlight.wav
182,192,162281,1,0,0:0:0:50:Kick.wav
402,192,162418,1,0,0:0:0:0:
109,192,162418,1,0,0:0:0:0:
256,192,162418,128,0,162556:0:0:0:0:
36,192,162556,128,0,163646:0:0:0:30:BeLL.wav
475,192,162556,1,0,0:0:0:0:
109,192,162556,1,0,0:0:0:50:Kick.wav
329,192,162556,1,0,0:0:0:0:
182,192,162624,1,0,0:0:0:0:
475,192,162692,1,0,0:0:0:0:
256,192,162692,1,0,0:0:0:0:
402,192,162760,1,0,0:0:0:0:
329,192,162828,1,0,0:0:0:0:
109,192,162828,1,0,0:0:0:50:Kick.wav
182,192,162828,1,0,0:0:0:0:
402,192,162896,1,0,0:0:0:0:
475,192,162965,1,0,0:0:0:0:
182,192,162965,1,0,0:0:0:0:
256,192,163033,1,0,0:0:0:0:
475,192,163101,1,0,0:0:0:0:
329,192,163101,1,0,0:0:0:0:
109,192,163101,1,0,0:0:0:50:Kick.wav
182,192,163169,1,0,0:0:0:0:
256,192,163237,1,0,0:0:0:0:
402,192,163237,1,0,0:0:0:0:
475,192,163306,1,0,0:0:0:0:
329,192,163374,1,0,0:0:0:0:
109,192,163374,1,0,0:0:0:50:Kick.wav
182,192,163374,1,0,0:0:0:0:
402,192,163442,1,0,0:0:0:0:
256,192,163510,1,0,0:0:0:0:
475,192,163510,1,0,0:0:0:0:
182,192,163578,1,0,0:0:0:0:
475,192,163646,1,0,0:0:0:0:
109,192,163646,1,0,0:0:0:0:
329,192,163646,1,0,0:0:0:50:Kick.wav
256,192,163715,1,0,0:0:0:0:
402,192,163783,1,0,0:0:0:0:
182,192,163783,1,0,0:0:0:0:
109,192,163851,1,0,0:0:0:0:
475,192,163919,128,0,164192:0:0:0:30:BeLL.wav
402,192,163919,1,0,0:0:0:0:
36,192,163919,1,0,0:0:0:0:
256,192,163919,1,0,0:0:0:50:Kick.wav
109,192,163987,1,0,0:0:0:0:
182,192,164056,1,0,0:0:0:0:
329,192,164056,1,0,0:0:0:0:
256,192,164124,1,0,0:0:0:0:
109,192,164192,128,0,164465:0:0:0:30:BeLL.wav
182,192,164192,1,0,0:0:0:0:
402,192,164192,1,0,0:0:0:50:Kick.wav
36,192,164192,1,0,0:0:0:0:
329,192,164260,1,0,0:0:0:0:
256,192,164328,1,0,0:0:0:0:
475,192,164328,1,0,0:0:0:0:
402,192,164396,1,0,0:0:0:0:
256,192,164465,128,0,164737:0:0:0:30:BeLL.wav
475,192,164465,1,0,0:0:0:0:
36,192,164465,1,0,0:0:0:0:
329,192,164465,1,0,0:0:0:50:Kick.wav
109,192,164533,1,0,0:0:0:0:
329,192,164601,1,0,0:0:0:0:
182,192,164601,1,0,0:0:0:0:
402,192,164669,1,0,0:0:0:0:
475,192,164737,128,0,165146:0:0:0:30:BeLL.wav
182,192,164737,1,0,0:0:0:0:
109,192,164737,1,0,0:0:0:50:Kick.wav
36,192,164737,1,0,0:0:0:0:
402,192,164806,1,0,0:0:0:0:
329,192,164874,1,0,0:0:0:0:
109,192,164874,1,0,0:0:0:0:
182,192,164942,1,0,0:0:0:0:
402,192,165010,1,0,0:0:0:0:
256,192,165010,1,0,0:0:0:50:Kick.wav
36,192,165010,1,0,0:0:0:0:
182,192,165078,1,0,0:0:0:0:
109,192,165146,1,0,0:0:0:0:
329,192,165146,1,0,0:0:0:0:
36,192,165146,128,0,165556:0:0:0:30:BeLL.wav
256,192,165215,1,0,0:0:0:0:
402,192,165283,1,0,0:0:0:0:
182,192,165283,1,0,0:0:0:0:
475,192,165283,1,0,0:0:0:50:Kick.wav
329,192,165351,1,0,0:0:0:0:
182,192,165419,1,0,0:0:0:0:
402,192,165419,1,0,0:0:0:0:
256,192,165487,1,0,0:0:0:0:
109,192,165556,1,0,0:0:0:0:
475,192,165556,1,0,0:0:0:0:
182,192,165556,1,0,0:0:0:50:Kick.wav
329,192,165556,128,0,166101:0:0:0:30:BeLL.wav
402,192,165624,1,0,0:0:0:0:
475,192,165692,1,0,0:0:0:0:
109,192,165692,1,0,0:0:0:0:
182,192,165760,1,0,0:0:0:0:
402,192,165828,1,0,0:0:0:0:
36,192,165828,1,0,0:0:0:0:
256,192,165828,1,0,0:0:0:50:Kick.wav
109,192,165896,1,0,0:0:0:0:
475,192,165965,1,0,0:0:0:0:
182,192,165965,1,0,0:0:0:0:
256,192,166033,1,0,0:0:0:0:
109,192,166101,128,0,166374:0:0:0:30:BeLL.wav
475,192,166101,1,0,0:0:0:0:
36,192,166101,1,0,0:0:0:0:
402,192,166101,1,0,0:0:0:50:Kick.wav
182,192,166169,1,0,0:0:0:0:
256,192,166237,1,0,0:0:0:0:
402,192,166237,1,0,0:0:0:0:
329,192,166306,1,0,0:0:0:0:
402,192,166374,128,0,166646:0:0:0:30:BeLL.wav
182,192,166374,1,0,0:0:0:0:
475,192,166374,1,0,0:0:0:50:Kick.wav
36,192,166374,1,0,0:0:0:0:
329,192,166442,1,0,0:0:0:0:
109,192,166510,1,0,0:0:0:0:
256,192,166510,1,0,0:0:0:0:
182,192,166578,1,0,0:0:0:0:
36,192,166646,128,0,166919:0:0:0:30:BeLL.wav
475,192,166646,1,0,0:0:0:0:
109,192,166646,1,0,0:0:0:0:
329,192,166646,1,0,0:0:0:50:Kick.wav
256,192,166715,1,0,0:0:0:0:
182,192,166783,1,0,0:0:0:0:
402,192,166783,1,0,0:0:0:0:
329,192,166851,1,0,0:0:0:0:
256,192,166919,128,0,168010:0:0:0:30:BeLL.wav
475,192,166919,1,0,0:0:0:0:
182,192,166919,1,0,0:0:0:50:Kick.wav
109,192,166919,1,0,0:0:0:0:
402,192,166987,1,0,0:0:0:0:
475,192,167056,1,0,0:0:0:0:
329,192,167056,1,0,0:0:0:0:
109,192,167056,1,0,0:0:0:50:Kick.wav
182,192,167124,1,0,0:0:0:0:
329,192,167192,1,0,0:0:0:0:
475,192,167192,1,0,0:0:0:50:Kick.wav
36,192,167192,1,0,0:0:0:0:
109,192,167260,1,0,0:0:0:0:
402,192,167328,1,0,0:0:0:0:
182,192,167328,1,0,0:0:0:50:Kick.wav
36,192,167328,1,0,0:0:0:0:
329,192,167396,1,0,0:0:0:0:
109,192,167465,1,0,0:0:0:0:
475,192,167465,1,0,0:0:0:0:
402,192,167465,1,0,0:0:0:50:Kick.wav
182,192,167533,1,0,0:0:0:0:
109,192,167601,1,0,0:0:0:0:
475,192,167601,1,0,0:0:0:50:Kick.wav
36,192,167601,1,0,0:0:0:0:
402,192,167669,1,0,0:0:0:0:
329,192,167737,1,0,0:0:0:0:
36,192,167737,1,0,0:0:0:0:
182,192,167737,1,0,0:0:0:50:Kick.wav
109,192,167806,1,0,0:0:0:0:
475,192,167874,1,0,0:0:0:0:
182,192,167874,1,0,0:0:0:50:Kick.wav
329,192,167874,1,0,0:0:0:0:
402,192,167942,1,0,0:0:0:0:
475,192,168010,1,0,0:0:0:0:
36,192,168010,1,0,0:0:0:0:
182,192,168010,1,0,0:0:0:50:Kick.wav
402,192,168078,1,0,0:0:0:0:
182,192,168146,1,0,0:0:0:0:
329,192,168146,1,0,0:0:0:50:Kick.wav
36,192,168146,1,0,0:0:0:0:
256,192,168215,1,0,0:0:0:0:
475,192,168283,128,0,168556:0:0:0:30:BeLL.wav
402,192,168283,1,0,0:0:0:0:
329,192,168283,1,0,0:0:0:50:Kick.wav
109,192,168283,1,0,0:0:0:0:
182,192,168351,1,0,0:0:0:0:
256,192,168419,1,0,0:0:0:0:
402,192,168419,1,0,0:0:0:50:Kick.wav
36,192,168419,1,0,0:0:0:0:
329,192,168487,1,0,0:0:0:0:
36,192,168556,128,0,168828:0:0:0:30:BeLL.wav
402,192,168556,1,0,0:0:0:0:
109,192,168556,1,0,0:0:0:50:Kick.wav
182,192,168556,1,0,0:0:0:0:
256,192,168624,1,0,0:0:0:0:
475,192,168692,1,0,0:0:0:0:
109,192,168692,1,0,0:0:0:50:Kick.wav
329,192,168692,1,0,0:0:0:0:
402,192,168760,1,0,0:0:0:0:
256,192,168828,128,0,169101:0:0:0:30:BeLL.wav
109,192,168828,1,0,0:0:0:0:
475,192,168828,1,0,0:0:0:50:Kick.wav
182,192,168828,1,0,0:0:0:0:
402,192,168896,1,0,0:0:0:0:
329,192,168965,1,0,0:0:0:0:
182,192,168965,1,0,0:0:0:50:Kick.wav
36,192,168965,1,0,0:0:0:0:
109,192,169033,1,0,0:0:0:0:
329,192,169101,1,0,0:0:0:0:
475,192,169101,128,0,170192:0:0:0:30:BeLL.wav
36,192,169101,1,0,0:0:0:0:
402,192,169101,1,0,0:0:0:50:Kick.wav
109,192,169169,1,0,0:0:0:50:Kick.wav
182,192,169169,1,0,0:0:0:0:
402,192,169237,1,0,0:0:0:0:
36,192,169237,1,0,0:0:0:0:
329,192,169237,1,0,0:0:0:50:Kick.wav
256,192,169306,1,0,0:0:0:50:Kick.wav
182,192,169306,1,0,0:0:0:0:
402,192,169374,1,0,0:0:0:0:
36,192,169374,1,0,0:0:0:0:
109,192,169374,1,0,0:0:0:50:Kick.wav
256,192,169442,1,0,0:0:0:0:
329,192,169442,1,0,0:0:0:50:Kick.wav
402,192,169510,1,0,0:0:0:0:
109,192,169510,1,0,0:0:0:0:
182,192,169510,1,0,0:0:0:50:Kick.wav
329,192,169578,1,0,0:0:0:0:
36,192,169578,1,0,0:0:0:50:Kick.wav
256,192,169646,1,0,0:0:0:0:
109,192,169646,1,0,0:0:0:50:Kick.wav
182,192,169646,1,0,0:0:0:0:
402,192,169715,1,0,0:0:0:0:
329,192,169715,1,0,0:0:0:50:Kick.wav
36,192,169783,1,0,0:0:0:0:
256,192,169783,1,0,0:0:0:0:
109,192,169783,1,0,0:0:0:50:Kick.wav
402,192,169851,1,0,0:0:0:0:
182,192,169851,1,0,0:0:0:50:Kick.wav
329,192,169919,1,0,0:0:0:0:
36,192,169919,1,0,0:0:0:0:
109,192,169919,1,0,0:0:0:50:Kick.wav
402,192,169987,1,0,0:0:0:50:Kick.wav
182,192,169987,1,0,0:0:0:0:
109,192,170056,1,0,0:0:0:0:
36,192,170056,1,0,0:0:0:50:Kick.wav
329,192,170056,1,0,0:0:0:0:
256,192,170124,1,0,0:0:0:0:
402,192,170192,1,0,0:0:0:0:
182,192,170192,1,0,0:0:0:50:Kick.wav
36,192,170192,1,0,0:0:0:0:
329,192,170328,128,0,170465:0:0:0:0:
475,192,170396,128,0,170533:0:0:0:0:
109,192,170465,1,0,0:0:0:0:
182,192,170465,1,0,0:0:0:50:Kick.wav
36,192,170465,1,0,0:0:0:0:
256,192,170465,128,0,170601:0:0:0:0:
402,192,170533,128,0,170669:0:0:0:0:
109,192,170601,128,0,170669:0:0:0:0:
36,192,170669,128,0,170737:0:0:0:0:
182,192,170737,128,0,170806:0:0:0:0:
109,192,170806,128,0,170874:0:0:0:0:
402,192,170874,1,0,0:0:0:0:
256,192,170874,128,0,170942:0:0:0:0:
402,192,170942,1,0,0:0:0:0:
182,192,170942,128,0,171010:0:0:0:0:
36,192,171010,1,0,0:0:0:0:
475,192,171010,1,0,0:0:0:0:
329,192,171010,128,0,171078:0:0:0:0:
256,192,171078,128,0,171146:0:0:0:0:
402,192,171146,128,0,171215:0:0:0:0:
329,192,171215,128,0,171283:0:0:0:0:
256,192,171283,1,0,0:0:0:0:
109,192,171283,1,0,0:0:0:50:CrashL.wav
475,192,171283,128,0,171550:0:0:0:50:Highlight.wav
36,192,171283,1,0,0:0:0:50:Kick.wav
182,192,171349,1,0,0:0:0:0:
329,192,171416,1,0,0:0:0:0:
109,192,171416,1,0,0:0:0:0:
256,192,171483,1,0,0:0:0:0:
329,192,171550,1,0,0:0:0:30:poppi.wav
109,192,171550,1,0,0:0:0:0:
402,192,171550,1,0,0:0:0:0:
36,192,171550,1,0,0:0:0:50:Snare.wav
182,192,171617,1,0,0:0:0:0:
256,192,171684,128,0,171818:0:0:0:50:Highlight.wav
475,192,171684,1,0,0:0:0:0:
402,192,171751,1,0,0:0:0:0:
36,192,171818,1,0,0:0:0:50:Kick.wav
329,192,171818,1,0,0:0:0:0:
182,192,171818,1,0,0:0:0:0:
475,192,171885,1,0,0:0:0:0:
329,192,171952,1,0,0:0:0:0:
109,192,171952,128,0,172086:0:0:0:50:Highlight.wav
256,192,172019,1,0,0:0:0:0:
402,192,172086,1,0,0:0:0:30:poppi.wav
36,192,172086,1,0,0:0:0:50:Snare.wav
182,192,172086,1,0,0:0:0:0:
475,192,172086,1,0,0:0:0:0:
329,192,172153,1,0,0:0:0:0:
182,192,172220,1,0,0:0:0:0:
402,192,172220,128,0,172622:0:0:0:50:Highlight.wav
109,192,172287,1,0,0:0:0:0:
36,192,172354,1,0,0:0:0:50:Kick.wav
475,192,172354,1,0,0:0:0:0:
256,192,172354,1,0,0:0:0:0:
109,192,172421,1,0,0:0:0:0:
329,192,172488,1,0,0:0:0:0:
182,192,172488,1,0,0:0:0:0:
475,192,172555,1,0,0:0:0:0:
329,192,172622,1,0,0:0:0:30:poppi.wav
36,192,172622,1,0,0:0:0:50:Snare.wav
182,192,172622,1,0,0:0:0:0:
109,192,172622,1,0,0:0:0:0:
256,192,172689,1,0,0:0:0:0:
109,192,172756,1,0,0:0:0:0:
402,192,172756,1,0,0:0:0:50:Highlight.wav
329,192,172823,1,0,0:0:0:50:Highlight.wav
182,192,172823,1,0,0:0:0:50:Sub Snare.wav
475,192,172890,1,0,0:0:0:50:Kick.wav
36,192,172890,128,0,173024:0:0:0:50:Highlight.wav
402,192,172890,1,0,0:0:0:0:
256,192,172890,1,0,0:0:0:0:
182,192,172957,1,0,0:0:0:0:
109,192,173024,128,0,173158:0:0:0:50:Highlight.wav
402,192,173024,1,0,0:0:0:0:
329,192,173024,1,0,0:0:0:30:poppi.wav
475,192,173024,1,0,0:0:0:50:Snare.wav
256,192,173091,1,0,0:0:0:0:
475,192,173158,128,0,173291:0:0:0:50:Highlight.wav
182,192,173158,1,0,0:0:0:0:
402,192,173158,1,0,0:0:0:30:poppi.wav
36,192,173158,1,0,0:0:0:50:Snare.wav
329,192,173224,1,0,0:0:0:0:
109,192,173291,1,0,0:0:0:0:
256,192,173291,128,0,173425:0:0:0:50:Highlight.wav
182,192,173358,1,0,0:0:0:0:
402,192,173425,1,0,0:0:0:0:
475,192,173425,1,0,0:0:0:0:
36,192,173425,1,0,0:0:0:50:Kick.wav
329,192,173425,128,0,173693:0:0:0:50:Highlight.wav
109,192,173492,1,0,0:0:0:0:
182,192,173559,1,0,0:0:0:0:
402,192,173559,1,0,0:0:0:0:
256,192,173626,1,0,0:0:0:0:
109,192,173693,128,0,173827:0:0:0:50:Highlight.wav
475,192,173693,1,0,0:0:0:0:
182,192,173693,1,0,0:0:0:30:poppi.wav
36,192,173693,1,0,0:0:0:50:Snare.wav
402,192,173760,1,0,0:0:0:0:
329,192,173827,1,0,0:0:0:0:
256,192,173827,128,0,173961:0:0:0:50:Highlight.wav
402,192,173894,1,0,0:0:0:0:
475,192,173961,1,0,0:0:0:0:
109,192,173961,1,0,0:0:0:0:
36,192,173961,1,0,0:0:0:50:Kick.wav
182,192,173961,1,0,0:0:0:0:
329,192,174028,1,0,0:0:0:0:
182,192,174095,1,0,0:0:0:0:
36,192,174095,128,0,174363:0:0:0:50:Highlight.wav
256,192,174162,1,0,0:0:0:0:
109,192,174229,1,0,0:0:0:0:
475,192,174229,1,0,0:0:0:0:
402,192,174229,1,0,0:0:0:30:poppi.wav
329,192,174229,1,0,0:0:0:50:Snare.wav
182,192,174296,1,0,0:0:0:0:
402,192,174363,1,0,0:0:0:50:Highlight.wav
256,192,174363,1,0,0:0:0:0:
182,192,174430,1,0,0:0:0:0:
329,192,174430,1,0,0:0:0:50:Highlight.wav
109,192,174497,1,0,0:0:0:0:
475,192,174497,1,0,0:0:0:0:
36,192,174497,1,0,0:0:0:50:Kick.wav
256,192,174497,128,0,174765:0:0:0:50:Highlight.wav
402,192,174564,1,0,0:0:0:0:
109,192,174631,1,0,0:0:0:0:
329,192,174631,1,0,0:0:0:0:
182,192,174698,1,0,0:0:0:0:
329,192,174765,1,0,0:0:0:0:
475,192,174765,1,0,0:0:0:0:
402,192,174765,1,0,0:0:0:30:poppi.wav
36,192,174765,1,0,0:0:0:50:Snare.wav
109,192,174832,1,0,0:0:0:0:
182,192,174899,1,0,0:0:0:0:
475,192,174899,1,0,0:0:0:50:Highlight.wav
402,192,174966,1,0,0:0:0:50:Sub Snare.wav
256,192,174966,1,0,0:0:0:50:Highlight.wav
329,192,175033,1,0,0:0:0:0:
475,192,175033,128,0,175434:0:0:0:50:Highlight.wav
109,192,175033,1,0,0:0:0:0:
36,192,175033,1,0,0:0:0:50:Kick.wav
182,192,175099,1,0,0:0:0:0:
36,192,175166,1,0,0:0:0:0:
329,192,175166,1,0,0:0:0:30:poppi.wav
109,192,175166,1,0,0:0:0:50:Snare.wav
256,192,175233,1,0,0:0:0:0:
402,192,175233,128,0,175434:0:0:0:50:Highlight.wav
36,192,175300,1,0,0:0:0:50:Snare.wav
182,192,175300,1,0,0:0:0:30:poppi.wav
109,192,175300,1,0,0:0:0:0:
256,192,175367,1,0,0:0:0:0:
329,192,175434,128,0,175568:0:0:0:50:Highlight.wav
109,192,175434,1,0,0:0:0:0:
182,192,175501,1,0,0:0:0:0:
109,192,175568,1,0,0:0:0:0:
36,192,175568,1,0,0:0:0:50:Kick.wav
475,192,175568,1,0,0:0:0:0:
256,192,175568,128,0,175836:0:0:0:50:Highlight.wav
402,192,175635,1,0,0:0:0:0:
36,192,175702,1,0,0:0:0:0:
329,192,175702,1,0,0:0:0:0:
109,192,175769,1,0,0:0:0:0:
402,192,175836,128,0,175903:0:0:0:50:Highlight.wav
475,192,175836,1,0,0:0:0:0:
329,192,175836,1,0,0:0:0:30:poppi.wav
182,192,175836,1,0,0:0:0:50:Snare.wav
36,192,175903,1,0,0:0:0:0:
256,192,175970,1,0,0:0:0:0:
402,192,175970,128,0,176037:0:0:0:50:Highlight.wav
109,192,176037,1,0,0:0:0:0:
475,192,176104,1,0,0:0:0:0:
329,192,176104,1,0,0:0:0:0:
36,192,176104,1,0,0:0:0:50:Kick.wav
182,192,176104,1,0,0:0:0:0:
402,192,176171,1,0,0:0:0:0:
256,192,176238,1,0,0:0:0:0:
109,192,176238,128,0,176372:0:0:0:50:Highlight.wav
329,192,176305,1,0,0:0:0:0:
182,192,176372,1,0,0:0:0:0:
475,192,176372,1,0,0:0:0:0:
402,192,176372,1,0,0:0:0:30:poppi.wav
36,192,176372,1,0,0:0:0:50:Snare.wav
256,192,176439,1,0,0:0:0:0:
109,192,176506,1,0,0:0:0:0:
329,192,176506,128,0,176774:0:0:0:50:Highlight.wav
182,192,176573,1,0,0:0:0:0:
475,192,176640,1,0,0:0:0:0:
36,192,176640,1,0,0:0:0:0:
256,192,176640,1,0,0:0:0:50:Kick.wav
402,192,176640,1,0,0:0:0:0:
182,192,176707,1,0,0:0:0:0:
109,192,176774,1,0,0:0:0:0:
475,192,176774,128,0,176908:0:0:0:50:Highlight.wav
256,192,176841,1,0,0:0:0:0:
36,192,176908,128,0,177175:0:0:0:50:Highlight.wav
109,192,176908,1,0,0:0:0:0:
182,192,176908,1,0,0:0:0:30:poppi.wav
402,192,176908,1,0,0:0:0:50:Snare.wav
329,192,176974,1,0,0:0:0:0:
182,192,177041,1,0,0:0:0:0:
256,192,177108,1,0,0:0:0:0:
402,192,177108,1,0,0:0:0:50:Sub Snare.wav
475,192,177175,1,0,0:0:0:0:
109,192,177175,1,0,0:0:0:50:Kick.wav
329,192,177175,1,0,0:0:0:0:
182,192,177242,1,0,0:0:0:0:
36,192,177309,1,0,0:0:0:50:Snare.wav
256,192,177309,128,0,177443:0:0:0:50:Highlight.wav
475,192,177309,1,0,0:0:0:0:
402,192,177309,1,0,0:0:0:30:poppi.wav
109,192,177376,1,0,0:0:0:0:
475,192,177443,128,0,177577:0:0:0:50:Highlight.wav
182,192,177443,1,0,0:0:0:0:
402,192,177443,1,0,0:0:0:30:poppi.wav
36,192,177443,1,0,0:0:0:50:Snare.wav
329,192,177510,1,0,0:0:0:0:
256,192,177577,1,0,0:0:0:0:
109,192,177577,128,0,177711:0:0:0:50:Highlight.wav
329,192,177644,1,0,0:0:0:0:
402,192,177711,1,0,0:0:0:0:
475,192,177711,1,0,0:0:0:0:
182,192,177711,1,0,0:0:0:50:Kick.wav
36,192,177711,128,0,177845:0:0:0:50:Highlight.wav
256,192,177778,1,0,0:0:0:0:
109,192,177845,1,0,0:0:0:0:
329,192,177845,128,0,177979:0:0:0:50:Highlight.wav
182,192,177912,1,0,0:0:0:0:
256,192,177979,128,0,178113:0:0:0:50:Highlight.wav
402,192,177979,1,0,0:0:0:0:
36,192,177979,1,0,0:0:0:50:Snare.wav
475,192,177979,1,0,0:0:0:30:poppi.wav
109,192,178046,1,0,0:0:0:0:
182,192,178113,1,0,0:0:0:0:
402,192,178113,128,0,178247:0:0:0:50:Highlight.wav
329,192,178180,1,0,0:0:0:0:
475,192,178247,1,0,0:0:0:0:
256,192,178247,1,0,0:0:0:0:
109,192,178247,1,0,0:0:0:50:Kick.wav
36,192,178247,1,0,0:0:0:0:
402,192,178314,1,0,0:0:0:0:
329,192,178381,1,0,0:0:0:0:
182,192,178381,128,0,178515:0:0:0:50:Highlight.wav
256,192,178448,1,0,0:0:0:0:
329,192,178515,128,0,178649:0:0:0:50:Highlight.wav
36,192,178515,1,0,0:0:0:0:
402,192,178515,1,0,0:0:0:30:poppi.wav
475,192,178515,1,0,0:0:0:50:Snare.wav
109,192,178582,1,0,0:0:0:0:
182,192,178649,1,0,0:0:0:0:
475,192,178649,128,0,178916:0:0:0:50:Highlight.wav
256,192,178716,1,0,0:0:0:0:
402,192,178783,1,0,0:0:0:0:
329,192,178783,1,0,0:0:0:0:
36,192,178783,1,0,0:0:0:50:Kick.wav
109,192,178783,1,0,0:0:0:0:
182,192,178849,1,0,0:0:0:0:
329,192,178916,1,0,0:0:0:50:Sub Rhythm-2.wav
109,192,178916,1,0,0:0:0:0:
402,192,178983,1,0,0:0:0:0:
256,192,178983,1,0,0:0:0:50:Sub Rhythm-2.wav
475,192,179050,128,0,179184:0:0:0:50:Highlight.wav
36,192,179050,1,0,0:0:0:0:
182,192,179050,1,0,0:0:0:50:Snare.wav
329,192,179050,1,0,0:0:0:30:poppi.wav
256,192,179117,1,0,0:0:0:0:
109,192,179184,1,0,0:0:0:50:Sub Rhythm-2.wav
402,192,179184,1,0,0:0:0:0:
182,192,179251,1,0,0:0:0:50:Sub Rhythm-2.wav
329,192,179251,1,0,0:0:0:50:Sub Snare.wav
36,192,179318,1,0,0:0:0:0:
475,192,179318,1,0,0:0:0:0:
109,192,179318,1,0,0:0:0:50:Kick.wav
256,192,179318,128,0,179452:0:0:0:50:Highlight.wav
402,192,179385,1,0,0:0:0:0:
329,192,179452,1,0,0:0:0:50:Sub Rhythm-2.wav
109,192,179452,1,0,0:0:0:50:Snare.wav
36,192,179452,1,0,0:0:0:30:poppi.wav
402,192,179519,1,0,0:0:0:50:Sub Rhythm-2.wav
182,192,179519,1,0,0:0:0:0:
36,192,179586,128,0,179720:0:0:0:50:Highlight.wav
329,192,179586,1,0,0:0:0:0:
109,192,179586,1,0,0:0:0:30:poppi.wav
475,192,179586,1,0,0:0:0:50:Snare.wav
256,192,179653,1,0,0:0:0:0:
402,192,179720,1,0,0:0:0:50:Sub Rhythm-2.wav
109,192,179720,1,0,0:0:0:0:
329,192,179787,1,0,0:0:0:50:Sub Rhythm-2.wav
182,192,179787,1,0,0:0:0:0:
256,192,179854,128,0,180658:0:0:0:50:Highlight.wav
109,192,179854,1,0,0:0:0:0:
36,192,179854,1,0,0:0:0:50:Kick.wav
475,192,179854,1,0,0:0:0:50:CrashL.wav
402,192,179921,1,0,0:0:0:0:
182,192,179988,1,0,0:0:0:0:
329,192,179988,1,0,0:0:0:0:
36,192,180055,1,0,0:0:0:0:
402,192,180122,1,0,0:0:0:0:
475,192,180122,1,0,0:0:0:0:
329,192,180122,1,0,0:0:0:30:poppi.wav
109,192,180122,1,0,0:0:0:50:Snare.wav
182,192,180189,1,0,0:0:0:0:
402,192,180256,1,0,0:0:0:0:
36,192,180256,1,0,0:0:0:0:
109,192,180323,1,0,0:0:0:0:
329,192,180390,1,0,0:0:0:0:
475,192,180390,1,0,0:0:0:0:
36,192,180390,1,0,0:0:0:50:Kick.wav
182,192,180390,1,0,0:0:0:0:
402,192,180457,1,0,0:0:0:0:
109,192,180524,1,0,0:0:0:0:
329,192,180524,1,0,0:0:0:0:
182,192,180591,1,0,0:0:0:0:
475,192,180658,128,0,180925:0:0:0:50:Highlight.wav
109,192,180658,1,0,0:0:0:0:
402,192,180658,1,0,0:0:0:30:poppi.wav
36,192,180658,1,0,0:0:0:50:Snare.wav
329,192,180724,1,0,0:0:0:0:
36,192,180791,1,0,0:0:0:0:
256,192,180791,1,0,0:0:0:0:
109,192,180858,1,0,0:0:0:0:
36,192,180925,1,0,0:0:0:0:
402,192,180925,1,0,0:0:0:0:
182,192,180925,1,0,0:0:0:50:Kick.wav
329,192,180925,128,0,181193:0:0:0:50:Highlight.wav
256,192,180992,1,0,0:0:0:0:
402,192,181059,1,0,0:0:0:0:
109,192,181059,1,0,0:0:0:0:
182,192,181126,1,0,0:0:0:0:
36,192,181193,128,0,181327:0:0:0:50:Highlight.wav
109,192,181193,1,0,0:0:0:0:
475,192,181193,1,0,0:0:0:30:poppi.wav
256,192,181193,1,0,0:0:0:50:Snare.wav
402,192,181260,1,0,0:0:0:0:
256,192,181327,128,0,181461:0:0:0:50:Highlight.wav
329,192,181327,1,0,0:0:0:0:
109,192,181394,1,0,0:0:0:0:
36,192,181394,1,0,0:0:0:50:Sub Snare.wav
402,192,181461,1,0,0:0:0:0:
329,192,181461,1,0,0:0:0:0:
475,192,181461,1,0,0:0:0:0:
182,192,181461,1,0,0:0:0:50:Kick.wav
109,192,181528,1,0,0:0:0:0:
402,192,181595,128,0,181863:0:0:0:50:Highlight.wav
36,192,181595,1,0,0:0:0:50:Snare.wav
256,192,181595,1,0,0:0:0:0:
475,192,181595,1,0,0:0:0:30:poppi.wav
182,192,181662,1,0,0:0:0:0:
36,192,181729,1,0,0:0:0:0:
475,192,181729,1,0,0:0:0:0:
329,192,181729,1,0,0:0:0:30:poppi.wav
109,192,181729,1,0,0:0:0:50:Snare.wav
256,192,181796,1,0,0:0:0:0:
109,192,181863,1,0,0:0:0:0:
182,192,181863,128,0,181997:0:0:0:50:Highlight.wav
329,192,181930,1,0,0:0:0:0:
402,192,181997,1,0,0:0:0:0:
256,192,181997,1,0,0:0:0:0:
36,192,181997,1,0,0:0:0:50:Kick.wav
475,192,181997,128,0,182265:0:0:0:50:Highlight.wav
109,192,182064,1,0,0:0:0:0:
182,192,182131,1,0,0:0:0:0:
329,192,182131,1,0,0:0:0:0:
109,192,182198,1,0,0:0:0:0:
329,192,182265,1,0,0:0:0:0:
256,192,182265,1,0,0:0:0:0:
402,192,182265,1,0,0:0:0:30:poppi.wav
36,192,182265,1,0,0:0:0:50:Snare.wav
182,192,182332,1,0,0:0:0:0:
402,192,182399,1,0,0:0:0:0:
109,192,182399,1,0,0:0:0:50:Highlight.wav
329,192,182466,1,0,0:0:0:0:
256,192,182466,1,0,0:0:0:50:Highlight.wav
475,192,182533,1,0,0:0:0:0:
36,192,182533,128,0,182934:0:0:0:50:Highlight.wav
182,192,182533,1,0,0:0:0:50:Kick.wav
109,192,182533,1,0,0:0:0:0:
402,192,182599,1,0,0:0:0:0:
182,192,182666,1,0,0:0:0:0:
329,192,182666,1,0,0:0:0:0:
256,192,182733,1,0,0:0:0:0:
109,192,182733,128,0,182934:0:0:0:50:Highlight.wav
475,192,182800,1,0,0:0:0:0:
402,192,182800,1,0,0:0:0:30:poppi.wav
329,192,182800,1,0,0:0:0:50:Snare.wav
256,192,182867,1,0,0:0:0:0:
402,192,182934,1,0,0:0:0:0:
182,192,182934,128,0,183068:0:0:0:50:Highlight.wav
329,192,183001,1,0,0:0:0:0:
109,192,183068,1,0,0:0:0:0:
256,192,183068,1,0,0:0:0:0:
475,192,183068,128,0,183336:0:0:0:50:Highlight.wav
36,192,183068,1,0,0:0:0:50:Kick.wav
329,192,183135,1,0,0:0:0:0:
402,192,183202,1,0,0:0:0:0:
109,192,183202,1,0,0:0:0:0:
182,192,183269,1,0,0:0:0:0:
256,192,183336,1,0,0:0:0:0:
329,192,183336,1,0,0:0:0:0:
402,192,183336,1,0,0:0:0:30:poppi.wav
36,192,183336,1,0,0:0:0:50:Snare.wav
109,192,183403,1,0,0:0:0:0:
182,192,183470,1,0,0:0:0:0:
475,192,183470,1,0,0:0:0:0:
402,192,183537,1,0,0:0:0:0:
256,192,183537,1,0,0:0:0:50:Sub Snare.wav
182,192,183604,1,0,0:0:0:0:
329,192,183604,1,0,0:0:0:0:
475,192,183604,1,0,0:0:0:50:Kick.wav
36,192,183604,128,0,183693:0:0:0:50:Highlight.wav
256,192,183671,1,0,0:0:0:0:
109,192,183693,128,0,183783:0:0:0:50:Highlight.wav
475,192,183738,1,0,0:0:0:30:poppi.wav
402,192,183738,1,0,0:0:0:50:Snare.wav
182,192,183783,128,0,183872:0:0:0:50:Highlight.wav
329,192,183805,1,0,0:0:0:0:
475,192,183872,128,0,183961:0:0:0:50:Highlight.wav
256,192,183872,1,0,0:0:0:50:Snare.wav
36,192,183872,1,0,0:0:0:30:poppi.wav
109,192,183939,1,0,0:0:0:0:
402,192,183961,128,0,184050:0:0:0:50:Highlight.wav
182,192,184006,1,0,0:0:0:0:
329,192,184050,128,0,184140:0:0:0:50:Highlight.wav
109,192,184073,1,0,0:0:0:0:
36,192,184140,1,0,0:0:0:0:
475,192,184140,1,0,0:0:0:0:
402,192,184140,1,0,0:0:0:50:Kick.wav
256,192,184140,128,0,184408:0:0:0:50:Highlight.wav
182,192,184207,1,0,0:0:0:0:
329,192,184274,1,0,0:0:0:0:
109,192,184274,1,0,0:0:0:0:
402,192,184341,1,0,0:0:0:0:
109,192,184408,1,0,0:0:0:0:
182,192,184408,1,0,0:0:0:0:
475,192,184408,1,0,0:0:0:30:poppi.wav
36,192,184408,1,0,0:0:0:50:Snare.wav
402,192,184474,1,0,0:0:0:0:
36,192,184541,1,0,0:0:0:0:
329,192,184541,1,0,0:0:0:50:Highlight.wav
109,192,184608,1,0,0:0:0:0:
256,192,184608,1,0,0:0:0:50:Highlight.wav
402,192,184675,1,0,0:0:0:0:
182,192,184675,1,0,0:0:0:0:
36,192,184675,1,0,0:0:0:50:Kick.wav
475,192,184675,128,0,184943:0:0:0:50:Highlight.wav
329,192,184742,1,0,0:0:0:0:
109,192,184809,1,0,0:0:0:0:
256,192,184809,1,0,0:0:0:0:
329,192,184876,1,0,0:0:0:0:
109,192,184943,1,0,0:0:0:0:
402,192,184943,1,0,0:0:0:0:
182,192,184943,1,0,0:0:0:30:poppi.wav
36,192,184943,1,0,0:0:0:50:Snare.wav
256,192,185010,1,0,0:0:0:0:
402,192,185077,1,0,0:0:0:50:Highlight.wav
182,192,185077,1,0,0:0:0:0:
109,192,185144,1,0,0:0:0:0:
329,192,185144,1,0,0:0:0:50:Highlight.wav
36,192,185211,1,0,0:0:0:0:
475,192,185211,1,0,0:0:0:0:
402,192,185211,1,0,0:0:0:50:Kick.wav
256,192,185211,128,0,185345:0:0:0:50:Highlight.wav
182,192,185278,1,0,0:0:0:0:
329,192,185345,1,0,0:0:0:0:
109,192,185345,128,0,185479:0:0:0:50:Highlight.wav
402,192,185412,1,0,0:0:0:0:
475,192,185479,128,0,185613:0:0:0:50:Highlight.wav
182,192,185479,1,0,0:0:0:0:
329,192,185479,1,0,0:0:0:30:poppi.wav
36,192,185479,1,0,0:0:0:50:Snare.wav
256,192,185546,1,0,0:0:0:0:
109,192,185613,1,0,0:0:0:0:
402,192,185613,128,0,185881:0:0:0:50:Highlight.wav
329,192,185680,1,0,0:0:0:0:
182,192,185680,1,0,0:0:0:50:Sub Snare.wav
475,192,185747,1,0,0:0:0:0:
256,192,185747,1,0,0:0:0:0:
36,192,185747,1,0,0:0:0:50:Kick.wav
109,192,185814,1,0,0:0:0:0:
182,192,185881,128,0,186015:0:0:0:50:Highlight.wav
475,192,185881,1,0,0:0:0:0:
329,192,185881,1,0,0:0:0:30:poppi.wav
36,192,185881,1,0,0:0:0:50:Snare.wav
402,192,185948,1,0,0:0:0:0:
256,192,186015,128,0,186283:0:0:0:50:Highlight.wav
329,192,186015,1,0,0:0:0:0:
109,192,186015,1,0,0:0:0:30:poppi.wav
36,192,186015,1,0,0:0:0:50:Snare.wav
475,192,186082,1,0,0:0:0:0:
182,192,186149,1,0,0:0:0:0:
329,192,186149,1,0,0:0:0:0:
402,192,186216,1,0,0:0:0:0:
475,192,186283,1,0,0:0:0:0:
36,192,186283,128,0,187354:0:0:0:50:CrashL.wav
109,192,186283,1,0,0:0:0:50:Kick.wav
182,192,186283,1,0,0:0:0:50:Highlight.wav
402,192,186349,1,0,0:0:0:0:
329,192,186416,1,0,0:0:0:50:Sub Snare.wav
256,192,186416,1,0,0:0:0:50:Sub Drum.wav
109,192,186483,1,0,0:0:0:50:Sub Drum.wav
182,192,186483,1,0,0:0:0:50:Sub Snare.wav
475,192,186550,1,0,0:0:0:30:poppi.wav
402,192,186550,1,0,0:0:0:50:Sub Drum.wav
329,192,186550,1,0,0:0:0:50:Sub Snare.wav
256,192,186617,1,0,0:0:0:50:Sub Snare.wav
182,192,186617,1,0,0:0:0:50:Sub Drum.wav
402,192,186684,1,0,0:0:0:50:Sub Snare.wav
475,192,186684,1,0,0:0:0:50:Sub Drum.wav
256,192,186751,1,0,0:0:0:50:Sub Drum.wav
329,192,186751,1,0,0:0:0:50:Sub Snare.wav
182,192,186818,1,0,0:0:0:50:Kick.wav
109,192,186818,1,0,0:0:0:0:
475,192,186818,1,0,0:0:0:0:
402,192,186818,1,0,0:0:0:50:CrashL.wav
256,192,186885,1,0,0:0:0:0:
329,192,186952,1,0,0:0:0:50:Sub Drum.wav
402,192,186952,1,0,0:0:0:0:
109,192,187019,1,0,0:0:0:0:
182,192,187019,1,0,0:0:0:50:Sub Drum.wav
256,192,187086,1,0,0:0:0:0:
475,192,187086,1,0,0:0:0:30:poppi.wav
402,192,187086,1,0,0:0:0:50:Sub Drum.wav
182,192,187153,1,0,0:0:0:0:
109,192,187220,1,0,0:0:0:0:
402,192,187220,1,0,0:0:0:50:CrashL.wav
329,192,187220,1,0,0:0:0:50:Kick.wav
475,192,187220,1,0,0:0:0:0:
256,192,187287,1,0,0:0:0:0:
402,192,187354,1,0,0:0:0:50:CrashL.wav
109,192,187354,1,0,0:0:0:0:
475,192,187354,1,0,0:0:0:50:Sub Rhythm-1.wav
182,192,187354,1,0,0:0:0:50:Kick.wav
329,192,187421,1,0,0:0:0:50:Sub Rhythm-1.wav
475,192,187488,1,0,0:0:0:50:Sub Rhythm-1.wav
109,192,187488,1,0,0:0:0:0:
256,192,187488,1,0,0:0:0:50:Snare.wav
36,192,187488,1,0,0:0:0:0:
402,192,187555,1,0,0:0:0:50:Sub Rhythm-1.wav
36,192,187622,1,0,0:0:0:0:
109,192,187622,1,0,0:0:0:50:Sub Rhythm-1.wav
182,192,187622,1,0,0:0:0:50:Kick.wav
329,192,187622,1,0,0:0:0:30:poppi.wav
402,192,187689,1,0,0:0:0:50:Sub Rhythm-1.wav
475,192,187756,1,0,0:0:0:50:Sub Rhythm-1.wav
256,192,187756,1,0,0:0:0:50:Sub Snare.wav
109,192,187756,1,0,0:0:0:0:
36,192,187756,1,0,0:0:0:0:
402,192,187823,1,0,0:0:0:0:
329,192,187823,1,0,0:0:0:50:Sub Snare.wav
182,192,187823,1,0,0:0:0:50:Sub Rhythm-1.wav
36,192,187890,1,0,0:0:0:50:Sub Rhythm-1.wav
475,192,187890,1,0,0:0:0:50:Kick.wav
256,192,187890,1,0,0:0:0:50:Sub Snare.wav
109,192,187957,1,0,0:0:0:50:Sub Rhythm-1.wav
329,192,187957,1,0,0:0:0:50:Sub Snare.wav
182,192,187957,1,0,0:0:0:0:
475,192,188024,1,0,0:0:0:30:poppi.wav
402,192,188024,1,0,0:0:0:50:Sub Snare.wav
36,192,188024,1,0,0:0:0:50:Sub Rhythm-1.wav
256,192,188091,1,0,0:0:0:0:
182,192,188091,1,0,0:0:0:50:Sub Rhythm-1.wav
329,192,188091,1,0,0:0:0:50:Sub Snare.wav
475,192,188158,1,0,0:0:0:30:poppi.wav
109,192,188158,1,0,0:0:0:50:Sub Snare.wav
36,192,188158,1,0,0:0:0:50:Kick.wav
182,192,188224,1,0,0:0:0:50:Sub Snare.wav
329,192,188224,1,0,0:0:0:50:Sub Rhythm-1.wav
402,192,188224,1,0,0:0:0:0:
256,192,188291,1,0,0:0:0:50:Sub Snare.wav
36,192,188291,1,0,0:0:0:50:Sub Rhythm-1.wav
475,192,188291,1,0,0:0:0:0:
182,192,188358,1,0,0:0:0:0:
109,192,188358,1,0,0:0:0:50:Sub Rhythm-1.wav
329,192,188358,1,0,0:0:0:50:Sub Snare.wav
36,192,188425,1,0,0:0:0:0:
475,192,188425,128,0,189530:0:0:0:50:Highlight.wav
256,192,188425,1,0,0:0:0:50:CrashL.wav
402,192,188425,1,0,0:0:0:50:Kick.wav
256,192,188701,1,0,0:0:0:50:Sub Snare.wav
402,192,188701,1,0,0:0:0:0:
402,192,188793,1,0,0:0:0:0:
256,192,188793,1,0,0:0:0:50:Sub Snare.wav
109,192,188885,1,0,0:0:0:0:
36,192,188885,1,0,0:0:0:50:Sub Snare.wav
36,192,188977,1,0,0:0:0:50:Sub Snare.wav
109,192,188977,1,0,0:0:0:0:
329,192,189254,1,0,0:0:0:0:
402,192,189254,1,0,0:0:0:50:Sub Snare.wav
329,192,189346,1,0,0:0:0:0:
402,192,189346,1,0,0:0:0:50:Sub Snare.wav
182,192,189438,1,0,0:0:0:0:
36,192,189438,1,0,0:0:0:50:Sub Snare.wav
36,192,189530,1,0,0:0:0:50:Sub Snare.wav
182,192,189530,1,0,0:0:0:0:
475,192,189807,1,0,0:0:0:0:
329,192,189807,1,0,0:0:0:50:Sub Snare.wav
109,192,189807,128,0,190083:0:0:0:50:Highlight.wav
256,192,189899,1,0,0:0:0:50:Sub Snare.wav
402,192,189899,1,0,0:0:0:0:
329,192,189991,1,0,0:0:0:0:
182,192,189991,1,0,0:0:0:50:Sub Snare.wav
36,192,190083,1,0,0:0:0:0:
475,192,190083,1,0,0:0:0:50:Sub Snare.wav
256,192,190083,128,0,190360:0:0:0:50:Highlight.wav
402,192,190176,1,0,0:0:0:50:Sub Snare.wav
109,192,190176,1,0,0:0:0:0:
329,192,190268,1,0,0:0:0:50:Sub Snare.wav
182,192,190268,1,0,0:0:0:0:
475,192,190360,1,0,0:0:0:50:Sub Snare.wav
36,192,190360,1,0,0:0:0:0:
402,192,190360,128,0,190636:0:0:0:50:Highlight.wav
329,192,190452,1,0,0:0:0:50:Sub Snare.wav
182,192,190452,1,0,0:0:0:0:
475,192,190544,1,0,0:0:0:50:Sub Snare.wav
36,192,190544,1,0,0:0:0:0:
256,192,190636,128,0,191189:0:0:0:50:Highlight.wav
329,192,190636,1,0,0:0:0:50:Sub Snare.wav
182,192,190636,1,0,0:0:0:0:
182,192,190913,1,0,0:0:0:50:Sub Snare.wav
36,192,190913,1,0,0:0:0:0:
36,192,191005,1,0,0:0:0:0:
182,192,191005,1,0,0:0:0:50:Sub Snare.wav
475,192,191097,1,0,0:0:0:0:
402,192,191097,1,0,0:0:0:50:Sub Snare.wav
475,192,191189,1,0,0:0:0:0:
402,192,191189,1,0,0:0:0:50:Sub Snare.wav
36,192,191189,128,0,191742:0:0:0:50:Highlight.wav
256,192,191466,1,0,0:0:0:50:Sub Snare.wav
109,192,191466,1,0,0:0:0:0:
109,192,191558,1,0,0:0:0:0:
256,192,191558,1,0,0:0:0:50:Sub Snare.wav
475,192,191650,1,0,0:0:0:0:
329,192,191650,1,0,0:0:0:50:Sub Snare.wav
329,192,191742,1,0,0:0:0:50:Sub Snare.wav
182,192,191742,128,0,192295:0:0:0:50:Highlight.wav
475,192,191742,1,0,0:0:0:0:
402,192,192019,1,0,0:0:0:50:Sub Snare.wav
256,192,192019,1,0,0:0:0:0:
109,192,192111,1,0,0:0:0:50:Sub Snare.wav
36,192,192111,1,0,0:0:0:0:
402,192,192203,1,0,0:0:0:50:Sub Snare.wav
256,192,192203,1,0,0:0:0:0:
109,192,192295,1,0,0:0:0:50:Sub Snare.wav
36,192,192295,1,0,0:0:0:0:
329,192,192295,128,0,192848:0:0:0:50:Highlight.wav
475,192,192388,1,0,0:0:0:0:
402,192,192388,1,0,0:0:0:50:Sub Snare.wav
256,192,192480,1,0,0:0:0:0:
109,192,192480,1,0,0:0:0:50:Sub Snare.wav
475,192,192572,1,0,0:0:0:0:
402,192,192572,1,0,0:0:0:50:Sub Snare.wav
109,192,192664,1,0,0:0:0:50:Sub Snare.wav
36,192,192664,1,0,0:0:0:0:
475,192,192756,1,0,0:0:0:0:
402,192,192756,1,0,0:0:0:50:Sub Snare.wav
36,192,192848,1,0,0:0:0:0:
182,192,192848,1,0,0:0:0:50:Sub Snare.wav
256,192,192848,128,0,193954:0:0:0:50:Highlight.wav
475,192,193125,1,0,0:0:0:0:
329,192,193125,1,0,0:0:0:50:Sub Snare.wav
475,192,193217,1,0,0:0:0:0:
329,192,193217,1,0,0:0:0:50:Sub Snare.wav
36,192,193309,1,0,0:0:0:50:Sub Snare.wav
182,192,193309,1,0,0:0:0:0:
182,192,193401,1,0,0:0:0:0:
36,192,193401,1,0,0:0:0:50:Sub Snare.wav
402,192,193678,1,0,0:0:0:0:
475,192,193678,1,0,0:0:0:50:Sub Snare.wav
475,192,193770,1,0,0:0:0:50:Sub Snare.wav
402,192,193770,1,0,0:0:0:0:
36,192,193862,1,0,0:0:0:50:Sub Snare.wav
109,192,193862,1,0,0:0:0:0:
109,192,193954,1,0,0:0:0:0:
36,192,193954,1,0,0:0:0:50:Sub Snare.wav
256,192,194231,1,0,0:0:0:50:Sub Snare.wav
109,192,194231,1,0,0:0:0:0:
329,192,194231,128,0,194507:0:0:0:50:Highlight.wav
475,192,194323,1,0,0:0:0:50:Sub Snare.wav
402,192,194323,1,0,0:0:0:0:
109,192,194415,1,0,0:0:0:0:
256,192,194415,1,0,0:0:0:50:Sub Snare.wav
475,192,194507,1,0,0:0:0:0:
36,192,194507,1,0,0:0:0:50:Sub Snare.wav
182,192,194507,128,0,194784:0:0:0:50:Highlight.wav
402,192,194600,1,0,0:0:0:0:
329,192,194600,1,0,0:0:0:50:Sub Snare.wav
256,192,194692,1,0,0:0:0:50:Sub Snare.wav
475,192,194692,1,0,0:0:0:0:
402,192,194784,1,0,0:0:0:0:
329,192,194784,1,0,0:0:0:50:Sub Snare.wav
36,192,194784,128,0,195060:0:0:0:50:Highlight.wav
109,192,194876,1,0,0:0:0:50:Sub Snare.wav
182,192,194876,1,0,0:0:0:0:
256,192,194968,1,0,0:0:0:0:
402,192,194968,1,0,0:0:0:50:Sub Snare.wav
475,192,195060,128,0,196535:0:0:0:50:Highlight.wav
109,192,195060,1,0,0:0:0:50:Sub Snare.wav
182,192,195060,1,0,0:0:0:0:
329,192,195337,1,0,0:0:0:50:Sub Snare.wav
402,192,195337,1,0,0:0:0:0:
329,192,195429,1,0,0:0:0:50:Sub Snare.wav
402,192,195429,1,0,0:0:0:0:
36,192,195521,1,0,0:0:0:0:
182,192,195521,1,0,0:0:0:50:Sub Snare.wav
182,192,195613,1,0,0:0:0:50:Sub Snare.wav
36,192,195613,1,0,0:0:0:0:
402,192,195890,1,0,0:0:0:0:
256,192,195890,1,0,0:0:0:50:Sub Snare.wav
256,192,195982,1,0,0:0:0:50:Sub Snare.wav
402,192,195982,1,0,0:0:0:0:
36,192,196074,1,0,0:0:0:0:
109,192,196074,1,0,0:0:0:50:Sub Snare.wav
329,192,196166,128,0,196535:0:0:0:50:Highlight.wav
109,192,196166,1,0,0:0:0:50:Sub Snare.wav
36,192,196166,1,0,0:0:0:0:
36,192,196443,1,0,0:0:0:0:
182,192,196443,1,0,0:0:0:50:Sub Snare.wav
402,192,196535,1,0,0:0:0:0:
256,192,196535,1,0,0:0:0:50:Sub Snare.wav
182,192,196627,1,0,0:0:0:50:Sub Snare.wav
36,192,196627,1,0,0:0:0:0:
475,192,196719,1,0,0:0:0:0:
329,192,196719,1,0,0:0:0:50:Sub Snare.wav
109,192,196719,128,0,197272:0:0:0:50:Highlight.wav
402,192,196812,1,0,0:0:0:0:
256,192,196812,1,0,0:0:0:50:Sub Snare.wav
329,192,196904,1,0,0:0:0:0:
182,192,196904,1,0,0:0:0:50:Sub Snare.wav
475,192,196996,1,0,0:0:0:50:Sub Snare.wav
36,192,196996,1,0,0:0:0:0:
402,192,197088,1,0,0:0:0:50:Sub Snare.wav
182,192,197088,1,0,0:0:0:0:
329,192,197180,1,0,0:0:0:50:Sub Snare.wav
36,192,197180,1,0,0:0:0:0:
256,192,197272,1,0,0:0:0:50:Sub Snare.wav
475,192,197272,1,0,0:0:0:0:
182,192,197272,128,0,197825:0:0:0:50:Highlight.wav
475,192,197549,1,0,0:0:0:0:
329,192,197549,1,0,0:0:0:50:Sub Snare.wav
475,192,197641,1,0,0:0:0:0:
329,192,197641,1,0,0:0:0:50:Sub Snare.wav
36,192,197733,1,0,0:0:0:0:
109,192,197733,1,0,0:0:0:50:Sub Snare.wav
109,192,197825,1,0,0:0:0:50:Sub Snare.wav
36,192,197825,1,0,0:0:0:0:
402,192,197825,128,0,198378:0:0:0:50:Highlight.wav
256,192,198102,1,0,0:0:0:50:Sub Snare.wav
109,192,198102,1,0,0:0:0:0:
256,192,198194,1,0,0:0:0:50:Sub Snare.wav
109,192,198194,1,0,0:0:0:0:
475,192,198286,1,0,0:0:0:0:
329,192,198286,1,0,0:0:0:50:Sub Snare.wav
475,192,198378,1,0,0:0:0:0:
329,192,198378,1,0,0:0:0:50:Sub Snare.wav
256,192,198655,1,0,0:0:0:50:Sub Snare.wav
36,192,198655,1,0,0:0:0:0:
109,192,198655,128,0,198931:0:0:0:50:Highlight.wav
475,192,198747,1,0,0:0:0:0:
402,192,198747,1,0,0:0:0:50:Sub Snare.wav
329,192,198839,1,0,0:0:0:0:
256,192,198839,1,0,0:0:0:50:Sub Snare.wav
475,192,198931,1,0,0:0:0:0:
402,192,198931,1,0,0:0:0:50:Sub Snare.wav
182,192,198931,128,0,199208:0:0:0:50:Highlight.wav
36,192,199024,1,0,0:0:0:0:
109,192,199024,1,0,0:0:0:50:Sub Snare.wav
475,192,199116,1,0,0:0:0:0:
402,192,199116,1,0,0:0:0:50:Sub Snare.wav
329,192,199208,1,0,0:0:0:50:Sub Snare.wav
36,192,199208,1,0,0:0:0:0:
256,192,199208,128,0,199484:0:0:0:50:Highlight.wav
109,192,199300,1,0,0:0:0:0:
182,192,199300,1,0,0:0:0:50:Sub Snare.wav
475,192,199392,1,0,0:0:0:0:
402,192,199392,1,0,0:0:0:50:Sub Snare.wav
182,192,199484,1,0,0:0:0:50:Sub Snare.wav
36,192,199484,1,0,0:0:0:0:
329,192,199484,128,0,200037:0:0:0:50:Highlight.wav
182,192,199761,1,0,0:0:0:50:Sub Snare.wav
36,192,199761,1,0,0:0:0:0:
36,192,199853,1,0,0:0:0:0:
182,192,199853,1,0,0:0:0:50:Sub Snare.wav
475,192,199945,1,0,0:0:0:0:
402,192,199945,1,0,0:0:0:50:Sub Snare.wav
402,192,200037,1,0,0:0:0:50:Sub Snare.wav
475,192,200037,1,0,0:0:0:0:
475,192,200314,1,0,0:0:0:0:
329,192,200314,1,0,0:0:0:50:Sub Snare.wav
36,192,200314,128,0,200590:0:0:0:50:Highlight.wav
475,192,200406,1,0,0:0:0:0:
329,192,200406,1,0,0:0:0:50:Sub Snare.wav
256,192,200498,1,0,0:0:0:0:
109,192,200498,1,0,0:0:0:50:Sub Snare.wav
256,192,200590,1,0,0:0:0:0:
109,192,200590,1,0,0:0:0:50:Sub Snare.wav
402,192,200590,128,0,201420:0:0:0:50:Highlight.wav
109,192,200867,1,0,0:0:0:0:
329,192,200867,1,0,0:0:0:50:Sub Snare.wav
256,192,200959,1,0,0:0:0:50:Sub Snare.wav
182,192,200959,1,0,0:0:0:0:
36,192,201005,128,0,201420:0:0:0:50:Highlight.wav
475,192,201051,1,0,0:0:0:0:
329,192,201051,1,0,0:0:0:50:Sub Snare.wav
109,192,201143,1,0,0:0:0:0:
182,192,201143,1,0,0:0:0:50:Sub Snare.wav
475,192,201236,1,0,0:0:0:0:
329,192,201236,1,0,0:0:0:50:Sub Snare.wav
256,192,201328,1,0,0:0:0:50:Sub Snare.wav
182,192,201328,1,0,0:0:0:0:
329,192,201420,1,0,0:0:0:50:Sub Snare.wav
475,192,201420,1,0,0:0:0:0:
109,192,201420,128,0,201696:0:0:0:50:Highlight.wav
402,192,201512,1,0,0:0:0:0:
256,192,201512,1,0,0:0:0:50:Sub Snare.wav
329,192,201604,1,0,0:0:0:0:
182,192,201604,1,0,0:0:0:50:Sub Snare.wav
475,192,201696,1,0,0:0:0:50:Sub Snare.wav
36,192,201696,1,0,0:0:0:0:
256,192,201696,128,0,203770:0:0:0:50:Highlight.wav
182,192,201973,1,0,0:0:0:50:Sub Snare.wav
36,192,201973,1,0,0:0:0:0:
36,192,202065,1,0,0:0:0:0:
182,192,202065,1,0,0:0:0:50:Sub Snare.wav
475,192,202157,1,0,0:0:0:0:
329,192,202157,1,0,0:0:0:50:Sub Snare.wav
329,192,202249,1,0,0:0:0:50:Sub Snare.wav
475,192,202249,1,0,0:0:0:0:
182,192,202526,1,0,0:0:0:0:
109,192,202526,1,0,0:0:0:50:Sub Snare.wav
109,192,202618,1,0,0:0:0:50:Sub Snare.wav
182,192,202618,1,0,0:0:0:0:
475,192,202710,1,0,0:0:0:0:
402,192,202710,1,0,0:0:0:50:Sub Snare.wav
402,192,202802,1,0,0:0:0:50:Sub Snare.wav
475,192,202802,1,0,0:0:0:0:
36,192,203079,1,0,0:0:0:0:
182,192,203079,1,0,0:0:0:50:Sub Snare.wav
329,192,203171,1,0,0:0:0:0:
475,192,203171,1,0,0:0:0:50:Sub Snare.wav
36,192,203263,1,0,0:0:0:0:
182,192,203263,1,0,0:0:0:50:Sub Snare.wav
402,192,203355,1,0,0:0:0:50:Sub Snare.wav
475,192,203355,1,0,0:0:0:0:
182,192,203448,1,0,0:0:0:0:
329,192,203448,1,0,0:0:0:50:Sub Snare.wav
109,192,203540,1,0,0:0:0:50:Sub Snare.wav
36,192,203540,1,0,0:0:0:0:
182,192,203632,1,0,0:0:0:0:
329,192,203632,1,0,0:0:0:50:Sub Snare.wav
36,192,203724,1,0,0:0:0:50:Sub Snare.wav
475,192,203724,1,0,0:0:0:0:
182,192,203770,128,0,203908:0:0:0:30:Highlight.wav
329,192,203816,1,0,0:0:0:50:Sub Snare.wav
402,192,203816,1,0,0:0:0:0:
109,192,203839,128,0,203977:0:0:0:30:Highlight.wav
256,192,203908,1,0,0:0:0:0:
36,192,203908,128,0,204277:0:0:0:50:Highlight.wav
475,192,203908,1,0,0:0:0:50:Sub Snare.wav
329,192,204185,1,0,0:0:0:0:
182,192,204185,1,0,0:0:0:50:Sub Snare.wav
329,192,204277,1,0,0:0:0:0:
182,192,204277,1,0,0:0:0:50:Sub Snare.wav
402,192,204369,1,0,0:0:0:0:
475,192,204369,1,0,0:0:0:50:Sub Snare.wav
475,192,204461,1,0,0:0:0:50:Sub Snare.wav
402,192,204461,1,0,0:0:0:0:
256,192,204461,128,0,205014:0:0:0:50:Highlight.wav
182,192,204738,1,0,0:0:0:50:Sub Snare.wav
36,192,204738,1,0,0:0:0:0:
182,192,204830,1,0,0:0:0:50:Sub Snare.wav
36,192,204830,1,0,0:0:0:0:
329,192,204922,1,0,0:0:0:50:Sub Snare.wav
402,192,204922,1,0,0:0:0:0:
109,192,205014,1,0,0:0:0:10:Kick.wav
329,192,205014,1,0,0:0:0:50:Sub Snare.wav
402,192,205014,1,0,0:0:0:0:
475,192,205014,128,0,205567:0:0:0:50:Highlight.wav
36,192,205083,1,0,0:0:0:15:Kick.wav
182,192,205153,1,0,0:0:0:20:Kick.wav
329,192,205153,1,0,0:0:0:0:
36,192,205222,1,0,0:0:0:0:
109,192,205222,1,0,0:0:0:25:Kick.wav
256,192,205291,1,0,0:0:0:30:Kick.wav
402,192,205291,1,0,0:0:0:0:
109,192,205360,1,0,0:0:0:0:
182,192,205360,1,0,0:0:0:35:Kick.wav
329,192,205429,1,0,0:0:0:40:Kick.wav
36,192,205429,1,0,0:0:0:0:
182,192,205498,1,0,0:0:0:0:
256,192,205498,1,0,0:0:0:45:Kick.wav
402,192,205567,5,0,0:0:0:50:Kick.wav
109,192,205567,1,0,0:0:0:0:
36,192,205567,128,0,206051:0:0:0:50:Highlight.wav
256,192,205636,1,0,0:0:0:0:
329,192,205636,1,0,0:0:0:50:Kick.wav
109,192,205706,1,0,0:0:0:0:
182,192,205706,1,0,0:0:0:50:Kick.wav
402,192,205775,1,0,0:0:0:0:
329,192,205775,1,0,0:0:0:50:Kick.wav
256,192,205844,1,0,0:0:0:50:Kick.wav
182,192,205844,1,0,0:0:0:0:
402,192,205913,1,0,0:0:0:50:Kick.wav
475,192,205913,1,0,0:0:0:0:
256,192,205982,5,0,0:0:0:0:
329,192,205982,1,0,0:0:0:50:Kick.wav
475,192,206051,1,0,0:0:0:50:Kick.wav
402,192,206120,5,0,0:0:0:0:
182,192,206120,5,0,0:0:0:50:CrashS.wav
329,192,206120,1,0,0:0:0:0:
36,192,206120,1,0,0:0:0:50:BeLL2.wav
109,192,206120,1,0,0:0:0:50:Snare.wav
256,192,206120,1,0,0:0:0:0:
36,192,206256,1,0,0:0:0:0:
182,192,206256,1,0,0:0:0:50:Kick.wav
109,192,206256,1,0,0:0:0:0:
109,192,206393,1,0,0:0:0:0:
182,192,206393,1,0,0:0:0:50:Kick.wav
36,192,206393,1,0,0:0:0:0:
109,192,206530,1,0,0:0:0:0:
329,192,206530,1,0,0:0:0:50:CrashS.wav
475,192,206530,1,0,0:0:0:50:BeLL2.wav
402,192,206530,1,0,0:0:0:50:Snare.wav
36,192,206530,1,0,0:0:0:0:
182,192,206530,1,0,0:0:0:0:
329,192,206667,1,0,0:0:0:50:Kick.wav
475,192,206667,1,0,0:0:0:0:
402,192,206667,1,0,0:0:0:0:
329,192,206804,1,0,0:0:0:50:Kick.wav
475,192,206804,1,0,0:0:0:0:
402,192,206804,1,0,0:0:0:0:
36,192,206941,1,0,0:0:0:50:CrashS.wav
109,192,206941,1,0,0:0:0:50:BeLL2.wav
402,192,206941,1,0,0:0:0:0:
329,192,206941,1,0,0:0:0:0:
475,192,206941,1,0,0:0:0:0:
256,192,206941,1,0,0:0:0:50:Snare.wav
36,192,207078,1,0,0:0:0:0:
256,192,207078,1,0,0:0:0:50:Kick.wav
109,192,207078,1,0,0:0:0:0:
36,192,207215,1,0,0:0:0:0:
256,192,207215,1,0,0:0:0:50:Kick.wav
109,192,207215,1,0,0:0:0:0:
475,192,207352,1,0,0:0:0:0:
329,192,207352,1,0,0:0:0:50:CrashS.wav
109,192,207352,1,0,0:0:0:50:BeLL2.wav
182,192,207352,1,0,0:0:0:0:
256,192,207352,1,0,0:0:0:50:Snare.wav
36,192,207352,1,0,0:0:0:0:
182,192,207489,1,0,0:0:0:0:
475,192,207489,1,0,0:0:0:0:
329,192,207489,1,0,0:0:0:50:Kick.wav
329,192,207626,1,0,0:0:0:50:Kick.wav
475,192,207626,1,0,0:0:0:0:
182,192,207626,1,0,0:0:0:0:
182,192,207763,1,0,0:0:0:0:
109,192,207763,1,0,0:0:0:50:BeLL2.wav
475,192,207763,1,0,0:0:0:0:
402,192,207763,1,0,0:0:0:50:Snare.wav
329,192,207763,1,0,0:0:0:50:CrashS.wav
36,192,207763,1,0,0:0:0:0:
256,192,207900,1,0,0:0:0:50:Kick.wav
36,192,207900,1,0,0:0:0:0:
109,192,207900,1,0,0:0:0:0:
36,192,208037,1,0,0:0:0:0:
182,192,208037,1,0,0:0:0:0:
329,192,208037,1,0,0:0:0:50:CrashS.wav
402,192,208037,1,0,0:0:0:50:Snare.wav
109,192,208037,1,0,0:0:0:50:BeLL2.wav
475,192,208037,1,0,0:0:0:0:
109,192,208174,1,0,0:0:0:0:
36,192,208174,1,0,0:0:0:0:
256,192,208174,1,0,0:0:0:50:Kick.wav
475,192,208311,1,0,0:0:0:0:
36,192,208311,1,0,0:0:0:0:
329,192,208311,1,0,0:0:0:50:CrashS.wav
109,192,208311,1,0,0:0:0:50:BeLL2.wav
182,192,208311,1,0,0:0:0:0:
402,192,208311,1,0,0:0:0:50:Snare.wav
475,192,208446,1,0,0:0:0:0:
329,192,208446,1,0,0:0:0:50:Kick.wav
402,192,208446,1,0,0:0:0:0:
402,192,208582,1,0,0:0:0:0:
329,192,208582,1,0,0:0:0:50:Kick.wav
475,192,208582,1,0,0:0:0:0:
402,192,208718,1,0,0:0:0:50:Snare.wav
329,192,208718,1,0,0:0:0:50:CrashS.wav
109,192,208718,1,0,0:0:0:50:BeLL2.wav
182,192,208718,1,0,0:0:0:0:
475,192,208718,1,0,0:0:0:0:
36,192,208718,1,0,0:0:0:0:
36,192,208853,1,0,0:0:0:0:
109,192,208853,1,0,0:0:0:0:
182,192,208853,1,0,0:0:0:50:Kick.wav
36,192,208989,1,0,0:0:0:0:
109,192,208989,1,0,0:0:0:0:
182,192,208989,1,0,0:0:0:50:Kick.wav
402,192,209125,1,0,0:0:0:50:Snare.wav
182,192,209125,1,0,0:0:0:0:
36,192,209125,1,0,0:0:0:0:
109,192,209125,1,0,0:0:0:50:BeLL2.wav
256,192,209125,1,0,0:0:0:0:
475,192,209125,1,0,0:0:0:50:CrashS.wav
402,192,209261,1,0,0:0:0:50:Kick.wav
475,192,209261,1,0,0:0:0:0:
256,192,209261,1,0,0:0:0:0:
402,192,209396,1,0,0:0:0:50:Kick.wav
475,192,209396,1,0,0:0:0:0:
256,192,209396,1,0,0:0:0:0:
36,192,209532,1,0,0:0:0:0:
329,192,209532,1,0,0:0:0:0:
402,192,209532,1,0,0:0:0:50:Snare.wav
475,192,209532,1,0,0:0:0:50:CrashS.wav
182,192,209532,1,0,0:0:0:50:BeLL2.wav
256,192,209532,1,0,0:0:0:0:
36,192,209668,1,0,0:0:0:0:
329,192,209668,1,0,0:0:0:50:Kick.wav
182,192,209668,1,0,0:0:0:0:
36,192,209804,1,0,0:0:0:0:
329,192,209804,1,0,0:0:0:50:Kick.wav
182,192,209804,1,0,0:0:0:0:
475,192,209939,1,0,0:0:0:50:CrashS.wav
36,192,209939,1,0,0:0:0:0:
109,192,209939,1,0,0:0:0:0:
329,192,209939,1,0,0:0:0:0:
182,192,209939,1,0,0:0:0:50:BeLL2.wav
402,192,209939,1,0,0:0:0:50:Snare.wav
402,192,210075,1,0,0:0:0:50:Kick.wav
256,192,210075,1,0,0:0:0:0:
475,192,210075,1,0,0:0:0:0:
475,192,210211,1,0,0:0:0:50:CrashS.wav
329,192,210211,1,0,0:0:0:0:
402,192,210211,1,0,0:0:0:50:Snare.wav
182,192,210211,1,0,0:0:0:50:BeLL2.wav
109,192,210211,1,0,0:0:0:0:
36,192,210211,1,0,0:0:0:0:
475,192,210347,1,0,0:0:0:0:
402,192,210347,1,0,0:0:0:50:Kick.wav
256,192,210347,1,0,0:0:0:0:
402,192,210482,1,0,0:0:0:50:Snare.wav
109,192,210482,1,0,0:0:0:0:
329,192,210482,1,0,0:0:0:0:
182,192,210482,1,0,0:0:0:50:BeLL2.wav
475,192,210482,1,0,0:0:0:50:CrashS.wav
36,192,210482,1,0,0:0:0:0:
36,192,210617,1,0,0:0:0:0:
182,192,210617,1,0,0:0:0:50:Kick.wav
109,192,210617,1,0,0:0:0:0:
36,192,210752,1,0,0:0:0:0:
109,192,210752,1,0,0:0:0:0:
182,192,210752,1,0,0:0:0:50:Kick.wav
475,192,210887,1,0,0:0:0:50:CrashS.wav
402,192,210887,1,0,0:0:0:50:Snare.wav
182,192,210887,1,0,0:0:0:50:BeLL2.wav
109,192,210887,1,0,0:0:0:0:
329,192,210887,1,0,0:0:0:0:
36,192,210887,1,0,0:0:0:0:
329,192,211022,1,0,0:0:0:50:Kick.wav
402,192,211022,1,0,0:0:0:0:
475,192,211022,1,0,0:0:0:0:
329,192,211157,1,0,0:0:0:50:Kick.wav
475,192,211157,1,0,0:0:0:0:
402,192,211157,1,0,0:0:0:0:
475,192,211292,1,0,0:0:0:50:CrashS.wav
402,192,211292,1,0,0:0:0:50:Snare.wav
182,192,211292,1,0,0:0:0:50:BeLL2.wav
109,192,211292,1,0,0:0:0:0:
36,192,211292,1,0,0:0:0:0:
329,192,211292,1,0,0:0:0:0:
256,192,211427,1,0,0:0:0:50:Kick.wav
109,192,211427,1,0,0:0:0:0:
36,192,211427,1,0,0:0:0:0:
256,192,211563,1,0,0:0:0:50:Kick.wav
109,192,211563,1,0,0:0:0:0:
36,192,211563,1,0,0:0:0:0:
182,192,211698,1,0,0:0:0:50:BeLL2.wav
402,192,211698,1,0,0:0:0:50:Snare.wav
475,192,211698,1,0,0:0:0:50:CrashS.wav
36,192,211698,1,0,0:0:0:0:
109,192,211698,1,0,0:0:0:0:
329,192,211698,1,0,0:0:0:0:
256,192,211833,1,0,0:0:0:50:Kick.wav
402,192,211833,1,0,0:0:0:0:
475,192,211833,1,0,0:0:0:0:
256,192,211968,1,0,0:0:0:50:Kick.wav
475,192,211968,1,0,0:0:0:0:
402,192,211968,1,0,0:0:0:0:
182,192,212103,1,0,0:0:0:50:BeLL2.wav
402,192,212103,1,0,0:0:0:50:Snare.wav
475,192,212103,1,0,0:0:0:50:CrashS.wav
329,192,212103,1,0,0:0:0:0:
36,192,212103,1,0,0:0:0:0:
109,192,212103,1,0,0:0:0:0:
36,192,212238,1,0,0:0:0:0:
329,192,212238,1,0,0:0:0:50:Kick.wav
182,192,212238,1,0,0:0:0:0:
475,192,212373,1,0,0:0:0:50:CrashS.wav
402,192,212373,1,0,0:0:0:50:Snare.wav
182,192,212373,1,0,0:0:0:50:BeLL2.wav
36,192,212373,1,0,0:0:0:0:
109,192,212373,1,0,0:0:0:0:
329,192,212373,1,0,0:0:0:0:
329,192,212509,1,0,0:0:0:50:Kick.wav
475,192,212509,1,0,0:0:0:0:
182,192,212509,1,0,0:0:0:0:
329,192,212644,1,0,0:0:0:50:BeLL2.wav
109,192,212644,1,0,0:0:0:50:Snare.wav
36,192,212644,1,0,0:0:0:50:CrashS.wav
402,192,212644,1,0,0:0:0:0:
475,192,212644,1,0,0:0:0:0:
182,192,212644,1,0,0:0:0:0:
36,192,212778,1,0,0:0:0:0:
256,192,212778,1,0,0:0:0:50:Kick.wav
109,192,212778,1,0,0:0:0:0:
256,192,212913,1,0,0:0:0:50:Kick.wav
402,192,212913,1,0,0:0:0:0:
475,192,212913,1,0,0:0:0:0:
329,192,213047,1,0,0:0:0:50:BeLL2.wav
36,192,213047,1,0,0:0:0:50:CrashS.wav
109,192,213047,1,0,0:0:0:50:Snare.wav
182,192,213047,1,0,0:0:0:0:
402,192,213047,1,0,0:0:0:0:
475,192,213047,1,0,0:0:0:0:
329,192,213182,1,0,0:0:0:0:
182,192,213182,1,0,0:0:0:0:
36,192,213182,1,0,0:0:0:50:Kick.wav
329,192,213316,1,0,0:0:0:0:
36,192,213316,1,0,0:0:0:50:Kick.wav
182,192,213316,1,0,0:0:0:0:
109,192,213451,1,0,0:0:0:50:Snare.wav
36,192,213451,1,0,0:0:0:50:CrashS.wav
329,192,213451,1,0,0:0:0:50:BeLL2.wav
402,192,213451,1,0,0:0:0:0:
475,192,213451,1,0,0:0:0:0:
182,192,213451,1,0,0:0:0:0:
256,192,213585,1,0,0:0:0:0:
109,192,213585,1,0,0:0:0:50:Kick.wav
402,192,213585,1,0,0:0:0:0:
109,192,213720,1,0,0:0:0:50:Kick.wav
402,192,213720,1,0,0:0:0:0:
256,192,213720,1,0,0:0:0:0:
182,192,213854,1,0,0:0:0:50:BeLL2.wav
475,192,213854,1,0,0:0:0:50:CrashS.wav
402,192,213854,1,0,0:0:0:50:Snare.wav
109,192,213854,1,0,0:0:0:0:
36,192,213854,1,0,0:0:0:0:
329,192,213854,1,0,0:0:0:0:
475,192,213989,1,0,0:0:0:0:
329,192,213989,1,0,0:0:0:0:
182,192,213989,1,0,0:0:0:50:Kick.wav
475,192,214123,1,0,0:0:0:0:
329,192,214123,1,0,0:0:0:0:
182,192,214123,1,0,0:0:0:50:Kick.wav
182,192,214258,1,0,0:0:0:50:BeLL2.wav
402,192,214258,1,0,0:0:0:50:Snare.wav
475,192,214258,1,0,0:0:0:50:CrashS.wav
36,192,214258,1,0,0:0:0:0:
109,192,214258,1,0,0:0:0:0:
329,192,214258,1,0,0:0:0:0:
256,192,214392,1,0,0:0:0:50:Kick.wav
109,192,214392,1,0,0:0:0:0:
36,192,214392,1,0,0:0:0:0:
329,192,214460,1,0,0:0:0:50:Kick.wav
402,192,214460,1,0,0:0:0:0:
475,192,214460,1,0,0:0:0:0:
182,192,214527,1,0,0:0:0:50:Kick.wav
36,192,214527,1,0,0:0:0:0:
109,192,214527,1,0,0:0:0:0:
256,192,214594,1,0,0:0:0:50:Kick.wav
402,192,214594,1,0,0:0:0:0:
475,192,214594,1,0,0:0:0:0:
329,192,214661,1,0,0:0:0:50:Kick.wav
36,192,214661,1,0,0:0:0:0:
109,192,214661,1,0,0:0:0:0:
402,192,214729,1,0,0:0:0:0:
182,192,214729,1,0,0:0:0:50:Kick.wav
475,192,214729,1,0,0:0:0:0:
256,192,214796,128,0,216938:0:0:0:50:Kick.wav
36,192,214796,1,0,0:0:0:0:
109,192,214796,1,0,0:0:0:50:Highlight.wav
402,192,217474,128,0,218010:0:0:0:0:
109,192,218010,128,0,218077:0:0:0:0:
256,192,218010,1,0,0:0:0:50:Sub Drum.wav
36,192,218010,128,0,218546:0:0:0:0:
475,192,218077,1,0,0:0:0:50:Sub Drum.wav
329,192,218144,1,0,0:0:0:50:Sub Drum.wav
182,192,218144,1,0,0:0:0:0:
402,192,218211,1,0,0:0:0:50:Sub Drum.wav
256,192,218278,1,0,0:0:0:50:Sub Drum.wav
109,192,218278,128,0,218345:0:0:0:0:
475,192,218345,1,0,0:0:0:50:Sub Drum.wav
329,192,218412,1,0,0:0:0:50:Sub Drum.wav
182,192,218412,1,0,0:0:0:0:
402,192,218479,1,0,0:0:0:50:Sub Drum.wav
256,192,218546,1,0,0:0:0:50:Sub Drum.wav
109,192,218546,128,0,218612:0:0:0:0:
475,192,218546,128,0,219014:0:0:0:0:
329,192,218612,1,0,0:0:0:50:Sub Drum.wav
402,192,218679,1,0,0:0:0:50:Sub Drum.wav
182,192,218679,1,0,0:0:0:0:
182,192,218746,1,0,0:0:0:0:
329,192,218746,1,0,0:0:0:50:Sub Drum.wav
109,192,218813,1,0,0:0:0:50:Sub Drum.wav
256,192,218813,1,0,0:0:0:0:
36,192,218813,1,0,0:0:0:0:
402,192,218880,1,0,0:0:0:50:Sub Drum.wav
182,192,218947,1,0,0:0:0:0:
329,192,218947,1,0,0:0:0:50:Sub Drum.wav
109,192,219014,1,0,0:0:0:50:Sub Drum.wav
36,192,219081,1,0,0:0:0:50:Sub Rhythm-3.wav
402,192,219081,1,0,0:0:0:50:CrashS.wav
256,192,219081,1,0,0:0:0:50:Kick.wav
475,192,219081,1,0,0:0:0:0:
109,192,219171,1,0,0:0:0:50:Sub Rhythm-3.wav
329,192,219215,1,0,0:0:0:0:
475,192,219215,1,0,0:0:0:0:
402,192,219215,1,0,0:0:0:50:Snare.wav
182,192,219260,1,0,0:0:0:50:Sub Rhythm-3.wav
36,192,219349,1,0,0:0:0:50:CrashS.wav
402,192,219349,1,0,0:0:0:50:Kick.wav
256,192,219349,1,0,0:0:0:50:Sub Rhythm-3.wav
109,192,219349,1,0,0:0:0:0:
475,192,219349,1,0,0:0:0:0:
329,192,219438,1,0,0:0:0:50:Sub Rhythm-3.wav
36,192,219483,1,0,0:0:0:0:
109,192,219483,1,0,0:0:0:50:Sub Snare.wav
402,192,219528,1,0,0:0:0:50:Sub Rhythm-3.wav
256,192,219550,1,0,0:0:0:0:
182,192,219550,1,0,0:0:0:50:Sub Snare.wav
109,192,219617,1,0,0:0:0:50:CrashS.wav
36,192,219617,1,0,0:0:0:50:Kick.wav
475,192,219617,1,0,0:0:0:0:
329,192,219617,1,0,0:0:0:50:Sub Rhythm-3.wav
256,192,219706,1,0,0:0:0:50:Sub Rhythm-3.wav
475,192,219751,1,0,0:0:0:50:Snare.wav
36,192,219751,1,0,0:0:0:0:
402,192,219751,1,0,0:0:0:0:
182,192,219796,1,0,0:0:0:50:Sub Rhythm-3.wav
402,192,219885,1,0,0:0:0:50:Kick.wav
36,192,219885,1,0,0:0:0:50:CrashS.wav
475,192,219885,1,0,0:0:0:0:
109,192,219885,1,0,0:0:0:0:
256,192,219885,1,0,0:0:0:50:Sub Rhythm-3.wav
182,192,219974,1,0,0:0:0:50:Sub Rhythm-3.wav
475,192,220019,1,0,0:0:0:0:
329,192,220019,1,0,0:0:0:50:Sub Snare.wav
109,192,220063,1,0,0:0:0:50:Sub Rhythm-3.wav
256,192,220086,1,0,0:0:0:50:Sub Snare.wav
402,192,220086,1,0,0:0:0:0:
182,192,220153,1,0,0:0:0:50:Sub Rhythm-3.wav
36,192,220153,1,0,0:0:0:50:CrashS.wav
329,192,220153,1,0,0:0:0:50:Kick.wav
475,192,220153,1,0,0:0:0:0:
256,192,220242,1,0,0:0:0:50:Sub Rhythm-3.wav
475,192,220287,1,0,0:0:0:0:
109,192,220287,1,0,0:0:0:50:Snare.wav
36,192,220287,1,0,0:0:0:0:
329,192,220331,1,0,0:0:0:50:Sub Rhythm-3.wav
402,192,220421,1,0,0:0:0:50:Kick.wav
36,192,220421,1,0,0:0:0:50:CrashS.wav
109,192,220421,1,0,0:0:0:0:
475,192,220421,1,0,0:0:0:0:
256,192,220421,1,0,0:0:0:50:Sub Rhythm-3.wav
329,192,220510,1,0,0:0:0:50:Sub Rhythm-3.wav
109,192,220554,1,0,0:0:0:0:
182,192,220554,1,0,0:0:0:50:Sub Snare.wav
402,192,220599,1,0,0:0:0:50:Sub Rhythm-3.wav
256,192,220621,1,0,0:0:0:50:Sub Snare.wav
36,192,220621,1,0,0:0:0:0:
329,192,220688,1,0,0:0:0:50:CrashS.wav
475,192,220688,1,0,0:0:0:50:Sub Rhythm-3.wav
109,192,220688,1,0,0:0:0:0:
182,192,220688,1,0,0:0:0:50:Kick.wav
402,192,220778,1,0,0:0:0:50:Sub Rhythm-3.wav
36,192,220822,1,0,0:0:0:0:
109,192,220822,1,0,0:0:0:0:
182,192,220822,1,0,0:0:0:50:Snare.wav
329,192,220867,1,0,0:0:0:50:Sub Rhythm-3.wav
475,192,220956,1,0,0:0:0:50:CrashS.wav
36,192,220956,1,0,0:0:0:0:
402,192,220956,1,0,0:0:0:0:
109,192,220956,1,0,0:0:0:50:Kick.wav
256,192,220956,1,0,0:0:0:50:Sub Rhythm-3.wav
182,192,221046,1,0,0:0:0:50:Sub Rhythm-3.wav
475,192,221090,1,0,0:0:0:0:
329,192,221090,1,0,0:0:0:50:Sub Snare.wav
109,192,221135,1,0,0:0:0:50:Sub Rhythm-3.wav
402,192,221157,1,0,0:0:0:0:
256,192,221157,1,0,0:0:0:50:Sub Snare.wav
475,192,221224,1,0,0:0:0:50:CrashS.wav
329,192,221224,1,0,0:0:0:0:
182,192,221224,1,0,0:0:0:50:Kick.wav
36,192,221224,1,0,0:0:0:50:Sub Rhythm-3.wav
256,192,221291,1,0,0:0:0:0:
109,192,221291,1,0,0:0:0:50:Sub Rhythm-3.wav
475,192,221358,1,0,0:0:0:0:
402,192,221358,1,0,0:0:0:50:Snare.wav
36,192,221358,1,0,0:0:0:50:Sub Rhythm-3.wav
329,192,221425,1,0,0:0:0:0:
182,192,221425,1,0,0:0:0:50:Sub Rhythm-3.wav
36,192,221492,1,0,0:0:0:0:
475,192,221492,1,0,0:0:0:50:CrashS.wav
256,192,221492,1,0,0:0:0:50:Sub Rhythm-3.wav
109,192,221492,1,0,0:0:0:50:Kick.wav
329,192,221559,1,0,0:0:0:50:Sub Rhythm-3.wav
402,192,221559,1,0,0:0:0:0:
109,192,221626,1,0,0:0:0:50:Sub Rhythm-3.wav
475,192,221626,1,0,0:0:0:0:
182,192,221626,1,0,0:0:0:50:Snare.wav
329,192,221693,1,0,0:0:0:0:
256,192,221693,1,0,0:0:0:50:Sub Rhythm-3.wav
475,192,221760,1,0,0:0:0:50:CrashS.wav
109,192,221760,1,0,0:0:0:50:Sub Snare.wav
36,192,221760,1,0,0:0:0:50:Sub Rhythm-3.wav
402,192,221760,1,0,0:0:0:50:Kick.wav
256,192,221827,1,0,0:0:0:50:Sub Rhythm-3.wav
182,192,221827,1,0,0:0:0:50:Sub Snare.wav
402,192,221894,1,0,0:0:0:50:Sub Rhythm-3.wav
329,192,221894,1,0,0:0:0:50:Sub Snare.wav
36,192,221894,1,0,0:0:0:0:
109,192,221961,1,0,0:0:0:50:Sub Rhythm-3.wav
182,192,221961,1,0,0:0:0:50:Sub Snare.wav
36,192,222028,1,0,0:0:0:50:Sub Rhythm-3.wav
402,192,222028,1,0,0:0:0:50:Kick.wav
475,192,222028,1,0,0:0:0:50:CrashS.wav
256,192,222028,1,0,0:0:0:50:Sub Snare.wav
109,192,222095,1,0,0:0:0:50:Sub Rhythm-3.wav
329,192,222095,1,0,0:0:0:50:Sub Snare.wav
182,192,222162,1,0,0:0:0:50:Sub Rhythm-3.wav
402,192,222162,1,0,0:0:0:50:Sub Snare.wav
475,192,222229,1,0,0:0:0:50:Sub Snare.wav
256,192,222229,1,0,0:0:0:50:Sub Rhythm-3.wav
182,192,222296,1,0,0:0:0:50:Cymbal.wav
329,192,222296,128,0,222362:0:0:0:50:Sub Drum.wav
36,192,222296,1,0,0:0:0:0:
109,192,222296,1,0,0:0:0:0:
475,192,222362,128,0,222429:0:0:0:50:Sub Drum.wav
182,192,222429,128,0,222496:0:0:0:50:Sub Drum.wav
329,192,222496,128,0,222563:0:0:0:50:Sub Drum.wav
36,192,222563,128,0,222630:0:0:0:50:Sub Drum.wav
182,192,222630,128,0,222697:0:0:0:50:Sub Drum.wav
329,192,222697,128,0,222764:0:0:0:50:Sub Drum.wav
475,192,222764,128,0,222831:0:0:0:50:Sub Drum.wav
36,192,222831,128,0,222898:0:0:0:0:
402,192,222831,128,0,222898:0:0:0:50:Sub Drum.wav
182,192,222898,128,0,222965:0:0:0:0:
329,192,222898,128,0,222965:0:0:0:50:Sub Drum.wav
475,192,222965,128,0,223032:0:0:0:0:
109,192,222965,128,0,223032:0:0:0:50:Sub Drum.wav
402,192,223032,128,0,223099:0:0:0:0:
256,192,223032,128,0,223099:0:0:0:50:Sub Drum.wav
36,192,223099,128,0,223166:0:0:0:0:
182,192,223099,128,0,223166:0:0:0:50:Sub Drum.wav
475,192,223166,128,0,223233:0:0:0:0:
329,192,223166,128,0,223233:0:0:0:50:Sub Drum.wav
256,192,223233,128,0,223300:0:0:0:50:Sub Drum.wav
109,192,223233,128,0,223300:0:0:0:0:
36,192,223300,128,0,223367:0:0:0:0:
402,192,223300,128,0,223367:0:0:0:50:Sub Drum.wav
475,192,223367,128,0,223769:0:0:0:50:Sub Rhythm-3.wav
182,192,223367,1,0,0:0:0:0:
329,192,223367,1,0,0:0:0:70:CrashL.wav
109,192,223501,1,0,0:0:0:0:
329,192,223501,128,0,223769:0:0:0:50:Sub Rhythm-3.wav
109,192,223635,1,0,0:0:0:0:
109,192,223769,1,0,0:0:0:0:
109,192,223903,1,0,0:0:0:0:
402,192,224037,1,0,0:0:0:50:Sub Rhythm-3.wav
109,192,224037,1,0,0:0:0:0:
329,192,224171,1,0,0:0:0:50:Sub Rhythm-3.wav
109,192,224171,1,0,0:0:0:0:
256,192,224304,1,0,0:0:0:50:Sub Rhythm-3.wav
109,192,224304,1,0,0:0:0:0:
475,192,224438,128,0,224572:0:0:0:0:
182,192,224438,1,0,0:0:0:50:Sub Rhythm-3.wav
329,192,224572,128,0,224706:0:0:0:0:
36,192,224572,1,0,0:0:0:50:Sub Rhythm-3.wav
475,192,224706,128,0,224840:0:0:0:0:
256,192,224706,1,0,0:0:0:50:Sub Rhythm-3.wav
109,192,224840,1,0,0:0:0:50:Sub Rhythm-3.wav
402,192,224840,128,0,225108:0:0:0:0:
256,192,224974,1,0,0:0:0:50:Sub Rhythm-3.wav
329,192,225108,128,0,225242:0:0:0:0:
182,192,225108,1,0,0:0:0:50:Sub Rhythm-3.wav
109,192,225242,1,0,0:0:0:50:Sub Rhythm-3.wav
475,192,225242,128,0,225376:0:0:0:0:
36,192,225376,1,0,0:0:0:50:Sub Rhythm-3.wav
329,192,225376,128,0,225510:0:0:0:0:
182,192,225510,128,0,225912:0:0:0:50:Sub Rhythm-3.wav
36,192,225644,128,0,225912:0:0:0:50:Sub Rhythm-3.wav
475,192,225644,1,0,0:0:0:0:
329,192,225711,1,0,0:0:0:0:
402,192,225778,1,0,0:0:0:0:
402,192,225912,1,0,0:0:0:0:
402,192,226046,1,0,0:0:0:0:
36,192,226179,1,0,0:0:0:50:Sub Rhythm-3.wav
402,192,226179,1,0,0:0:0:0:
109,192,226313,1,0,0:0:0:50:Sub Rhythm-3.wav
402,192,226313,1,0,0:0:0:0:
182,192,226447,1,0,0:0:0:50:Sub Rhythm-3.wav
402,192,226447,1,0,0:0:0:0:
256,192,226581,128,0,226715:0:0:0:50:Sub Rhythm-3.wav
402,192,226581,1,0,0:0:0:0:
475,192,226715,1,0,0:0:0:0:
109,192,226715,128,0,226849:0:0:0:50:Sub Rhythm-3.wav
182,192,226849,128,0,226983:0:0:0:50:Sub Rhythm-3.wav
329,192,226849,1,0,0:0:0:0:
475,192,226983,1,0,0:0:0:0:
36,192,226983,128,0,227251:0:0:0:50:Sub Rhythm-3.wav
329,192,227117,1,0,0:0:0:0:
109,192,227117,128,0,227251:0:0:0:50:Sub Rhythm-3.wav
182,192,227184,128,0,227251:0:0:0:50:Sub Rhythm-3.wav
475,192,227251,1,0,0:0:0:0:
402,192,227251,128,0,227385:0:0:0:50:Sub Rhythm-3.wav
36,192,227385,1,0,0:0:0:0:
329,192,227385,128,0,227519:0:0:0:50:Sub Rhythm-3.wav
109,192,227519,1,0,0:0:0:0:
256,192,227519,128,0,227653:0:0:0:50:Sub Rhythm-3.wav
182,192,227653,1,0,0:0:0:50:Chi!.wav
475,192,227653,1,0,0:0:0:0:
36,192,227787,128,0,227921:0:0:0:0:
329,192,227921,128,0,227987:0:0:0:0:
182,192,227921,1,0,0:0:0:50:Chi!.wav
475,192,227921,1,0,0:0:0:0:
402,192,228188,1,0,0:0:0:50:Chi!.wav
256,192,228188,1,0,0:0:0:0:
109,192,228322,128,0,228523:0:0:0:0:
256,192,228322,1,0,0:0:0:0:
402,192,228322,1,0,0:0:0:50:Chi!.wav
109,192,228590,128,0,228657:0:0:0:0:
475,192,228590,1,0,0:0:0:0:
329,192,228590,1,0,0:0:0:50:Chi!.wav
402,192,228724,128,0,228992:0:0:0:0:
109,192,228858,1,0,0:0:0:0:
256,192,228858,1,0,0:0:0:50:Chi!.wav
329,192,228992,1,0,0:0:0:50:Chi!.wav
182,192,228992,1,0,0:0:0:0:
36,192,228992,128,0,229528:0:0:0:0:
402,192,229126,1,0,0:0:0:50:Chi!.wav
256,192,229126,1,0,0:0:0:0:
329,192,229260,128,0,229796:0:0:0:50:Chi!.wav
475,192,229260,128,0,229796:0:0:0:0:
182,192,229260,128,0,229528:0:0:0:0:
109,192,229528,128,0,229796:0:0:0:0:
402,192,229796,128,0,230063:0:0:0:0:
182,192,229796,1,0,0:0:0:50:Chi!.wav
36,192,229796,1,0,0:0:0:0:
36,192,230063,1,0,0:0:0:0:
182,192,230063,1,0,0:0:0:50:Chi!.wav
475,192,230063,128,0,230331:0:0:0:0:
329,192,230197,128,0,230331:0:0:0:0:
402,192,230331,1,0,0:0:0:50:Chi!.wav
109,192,230331,1,0,0:0:0:0:
402,192,230465,1,0,0:0:0:50:Chi!.wav
109,192,230465,1,0,0:0:0:0:
182,192,230465,128,0,230599:0:0:0:0:
36,192,230599,128,0,230733:0:0:0:0:
475,192,230733,1,0,0:0:0:0:
329,192,230733,1,0,0:0:0:50:Chi!.wav
182,192,230733,128,0,230867:0:0:0:0:
402,192,230867,128,0,231068:0:0:0:0:
329,192,230934,128,0,231068:0:0:0:0:
182,192,231001,1,0,0:0:0:50:Chi!.wav
36,192,231001,1,0,0:0:0:0:
256,192,231135,1,0,0:0:0:50:Chi!.wav
109,192,231135,1,0,0:0:0:0:
475,192,231135,128,0,231202:0:0:0:0:
402,192,231269,128,0,231403:0:0:0:0:
182,192,231269,1,0,0:0:0:50:Chi!.wav
36,192,231269,1,0,0:0:0:0:
475,192,231403,1,0,0:0:0:0:
329,192,231403,1,0,0:0:0:50:Chi!.wav
402,192,231537,1,0,0:0:0:0:
256,192,231537,1,0,0:0:0:50:Chi!.wav
109,192,231537,128,0,231671:0:0:0:0:
182,192,231671,1,0,0:0:0:50:Chi!.wav
329,192,231671,1,0,0:0:0:0:
36,192,231737,1,0,0:0:0:0:
475,192,231737,1,0,0:0:0:50:Chi!.wav
256,192,231804,128,0,231938:0:0:0:0:
402,192,231804,1,0,0:0:0:50:Chi!.wav
109,192,231804,1,0,0:0:0:0:
329,192,231871,1,0,0:0:0:50:Chi!.wav
182,192,231871,1,0,0:0:0:0:
36,192,231938,1,0,0:0:0:50:CrashL.wav
109,192,231938,1,0,0:0:0:0:
475,192,231938,128,0,233010:0:0:0:30:BeLL.wav
402,192,231938,1,0,0:0:0:50:Kick.wav
256,192,232072,1,0,0:0:0:0:
329,192,232206,128,0,232296:0:0:0:0:
182,192,232206,1,0,0:0:0:0:
402,192,232206,1,0,0:0:0:50:Kick.wav
36,192,232206,1,0,0:0:0:0:
109,192,232296,128,0,232385:0:0:0:0:
256,192,232385,128,0,232474:0:0:0:0:
36,192,232474,1,0,0:0:0:0:
182,192,232474,1,0,0:0:0:0:
402,192,232474,1,0,0:0:0:50:Kick.wav
329,192,232608,1,0,0:0:0:0:
182,192,232742,1,0,0:0:0:0:
36,192,232742,1,0,0:0:0:0:
402,192,232742,1,0,0:0:0:50:Kick.wav
256,192,232831,128,0,232921:0:0:0:0:
109,192,232876,1,0,0:0:0:0:
329,192,233010,1,0,0:0:0:0:
36,192,233010,128,0,234081:0:0:0:0:
182,192,233010,1,0,0:0:0:30:BeLL.wav
402,192,233010,1,0,0:0:0:50:Kick.wav
329,192,233144,1,0,0:0:0:0:
475,192,233188,128,0,233546:0:0:0:0:
256,192,233278,1,0,0:0:0:0:
109,192,233278,1,0,0:0:0:0:
402,192,233278,1,0,0:0:0:50:Kick.wav
329,192,233412,1,0,0:0:0:50:Tick.wav
256,192,233479,1,0,0:0:0:50:Tick.wav
402,192,233546,1,0,0:0:0:50:Kick.wav
109,192,233546,1,0,0:0:0:0:
182,192,233546,1,0,0:0:0:50:Tick.wav
329,192,233679,1,0,0:0:0:0:
256,192,233724,128,0,233813:0:0:0:0:
475,192,233813,1,0,0:0:0:50:Tick.wav
109,192,233813,1,0,0:0:0:0:
402,192,233813,1,0,0:0:0:50:Kick.wav
329,192,233903,128,0,233992:0:0:0:0:
182,192,233947,1,0,0:0:0:0:
109,192,234081,1,0,0:0:0:50:Kick.wav
475,192,234081,128,0,235153:0:0:0:30:BeLL.wav
402,192,234081,128,0,234349:0:0:0:0:
256,192,234081,1,0,0:0:0:0:
182,192,234215,1,0,0:0:0:0:
329,192,234349,128,0,234617:0:0:0:0:
36,192,234349,1,0,0:0:0:0:
109,192,234349,1,0,0:0:0:50:Kick.wav
256,192,234349,1,0,0:0:0:0:
109,192,234483,1,0,0:0:0:0:
182,192,234617,1,0,0:0:0:0:
36,192,234617,128,0,234706:0:0:0:0:
402,192,234617,1,0,0:0:0:50:Kick.wav
256,192,234617,1,0,0:0:0:0:
329,192,234751,1,0,0:0:0:0:
109,192,234796,128,0,234885:0:0:0:0:
36,192,234885,1,0,0:0:0:0:
256,192,234885,1,0,0:0:0:0:
402,192,234885,1,0,0:0:0:50:Kick.wav
182,192,234974,128,0,235063:0:0:0:0:
329,192,235019,1,0,0:0:0:0:
402,192,235153,128,0,235421:0:0:0:30:BeLL.wav
36,192,235153,1,0,0:0:0:0:
109,192,235153,1,0,0:0:0:50:Kick.wav
256,192,235153,128,0,236224:0:0:0:0:
109,192,235287,1,0,0:0:0:0:
475,192,235421,1,0,0:0:0:0:
36,192,235421,1,0,0:0:0:0:
182,192,235421,1,0,0:0:0:50:Kick.wav
329,192,235510,128,0,235778:0:0:0:0:
109,192,235554,1,0,0:0:0:50:Tick.wav
402,192,235599,128,0,235778:0:0:0:0:
182,192,235621,1,0,0:0:0:50:Tick.wav
475,192,235688,128,0,235778:0:0:0:30:BeLL.wav
109,192,235688,1,0,0:0:0:50:Kick.wav
36,192,235688,1,0,0:0:0:50:Tick.wav
182,192,235822,1,0,0:0:0:0:
329,192,235867,128,0,235956:0:0:0:0:
402,192,235867,128,0,235956:0:0:0:0:
36,192,235956,1,0,0:0:0:50:Kick.wav
182,192,235956,1,0,0:0:0:50:Tick.wav
475,192,236046,128,0,236135:0:0:0:0:
402,192,236046,128,0,236135:0:0:0:0:
109,192,236090,1,0,0:0:0:0:
402,192,236224,128,0,236492:0:0:0:0:
182,192,236224,128,0,236492:0:0:0:30:BeLL.wav
109,192,236224,128,0,236492:0:0:0:0:
475,192,236224,128,0,236492:0:0:0:0:
36,192,236224,128,0,236492:0:0:0:50:Kick.wav
329,192,236224,128,0,236492:0:0:0:0:
475,192,236581,1,0,0:0:0:0:
329,192,236581,1,0,0:0:0:0:
109,192,236626,1,0,0:0:0:30:Kick.wav
36,192,236626,1,0,0:0:0:0:
256,192,236671,1,0,0:0:0:0:
402,192,236671,1,0,0:0:0:0:
36,192,236760,128,0,237028:0:0:0:0:
329,192,236760,128,0,237028:0:0:0:0:
182,192,236760,128,0,237028:0:0:0:0:
475,192,236760,128,0,237028:0:0:0:0:
182,192,237117,1,0,0:0:0:0:
36,192,237117,1,0,0:0:0:0:
475,192,237162,1,0,0:0:0:0:
402,192,237162,1,0,0:0:0:30:Kick.wav
256,192,237206,1,0,0:0:0:0:
109,192,237206,1,0,0:0:0:0:
402,192,237229,1,0,0:0:0:30:Kick.wav
329,192,237296,128,0,237474:0:0:0:30:BeLL.wav
475,192,237296,128,0,237474:0:0:0:0:
36,192,237296,1,0,0:0:0:0:
182,192,237296,1,0,0:0:0:30:Kick.wav
182,192,237429,1,0,0:0:0:30:Snare.wav
109,192,237429,1,0,0:0:0:0:
36,192,237429,1,0,0:0:0:0:
256,192,237474,128,0,237653:0:0:0:0:
402,192,237474,128,0,237653:0:0:0:0:
182,192,237653,128,0,237831:0:0:0:0:
329,192,237653,128,0,237831:0:0:0:0:
109,192,237697,1,0,0:0:0:30:Kick.wav
36,192,237697,1,0,0:0:0:0:
475,192,237697,1,0,0:0:0:0:
36,192,237831,128,0,238166:0:0:0:0:
475,192,237831,128,0,238166:0:0:0:0:
402,192,237831,1,0,0:0:0:0:
109,192,237831,1,0,0:0:0:0:
256,192,237831,1,0,0:0:0:30:Snare.wav
402,192,238099,128,0,238166:0:0:0:30:Snare.wav
256,192,238099,128,0,238166:0:0:0:0:
109,192,238099,128,0,238166:0:0:0:0:
329,192,238233,1,0,0:0:0:30:Sub Snare.wav
182,192,238233,1,0,0:0:0:0:
329,192,238300,1,0,0:0:0:30:Sub Snare.wav
182,192,238300,1,0,0:0:0:0:
256,192,238367,1,0,0:0:0:30:Kick.wav
36,192,238367,1,0,0:0:0:30:Sub Rhythm-3.wav
109,192,238367,1,0,0:0:0:30:BeLL.wav
475,192,238367,1,0,0:0:0:30:CrashL.wav
402,192,238434,1,0,0:0:0:0:
329,192,238434,1,0,0:0:0:30:Sub Rhythm-3.wav
36,192,238501,1,0,0:0:0:0:
109,192,238501,1,0,0:0:0:30:Sub Rhythm-3.wav
182,192,238501,1,0,0:0:0:30:Sub Snare.wav
402,192,238568,1,0,0:0:0:30:Sub Rhythm-1.wav
475,192,238568,1,0,0:0:0:0:
329,192,238568,1,0,0:0:0:30:Sub Rhythm-3.wav
256,192,238635,1,0,0:0:0:30:Kick.wav
36,192,238635,1,0,0:0:0:0:
109,192,238635,1,0,0:0:0:30:Sub Rhythm-3.wav
402,192,238702,1,0,0:0:0:0:
329,192,238702,1,0,0:0:0:30:Sub Rhythm-3.wav
475,192,238769,1,0,0:0:0:0:
109,192,238769,1,0,0:0:0:30:Sub Rhythm-3.wav
182,192,238769,1,0,0:0:0:30:Sub Snare.wav
36,192,238836,1,0,0:0:0:0:
329,192,238836,1,0,0:0:0:30:Sub Snare.wav
256,192,238836,1,0,0:0:0:30:Sub Rhythm-3.wav
402,192,238903,1,0,0:0:0:30:Kick.wav
475,192,238903,1,0,0:0:0:0:
109,192,238903,1,0,0:0:0:30:Sub Rhythm-3.wav
256,192,238970,1,0,0:0:0:0:
182,192,238970,1,0,0:0:0:30:Sub Rhythm-3.wav
36,192,239037,1,0,0:0:0:30:Sub Rhythm-3.wav
475,192,239037,1,0,0:0:0:0:
402,192,239037,1,0,0:0:0:30:Sub Snare.wav
109,192,239104,1,0,0:0:0:30:Sub Rhythm-3.wav
182,192,239104,1,0,0:0:0:0:
329,192,239104,1,0,0:0:0:30:Sub Snare.wav
475,192,239171,1,0,0:0:0:0:
36,192,239171,1,0,0:0:0:30:Sub Rhythm-3.wav
256,192,239171,1,0,0:0:0:30:Kick.wav
182,192,239237,1,0,0:0:0:30:Sub Rhythm-3.wav
402,192,239237,1,0,0:0:0:0:
109,192,239304,1,0,0:0:0:30:Sub Rhythm-3.wav
36,192,239304,1,0,0:0:0:0:
329,192,239304,1,0,0:0:0:30:Sub Snare.wav
475,192,239371,1,0,0:0:0:0:
256,192,239371,1,0,0:0:0:30:Sub Rhythm-3.wav
402,192,239371,1,0,0:0:0:30:Sub Snare.wav
36,192,239438,1,0,0:0:0:0:
329,192,239438,1,0,0:0:0:30:Cymbal.wav
182,192,239438,1,0,0:0:0:30:Sub Rhythm-3.wav
256,192,240603,128,0,240760:0:0:0:0:
256,192,241234,128,0,241430:0:0:0:0:
256,192,242018,128,0,242214:0:0:0:0:
256,192,242802,128,0,242978:0:0:0:0:
256,192,243507,128,0,243693:0:0:0:0:
402,192,244252,128,0,244391:0:0:0:50:Tick.wav
402,192,244496,128,0,244565:0:0:0:50:Tick.wav
402,192,244810,128,0,245089:0:0:0:50:Tick.wav
475,192,245228,1,0,0:0:0:50:Tick.wav
329,192,245298,1,0,0:0:0:50:Tick.wav
475,192,245368,1,0,0:0:0:50:Tick.wav
109,192,248678,128,0,249650:0:0:0:0:
256,192,249002,128,0,249650:0:0:0:0:
402,192,249326,128,0,249650:0:0:0:0:
36,192,249650,128,0,250947:0:0:0:30:BeLL.wav
475,192,249650,128,0,250298:0:0:0:0:
475,192,250460,128,0,250622:0:0:0:0:
329,192,250622,128,0,250785:0:0:0:0:
182,192,250785,128,0,250947:0:0:0:0:
329,192,250947,128,0,251109:0:0:0:0:
475,192,250947,128,0,252244:0:0:0:30:BeLL.wav
109,192,251109,128,0,251190:0:0:0:0:
182,192,251271,128,0,251352:0:0:0:0:
256,192,251433,128,0,251758:0:0:0:0:
109,192,251758,128,0,252082:0:0:0:0:
402,192,251758,128,0,252244:0:0:0:30:BeLL.wav
329,192,252082,128,0,252244:0:0:0:0:
182,192,252163,128,0,252244:0:0:0:0:
256,192,252244,128,0,252731:0:0:0:0:
36,192,252244,128,0,253541:0:0:0:30:BeLL.wav
402,192,252893,128,0,253055:0:0:0:0:
182,192,253055,128,0,253136:0:0:0:0:
329,192,253217,128,0,253298:0:0:0:0:
475,192,253379,128,0,253704:0:0:0:0:
182,192,253541,128,0,254839:0:0:0:30:BeLL.wav
329,192,253704,128,0,253785:0:0:0:0:
402,192,253866,128,0,253947:0:0:0:0:
36,192,254028,128,0,254190:0:0:0:0:
109,192,254109,128,0,254514:0:0:0:0:
329,192,254190,128,0,254839:0:0:0:30:BeLL.wav
36,192,254352,128,0,254514:0:0:0:0:
475,192,254677,128,0,254839:0:0:0:0:
256,192,254839,128,0,256136:0:0:0:30:BeLL.wav
109,192,255001,128,0,255082:0:0:0:0:
402,192,255163,128,0,255325:0:0:0:0:
109,192,255325,128,0,255406:0:0:0:0:
329,192,255487,128,0,255568:0:0:0:0:
329,192,255650,128,0,255731:0:0:0:0:
475,192,255812,128,0,255893:0:0:0:0:
402,192,255974,128,0,256298:0:0:0:0:
109,192,256136,128,0,257433:0:0:0:30:BeLL.wav
182,192,256298,128,0,256379:0:0:0:0:
475,192,256460,128,0,256622:0:0:0:0:
329,192,256541,128,0,256704:0:0:0:0:
182,192,256622,128,0,256947:0:0:0:0:
402,192,256947,128,0,257109:0:0:0:0:
36,192,256947,128,0,257433:0:0:0:30:BeLL.wav
256,192,257109,128,0,257271:0:0:0:0:
402,192,257271,128,0,257352:0:0:0:0:
182,192,257433,128,0,257513:0:0:0:0:
475,192,257433,128,0,258716:0:0:0:30:BeLL.wav
329,192,257593,128,0,257673:0:0:0:0:
109,192,257753,128,0,257834:0:0:0:0:
256,192,257914,128,0,257994:0:0:0:0:
36,192,258074,128,0,258154:0:0:0:0:
182,192,258235,128,0,258315:0:0:0:0:
329,192,258395,128,0,258475:0:0:0:0:
182,192,258555,128,0,258873:0:0:0:0:
329,192,258716,128,0,259900:0:0:0:30:BeLL.wav
36,192,258873,128,0,258952:0:0:0:0:
182,192,259031,128,0,259189:0:0:0:0:
36,192,259189,128,0,259347:0:0:0:0:
109,192,259268,128,0,259426:0:0:0:0:
182,192,259347,128,0,259505:0:0:0:0:
475,192,259347,128,0,259900:0:0:0:30:BeLL.wav
402,192,259505,128,0,259663:0:0:0:0:
256,192,259584,128,0,259742:0:0:0:0:
36,192,259742,128,0,259900:0:0:0:0:
182,192,259821,128,0,259979:0:0:0:0:
475,192,259979,128,0,260134:0:0:0:0:
256,192,259979,1,0,0:0:0:50:Sub Snare.wav
402,192,259979,1,0,0:0:0:50:Cymbal.wav
36,192,259979,128,0,261222:0:0:0:50:BeLL.wav
109,192,259979,1,0,0:0:0:0:
182,192,260134,128,0,260289:0:0:0:0:
329,192,260212,128,0,260367:0:0:0:0:
402,192,260289,1,0,0:0:0:0:
256,192,260289,1,0,0:0:0:50:Sub Snare.wav
109,192,260445,128,0,260600:0:0:0:0:
475,192,260600,1,0,0:0:0:0:
402,192,260600,1,0,0:0:0:0:
256,192,260600,1,0,0:0:0:50:Sub Snare.wav
182,192,260678,128,0,260833:0:0:0:0:
256,192,260911,1,0,0:0:0:0:
402,192,260989,1,0,0:0:0:0:
329,192,261067,1,0,0:0:0:0:
182,192,261067,1,0,0:0:0:50:Sub Snare.wav
475,192,261144,1,0,0:0:0:0:
182,192,261144,1,0,0:0:0:50:Sub Snare.wav
109,192,261222,1,0,0:0:0:50:Sub Snare.wav
402,192,261222,128,0,261375:0:0:0:0:
256,192,261222,128,0,262446:0:0:0:50:BeLL.wav
329,192,261375,1,0,0:0:0:50:Sub Snare.wav
36,192,261375,128,0,261528:0:0:0:0:
182,192,261451,128,0,261604:0:0:0:0:
475,192,261528,1,0,0:0:0:0:
329,192,261528,1,0,0:0:0:50:Sub Snare.wav
402,192,261681,128,0,261834:0:0:0:0:
36,192,261834,1,0,0:0:0:0:
182,192,261834,1,0,0:0:0:0:
329,192,261834,1,0,0:0:0:50:Sub Snare.wav
475,192,261910,128,0,262063:0:0:0:0:
109,192,262140,1,0,0:0:0:0:
36,192,262216,1,0,0:0:0:0:
182,192,262293,1,0,0:0:0:0:
329,192,262293,1,0,0:0:0:50:Sub Snare.wav
109,192,262369,1,0,0:0:0:0:
329,192,262369,1,0,0:0:0:50:Sub Snare.wav
36,192,262446,1,0,0:0:0:0:
402,192,262446,1,0,0:0:0:50:Sub Snare.wav
475,192,262446,128,0,263652:0:0:0:50:BeLL.wav
182,192,262596,128,0,262747:0:0:0:0:
109,192,262747,1,0,0:0:0:0:
402,192,262747,1,0,0:0:0:50:Sub Snare.wav
36,192,262747,128,0,262898:0:0:0:0:
256,192,262898,128,0,263049:0:0:0:0:
182,192,263049,1,0,0:0:0:0:
36,192,263049,1,0,0:0:0:0:
109,192,263049,128,0,263199:0:0:0:0:
402,192,263049,1,0,0:0:0:50:Sub Snare.wav
329,192,263199,128,0,263350:0:0:0:0:
182,192,263350,128,0,263501:0:0:0:0:
36,192,263501,128,0,263949:0:0:0:0:
256,192,263501,1,0,0:0:0:50:Sub Snare.wav
256,192,263576,1,0,0:0:0:50:Sub Snare.wav
182,192,263652,1,0,0:0:0:50:Sub Snare.wav
329,192,263652,1,0,0:0:0:0:
402,192,263652,128,0,264840:0:0:0:50:BeLL.wav
182,192,263800,1,0,0:0:0:50:Sub Snare.wav
256,192,263949,1,0,0:0:0:50:Sub Snare.wav
109,192,263949,1,0,0:0:0:0:
475,192,264097,128,0,264246:0:0:0:0:
329,192,264171,128,0,264320:0:0:0:0:
109,192,264246,1,0,0:0:0:0:
256,192,264246,1,0,0:0:0:50:Sub Snare.wav
182,192,264246,128,0,264394:0:0:0:0:
36,192,264246,1,0,0:0:0:0:
256,192,264468,128,0,264617:0:0:0:0:
182,192,264691,1,0,0:0:0:50:Sub Snare.wav
329,192,264691,128,0,264840:0:0:0:0:
182,192,264765,1,0,0:0:0:50:Sub Snare.wav
36,192,264840,1,0,0:0:0:0:
475,192,264840,128,0,264984:0:0:0:0:
109,192,264840,128,0,265419:0:0:0:50:BeLL.wav
256,192,264840,1,0,0:0:0:50:Sub Snare.wav
402,192,264984,128,0,265129:0:0:0:0:
36,192,265129,1,0,0:0:0:0:
256,192,265129,1,0,0:0:0:50:Sub Snare.wav
329,192,265129,128,0,265274:0:0:0:0:
402,192,265274,128,0,265564:0:0:0:0:
182,192,265419,1,0,0:0:0:0:
475,192,265419,1,0,0:0:0:0:
36,192,265419,128,0,265999:0:0:0:50:BeLL.wav
329,192,265419,1,0,0:0:0:50:Sub Snare.wav
109,192,265564,1,0,0:0:0:0:
256,192,265637,1,0,0:0:0:0:
402,192,265709,1,0,0:0:0:0:
329,192,265782,1,0,0:0:0:0:
256,192,265854,1,0,0:0:0:0:
475,192,265854,1,0,0:0:0:50:Sub Snare.wav
182,192,265926,1,0,0:0:0:0:
475,192,265926,1,0,0:0:0:50:Sub Snare.wav
109,192,265999,128,0,266138:0:0:0:0:
329,192,265999,1,0,0:0:0:50:Sub Snare.wav
402,192,265999,128,0,266557:0:0:0:50:BeLL.wav
182,192,266138,128,0,266278:0:0:0:0:
475,192,266278,1,0,0:0:0:0:
329,192,266278,1,0,0:0:0:50:Sub Snare.wav
109,192,266278,128,0,266417:0:0:0:0:
36,192,266417,128,0,266557:0:0:0:0:
182,192,266557,1,0,0:0:0:0:
109,192,266557,1,0,0:0:0:0:
475,192,266557,128,0,266824:0:0:0:0:
329,192,266557,1,0,0:0:0:50:Sub Snare.wav
256,192,266557,128,0,267092:0:0:0:50:BeLL.wav
402,192,266690,128,0,266824:0:0:0:0:
109,192,266824,128,0,267092:0:0:0:0:
402,192,266958,1,0,0:0:0:50:Sub Snare.wav
182,192,266958,128,0,267092:0:0:0:0:
402,192,267025,1,0,0:0:0:50:Sub Snare.wav
329,192,267092,1,0,0:0:0:50:Sub Snare.wav
475,192,267092,128,0,269167:0:0:0:0:
36,192,267092,128,0,269167:0:0:0:50:BeLL.wav
329,192,267359,1,0,0:0:0:50:Kick.wav
182,192,267359,1,0,0:0:0:0:
402,192,267627,128,0,267761:0:0:0:0:
256,192,267627,128,0,267761:0:0:0:50:Kick.wav
109,192,267627,128,0,267761:0:0:0:0:
402,192,268029,1,0,0:0:0:50:Sub Snare.wav
109,192,268029,1,0,0:0:0:0:
182,192,268096,1,0,0:0:0:0:
329,192,268096,1,0,0:0:0:50:Sub Snare.wav
109,192,268163,1,0,0:0:0:0:
402,192,268163,1,0,0:0:0:50:Sub Snare.wav
329,192,268297,1,0,0:0:0:50:Kick.wav
182,192,268297,1,0,0:0:0:0:
182,192,268431,1,0,0:0:0:0:
329,192,268431,1,0,0:0:0:50:Kick.wav
109,192,268699,128,0,268833:0:0:0:0:
256,192,268699,128,0,268833:0:0:0:50:Kick.wav
402,192,268699,128,0,268833:0:0:0:0:
475,192,269234,128,0,269300:0:0:0:0:
402,192,269234,128,0,269300:0:0:0:50:Kick.wav
36,192,269234,128,0,269300:0:0:0:0:
256,192,269234,128,0,269300:0:0:0:50:CrashL.wav
109,192,269234,128,0,269300:0:0:0:0:
109,192,269367,1,0,0:0:0:0:
182,192,269367,1,0,0:0:0:50:Sub Snare.wav
402,192,269434,1,0,0:0:0:0:
329,192,269434,1,0,0:0:0:50:Sub Snare.wav
182,192,269500,1,0,0:0:0:50:Sub Snare.wav
109,192,269500,1,0,0:0:0:0:
402,192,269567,1,0,0:0:0:0:
329,192,269567,1,0,0:0:0:50:Sub Snare.wav
182,192,269634,1,0,0:0:0:50:Sub Snare.wav
109,192,269634,1,0,0:0:0:0:
402,192,269700,1,0,0:0:0:0:
329,192,269700,1,0,0:0:0:50:Sub Snare.wav
182,192,269767,1,0,0:0:0:50:Sub Snare.wav
109,192,269767,1,0,0:0:0:50:Highlight.wav
402,192,269834,1,0,0:0:0:0:
329,192,269834,1,0,0:0:0:50:Sub Snare.wav
109,192,269900,1,0,0:0:0:0:
182,192,269900,1,0,0:0:0:50:Sub Snare.wav
402,192,269967,1,0,0:0:0:0:
329,192,269967,1,0,0:0:0:50:Sub Snare.wav
109,192,270034,1,0,0:0:0:0:
182,192,270034,1,0,0:0:0:50:Sub Snare.wav
402,192,270100,1,0,0:0:0:0:
329,192,270100,1,0,0:0:0:50:Sub Snare.wav
182,192,270167,1,0,0:0:0:50:Sub Snare.wav
109,192,270167,1,0,0:0:0:0:
402,192,270234,1,0,0:0:0:0:
329,192,270234,1,0,0:0:0:50:Sub Snare.wav
109,192,270300,1,0,0:0:0:0:
475,192,270300,1,0,0:0:0:50:Kick.wav
256,192,270300,1,0,0:0:0:50:Sub Snare.wav
36,192,270300,1,0,0:0:0:50:Highlight.wav
402,192,270367,1,0,0:0:0:0:
329,192,270367,1,0,0:0:0:50:Sub Snare.wav
182,192,270434,1,0,0:0:0:50:Sub Snare.wav
109,192,270434,1,0,0:0:0:0:
329,192,270500,1,0,0:0:0:0:
256,192,270500,1,0,0:0:0:50:Sub Snare.wav
36,192,270567,1,0,0:0:0:0:
109,192,270567,1,0,0:0:0:50:Sub Snare.wav
475,192,270567,1,0,0:0:0:50:Kick.wav
402,192,270567,1,0,0:0:0:0:
256,192,270634,1,0,0:0:0:0:
182,192,270634,1,0,0:0:0:50:Sub Snare.wav
402,192,270700,1,0,0:0:0:0:
329,192,270700,1,0,0:0:0:50:Sub Snare.wav
109,192,270767,1,0,0:0:0:0:
182,192,270767,1,0,0:0:0:50:Sub Snare.wav
402,192,270834,1,0,0:0:0:50:Kick.wav
36,192,270834,1,0,0:0:0:50:Sub Snare.wav
256,192,270834,1,0,0:0:0:50:Highlight.wav
475,192,270834,1,0,0:0:0:0:
329,192,270900,1,0,0:0:0:0:
109,192,270900,1,0,0:0:0:50:Kick.wav
182,192,270900,1,0,0:0:0:50:Sub Snare.wav
36,192,270967,1,0,0:0:0:50:Kick.wav
256,192,270967,1,0,0:0:0:0:
475,192,270967,1,0,0:0:0:50:Sub Snare.wav
402,192,271034,1,0,0:0:0:50:Sub Snare.wav
329,192,271034,1,0,0:0:0:0:
182,192,271034,1,0,0:0:0:50:Kick.wav
475,192,271100,1,0,0:0:0:0:
36,192,271100,1,0,0:0:0:50:Kick.wav
109,192,271100,1,0,0:0:0:50:Sub Snare.wav
182,192,271167,1,0,0:0:0:0:
329,192,271167,1,0,0:0:0:50:Kick.wav
402,192,271167,1,0,0:0:0:50:Sub Snare.wav
475,192,271234,1,0,0:0:0:0:
256,192,271234,1,0,0:0:0:50:Kick.wav
36,192,271234,1,0,0:0:0:50:Sub Snare.wav
109,192,271300,1,0,0:0:0:50:Kick.wav
182,192,271300,1,0,0:0:0:50:Sub Snare.wav
329,192,271300,1,0,0:0:0:0:
402,192,271367,1,0,0:0:0:50:CrashL.wav
475,192,271367,1,0,0:0:0:0:
36,192,271367,1,0,0:0:0:50:Kick.wav
256,192,271367,1,0,0:0:0:50:Highlight.wav
109,192,271434,1,0,0:0:0:0:
402,192,271500,1,0,0:0:0:0:
182,192,271500,1,0,0:0:0:0:
329,192,271567,1,0,0:0:0:0:
256,192,271634,1,0,0:0:0:0:
109,192,271634,1,0,0:0:0:0:
36,192,271634,1,0,0:0:0:50:Snare.wav
475,192,271634,1,0,0:0:0:0:
402,192,271700,1,0,0:0:0:0:
182,192,271767,1,0,0:0:0:0:
475,192,271767,1,0,0:0:0:50:Kick.wav
329,192,271767,1,0,0:0:0:0:
36,192,271767,1,0,0:0:0:0:
109,192,271834,1,0,0:0:0:0:
402,192,271900,1,0,0:0:0:0:
36,192,271900,1,0,0:0:0:0:
475,192,271900,1,0,0:0:0:50:Kick.wav
256,192,271900,1,0,0:0:0:0:
329,192,271967,1,0,0:0:0:0:
109,192,272034,1,0,0:0:0:0:
182,192,272034,1,0,0:0:0:50:Highlight.wav
402,192,272034,1,0,0:0:0:0:
256,192,272100,1,0,0:0:0:0:
36,192,272167,1,0,0:0:0:0:
109,192,272167,1,0,0:0:0:0:
475,192,272167,1,0,0:0:0:50:Snare.wav
329,192,272167,1,0,0:0:0:50:Highlight.wav
256,192,272234,1,0,0:0:0:0:
36,192,272300,1,0,0:0:0:0:
402,192,272300,1,0,0:0:0:0:
182,192,272300,1,0,0:0:0:50:Highlight.wav
329,192,272367,1,0,0:0:0:0:
109,192,272434,1,0,0:0:0:50:Highlight.wav
36,192,272434,1,0,0:0:0:0:
475,192,272434,1,0,0:0:0:50:Kick.wav
256,192,272434,1,0,0:0:0:0:
402,192,272500,1,0,0:0:0:0:
329,192,272567,1,0,0:0:0:0:
475,192,272567,1,0,0:0:0:0:
109,192,272567,1,0,0:0:0:50:Highlight.wav
182,192,272634,1,0,0:0:0:0:
402,192,272700,1,0,0:0:0:0:
36,192,272700,1,0,0:0:0:0:
475,192,272700,1,0,0:0:0:50:Snare.wav
256,192,272700,1,0,0:0:0:50:Highlight.wav
109,192,272767,1,0,0:0:0:0:
182,192,272834,1,0,0:0:0:0:
329,192,272834,1,0,0:0:0:50:Highlight.wav
475,192,272834,1,0,0:0:0:0:
36,192,272900,1,0,0:0:0:50:Sub Snare.wav
109,192,272900,1,0,0:0:0:0:
402,192,272967,1,0,0:0:0:0:
329,192,272967,1,0,0:0:0:0:
475,192,272967,1,0,0:0:0:50:Kick.wav
182,192,272967,1,0,0:0:0:0:
256,192,273034,1,0,0:0:0:0:
182,192,273100,1,0,0:0:0:0:
402,192,273100,1,0,0:0:0:0:
109,192,273100,1,0,0:0:0:50:Snare.wav
36,192,273100,1,0,0:0:0:50:Highlight.wav
329,192,273167,1,0,0:0:0:0:
256,192,273234,1,0,0:0:0:0:
36,192,273234,1,0,0:0:0:0:
475,192,273234,1,0,0:0:0:50:Snare.wav
109,192,273234,1,0,0:0:0:0:
402,192,273300,1,0,0:0:0:0:
182,192,273367,1,0,0:0:0:0:
329,192,273367,1,0,0:0:0:0:
36,192,273367,1,0,0:0:0:50:Highlight.wav
256,192,273434,1,0,0:0:0:0:
402,192,273434,1,0,0:0:0:50:Highlight.wav
109,192,273500,1,0,0:0:0:0:
329,192,273500,1,0,0:0:0:0:
475,192,273500,1,0,0:0:0:50:Kick.wav
36,192,273500,1,0,0:0:0:50:Highlight.wav
182,192,273567,1,0,0:0:0:0:
402,192,273634,1,0,0:0:0:0:
256,192,273634,1,0,0:0:0:0:
475,192,273700,1,0,0:0:0:0:
36,192,273767,1,0,0:0:0:0:
109,192,273767,1,0,0:0:0:0:
182,192,273767,1,0,0:0:0:50:Snare.wav
402,192,273767,1,0,0:0:0:0:
256,192,273834,1,0,0:0:0:0:
36,192,273900,1,0,0:0:0:0:
329,192,273900,1,0,0:0:0:0:
475,192,273900,1,0,0:0:0:50:Kick.wav
109,192,273900,1,0,0:0:0:0:
182,192,273967,1,0,0:0:0:0:
475,192,274034,1,0,0:0:0:0:
256,192,274034,1,0,0:0:0:50:Sub Rhythm-2.wav
36,192,274034,1,0,0:0:0:50:Kick.wav
402,192,274034,1,0,0:0:0:50:Highlight.wav
329,192,274100,1,0,0:0:0:50:Sub Rhythm-2.wav
109,192,274100,1,0,0:0:0:0:
36,192,274167,1,0,0:0:0:0:
182,192,274167,1,0,0:0:0:50:Highlight.wav
402,192,274167,1,0,0:0:0:50:Sub Rhythm-2.wav
475,192,274234,1,0,0:0:0:50:Sub Rhythm-2.wav
256,192,274234,1,0,0:0:0:0:
109,192,274300,1,0,0:0:0:50:Highlight.wav
329,192,274300,1,0,0:0:0:50:Sub Rhythm-2.wav
36,192,274300,1,0,0:0:0:50:Snare.wav
402,192,274300,1,0,0:0:0:0:
256,192,274367,1,0,0:0:0:0:
475,192,274367,1,0,0:0:0:50:Sub Rhythm-2.wav
402,192,274434,1,0,0:0:0:50:Sub Rhythm-2.wav
36,192,274434,1,0,0:0:0:0:
182,192,274434,1,0,0:0:0:50:Highlight.wav
329,192,274500,1,0,0:0:0:50:Sub Rhythm-2.wav
109,192,274500,1,0,0:0:0:0:
402,192,274567,1,0,0:0:0:0:
256,192,274567,1,0,0:0:0:0:
475,192,274567,1,0,0:0:0:50:Kick.wav
36,192,274567,1,0,0:0:0:0:
109,192,274634,1,0,0:0:0:0:
182,192,274700,1,0,0:0:0:50:Highlight.wav
475,192,274700,1,0,0:0:0:0:
402,192,274700,1,0,0:0:0:0:
329,192,274767,1,0,0:0:0:0:
109,192,274834,1,0,0:0:0:0:
256,192,274834,1,0,0:0:0:0:
475,192,274834,1,0,0:0:0:50:Snare.wav
36,192,274834,1,0,0:0:0:50:Highlight.wav
402,192,274900,1,0,0:0:0:0:
329,192,274967,1,0,0:0:0:0:
36,192,274967,1,0,0:0:0:50:Highlight.wav
182,192,274967,1,0,0:0:0:50:Sub Snare.wav
256,192,275034,1,0,0:0:0:0:
402,192,275034,1,0,0:0:0:50:Sub Snare.wav
36,192,275100,1,0,0:0:0:0:
109,192,275100,1,0,0:0:0:0:
475,192,275100,1,0,0:0:0:50:Kick.wav
329,192,275100,1,0,0:0:0:0:
182,192,275167,1,0,0:0:0:0:
256,192,275234,1,0,0:0:0:0:
36,192,275234,1,0,0:0:0:50:Sub Rhythm-2.wav
402,192,275234,1,0,0:0:0:50:Snare.wav
475,192,275234,1,0,0:0:0:50:Highlight.wav
109,192,275300,1,0,0:0:0:50:Sub Rhythm-2.wav
329,192,275300,1,0,0:0:0:0:
182,192,275367,1,0,0:0:0:50:Sub Rhythm-2.wav
402,192,275367,1,0,0:0:0:0:
475,192,275367,1,0,0:0:0:50:Kick.wav
36,192,275367,1,0,0:0:0:50:Highlight.wav
256,192,275434,1,0,0:0:0:50:Sub Rhythm-2.wav
109,192,275434,1,0,0:0:0:0:
475,192,275500,1,0,0:0:0:0:
329,192,275500,1,0,0:0:0:50:Sub Rhythm-2.wav
182,192,275500,1,0,0:0:0:50:Highlight.wav
256,192,275567,1,0,0:0:0:0:
402,192,275567,1,0,0:0:0:50:Sub Rhythm-2.wav
36,192,275634,1,0,0:0:0:0:
109,192,275634,1,0,0:0:0:0:
475,192,275634,1,0,0:0:0:50:Kick.wav
329,192,275634,1,0,0:0:0:0:
182,192,275700,1,0,0:0:0:0:
402,192,275767,1,0,0:0:0:0:
329,192,275767,1,0,0:0:0:0:
109,192,275767,1,0,0:0:0:50:Highlight.wav
256,192,275834,1,0,0:0:0:0:
402,192,275900,1,0,0:0:0:0:
182,192,275900,1,0,0:0:0:0:
475,192,275900,1,0,0:0:0:50:Snare.wav
36,192,275900,1,0,0:0:0:50:Highlight.wav
329,192,275967,1,0,0:0:0:0:
109,192,276034,1,0,0:0:0:0:
475,192,276034,1,0,0:0:0:0:
256,192,276034,1,0,0:0:0:50:Kick.wav
36,192,276034,1,0,0:0:0:50:Highlight.wav
402,192,276100,1,0,0:0:0:0:
329,192,276167,1,0,0:0:0:0:
36,192,276167,1,0,0:0:0:0:
475,192,276167,1,0,0:0:0:50:Kick.wav
109,192,276167,1,0,0:0:0:50:Highlight.wav
182,192,276234,1,0,0:0:0:0:
36,192,276300,1,0,0:0:0:0:
402,192,276300,1,0,0:0:0:0:
256,192,276300,1,0,0:0:0:50:Highlight.wav
182,192,276367,1,0,0:0:0:0:
475,192,276434,1,0,0:0:0:0:
329,192,276434,1,0,0:0:0:0:
109,192,276434,1,0,0:0:0:50:Snare.wav
36,192,276434,1,0,0:0:0:50:Highlight.wav
256,192,276500,1,0,0:0:0:0:
475,192,276567,1,0,0:0:0:0:
329,192,276567,1,0,0:0:0:0:
109,192,276567,1,0,0:0:0:50:Highlight.wav
182,192,276634,1,0,0:0:0:0:
36,192,276700,1,0,0:0:0:0:
402,192,276700,1,0,0:0:0:0:
475,192,276700,1,0,0:0:0:50:Kick.wav
256,192,276700,1,0,0:0:0:0:
109,192,276767,1,0,0:0:0:0:
329,192,276834,1,0,0:0:0:0:
182,192,276834,1,0,0:0:0:0:
475,192,276834,1,0,0:0:0:50:Highlight.wav
402,192,276900,1,0,0:0:0:0:
36,192,276967,1,0,0:0:0:0:
109,192,276967,1,0,0:0:0:0:
475,192,276967,1,0,0:0:0:50:Snare.wav
256,192,276967,1,0,0:0:0:50:Highlight.wav
182,192,277034,1,0,0:0:0:0:
329,192,277034,1,0,0:0:0:50:Highlight.wav
109,192,277100,1,0,0:0:0:0:
256,192,277100,1,0,0:0:0:50:Highlight.wav
402,192,277167,1,0,0:0:0:0:
475,192,277167,1,0,0:0:0:50:Sub Snare.wav
329,192,277234,1,0,0:0:0:0:
109,192,277234,1,0,0:0:0:0:
36,192,277234,1,0,0:0:0:50:Kick.wav
182,192,277234,1,0,0:0:0:0:
402,192,277300,1,0,0:0:0:0:
256,192,277367,1,0,0:0:0:0:
109,192,277367,1,0,0:0:0:0:
475,192,277367,1,0,0:0:0:50:Snare.wav
36,192,277367,1,0,0:0:0:50:Highlight.wav
329,192,277434,1,0,0:0:0:0:
402,192,277500,1,0,0:0:0:0:
36,192,277500,1,0,0:0:0:0:
475,192,277500,1,0,0:0:0:50:Kick.wav
182,192,277500,1,0,0:0:0:50:Highlight.wav
256,192,277567,1,0,0:0:0:0:
182,192,277634,1,0,0:0:0:0:
402,192,277634,1,0,0:0:0:0:
109,192,277634,1,0,0:0:0:50:Highlight.wav
329,192,277700,1,0,0:0:0:0:
36,192,277767,1,0,0:0:0:0:
109,192,277767,1,0,0:0:0:50:Highlight.wav
475,192,277767,1,0,0:0:0:50:Kick.wav
256,192,277767,1,0,0:0:0:50:Sub Rhythm-2.wav
402,192,277834,1,0,0:0:0:0:
109,192,277900,1,0,0:0:0:50:Highlight.wav
36,192,277900,1,0,0:0:0:0:
329,192,277900,1,0,0:0:0:0:
475,192,277967,1,0,0:0:0:0:
402,192,277967,1,0,0:0:0:50:Sub Rhythm-2.wav
182,192,277967,1,0,0:0:0:0:
402,192,278034,1,0,0:0:0:50:Sub Rhythm-2.wav
256,192,278034,1,0,0:0:0:0:
475,192,278034,1,0,0:0:0:50:Snare.wav
36,192,278034,1,0,0:0:0:50:Highlight.wav
109,192,278100,1,0,0:0:0:0:
475,192,278167,1,0,0:0:0:0:
182,192,278167,1,0,0:0:0:50:Highlight.wav
329,192,278167,1,0,0:0:0:50:Kick.wav
36,192,278234,1,0,0:0:0:50:Sub Rhythm-2.wav
402,192,278234,1,0,0:0:0:0:
109,192,278234,1,0,0:0:0:0:
36,192,278300,1,0,0:0:0:50:Sub Rhythm-2.wav
109,192,278300,1,0,0:0:0:0:
475,192,278300,1,0,0:0:0:50:Kick.wav
256,192,278300,1,0,0:0:0:50:Highlight.wav
402,192,278367,1,0,0:0:0:0:
329,192,278434,1,0,0:0:0:0:
182,192,278434,1,0,0:0:0:0:
36,192,278434,1,0,0:0:0:50:Highlight.wav
109,192,278500,1,0,0:0:0:0:
402,192,278500,1,0,0:0:0:0:
475,192,278500,1,0,0:0:0:50:Sub Rhythm-2.wav
402,192,278567,1,0,0:0:0:50:Sub Rhythm-2.wav
36,192,278567,1,0,0:0:0:0:
475,192,278567,1,0,0:0:0:50:Snare.wav
256,192,278567,1,0,0:0:0:50:Highlight.wav
182,192,278634,1,0,0:0:0:0:
329,192,278700,1,0,0:0:0:0:
475,192,278700,1,0,0:0:0:0:
109,192,278700,1,0,0:0:0:50:Highlight.wav
36,192,278700,1,0,0:0:0:50:Sub Rhythm-2.wav
256,192,278767,1,0,0:0:0:0:
402,192,278834,1,0,0:0:0:0:
36,192,278834,1,0,0:0:0:0:
475,192,278834,1,0,0:0:0:50:Kick.wav
182,192,278834,1,0,0:0:0:0:
256,192,278900,1,0,0:0:0:0:
402,192,278967,1,0,0:0:0:0:
329,192,278967,1,0,0:0:0:0:
109,192,278967,1,0,0:0:0:50:Highlight.wav
182,192,279034,1,0,0:0:0:0:
475,192,279100,1,0,0:0:0:0:
256,192,279100,1,0,0:0:0:0:
402,192,279100,1,0,0:0:0:50:Snare.wav
36,192,279100,1,0,0:0:0:50:Highlight.wav
109,192,279167,1,0,0:0:0:0:
182,192,279234,1,0,0:0:0:0:
329,192,279234,1,0,0:0:0:0:
475,192,279234,1,0,0:0:0:50:Highlight.wav
402,192,279300,1,0,0:0:0:50:Highlight.wav
256,192,279300,1,0,0:0:0:50:Sub Snare.wav
36,192,279367,1,0,0:0:0:0:
329,192,279367,1,0,0:0:0:0:
475,192,279367,1,0,0:0:0:50:Kick.wav
182,192,279367,1,0,0:0:0:50:Highlight.wav
109,192,279434,1,0,0:0:0:0:
475,192,279500,1,0,0:0:0:0:
256,192,279500,1,0,0:0:0:0:
36,192,279500,1,0,0:0:0:50:Snare.wav
402,192,279500,1,0,0:0:0:0:
329,192,279567,1,0,0:0:0:0:
182,192,279567,1,0,0:0:0:50:Highlight.wav
36,192,279634,1,0,0:0:0:0:
475,192,279634,1,0,0:0:0:0:
109,192,279634,1,0,0:0:0:50:Kick.wav
256,192,279634,1,0,0:0:0:0:
402,192,279700,1,0,0:0:0:0:
329,192,279767,1,0,0:0:0:0:
182,192,279767,1,0,0:0:0:0:
36,192,279767,1,0,0:0:0:50:Highlight.wav
109,192,279834,1,0,0:0:0:0:
475,192,279900,1,0,0:0:0:50:Sub Rhythm-2.wav
36,192,279900,1,0,0:0:0:0:
329,192,279900,1,0,0:0:0:50:CrashL.wav
402,192,279900,1,0,0:0:0:50:Kick.wav
256,192,279900,1,0,0:0:0:50:Highlight.wav
182,192,279967,1,0,0:0:0:0:
109,192,280034,1,0,0:0:0:50:Sub Rhythm-2.wav
329,192,280034,1,0,0:0:0:0:
475,192,280100,1,0,0:0:0:0:
402,192,280100,1,0,0:0:0:50:Sub Rhythm-2.wav
256,192,280100,1,0,0:0:0:50:Highlight.wav
182,192,280167,1,0,0:0:0:50:Sub Rhythm-2.wav
109,192,280167,1,0,0:0:0:0:
36,192,280167,1,0,0:0:0:50:Snare.wav
402,192,280234,1,0,0:0:0:50:Sub Rhythm-2.wav
475,192,280234,1,0,0:0:0:0:
329,192,280300,1,0,0:0:0:50:Sub Rhythm-2.wav
109,192,280300,1,0,0:0:0:50:Highlight.wav
182,192,280300,1,0,0:0:0:50:Kick.wav
36,192,280300,1,0,0:0:0:0:
402,192,280367,1,0,0:0:0:50:Sub Rhythm-2.wav
256,192,280367,1,0,0:0:0:0:
475,192,280434,1,0,0:0:0:50:Sub Rhythm-2.wav
109,192,280434,1,0,0:0:0:0:
329,192,280434,1,0,0:0:0:50:Kick.wav
36,192,280500,1,0,0:0:0:0:
182,192,280500,1,0,0:0:0:50:Sub Rhythm-2.wav
402,192,280500,1,0,0:0:0:50:Highlight.wav
109,192,280567,1,0,0:0:0:0:
256,192,280567,1,0,0:0:0:50:Sub Rhythm-2.wav
182,192,280634,1,0,0:0:0:0:
329,192,280634,1,0,0:0:0:50:Sub Rhythm-2.wav
402,192,280700,1,0,0:0:0:50:Sub Rhythm-2.wav
256,192,280700,1,0,0:0:0:0:
475,192,280700,1,0,0:0:0:50:Snare.wav
36,192,280700,1,0,0:0:0:50:Highlight.wav
329,192,280767,1,0,0:0:0:50:Sub Rhythm-2.wav
109,192,280767,1,0,0:0:0:50:Highlight.wav
402,192,280834,1,0,0:0:0:50:Sub Rhythm-2.wav
182,192,280834,1,0,0:0:0:50:Highlight.wav
475,192,280900,1,0,0:0:0:50:Sub Rhythm-2.wav
256,192,280900,1,0,0:0:0:50:Highlight.wav
109,192,280967,1,0,0:0:0:0:
182,192,280967,1,0,0:0:0:50:Sub Rhythm-2.wav
402,192,280967,1,0,0:0:0:50:Kick.wav
36,192,280967,1,0,0:0:0:50:Highlight.wav
329,192,281034,1,0,0:0:0:0:
109,192,281100,1,0,0:0:0:0:
256,192,281100,1,0,0:0:0:50:Sub Rhythm-2.wav
182,192,281167,1,0,0:0:0:50:Highlight.wav
402,192,281167,1,0,0:0:0:50:Sub Rhythm-2.wav
475,192,281167,1,0,0:0:0:0:
36,192,281234,1,0,0:0:0:0:
109,192,281234,1,0,0:0:0:50:Sub Rhythm-2.wav
329,192,281234,1,0,0:0:0:50:Snare.wav
475,192,281300,1,0,0:0:0:0:
256,192,281300,1,0,0:0:0:50:Sub Rhythm-2.wav
109,192,281367,1,0,0:0:0:50:Highlight.wav
36,192,281367,1,0,0:0:0:50:Sub Rhythm-2.wav
402,192,281367,1,0,0:0:0:0:
182,192,281434,1,0,0:0:0:50:Sub Rhythm-2.wav
329,192,281434,1,0,0:0:0:50:Sub Snare.wav
256,192,281500,1,0,0:0:0:0:
402,192,281500,1,0,0:0:0:0:
475,192,281500,1,0,0:0:0:50:Kick.wav
36,192,281500,1,0,0:0:0:50:Sub Rhythm-2.wav
182,192,281567,1,0,0:0:0:0:
329,192,281567,1,0,0:0:0:50:Sub Rhythm-2.wav
109,192,281567,1,0,0:0:0:50:Highlight.wav
256,192,281634,1,0,0:0:0:0:
36,192,281634,1,0,0:0:0:50:Sub Rhythm-2.wav
475,192,281634,1,0,0:0:0:50:Snare.wav
402,192,281700,1,0,0:0:0:50:Sub Rhythm-2.wav
182,192,281700,1,0,0:0:0:0:
36,192,281767,1,0,0:0:0:0:
109,192,281767,1,0,0:0:0:50:Highlight.wav
475,192,281767,1,0,0:0:0:50:Kick.wav
329,192,281767,1,0,0:0:0:50:Sub Rhythm-2.wav
402,192,281834,1,0,0:0:0:50:Highlight.wav
256,192,281834,1,0,0:0:0:50:Sub Rhythm-2.wav
329,192,281900,1,0,0:0:0:50:Highlight.wav
182,192,281900,1,0,0:0:0:50:Sub Rhythm-2.wav
256,192,281967,1,0,0:0:0:50:Highlight.wav
109,192,281967,1,0,0:0:0:50:Sub Rhythm-2.wav
475,192,282034,1,0,0:0:0:0:
182,192,282034,1,0,0:0:0:50:Highlight.wav
402,192,282034,1,0,0:0:0:50:Kick.wav
36,192,282034,1,0,0:0:0:50:Sub Rhythm-2.wav
256,192,282100,1,0,0:0:0:0:
475,192,282167,1,0,0:0:0:50:Highlight.wav
109,192,282167,1,0,0:0:0:0:
329,192,282167,1,0,0:0:0:0:
182,192,282234,1,0,0:0:0:0:
256,192,282300,1,0,0:0:0:0:
109,192,282300,1,0,0:0:0:0:
402,192,282300,1,0,0:0:0:50:Snare.wav
36,192,282300,1,0,0:0:0:50:Highlight.wav
475,192,282367,1,0,0:0:0:0:
329,192,282434,1,0,0:0:0:0:
402,192,282434,1,0,0:0:0:0:
182,192,282434,1,0,0:0:0:50:Kick.wav
36,192,282434,1,0,0:0:0:50:Highlight.wav
109,192,282500,1,0,0:0:0:0:
36,192,282567,1,0,0:0:0:0:
402,192,282567,1,0,0:0:0:0:
475,192,282567,1,0,0:0:0:50:Kick.wav
256,192,282567,1,0,0:0:0:50:Highlight.wav
182,192,282634,1,0,0:0:0:0:
402,192,282700,1,0,0:0:0:0:
329,192,282700,1,0,0:0:0:50:Highlight.wav
109,192,282700,1,0,0:0:0:0:
256,192,282767,1,0,0:0:0:0:
475,192,282834,1,0,0:0:0:0:
402,192,282834,1,0,0:0:0:0:
182,192,282834,1,0,0:0:0:50:Snare.wav
36,192,282834,1,0,0:0:0:50:Highlight.wav
256,192,282900,1,0,0:0:0:0:
109,192,282967,1,0,0:0:0:0:
329,192,282967,1,0,0:0:0:0:
475,192,282967,1,0,0:0:0:50:Highlight.wav
402,192,283034,1,0,0:0:0:50:Highlight.wav
182,192,283034,1,0,0:0:0:0:
36,192,283100,1,0,0:0:0:0:
256,192,283100,1,0,0:0:0:50:Sub Rhythm-2.wav
475,192,283100,1,0,0:0:0:50:Kick.wav
109,192,283100,1,0,0:0:0:0:
402,192,283167,1,0,0:0:0:0:
182,192,283234,1,0,0:0:0:0:
329,192,283234,1,0,0:0:0:50:Sub Rhythm-2.wav
256,192,283300,1,0,0:0:0:50:Sub Rhythm-2.wav
36,192,283300,1,0,0:0:0:0:
109,192,283367,1,0,0:0:0:0:
402,192,283367,1,0,0:0:0:0:
475,192,283367,1,0,0:0:0:50:Snare.wav
329,192,283367,1,0,0:0:0:50:Sub Rhythm-2.wav
182,192,283434,1,0,0:0:0:50:Sub Rhythm-2.wav
36,192,283434,1,0,0:0:0:0:
109,192,283500,1,0,0:0:0:0:
256,192,283500,1,0,0:0:0:50:Sub Rhythm-2.wav
475,192,283500,1,0,0:0:0:50:Highlight.wav
329,192,283567,1,0,0:0:0:50:Sub Rhythm-2.wav
182,192,283567,1,0,0:0:0:50:Highlight.wav
402,192,283567,1,0,0:0:0:50:Sub Snare.wav
475,192,283634,1,0,0:0:0:50:Sub Rhythm-2.wav
109,192,283634,1,0,0:0:0:0:
256,192,283634,1,0,0:0:0:50:Kick.wav
36,192,283634,1,0,0:0:0:50:Highlight.wav
402,192,283700,1,0,0:0:0:50:Sub Rhythm-2.wav
182,192,283700,1,0,0:0:0:0:
109,192,283767,1,0,0:0:0:0:
329,192,283767,1,0,0:0:0:50:Sub Rhythm-2.wav
36,192,283767,1,0,0:0:0:50:Snare.wav
402,192,283834,1,0,0:0:0:0:
256,192,283834,1,0,0:0:0:50:Sub Rhythm-2.wav
475,192,283834,1,0,0:0:0:50:Highlight.wav
36,192,283900,1,0,0:0:0:0:
329,192,283900,1,0,0:0:0:50:Sub Rhythm-2.wav
109,192,283900,1,0,0:0:0:50:Kick.wav
402,192,283967,1,0,0:0:0:50:Sub Rhythm-2.wav
182,192,283967,1,0,0:0:0:0:
475,192,284034,1,0,0:0:0:50:Sub Rhythm-2.wav
36,192,284034,1,0,0:0:0:0:
256,192,284034,1,0,0:0:0:50:Highlight.wav
109,192,284100,1,0,0:0:0:0:
329,192,284100,1,0,0:0:0:50:Sub Rhythm-2.wav
36,192,284167,1,0,0:0:0:0:
402,192,284167,1,0,0:0:0:50:Sub Rhythm-2.wav
475,192,284167,1,0,0:0:0:50:Kick.wav
182,192,284167,1,0,0:0:0:50:Highlight.wav
256,192,284234,1,0,0:0:0:0:
182,192,284300,1,0,0:0:0:50:Highlight.wav
109,192,284300,1,0,0:0:0:0:
402,192,284300,1,0,0:0:0:0:
329,192,284367,1,0,0:0:0:0:
256,192,284434,1,0,0:0:0:0:
36,192,284434,1,0,0:0:0:0:
475,192,284434,1,0,0:0:0:50:Snare.wav
109,192,284434,1,0,0:0:0:50:Highlight.wav
402,192,284500,1,0,0:0:0:0:
475,192,284567,1,0,0:0:0:0:
109,192,284567,1,0,0:0:0:0:
256,192,284567,1,0,0:0:0:50:Highlight.wav
182,192,284634,1,0,0:0:0:0:
402,192,284700,1,0,0:0:0:0:
329,192,284700,1,0,0:0:0:50:BeLL2.wav
36,192,284700,1,0,0:0:0:50:Kick.wav
475,192,284700,1,0,0:0:0:0:
109,192,284767,1,0,0:0:0:0:
182,192,284834,1,0,0:0:0:0:
329,192,284834,1,0,0:0:0:50:Highlight.wav
256,192,284900,1,0,0:0:0:50:BeLL2.wav
402,192,284900,1,0,0:0:0:50:Highlight.wav
475,192,284900,1,0,0:0:0:0:
109,192,284900,1,0,0:0:0:0:
36,192,284967,1,0,0:0:0:50:Highlight.wav
182,192,284967,1,0,0:0:0:50:Snare.wav
329,192,285034,1,0,0:0:0:0:
475,192,285034,1,0,0:0:0:50:Highlight.wav
109,192,285100,1,0,0:0:0:0:
256,192,285100,1,0,0:0:0:0:
36,192,285100,1,0,0:0:0:50:Highlight.wav
402,192,285100,1,0,0:0:0:50:BeLL2.wav
182,192,285167,1,0,0:0:0:0:
329,192,285167,1,0,0:0:0:50:Highlight.wav
256,192,285234,1,0,0:0:0:0:
109,192,285234,1,0,0:0:0:0:
36,192,285234,1,0,0:0:0:50:Kick.wav
475,192,285234,1,0,0:0:0:50:Highlight.wav
402,192,285300,1,0,0:0:0:0:
36,192,285367,1,0,0:0:0:0:
329,192,285367,1,0,0:0:0:0:
182,192,285367,1,0,0:0:0:50:Highlight.wav
109,192,285434,1,0,0:0:0:0:
475,192,285500,1,0,0:0:0:0:
36,192,285500,1,0,0:0:0:0:
402,192,285500,1,0,0:0:0:50:Snare.wav
256,192,285500,1,0,0:0:0:50:Highlight.wav
182,192,285567,1,0,0:0:0:0:
329,192,285634,1,0,0:0:0:0:
475,192,285634,1,0,0:0:0:0:
109,192,285634,1,0,0:0:0:50:Highlight.wav
256,192,285700,1,0,0:0:0:0:
402,192,285700,1,0,0:0:0:50:Sub Snare.wav
329,192,285767,1,0,0:0:0:0:
36,192,285767,1,0,0:0:0:0:
182,192,285767,1,0,0:0:0:50:Kick.wav
475,192,285767,1,0,0:0:0:50:Highlight.wav
109,192,285834,1,0,0:0:0:0:
36,192,285900,1,0,0:0:0:0:
402,192,285900,1,0,0:0:0:0:
475,192,285900,1,0,0:0:0:50:Snare.wav
256,192,285900,1,0,0:0:0:50:Highlight.wav
182,192,285967,1,0,0:0:0:0:
36,192,286034,1,0,0:0:0:0:
329,192,286034,1,0,0:0:0:0:
475,192,286034,1,0,0:0:0:50:Kick.wav
109,192,286034,1,0,0:0:0:50:Highlight.wav
256,192,286100,1,0,0:0:0:0:
402,192,286167,1,0,0:0:0:0:
109,192,286167,1,0,0:0:0:0:
182,192,286167,1,0,0:0:0:50:Highlight.wav
329,192,286234,1,0,0:0:0:0:
256,192,286300,1,0,0:0:0:0:
402,192,286300,1,0,0:0:0:0:
475,192,286300,1,0,0:0:0:50:Kick.wav
36,192,286300,1,0,0:0:0:50:Highlight.wav
109,192,286367,1,0,0:0:0:0:
402,192,286434,1,0,0:0:0:0:
182,192,286434,1,0,0:0:0:0:
329,192,286500,1,0,0:0:0:0:
256,192,286567,1,0,0:0:0:0:
36,192,286567,1,0,0:0:0:0:
109,192,286567,1,0,0:0:0:50:Snare.wav
475,192,286567,1,0,0:0:0:0:
402,192,286634,1,0,0:0:0:0:
475,192,286700,1,0,0:0:0:0:
329,192,286700,1,0,0:0:0:0:
109,192,286700,1,0,0:0:0:50:Highlight.wav
182,192,286767,1,0,0:0:0:0:
36,192,286834,1,0,0:0:0:0:
402,192,286834,1,0,0:0:0:0:
256,192,286834,1,0,0:0:0:50:Highlight.wav
475,192,286834,1,0,0:0:0:50:Kick.wav
109,192,286900,1,0,0:0:0:0:
329,192,286900,1,0,0:0:0:50:Sub Snare.wav
402,192,286967,1,0,0:0:0:0:
475,192,286967,1,0,0:0:0:0:
182,192,286967,1,0,0:0:0:50:Highlight.wav
256,192,287034,1,0,0:0:0:0:
36,192,287100,1,0,0:0:0:0:
329,192,287100,1,0,0:0:0:0:
475,192,287100,1,0,0:0:0:50:Kick.wav
109,192,287100,1,0,0:0:0:50:Highlight.wav
256,192,287167,1,0,0:0:0:0:
402,192,287234,1,0,0:0:0:0:
475,192,287234,1,0,0:0:0:0:
182,192,287234,1,0,0:0:0:50:Sub Snare.wav
36,192,287234,1,0,0:0:0:50:Highlight.wav
109,192,287300,1,0,0:0:0:0:
329,192,287300,1,0,0:0:0:50:Sub Snare.wav
475,192,287367,1,0,0:0:0:50:Kick.wav
402,192,287367,1,0,0:0:0:0:
256,192,287367,1,0,0:0:0:0:
36,192,287367,1,0,0:0:0:0:
182,192,287434,1,0,0:0:0:0:
475,192,287500,1,0,0:0:0:0:
36,192,287500,1,0,0:0:0:0:
329,192,287500,1,0,0:0:0:50:Sub Snare.wav
109,192,287500,1,0,0:0:0:50:Snare.wav
402,192,287567,1,0,0:0:0:0:
256,192,287567,1,0,0:0:0:50:Sub Snare.wav
475,192,287634,1,0,0:0:0:0:
36,192,287634,1,0,0:0:0:50:Highlight.wav
329,192,287634,1,0,0:0:0:50:Kick.wav
109,192,287634,1,0,0:0:0:0:
182,192,287700,1,0,0:0:0:0:
256,192,287767,1,0,0:0:0:0:
36,192,287767,1,0,0:0:0:0:
402,192,287767,1,0,0:0:0:50:Sub Snare.wav
475,192,287767,1,0,0:0:0:50:Snare.wav
329,192,287834,1,0,0:0:0:0:
182,192,287834,1,0,0:0:0:50:Sub Snare.wav
109,192,287900,1,0,0:0:0:50:Highlight.wav
256,192,287900,1,0,0:0:0:50:Kick.wav
36,192,287900,1,0,0:0:0:50:Sub Snare.wav
402,192,287967,1,0,0:0:0:0:
329,192,287967,1,0,0:0:0:50:Sub Snare.wav
475,192,287967,1,0,0:0:0:0:
109,192,288034,1,0,0:0:0:50:Snare.wav
182,192,288034,1,0,0:0:0:0:
36,192,288034,1,0,0:0:0:50:Sub Snare.wav
402,192,288100,1,0,0:0:0:0:
256,192,288100,1,0,0:0:0:0:
475,192,288100,1,0,0:0:0:50:Sub Snare.wav
329,192,288167,1,0,0:0:0:50:Kick.wav
109,192,288167,1,0,0:0:0:50:Highlight.wav
36,192,288167,1,0,0:0:0:50:Sub Snare.wav
402,192,288234,1,0,0:0:0:0:
475,192,288234,1,0,0:0:0:50:Sub Snare.wav
182,192,288234,1,0,0:0:0:0:
109,192,288300,1,0,0:0:0:0:
329,192,288300,1,0,0:0:0:50:Snare.wav
36,192,288300,1,0,0:0:0:50:Sub Snare.wav
256,192,288367,1,0,0:0:0:0:
402,192,288367,1,0,0:0:0:0:
475,192,288367,1,0,0:0:0:50:Sub Snare.wav
109,192,288434,128,0,288500:0:0:0:50:Highlight.wav
182,192,288434,128,0,288500:0:0:0:50:Sub Snare.wav
402,192,288500,128,0,288567:0:0:0:0:
329,192,288500,128,0,288567:0:0:0:50:Sub Snare.wav
109,192,288567,128,0,288634:0:0:0:0:
182,192,288567,128,0,288634:0:0:0:50:Sub Snare.wav
402,192,288634,128,0,288700:0:0:0:0:
329,192,288634,128,0,288700:0:0:0:50:Sub Snare.wav
36,192,288700,1,0,0:0:0:50:Snare.wav
475,192,288700,1,0,0:0:0:0:
256,192,288700,1,0,0:0:0:50:CrashL.wav
182,192,288700,1,0,0:0:0:0:
109,192,288700,1,0,0:0:0:0:
402,192,288767,1,0,0:0:0:0:
36,192,288834,1,0,0:0:0:0:
109,192,288834,1,0,0:0:0:0:
329,192,288834,1,0,0:0:0:0:
182,192,288834,1,0,0:0:0:50:Kick.wav
256,192,288900,1,0,0:0:0:0:
402,192,288967,1,0,0:0:0:0:
329,192,288967,1,0,0:0:0:0:
109,192,288967,1,0,0:0:0:50:Kick.wav
475,192,288967,1,0,0:0:0:0:
182,192,289034,1,0,0:0:0:0:
256,192,289100,1,0,0:0:0:50:Highlight.wav
36,192,289100,1,0,0:0:0:0:
402,192,289100,1,0,0:0:0:0:
109,192,289167,1,0,0:0:0:0:
36,192,289234,1,0,0:0:0:0:
475,192,289234,1,0,0:0:0:0:
329,192,289234,1,0,0:0:0:50:Highlight.wav
182,192,289234,1,0,0:0:0:50:Snare.wav
402,192,289300,1,0,0:0:0:0:
475,192,289367,1,0,0:0:0:0:
109,192,289367,1,0,0:0:0:0:
256,192,289367,1,0,0:0:0:50:Highlight.wav
182,192,289434,1,0,0:0:0:0:
109,192,289500,1,0,0:0:0:50:Highlight.wav
329,192,289500,1,0,0:0:0:50:Kick.wav
402,192,289500,1,0,0:0:0:0:
36,192,289500,1,0,0:0:0:0:
256,192,289567,1,0,0:0:0:0:
109,192,289634,1,0,0:0:0:0:
475,192,289634,1,0,0:0:0:0:
329,192,289634,1,0,0:0:0:50:Highlight.wav
182,192,289700,1,0,0:0:0:0:
36,192,289767,1,0,0:0:0:0:
256,192,289767,1,0,0:0:0:50:Snare.wav
475,192,289767,1,0,0:0:0:0:
402,192,289767,1,0,0:0:0:50:Highlight.wav
109,192,289834,1,0,0:0:0:0:
329,192,289900,1,0,0:0:0:0:
402,192,289900,1,0,0:0:0:50:Highlight.wav
182,192,289900,1,0,0:0:0:0:
109,192,289967,1,0,0:0:0:0:
256,192,289967,1,0,0:0:0:50:Sub Snare.wav
182,192,290034,1,0,0:0:0:50:Kick.wav
475,192,290034,1,0,0:0:0:0:
329,192,290034,1,0,0:0:0:0:
36,192,290034,1,0,0:0:0:0:
402,192,290100,1,0,0:0:0:0:
36,192,290167,1,0,0:0:0:0:
475,192,290167,1,0,0:0:0:50:Highlight.wav
256,192,290167,1,0,0:0:0:50:Snare.wav
109,192,290167,1,0,0:0:0:0:
329,192,290234,1,0,0:0:0:0:
36,192,290300,1,0,0:0:0:0:
182,192,290300,1,0,0:0:0:0:
109,192,290300,1,0,0:0:0:50:Kick.wav
402,192,290300,1,0,0:0:0:0:
329,192,290367,1,0,0:0:0:0:
475,192,290434,1,0,0:0:0:50:Highlight.wav
256,192,290434,1,0,0:0:0:0:
36,192,290434,1,0,0:0:0:0:
109,192,290500,1,0,0:0:0:0:
182,192,290567,1,0,0:0:0:0:
402,192,290567,1,0,0:0:0:50:Highlight.wav
329,192,290567,1,0,0:0:0:50:Kick.wav
475,192,290567,1,0,0:0:0:0:
36,192,290634,1,0,0:0:0:0:
475,192,290700,1,0,0:0:0:0:
256,192,290700,1,0,0:0:0:0:
109,192,290700,1,0,0:0:0:0:
329,192,290767,1,0,0:0:0:0:
182,192,290834,1,0,0:0:0:0:
36,192,290834,1,0,0:0:0:50:Sub Snare.wav
475,192,290834,1,0,0:0:0:0:
402,192,290834,1,0,0:0:0:50:Snare.wav
256,192,290900,1,0,0:0:0:0:
329,192,290900,1,0,0:0:0:50:Sub Snare.wav
182,192,290967,1,0,0:0:0:0:
109,192,290967,1,0,0:0:0:0:
36,192,290967,1,0,0:0:0:50:Kick.wav
475,192,290967,1,0,0:0:0:50:Sub Snare.wav
329,192,291034,1,0,0:0:0:0:
402,192,291034,1,0,0:0:0:50:Sub Snare.wav
182,192,291100,1,0,0:0:0:50:Highlight.wav
109,192,291100,1,0,0:0:0:0:
36,192,291100,1,0,0:0:0:50:Kick.wav
256,192,291100,1,0,0:0:0:50:Sub Snare.wav
475,192,291167,1,0,0:0:0:0:
402,192,291167,1,0,0:0:0:50:Sub Snare.wav
36,192,291234,1,0,0:0:0:50:Highlight.wav
109,192,291234,1,0,0:0:0:0:
329,192,291234,1,0,0:0:0:50:Sub Snare.wav
182,192,291300,1,0,0:0:0:0:
256,192,291300,1,0,0:0:0:50:Sub Snare.wav
109,192,291367,1,0,0:0:0:0:
402,192,291367,1,0,0:0:0:50:Highlight.wav
475,192,291367,1,0,0:0:0:50:Snare.wav
36,192,291367,1,0,0:0:0:50:Sub Snare.wav
256,192,291434,1,0,0:0:0:0:
329,192,291434,1,0,0:0:0:50:Sub Snare.wav
36,192,291500,1,0,0:0:0:0:
182,192,291500,1,0,0:0:0:50:Highlight.wav
475,192,291500,1,0,0:0:0:50:Sub Snare.wav
329,192,291567,1,0,0:0:0:0:
402,192,291567,1,0,0:0:0:50:Sub Snare.wav
256,192,291634,1,0,0:0:0:0:
36,192,291634,1,0,0:0:0:0:
475,192,291634,1,0,0:0:0:50:Kick.wav
109,192,291634,1,0,0:0:0:50:Sub Snare.wav
182,192,291700,1,0,0:0:0:0:
402,192,291700,1,0,0:0:0:50:Sub Snare.wav
36,192,291767,1,0,0:0:0:0:
109,192,291767,1,0,0:0:0:50:Highlight.wav
329,192,291767,1,0,0:0:0:50:Sub Snare.wav
402,192,291834,1,0,0:0:0:0:
256,192,291834,1,0,0:0:0:50:Sub Snare.wav
475,192,291900,1,0,0:0:0:0:
329,192,291900,1,0,0:0:0:50:Highlight.wav
36,192,291900,1,0,0:0:0:50:Kick.wav
182,192,291900,1,0,0:0:0:50:Sub Snare.wav
109,192,291967,1,0,0:0:0:0:
256,192,291967,1,0,0:0:0:50:Sub Snare.wav
182,192,292034,1,0,0:0:0:50:Sub Snare.wav
36,192,292034,1,0,0:0:0:50:CrashS.wav
329,192,292034,1,0,0:0:0:50:Highlight.wav
475,192,292034,1,0,0:0:0:50:Snare.wav
402,192,292034,1,0,0:0:0:0:
402,192,292300,1,0,0:0:0:50:Highlight.wav
475,192,292300,1,0,0:0:0:0:
256,192,292300,1,0,0:0:0:50:Kick.wav
36,192,292300,1,0,0:0:0:0:
109,192,292300,1,0,0:0:0:50:CrashS.wav
402,192,292567,1,0,0:0:0:50:Highlight.wav
109,192,292567,1,0,0:0:0:0:
36,192,292567,1,0,0:0:0:0:
182,192,292567,1,0,0:0:0:50:CrashS.wav
475,192,292567,1,0,0:0:0:0:
329,192,292567,1,0,0:0:0:50:Snare.wav
36,192,292700,1,0,0:0:0:0:
109,192,292700,1,0,0:0:0:0:
475,192,292700,1,0,0:0:0:0:
256,192,292700,1,0,0:0:0:50:CrashL.wav
402,192,292700,1,0,0:0:0:50:Kick.wav
182,192,292767,1,0,0:0:0:0:
402,192,292834,1,0,0:0:0:0:
329,192,292834,1,0,0:0:0:0:
109,192,292834,1,0,0:0:0:50:Highlight.wav
256,192,292900,1,0,0:0:0:0:
182,192,292967,1,0,0:0:0:0:
475,192,292967,1,0,0:0:0:0:
329,192,292967,1,0,0:0:0:50:Snare.wav
36,192,292967,1,0,0:0:0:50:Highlight.wav
402,192,293034,1,0,0:0:0:0:
109,192,293100,1,0,0:0:0:0:
256,192,293100,1,0,0:0:0:0:
36,192,293100,1,0,0:0:0:50:Highlight.wav
475,192,293100,1,0,0:0:0:50:Kick.wav
329,192,293167,1,0,0:0:0:0:
182,192,293234,1,0,0:0:0:0:
475,192,293234,1,0,0:0:0:0:
402,192,293234,1,0,0:0:0:50:Kick.wav
109,192,293234,1,0,0:0:0:50:Highlight.wav
36,192,293300,1,0,0:0:0:0:
182,192,293367,1,0,0:0:0:0:
329,192,293367,1,0,0:0:0:0:
109,192,293367,1,0,0:0:0:50:Highlight.wav
402,192,293434,1,0,0:0:0:0:
256,192,293500,1,0,0:0:0:0:
475,192,293500,1,0,0:0:0:0:
109,192,293500,1,0,0:0:0:50:Snare.wav
36,192,293500,1,0,0:0:0:50:Highlight.wav
402,192,293567,1,0,0:0:0:0:
329,192,293634,1,0,0:0:0:0:
182,192,293634,1,0,0:0:0:0:
36,192,293634,1,0,0:0:0:50:Highlight.wav
109,192,293700,1,0,0:0:0:0:
36,192,293767,1,0,0:0:0:0:
475,192,293767,1,0,0:0:0:0:
402,192,293767,1,0,0:0:0:50:Kick.wav
256,192,293767,1,0,0:0:0:0:
329,192,293834,1,0,0:0:0:0:
402,192,293900,1,0,0:0:0:0:
182,192,293900,1,0,0:0:0:0:
109,192,293900,1,0,0:0:0:50:Highlight.wav
256,192,293967,1,0,0:0:0:0:
36,192,294034,1,0,0:0:0:0:
475,192,294034,1,0,0:0:0:0:
329,192,294034,1,0,0:0:0:50:Snare.wav
109,192,294034,1,0,0:0:0:50:Highlight.wav
256,192,294100,1,0,0:0:0:0:
182,192,294167,1,0,0:0:0:0:
402,192,294167,1,0,0:0:0:0:
109,192,294167,1,0,0:0:0:50:Highlight.wav
475,192,294234,1,0,0:0:0:0:
329,192,294234,1,0,0:0:0:50:Sub Snare.wav
109,192,294300,1,0,0:0:0:0:
36,192,294300,1,0,0:0:0:0:
402,192,294300,1,0,0:0:0:50:Kick.wav
256,192,294300,1,0,0:0:0:0:
182,192,294367,1,0,0:0:0:0:
36,192,294434,1,0,0:0:0:0:
475,192,294434,1,0,0:0:0:0:
329,192,294434,1,0,0:0:0:50:Snare.wav
109,192,294434,1,0,0:0:0:50:Highlight.wav
256,192,294500,1,0,0:0:0:0:
475,192,294567,1,0,0:0:0:0:
36,192,294567,1,0,0:0:0:0:
402,192,294567,1,0,0:0:0:50:Kick.wav
182,192,294567,1,0,0:0:0:50:Highlight.wav
329,192,294634,1,0,0:0:0:0:
109,192,294700,1,0,0:0:0:0:
475,192,294700,1,0,0:0:0:0:
256,192,294700,1,0,0:0:0:50:Highlight.wav
402,192,294767,1,0,0:0:0:0:
475,192,294834,1,0,0:0:0:50:Kick.wav
36,192,294834,1,0,0:0:0:50:Highlight.wav
329,192,294834,1,0,0:0:0:50:Sub Rhythm-2.wav
109,192,294834,1,0,0:0:0:0:
182,192,294900,1,0,0:0:0:0:
36,192,294967,1,0,0:0:0:0:
475,192,294967,1,0,0:0:0:0:
256,192,294967,1,0,0:0:0:50:Highlight.wav
109,192,295034,1,0,0:0:0:50:Sub Rhythm-2.wav
329,192,295034,1,0,0:0:0:0:
402,192,295034,1,0,0:0:0:0:
182,192,295100,1,0,0:0:0:50:Sub Rhythm-2.wav
329,192,295100,1,0,0:0:0:0:
36,192,295100,1,0,0:0:0:50:Snare.wav
402,192,295100,1,0,0:0:0:50:Highlight.wav
256,192,295167,1,0,0:0:0:0:
182,192,295234,1,0,0:0:0:50:Highlight.wav
475,192,295234,1,0,0:0:0:50:Kick.wav
402,192,295234,1,0,0:0:0:0:
109,192,295300,1,0,0:0:0:50:Sub Rhythm-2.wav
36,192,295300,1,0,0:0:0:0:
329,192,295300,1,0,0:0:0:0:
36,192,295367,1,0,0:0:0:50:Kick.wav
109,192,295367,1,0,0:0:0:0:
475,192,295367,1,0,0:0:0:0:
256,192,295367,1,0,0:0:0:50:Sub Rhythm-2.wav
402,192,295434,1,0,0:0:0:0:
36,192,295500,1,0,0:0:0:50:Highlight.wav
329,192,295500,1,0,0:0:0:0:
182,192,295500,1,0,0:0:0:0:
402,192,295567,1,0,0:0:0:0:
475,192,295567,1,0,0:0:0:0:
109,192,295567,1,0,0:0:0:50:Sub Rhythm-2.wav
36,192,295634,1,0,0:0:0:0:
475,192,295634,1,0,0:0:0:50:Sub Rhythm-2.wav
402,192,295634,1,0,0:0:0:50:Snare.wav
256,192,295634,1,0,0:0:0:50:Highlight.wav
182,192,295700,1,0,0:0:0:0:
36,192,295767,1,0,0:0:0:0:
109,192,295767,1,0,0:0:0:0:
475,192,295767,1,0,0:0:0:50:Highlight.wav
329,192,295767,1,0,0:0:0:50:Sub Rhythm-2.wav
402,192,295834,1,0,0:0:0:0:
256,192,295900,1,0,0:0:0:0:
475,192,295900,1,0,0:0:0:0:
36,192,295900,1,0,0:0:0:50:Kick.wav
109,192,295900,1,0,0:0:0:50:Highlight.wav
329,192,295967,1,0,0:0:0:0:
109,192,296034,1,0,0:0:0:0:
402,192,296034,1,0,0:0:0:0:
182,192,296034,1,0,0:0:0:50:Highlight.wav
329,192,296100,1,0,0:0:0:0:
256,192,296167,1,0,0:0:0:0:
36,192,296167,1,0,0:0:0:0:
475,192,296167,1,0,0:0:0:50:Snare.wav
182,192,296167,1,0,0:0:0:50:Highlight.wav
402,192,296234,1,0,0:0:0:0:
329,192,296300,1,0,0:0:0:0:
182,192,296300,1,0,0:0:0:50:Highlight.wav
36,192,296300,1,0,0:0:0:0:
256,192,296367,1,0,0:0:0:50:Sub Snare.wav
109,192,296367,1,0,0:0:0:0:
329,192,296434,1,0,0:0:0:0:
182,192,296434,1,0,0:0:0:50:Highlight.wav
36,192,296434,1,0,0:0:0:0:
475,192,296434,1,0,0:0:0:50:Kick.wav
402,192,296500,1,0,0:0:0:0:
36,192,296567,1,0,0:0:0:0:
109,192,296567,1,0,0:0:0:0:
256,192,296567,1,0,0:0:0:50:Snare.wav
475,192,296567,1,0,0:0:0:0:
182,192,296634,1,0,0:0:0:50:Highlight.wav
329,192,296634,1,0,0:0:0:0:
256,192,296700,1,0,0:0:0:0:
402,192,296700,1,0,0:0:0:50:Kick.wav
475,192,296700,1,0,0:0:0:0:
36,192,296700,1,0,0:0:0:50:Sub Snare.wav
182,192,296767,1,0,0:0:0:0:
329,192,296767,1,0,0:0:0:0:
109,192,296767,1,0,0:0:0:50:Sub Snare.wav
36,192,296834,1,0,0:0:0:0:
475,192,296834,1,0,0:0:0:50:Highlight.wav
402,192,296834,1,0,0:0:0:50:Sub Snare.wav
329,192,296900,1,0,0:0:0:0:
182,192,296900,1,0,0:0:0:0:
109,192,296900,1,0,0:0:0:50:Sub Snare.wav
402,192,296967,1,0,0:0:0:50:Highlight.wav
475,192,296967,1,0,0:0:0:50:Kick.wav
256,192,296967,1,0,0:0:0:0:
36,192,296967,1,0,0:0:0:0:
475,192,297100,1,0,0:0:0:0:
402,192,297167,1,0,0:0:0:0:
36,192,297167,1,0,0:0:0:0:
182,192,297167,1,0,0:0:0:50:Highlight.wav
109,192,297167,1,0,0:0:0:0:
329,192,297234,1,0,0:0:0:0:
256,192,297300,1,0,0:0:0:0:
402,192,297367,1,0,0:0:0:0:
329,192,297367,1,0,0:0:0:50:Highlight.wav
475,192,297367,1,0,0:0:0:0:
36,192,297367,1,0,0:0:0:0:
109,192,297434,1,0,0:0:0:0:
182,192,297500,1,0,0:0:0:0:
475,192,297567,1,0,0:0:0:0:
109,192,297567,1,0,0:0:0:0:
256,192,297567,1,0,0:0:0:50:Highlight.wav
36,192,297567,1,0,0:0:0:0:
329,192,297634,1,0,0:0:0:0:
182,192,297700,1,0,0:0:0:0:
36,192,297767,1,0,0:0:0:0:
329,192,297767,1,0,0:0:0:50:Sub Rhythm-1.wav
475,192,297767,1,0,0:0:0:0:
256,192,297834,1,0,0:0:0:50:Sub Rhythm-1.wav
402,192,297834,1,0,0:0:0:0:
182,192,297900,1,0,0:0:0:50:Sub Rhythm-1.wav
329,192,297900,1,0,0:0:0:0:
256,192,297967,1,0,0:0:0:0:
109,192,297967,1,0,0:0:0:50:Sub Rhythm-1.wav
182,192,298034,1,0,0:0:0:0:
36,192,298034,1,0,0:0:0:50:Highlight.wav
402,192,298034,1,0,0:0:0:0:
475,192,298034,1,0,0:0:0:0:
36,192,298167,1,0,0:0:0:0:
329,192,298234,1,0,0:0:0:0:
402,192,298234,1,0,0:0:0:0:
109,192,298234,1,0,0:0:0:0:
475,192,298234,1,0,0:0:0:50:Highlight.wav
182,192,298300,1,0,0:0:0:0:
256,192,298367,1,0,0:0:0:0:
109,192,298434,1,0,0:0:0:50:Highlight.wav
402,192,298434,1,0,0:0:0:0:
36,192,298434,1,0,0:0:0:0:
182,192,298434,1,0,0:0:0:0:
329,192,298500,1,0,0:0:0:0:
256,192,298567,1,0,0:0:0:0:
402,192,298634,1,0,0:0:0:50:Highlight.wav
475,192,298634,1,0,0:0:0:0:
36,192,298634,1,0,0:0:0:0:
182,192,298634,1,0,0:0:0:0:
329,192,298700,1,0,0:0:0:0:
402,192,298767,1,0,0:0:0:0:
36,192,298834,1,0,0:0:0:0:
182,192,298834,1,0,0:0:0:50:Sub Rhythm-1.wav
475,192,298834,1,0,0:0:0:0:
109,192,298900,1,0,0:0:0:0:
256,192,298900,1,0,0:0:0:50:Sub Rhythm-1.wav
182,192,298967,1,0,0:0:0:0:
329,192,298967,1,0,0:0:0:50:Sub Rhythm-1.wav
256,192,299034,1,0,0:0:0:0:
402,192,299034,1,0,0:0:0:50:Sub Rhythm-1.wav
329,192,299100,1,0,0:0:0:0:
475,192,299100,1,0,0:0:0:0:
182,192,299234,128,0,299500:0:0:0:50:Highlight.wav
36,192,299234,128,0,299500:0:0:0:0:
475,192,299367,128,0,299767:0:0:0:0:
329,192,299367,128,0,299500:0:0:0:50:Highlight.wav
256,192,299500,128,0,299634:0:0:0:50:Highlight.wav
109,192,299500,128,0,299634:0:0:0:0:
36,192,299634,128,0,299900:0:0:0:0:
182,192,299634,128,0,299767:0:0:0:0:
329,192,299634,128,0,299767:0:0:0:50:Highlight.wav
402,192,299767,128,0,299900:0:0:0:50:Highlight.wav
256,192,299767,128,0,299900:0:0:0:0:
109,192,299900,128,0,300034:0:0:0:0:
329,192,299900,128,0,300034:0:0:0:0:
475,192,299900,128,0,300034:0:0:0:50:Highlight.wav
36,192,300034,128,0,300167:0:0:0:0:
182,192,300034,128,0,300234:0:0:0:50:Highlight.wav
329,192,300100,128,0,300300:0:0:0:50:Highlight.wav
475,192,300100,128,0,300367:0:0:0:0:
36,192,300234,1,0,0:0:0:0:
182,192,300300,1,0,0:0:0:0:
109,192,300367,1,0,0:0:0:0:
329,192,300367,1,0,0:0:0:0:
256,192,300434,1,0,0:0:0:0:
475,192,300434,1,0,0:0:0:0:
182,192,300500,1,0,0:0:0:0:
402,192,300500,1,0,0:0:0:0:
329,192,300567,128,0,300700:0:0:0:0:
109,192,300567,128,0,300700:0:0:0:50:Highlight.wav
182,192,300634,128,0,300767:0:0:0:50:Highlight.wav
402,192,300634,128,0,300767:0:0:0:0:
475,192,300700,128,0,301167:0:0:0:0:
36,192,300700,128,0,301167:0:0:0:0:
256,192,300700,128,0,300834:0:0:0:50:Highlight.wav
329,192,300834,128,0,301034:0:0:0:50:Highlight.wav
402,192,300834,128,0,301034:0:0:0:0:
182,192,300900,128,0,300967:0:0:0:0:
109,192,300900,128,0,300967:0:0:0:50:Highlight.wav
109,192,301034,128,0,301167:0:0:0:0:
182,192,301034,128,0,301167:0:0:0:50:Highlight.wav
329,192,301100,128,0,301167:0:0:0:50:Highlight.wav
402,192,301100,128,0,301167:0:0:0:0:
109,192,301234,1,0,0:0:0:50:Highlight.wav
475,192,301234,1,0,0:0:0:50:Kick.wav
36,192,301234,1,0,0:0:0:0:
256,192,301234,1,0,0:0:0:50:Sub Snare.wav
402,192,301300,1,0,0:0:0:0:
329,192,301300,1,0,0:0:0:50:Sub Snare.wav
36,192,301367,1,0,0:0:0:0:
475,192,301367,1,0,0:0:0:50:Sub Snare.wav
182,192,301367,1,0,0:0:0:50:Highlight.wav
256,192,301434,1,0,0:0:0:50:Sub Snare.wav
329,192,301434,1,0,0:0:0:0:
402,192,301500,1,0,0:0:0:50:Sub Snare.wav
36,192,301500,1,0,0:0:0:50:Kick.wav
475,192,301500,1,0,0:0:0:0:
109,192,301500,1,0,0:0:0:50:Highlight.wav
182,192,301567,1,0,0:0:0:50:Sub Snare.wav
256,192,301567,1,0,0:0:0:0:
475,192,301634,1,0,0:0:0:0:
329,192,301634,1,0,0:0:0:50:Sub Snare.wav
36,192,301634,1,0,0:0:0:50:Highlight.wav
109,192,301700,1,0,0:0:0:0:
182,192,301700,1,0,0:0:0:50:Sub Snare.wav
329,192,301767,1,0,0:0:0:0:
402,192,301767,1,0,0:0:0:50:Sub Snare.wav
256,192,301767,1,0,0:0:0:0:
475,192,301767,1,0,0:0:0:50:Kick.wav
36,192,301834,1,0,0:0:0:50:Sub Snare.wav
109,192,301834,1,0,0:0:0:0:
475,192,301900,1,0,0:0:0:0:
256,192,301900,1,0,0:0:0:50:Highlight.wav
402,192,301900,1,0,0:0:0:50:Sub Snare.wav
182,192,301967,1,0,0:0:0:0:
109,192,301967,1,0,0:0:0:50:Highlight.wav
36,192,301967,1,0,0:0:0:50:Sub Snare.wav
402,192,302034,1,0,0:0:0:50:Kick.wav
475,192,302034,1,0,0:0:0:50:Highlight.wav
329,192,302034,1,0,0:0:0:50:Sub Snare.wav
109,192,302100,1,0,0:0:0:0:
36,192,302100,1,0,0:0:0:50:Highlight.wav
256,192,302100,1,0,0:0:0:50:Sub Snare.wav
475,192,302167,1,0,0:0:0:0:
402,192,302167,1,0,0:0:0:50:Sub Snare.wav
329,192,302167,1,0,0:0:0:50:Highlight.wav
109,192,302234,1,0,0:0:0:0:
36,192,302234,1,0,0:0:0:50:Highlight.wav
182,192,302234,1,0,0:0:0:50:Sub Snare.wav
329,192,302300,1,0,0:0:0:50:Sub Snare.wav
475,192,302300,1,0,0:0:0:50:Kick.wav
256,192,302300,1,0,0:0:0:0:
402,192,302300,1,0,0:0:0:50:Highlight.wav
109,192,302367,1,0,0:0:0:50:Sub Snare.wav
36,192,302367,1,0,0:0:0:0:
402,192,302434,1,0,0:0:0:0:
256,192,302434,1,0,0:0:0:50:Highlight.wav
475,192,302434,1,0,0:0:0:50:Sub Snare.wav
109,192,302500,1,0,0:0:0:50:Sub Snare.wav
182,192,302500,1,0,0:0:0:0:
475,192,302567,1,0,0:0:0:50:Kick.wav
329,192,302567,1,0,0:0:0:50:Highlight.wav
36,192,302567,1,0,0:0:0:0:
402,192,302567,1,0,0:0:0:50:Sub Snare.wav
182,192,302634,1,0,0:0:0:0:
256,192,302634,1,0,0:0:0:50:Sub Snare.wav
109,192,302700,1,0,0:0:0:0:
475,192,302700,1,0,0:0:0:50:Sub Snare.wav
402,192,302700,1,0,0:0:0:50:Highlight.wav
329,192,302767,1,0,0:0:0:0:
256,192,302767,1,0,0:0:0:50:Sub Snare.wav
109,192,302834,1,0,0:0:0:0:
475,192,302834,1,0,0:0:0:50:Kick.wav
36,192,302834,1,0,0:0:0:50:Sub Snare.wav
182,192,302834,1,0,0:0:0:50:Highlight.wav
402,192,302900,1,0,0:0:0:50:Sub Snare.wav
329,192,302900,1,0,0:0:0:0:
109,192,302967,1,0,0:0:0:0:
36,192,302967,1,0,0:0:0:50:Highlight.wav
256,192,302967,1,0,0:0:0:50:Sub Snare.wav
475,192,303034,1,0,0:0:0:0:
402,192,303034,1,0,0:0:0:50:Sub Snare.wav
182,192,303100,1,0,0:0:0:0:
36,192,303100,1,0,0:0:0:50:Kick.wav
329,192,303100,1,0,0:0:0:50:Sub Snare.wav
109,192,303100,1,0,0:0:0:50:Highlight.wav
402,192,303167,1,0,0:0:0:50:Sub Snare.wav
475,192,303167,1,0,0:0:0:0:
256,192,303234,1,0,0:0:0:0:
36,192,303234,1,0,0:0:0:50:Sub Snare.wav
109,192,303234,1,0,0:0:0:50:Highlight.wav
182,192,303300,1,0,0:0:0:0:
329,192,303300,1,0,0:0:0:50:Sub Snare.wav
475,192,303367,1,0,0:0:0:50:Highlight.wav
36,192,303367,1,0,0:0:0:50:Sub Snare.wav
402,192,303367,1,0,0:0:0:50:Kick.wav
256,192,303367,1,0,0:0:0:0:
109,192,303434,1,0,0:0:0:50:Sub Snare.wav
182,192,303434,1,0,0:0:0:0:
475,192,303500,1,0,0:0:0:0:
329,192,303500,1,0,0:0:0:50:Sub Snare.wav
36,192,303500,1,0,0:0:0:0:
256,192,303567,1,0,0:0:0:50:Sub Snare.wav
182,192,303567,1,0,0:0:0:0:
402,192,303634,1,0,0:0:0:50:Kick.wav
109,192,303634,1,0,0:0:0:0:
475,192,303634,1,0,0:0:0:0:
36,192,303634,1,0,0:0:0:50:Sub Snare.wav
329,192,303700,1,0,0:0:0:50:Sub Snare.wav
256,192,303700,1,0,0:0:0:0:
36,192,303767,1,0,0:0:0:50:Sub Rhythm-3.wav
109,192,303767,1,0,0:0:0:50:Sub Snare.wav
475,192,303767,1,0,0:0:0:50:Highlight.wav
182,192,303834,1,0,0:0:0:0:
402,192,303834,1,0,0:0:0:50:Sub Snare.wav
329,192,303834,1,0,0:0:0:50:Sub Rhythm-3.wav
475,192,303900,1,0,0:0:0:50:Kick.wav
36,192,303900,1,0,0:0:0:50:Highlight.wav
256,192,303900,1,0,0:0:0:50:Sub Snare.wav
109,192,303967,1,0,0:0:0:0:
182,192,303967,1,0,0:0:0:50:Sub Snare.wav
475,192,304034,1,0,0:0:0:0:
36,192,304034,1,0,0:0:0:0:
329,192,304034,1,0,0:0:0:50:Highlight.wav
402,192,304034,1,0,0:0:0:50:Sub Snare.wav
256,192,304100,1,0,0:0:0:0:
182,192,304100,1,0,0:0:0:50:Sub Snare.wav
475,192,304167,1,0,0:0:0:50:Kick.wav
402,192,304167,1,0,0:0:0:0:
36,192,304167,1,0,0:0:0:50:Highlight.wav
109,192,304167,1,0,0:0:0:50:Sub Snare.wav
256,192,304234,1,0,0:0:0:0:
329,192,304234,1,0,0:0:0:50:Sub Snare.wav
109,192,304300,1,0,0:0:0:50:Highlight.wav
36,192,304300,1,0,0:0:0:50:Sub Snare.wav
475,192,304300,1,0,0:0:0:50:Sub Rhythm-3.wav
402,192,304367,1,0,0:0:0:50:Sub Rhythm-3.wav
182,192,304367,1,0,0:0:0:0:
329,192,304367,1,0,0:0:0:50:Sub Snare.wav
109,192,304434,1,0,0:0:0:50:Kick.wav
36,192,304434,1,0,0:0:0:50:Sub Rhythm-1.wav
256,192,304434,1,0,0:0:0:50:Sub Snare.wav
329,192,304500,1,0,0:0:0:50:Sub Rhythm-1.wav
475,192,304500,1,0,0:0:0:0:
402,192,304500,1,0,0:0:0:50:Sub Snare.wav
36,192,304567,1,0,0:0:0:0:
109,192,304567,1,0,0:0:0:50:Sub Snare.wav
182,192,304567,1,0,0:0:0:50:Sub Rhythm-1.wav
256,192,304634,1,0,0:0:0:0:
329,192,304634,1,0,0:0:0:50:Sub Snare.wav
402,192,304634,1,0,0:0:0:50:Sub Rhythm-1.wav
475,192,304700,1,0,0:0:0:50:Kick.wav
109,192,304700,1,0,0:0:0:50:Sub Rhythm-1.wav
36,192,304700,1,0,0:0:0:50:Sub Snare.wav
256,192,304767,1,0,0:0:0:50:Sub Rhythm-1.wav
329,192,304767,1,0,0:0:0:0:
182,192,304767,1,0,0:0:0:50:Sub Snare.wav
402,192,304834,1,0,0:0:0:0:
475,192,304834,1,0,0:0:0:50:Highlight.wav
36,192,304834,1,0,0:0:0:50:Sub Snare.wav
182,192,304900,1,0,0:0:0:50:Sub Snare.wav
256,192,304900,1,0,0:0:0:50:Sub Rhythm-1.wav
109,192,304900,1,0,0:0:0:0:
402,192,304967,1,0,0:0:0:50:Kick.wav
475,192,304967,1,0,0:0:0:50:Sub Rhythm-1.wav
329,192,304967,1,0,0:0:0:50:Sub Snare.wav
36,192,305034,1,0,0:0:0:50:Sub Snare.wav
182,192,305034,1,0,0:0:0:0:
109,192,305034,1,0,0:0:0:50:Sub Rhythm-1.wav
475,192,305100,1,0,0:0:0:0:
256,192,305100,1,0,0:0:0:50:Sub Rhythm-1.wav
402,192,305100,1,0,0:0:0:50:Sub Snare.wav
182,192,305167,1,0,0:0:0:50:Sub Snare.wav
329,192,305167,1,0,0:0:0:50:Sub Rhythm-1.wav
475,192,305234,1,0,0:0:0:50:Sub Snare.wav
109,192,305234,1,0,0:0:0:50:BeLL2.wav
36,192,305234,1,0,0:0:0:50:Highlight.wav
256,192,305234,1,0,0:0:0:50:Kick.wav
329,192,305300,1,0,0:0:0:0:
402,192,305300,1,0,0:0:0:50:Sub Snare.wav
109,192,305367,1,0,0:0:0:0:
182,192,305367,1,0,0:0:0:50:Sub Snare.wav
36,192,305367,1,0,0:0:0:0:
402,192,305434,1,0,0:0:0:0:
329,192,305434,1,0,0:0:0:50:Sub Snare.wav
109,192,305500,1,0,0:0:0:50:Highlight.wav
182,192,305500,1,0,0:0:0:0:
256,192,305500,128,0,307634:0:0:0:50:CrashL.wav
36,192,305500,1,0,0:0:0:50:Kick.wav
475,192,305500,128,0,305589:0:0:0:0:
402,192,305589,128,0,305678:0:0:0:0:
329,192,305678,128,0,305767:0:0:0:0:
402,192,305767,1,0,0:0:0:0:
475,192,305767,1,0,0:0:0:50:Sub Snare.wav
36,192,305767,128,0,305856:0:0:0:0:
475,192,305856,1,0,0:0:0:50:Sub Snare.wav
182,192,305856,128,0,305945:0:0:0:0:
402,192,305856,1,0,0:0:0:0:
36,192,305945,1,0,0:0:0:0:
109,192,305945,1,0,0:0:0:50:Sub Snare.wav
329,192,305945,128,0,306034:0:0:0:0:
109,192,306034,1,0,0:0:0:50:Sub Snare.wav
36,192,306034,1,0,0:0:0:50:Kick.wav
475,192,306034,128,0,306122:0:0:0:0:
402,192,306122,128,0,306211:0:0:0:0:
329,192,306211,128,0,306300:0:0:0:0:
475,192,306300,1,0,0:0:0:50:Sub Snare.wav
402,192,306300,1,0,0:0:0:0:
36,192,306300,128,0,306389:0:0:0:0:
475,192,306389,1,0,0:0:0:50:Sub Snare.wav
402,192,306389,1,0,0:0:0:0:
182,192,306389,128,0,306478:0:0:0:0:
329,192,306478,128,0,306567:0:0:0:0:
36,192,306478,1,0,0:0:0:0:
109,192,306478,1,0,0:0:0:50:Sub Snare.wav
109,192,306567,1,0,0:0:0:50:Sub Snare.wav
36,192,306567,1,0,0:0:0:50:Kick.wav
475,192,306567,128,0,306656:0:0:0:0:
402,192,306656,128,0,306745:0:0:0:0:
329,192,306745,128,0,306834:0:0:0:0:
109,192,306834,1,0,0:0:0:50:Sub Snare.wav
36,192,306834,1,0,0:0:0:0:
475,192,306834,128,0,306922:0:0:0:0:
36,192,306922,1,0,0:0:0:50:Sub Snare.wav
109,192,306922,1,0,0:0:0:0:
329,192,306922,128,0,307011:0:0:0:0:
475,192,307011,1,0,0:0:0:50:Sub Snare.wav
402,192,307011,1,0,0:0:0:0:
182,192,307011,128,0,307100:0:0:0:0:
475,192,307100,1,0,0:0:0:50:Sub Snare.wav
402,192,307100,1,0,0:0:0:50:Kick.wav
36,192,307100,128,0,307189:0:0:0:0:
329,192,307189,1,0,0:0:0:50:Sub Snare.wav
182,192,307189,128,0,307278:0:0:0:0:
402,192,307278,1,0,0:0:0:50:Sub Snare.wav
475,192,307278,1,0,0:0:0:0:
36,192,307278,128,0,307367:0:0:0:0:
329,192,307367,1,0,0:0:0:50:Sub Snare.wav
109,192,307367,128,0,307456:0:0:0:0:
402,192,307456,1,0,0:0:0:50:Sub Snare.wav
475,192,307456,1,0,0:0:0:0:
182,192,307456,128,0,307545:0:0:0:0:
109,192,307545,128,0,307634:0:0:0:0:
329,192,307545,1,0,0:0:0:50:Sub Snare.wav
402,192,307634,1,0,0:0:0:50:Sub Snare.wav
475,192,307634,1,0,0:0:0:50:Kick.wav
36,192,307634,128,0,307811:0:0:0:0:
182,192,307722,128,0,307900:0:0:0:0:
329,192,307811,128,0,307989:0:0:0:0:
36,192,307900,1,0,0:0:0:0:
109,192,307900,1,0,0:0:0:50:Sub Snare.wav
475,192,307900,128,0,308078:0:0:0:0:
109,192,307989,1,0,0:0:0:0:
36,192,307989,1,0,0:0:0:50:Sub Snare.wav
256,192,307989,128,0,308078:0:0:0:0:
329,192,308078,1,0,0:0:0:0:
402,192,308078,1,0,0:0:0:50:Sub Snare.wav
182,192,308078,128,0,308167:0:0:0:0:
36,192,308167,128,0,308700:0:0:0:50:Highlight.wav
402,192,308167,1,0,0:0:0:50:Sub Snare.wav
329,192,308167,1,0,0:0:0:50:Kick.wav
109,192,308167,128,0,308256:0:0:0:0:
256,192,308256,128,0,308345:0:0:0:0:
475,192,308345,128,0,308434:0:0:0:0:
109,192,308434,1,0,0:0:0:0:
182,192,308434,1,0,0:0:0:50:Sub Snare.wav
402,192,308434,128,0,308522:0:0:0:0:
109,192,308522,1,0,0:0:0:0:
182,192,308522,1,0,0:0:0:50:Sub Snare.wav
329,192,308522,128,0,308611:0:0:0:0:
475,192,308611,1,0,0:0:0:0:
256,192,308611,128,0,308700:0:0:0:0:
402,192,308611,1,0,0:0:0:50:Sub Snare.wav
402,192,308700,1,0,0:0:0:50:Kick.wav
475,192,308700,128,0,309145:0:0:0:50:Highlight.wav
182,192,308700,128,0,308789:0:0:0:0:
109,192,308700,1,0,0:0:0:50:Sub Snare.wav
329,192,308789,128,0,308878:0:0:0:0:
256,192,308878,128,0,308967:0:0:0:0:
182,192,308967,1,0,0:0:0:0:
402,192,308967,128,0,309056:0:0:0:0:
36,192,308967,1,0,0:0:0:50:Sub Snare.wav
182,192,309056,1,0,0:0:0:0:
329,192,309056,128,0,309145:0:0:0:0:
36,192,309056,1,0,0:0:0:50:Sub Snare.wav
109,192,309145,1,0,0:0:0:0:
256,192,309145,128,0,309234:0:0:0:0:
402,192,309145,1,0,0:0:0:50:Sub Snare.wav
182,192,309234,128,0,309322:0:0:0:0:
475,192,309234,1,0,0:0:0:50:Kick.wav
36,192,309234,128,0,309678:0:0:0:50:Highlight.wav
402,192,309234,1,0,0:0:0:50:Sub Snare.wav
329,192,309322,128,0,309411:0:0:0:0:
109,192,309322,1,0,0:0:0:50:Sub Snare.wav
256,192,309411,1,0,0:0:0:0:
475,192,309411,128,0,309500:0:0:0:0:
402,192,309411,1,0,0:0:0:50:Sub Snare.wav
109,192,309500,128,0,309589:0:0:0:0:
182,192,309500,1,0,0:0:0:50:Sub Snare.wav
329,192,309589,1,0,0:0:0:0:
256,192,309589,128,0,309678:0:0:0:0:
475,192,309589,1,0,0:0:0:50:Sub Snare.wav
402,192,309678,128,0,309767:0:0:0:0:
182,192,309678,1,0,0:0:0:50:Sub Snare.wav
36,192,309767,128,0,309856:0:0:0:0:
329,192,309767,1,0,0:0:0:50:Kick.wav
475,192,309767,1,0,0:0:0:50:Sub Snare.wav
109,192,309767,1,0,0:0:0:0:
256,192,309767,128,0,310834:0:0:0:50:Highlight.wav
182,192,309856,128,0,309945:0:0:0:0:
329,192,309945,128,0,310034:0:0:0:0:
109,192,310034,1,0,0:0:0:0:
36,192,310034,1,0,0:0:0:50:Sub Snare.wav
475,192,310034,128,0,310122:0:0:0:0:
109,192,310122,1,0,0:0:0:0:
36,192,310122,1,0,0:0:0:50:Sub Snare.wav
329,192,310122,128,0,310211:0:0:0:0:
402,192,310211,1,0,0:0:0:0:
475,192,310211,1,0,0:0:0:50:Sub Snare.wav
182,192,310211,128,0,310300:0:0:0:0:
402,192,310300,1,0,0:0:0:50:Kick.wav
475,192,310300,1,0,0:0:0:50:Sub Snare.wav
36,192,310300,128,0,310389:0:0:0:0:
329,192,310389,128,0,310478:0:0:0:0:
182,192,310478,128,0,310567:0:0:0:0:
36,192,310567,1,0,0:0:0:0:
109,192,310567,1,0,0:0:0:50:Sub Snare.wav
475,192,310567,128,0,310656:0:0:0:0:
36,192,310656,1,0,0:0:0:0:
109,192,310656,1,0,0:0:0:50:Sub Snare.wav
329,192,310656,128,0,310745:0:0:0:0:
475,192,310745,1,0,0:0:0:0:
402,192,310745,1,0,0:0:0:50:Sub Snare.wav
182,192,310745,128,0,310834:0:0:0:0:
36,192,310834,128,0,310922:0:0:0:0:
475,192,310834,1,0,0:0:0:50:Kick.wav
402,192,310834,1,0,0:0:0:50:Sub Snare.wav
182,192,310922,128,0,311011:0:0:0:0:
329,192,311011,128,0,311100:0:0:0:0:
475,192,311100,128,0,311189:0:0:0:0:
36,192,311100,1,0,0:0:0:0:
256,192,311100,128,0,311367:0:0:0:50:Highlight.wav
109,192,311100,1,0,0:0:0:50:Sub Snare.wav
36,192,311189,1,0,0:0:0:0:
109,192,311189,1,0,0:0:0:50:Sub Snare.wav
329,192,311189,128,0,311278:0:0:0:0:
475,192,311278,1,0,0:0:0:0:
182,192,311278,128,0,311367:0:0:0:0:
402,192,311278,1,0,0:0:0:50:Sub Snare.wav
109,192,311367,128,0,311456:0:0:0:0:
475,192,311367,1,0,0:0:0:50:Kick.wav
402,192,311367,1,0,0:0:0:50:Sub Snare.wav
36,192,311367,128,0,311811:0:0:0:50:Highlight.wav
256,192,311456,128,0,311545:0:0:0:0:
329,192,311456,1,0,0:0:0:50:Sub Snare.wav
182,192,311545,128,0,311634:0:0:0:0:
475,192,311545,1,0,0:0:0:50:Sub Snare.wav
329,192,311634,128,0,311722:0:0:0:0:
402,192,311634,1,0,0:0:0:50:Sub Snare.wav
109,192,311634,128,0,311811:0:0:0:50:Highlight.wav
256,192,311722,128,0,311811:0:0:0:0:
475,192,311722,1,0,0:0:0:50:Sub Snare.wav
402,192,311811,128,0,311900:0:0:0:0:
182,192,311811,1,0,0:0:0:50:Sub Snare.wav
329,192,311900,1,0,0:0:0:50:Kick.wav
36,192,311900,128,0,311989:0:0:0:0:
256,192,311900,128,0,312167:0:0:0:50:Highlight.wav
475,192,311900,1,0,0:0:0:50:Sub Snare.wav
109,192,311989,128,0,312078:0:0:0:0:
182,192,312078,128,0,312167:0:0:0:0:
329,192,312167,128,0,312256:0:0:0:0:
36,192,312167,1,0,0:0:0:0:
475,192,312167,128,0,312434:0:0:0:50:Highlight.wav
109,192,312167,1,0,0:0:0:50:Sub Snare.wav
36,192,312256,1,0,0:0:0:0:
256,192,312256,128,0,312345:0:0:0:0:
109,192,312256,1,0,0:0:0:50:Sub Snare.wav
182,192,312345,128,0,312434:0:0:0:0:
329,192,312345,1,0,0:0:0:0:
402,192,312345,1,0,0:0:0:50:Sub Snare.wav
329,192,312434,1,0,0:0:0:0:
109,192,312434,128,0,312522:0:0:0:50:Kick.wav
36,192,312434,128,0,312700:0:0:0:50:Highlight.wav
402,192,312434,1,0,0:0:0:50:Sub Snare.wav
256,192,312522,128,0,312611:0:0:0:0:
402,192,312611,128,0,312700:0:0:0:0:
109,192,312700,1,0,0:0:0:0:
329,192,312700,128,0,312789:0:0:0:0:
475,192,312700,128,0,312967:0:0:0:50:Highlight.wav
182,192,312700,1,0,0:0:0:50:Sub Snare.wav
256,192,312789,128,0,312878:0:0:0:0:
109,192,312789,1,0,0:0:0:0:
182,192,312789,1,0,0:0:0:50:Sub Snare.wav
329,192,312878,1,0,0:0:0:0:
36,192,312878,128,0,312967:0:0:0:0:
402,192,312878,1,0,0:0:0:50:Sub Snare.wav
182,192,312967,128,0,313056:0:0:0:0:
329,192,312967,1,0,0:0:0:50:Kick.wav
402,192,312967,1,0,0:0:0:50:Sub Snare.wav
256,192,312967,128,0,313500:0:0:0:50:Highlight.wav
109,192,313056,128,0,313145:0:0:0:0:
475,192,313145,128,0,313234:0:0:0:0:
36,192,313234,1,0,0:0:0:0:
329,192,313234,128,0,313322:0:0:0:0:
182,192,313234,1,0,0:0:0:50:Sub Snare.wav
402,192,313322,128,0,313411:0:0:0:0:
36,192,313322,1,0,0:0:0:0:
182,192,313322,1,0,0:0:0:50:Sub Snare.wav
109,192,313411,128,0,313500:0:0:0:0:
475,192,313411,1,0,0:0:0:0:
329,192,313411,1,0,0:0:0:50:Sub Snare.wav
36,192,313500,128,0,314034:0:0:0:50:Highlight.wav
182,192,313500,128,0,313589:0:0:0:0:
329,192,313500,1,0,0:0:0:50:Sub Snare.wav
475,192,313500,1,0,0:0:0:50:Kick.wav
256,192,313589,128,0,313678:0:0:0:0:
402,192,313589,1,0,0:0:0:50:Sub Snare.wav
182,192,313678,1,0,0:0:0:0:
475,192,313678,128,0,313767:0:0:0:0:
109,192,313678,1,0,0:0:0:50:Sub Snare.wav
402,192,313767,128,0,313856:0:0:0:0:
256,192,313767,1,0,0:0:0:50:Sub Snare.wav
182,192,313856,1,0,0:0:0:0:
329,192,313856,128,0,313945:0:0:0:0:
109,192,313856,1,0,0:0:0:50:Sub Snare.wav
402,192,313945,128,0,314034:0:0:0:0:
256,192,313945,1,0,0:0:0:50:Sub Snare.wav
329,192,314034,128,0,314122:0:0:0:0:
182,192,314034,1,0,0:0:0:50:Kick.wav
475,192,314034,128,0,315011:0:0:0:50:Highlight.wav
109,192,314034,1,0,0:0:0:50:Sub Snare.wav
256,192,314122,128,0,314211:0:0:0:0:
182,192,314211,128,0,314300:0:0:0:0:
109,192,314300,1,0,0:0:0:0:
36,192,314300,1,0,0:0:0:50:Sub Snare.wav
329,192,314300,128,0,314389:0:0:0:0:
256,192,314389,128,0,314478:0:0:0:0:
109,192,314389,1,0,0:0:0:0:
36,192,314389,1,0,0:0:0:50:Sub Snare.wav
182,192,314478,128,0,314567:0:0:0:0:
329,192,314478,1,0,0:0:0:0:
402,192,314478,1,0,0:0:0:50:Sub Snare.wav
109,192,314567,128,0,314656:0:0:0:0:
329,192,314567,1,0,0:0:0:50:Kick.wav
402,192,314567,1,0,0:0:0:50:Sub Snare.wav
182,192,314656,128,0,314745:0:0:0:0:
109,192,314745,128,0,314834:0:0:0:0:
402,192,314834,1,0,0:0:0:0:
36,192,314834,128,0,314922:0:0:0:0:
256,192,314834,1,0,0:0:0:50:Sub Snare.wav
402,192,314922,1,0,0:0:0:0:
182,192,314922,128,0,315011:0:0:0:0:
256,192,314922,1,0,0:0:0:50:Sub Snare.wav
36,192,315011,1,0,0:0:0:0:
329,192,315011,128,0,315100:0:0:0:0:
109,192,315011,1,0,0:0:0:50:Sub Snare.wav
475,192,315100,128,0,315278:0:0:0:0:
36,192,315100,1,0,0:0:0:50:Kick.wav
109,192,315100,1,0,0:0:0:50:Sub Snare.wav
329,192,315189,128,0,315367:0:0:0:0:
182,192,315278,128,0,315456:0:0:0:0:
475,192,315367,1,0,0:0:0:0:
36,192,315367,128,0,315545:0:0:0:0:
402,192,315367,1,0,0:0:0:50:Sub Snare.wav
475,192,315456,1,0,0:0:0:0:
256,192,315456,128,0,315545:0:0:0:0:
402,192,315456,1,0,0:0:0:50:Sub Snare.wav
109,192,315545,1,0,0:0:0:0:
329,192,315545,128,0,315634:0:0:0:0:
182,192,315545,1,0,0:0:0:50:Sub Snare.wav
109,192,315634,1,0,0:0:0:50:Kick.wav
475,192,315634,128,0,316078:0:0:0:50:Highlight.wav
182,192,315634,1,0,0:0:0:50:Sub Snare.wav
402,192,315634,128,0,315722:0:0:0:0:
256,192,315722,128,0,315811:0:0:0:0:
36,192,315722,1,0,0:0:0:50:Sub Snare.wav
329,192,315811,128,0,315900:0:0:0:0:
109,192,315811,1,0,0:0:0:50:Sub Snare.wav
182,192,315900,128,0,315989:0:0:0:0:
402,192,315900,1,0,0:0:0:50:Sub Snare.wav
36,192,315900,128,0,316167:0:0:0:50:Highlight.wav
329,192,315989,1,0,0:0:0:50:Sub Snare.wav
256,192,315989,128,0,316078:0:0:0:0:
402,192,316078,1,0,0:0:0:50:Sub Snare.wav
109,192,316078,128,0,316167:0:0:0:0:
256,192,316167,1,0,0:0:0:50:Sub Snare.wav
475,192,316167,1,0,0:0:0:50:Kick.wav
329,192,316167,128,0,316434:0:0:0:50:Highlight.wav
182,192,316167,128,0,316256:0:0:0:0:
36,192,316256,128,0,316345:0:0:0:0:
109,192,316345,128,0,316434:0:0:0:0:
182,192,316434,128,0,316522:0:0:0:0:
256,192,316434,128,0,316700:0:0:0:50:Highlight.wav
475,192,316434,1,0,0:0:0:50:Sub Snare.wav
402,192,316434,1,0,0:0:0:0:
109,192,316522,128,0,316611:0:0:0:0:
402,192,316522,1,0,0:0:0:0:
475,192,316522,1,0,0:0:0:50:Sub Snare.wav
36,192,316611,128,0,316700:0:0:0:0:
182,192,316611,1,0,0:0:0:0:
329,192,316611,1,0,0:0:0:50:Sub Snare.wav
182,192,316700,1,0,0:0:0:50:Kick.wav
475,192,316700,128,0,316789:0:0:0:0:
329,192,316700,1,0,0:0:0:50:Sub Snare.wav
402,192,316700,128,0,316967:0:0:0:50:Highlight.wav
256,192,316789,128,0,316878:0:0:0:0:
109,192,316878,128,0,316967:0:0:0:0:
329,192,316967,1,0,0:0:0:50:Sub Snare.wav
182,192,316967,128,0,317056:0:0:0:0:
36,192,316967,128,0,317234:0:0:0:50:Highlight.wav
475,192,316967,1,0,0:0:0:0:
256,192,317056,128,0,317145:0:0:0:0:
475,192,317056,1,0,0:0:0:0:
329,192,317056,1,0,0:0:0:50:Sub Snare.wav
402,192,317145,128,0,317234:0:0:0:0:
182,192,317145,1,0,0:0:0:50:Sub Snare.wav
109,192,317145,1,0,0:0:0:0:
182,192,317234,1,0,0:0:0:50:Sub Snare.wav
109,192,317234,1,0,0:0:0:50:Kick.wav
475,192,317234,128,0,317767:0:0:0:50:Highlight.wav
329,192,317234,128,0,317322:0:0:0:0:
256,192,317322,128,0,317411:0:0:0:0:
182,192,317411,128,0,317500:0:0:0:0:
109,192,317500,1,0,0:0:0:0:
329,192,317500,128,0,317589:0:0:0:0:
36,192,317500,1,0,0:0:0:50:Sub Snare.wav
109,192,317589,1,0,0:0:0:0:
256,192,317589,128,0,317678:0:0:0:0:
36,192,317589,1,0,0:0:0:50:Sub Snare.wav
329,192,317678,1,0,0:0:0:0:
182,192,317678,128,0,317767:0:0:0:0:
402,192,317678,1,0,0:0:0:50:Sub Snare.wav
109,192,317767,128,0,317856:0:0:0:0:
329,192,317767,1,0,0:0:0:50:Kick.wav
36,192,317767,128,0,318211:0:0:0:50:Highlight.wav
402,192,317767,1,0,0:0:0:50:Sub Snare.wav
256,192,317856,128,0,317945:0:0:0:0:
475,192,317856,1,0,0:0:0:50:Sub Snare.wav
109,192,317945,1,0,0:0:0:0:
402,192,317945,128,0,318034:0:0:0:0:
329,192,317945,1,0,0:0:0:50:Sub Snare.wav
182,192,318034,128,0,318122:0:0:0:0:
256,192,318034,1,0,0:0:0:50:Sub Snare.wav
109,192,318122,1,0,0:0:0:0:
329,192,318122,128,0,318211:0:0:0:0:
402,192,318122,1,0,0:0:0:50:Sub Snare.wav
475,192,318211,128,0,318300:0:0:0:0:
182,192,318211,1,0,0:0:0:50:Sub Snare.wav
36,192,318300,1,0,0:0:0:50:Kick.wav
402,192,318300,128,0,318389:0:0:0:0:
256,192,318300,128,0,319634:0:0:0:50:Highlight.wav
109,192,318300,1,0,0:0:0:50:Sub Snare.wav
329,192,318389,128,0,318478:0:0:0:0:
36,192,318478,128,0,318567:0:0:0:0:
109,192,318478,1,0,0:0:0:50:Sub Drum.wav
182,192,318567,128,0,318656:0:0:0:0:
402,192,318567,1,0,0:0:0:0:
475,192,318567,1,0,0:0:0:50:Sub Snare.wav
475,192,318656,1,0,0:0:0:50:Sub Snare.wav
109,192,318656,128,0,318745:0:0:0:0:
402,192,318656,1,0,0:0:0:0:
182,192,318745,1,0,0:0:0:50:Sub Snare.wav
36,192,318745,1,0,0:0:0:0:
329,192,318745,128,0,318834:0:0:0:0:
182,192,318834,1,0,0:0:0:50:Sub Snare.wav
36,192,318834,1,0,0:0:0:50:Kick.wav
475,192,318834,128,0,318922:0:0:0:0:
329,192,318922,128,0,319011:0:0:0:0:
109,192,319011,1,0,0:0:0:50:Sub Drum.wav
36,192,319011,128,0,319100:0:0:0:0:
475,192,319100,1,0,0:0:0:0:
182,192,319100,128,0,319189:0:0:0:0:
402,192,319100,1,0,0:0:0:50:Sub Snare.wav
475,192,319189,1,0,0:0:0:0:
329,192,319189,128,0,319278:0:0:0:0:
402,192,319189,1,0,0:0:0:50:Sub Snare.wav
36,192,319278,1,0,0:0:0:0:
182,192,319278,128,0,319367:0:0:0:0:
109,192,319278,1,0,0:0:0:50:Sub Snare.wav
36,192,319367,1,0,0:0:0:50:Kick.wav
329,192,319367,128,0,319456:0:0:0:0:
109,192,319367,1,0,0:0:0:50:Sub Snare.wav
475,192,319456,128,0,319545:0:0:0:0:
182,192,319545,1,0,0:0:0:50:Sub Drum.wav
402,192,319545,128,0,319634:0:0:0:0:
109,192,319634,1,0,0:0:0:0:
329,192,319634,128,0,319722:0:0:0:0:
475,192,319634,128,0,319900:0:0:0:50:Highlight.wav
36,192,319634,1,0,0:0:0:50:Sub Snare.wav
182,192,319722,128,0,319811:0:0:0:0:
109,192,319722,1,0,0:0:0:0:
36,192,319722,1,0,0:0:0:50:Sub Snare.wav
256,192,319811,128,0,319900:0:0:0:0:
402,192,319811,1,0,0:0:0:0:
329,192,319811,1,0,0:0:0:50:Sub Snare.wav
402,192,319900,1,0,0:0:0:50:Kick.wav
109,192,319900,128,0,319989:0:0:0:0:
36,192,319900,128,0,320434:0:0:0:50:Highlight.wav
329,192,319900,1,0,0:0:0:50:Sub Snare.wav
182,192,319989,128,0,320078:0:0:0:0:
256,192,319989,1,0,0:0:0:50:Sub Snare.wav
329,192,320078,128,0,320167:0:0:0:0:
402,192,320078,1,0,0:0:0:50:Sub Snare.wav
256,192,320167,128,0,320434:0:0:0:50:Highlight.wav
475,192,320167,128,0,320256:0:0:0:0:
109,192,320167,1,0,0:0:0:50:Sub Snare.wav
402,192,320256,128,0,320345:0:0:0:0:
182,192,320256,1,0,0:0:0:50:Sub Snare.wav
329,192,320345,128,0,320434:0:0:0:0:
109,192,320345,1,0,0:0:0:50:Sub Snare.wav
182,192,320434,128,0,320522:0:0:0:50:Kick.wav
402,192,320434,1,0,0:0:0:50:Sub Snare.wav
475,192,320434,128,0,321411:0:0:0:50:Highlight.wav
256,192,320522,128,0,320611:0:0:0:0:
329,192,320611,128,0,320700:0:0:0:0:
182,192,320700,1,0,0:0:0:0:
402,192,320700,128,0,320789:0:0:0:0:
36,192,320700,1,0,0:0:0:50:Sub Snare.wav
182,192,320789,1,0,0:0:0:0:
36,192,320789,1,0,0:0:0:50:Sub Snare.wav
256,192,320789,128,0,320878:0:0:0:0:
329,192,320878,1,0,0:0:0:0:
402,192,320878,1,0,0:0:0:50:Sub Snare.wav
109,192,320878,128,0,320967:0:0:0:0:
329,192,320967,1,0,0:0:0:50:Kick.wav
402,192,320967,1,0,0:0:0:50:Sub Snare.wav
182,192,320967,128,0,321056:0:0:0:0:
36,192,321056,128,0,321145:0:0:0:0:
329,192,321100,1,0,0:0:0:50:Sub Drum.wav
182,192,321145,128,0,321234:0:0:0:0:
402,192,321234,1,0,0:0:0:0:
36,192,321234,128,0,321322:0:0:0:0:
256,192,321234,1,0,0:0:0:50:Sub Snare.wav
402,192,321322,1,0,0:0:0:0:
256,192,321322,1,0,0:0:0:50:Sub Snare.wav
182,192,321322,128,0,321411:0:0:0:0:
36,192,321411,1,0,0:0:0:0:
109,192,321411,1,0,0:0:0:50:Sub Snare.wav
329,192,321411,128,0,321500:0:0:0:0:
36,192,321500,1,0,0:0:0:50:Kick.wav
475,192,321500,128,0,321589:0:0:0:0:
256,192,321500,128,0,324700:0:0:0:50:Highlight.wav
109,192,321500,1,0,0:0:0:50:Sub Snare.wav
329,192,321589,128,0,321678:0:0:0:0:
182,192,321678,128,0,321767:0:0:0:0:
402,192,321767,1,0,0:0:0:0:
36,192,321767,128,0,321856:0:0:0:0:
475,192,321767,1,0,0:0:0:50:Sub Snare.wav
402,192,321856,1,0,0:0:0:0:
182,192,321856,128,0,321945:0:0:0:0:
475,192,321856,1,0,0:0:0:50:Sub Snare.wav
109,192,321945,1,0,0:0:0:0:
329,192,321945,128,0,322034:0:0:0:0:
36,192,321945,1,0,0:0:0:50:Sub Snare.wav
109,192,322034,1,0,0:0:0:50:Kick.wav
475,192,322034,128,0,322122:0:0:0:0:
36,192,322034,1,0,0:0:0:50:Sub Snare.wav
402,192,322122,128,0,322211:0:0:0:0:
182,192,322122,1,0,0:0:0:50:Sub Snare.wav
109,192,322211,1,0,0:0:0:0:
329,192,322211,128,0,322300:0:0:0:0:
36,192,322211,1,0,0:0:0:50:Sub Snare.wav
402,192,322300,128,0,322389:0:0:0:0:
182,192,322300,1,0,0:0:0:50:Sub Snare.wav
109,192,322389,1,0,0:0:0:0:
475,192,322389,128,0,322478:0:0:0:0:
36,192,322389,1,0,0:0:0:50:Sub Snare.wav
329,192,322478,128,0,322567:0:0:0:0:
182,192,322478,1,0,0:0:0:50:Sub Snare.wav
402,192,322567,128,0,326834:0:0:0:50:CrashL.wav
475,192,322567,128,0,326834:0:0:0:50:Highlight.wav
109,192,322567,128,0,326834:0:0:0:50:Kick.wav
36,192,322567,128,0,326834:0:0:0:50:Sub Snare.wav
182,192,324700,128,0,326834:0:0:0:0:
329,192,324700,128,0,326834:0:0:0:0:
109,192,326967,1,0,0:0:0:0:
109,192,327100,128,0,327234:0:0:0:0:
109,192,327367,1,0,0:0:0:0:
109,192,327500,128,0,327634:0:0:0:0:
109,192,327767,1,0,0:0:0:0:
109,192,328034,1,0,0:0:0:0:
109,192,328167,128,0,328300:0:0:0:0:
109,192,328434,1,0,0:0:0:0:
109,192,328567,128,0,328700:0:0:0:0:
109,192,328834,1,0,0:0:0:0:
109,192,329100,1,0,0:0:0:0:
109,192,329234,128,0,329367:0:0:0:0:
109,192,329500,1,0,0:0:0:0:
109,192,329634,128,0,329767:0:0:0:0:
109,192,329900,1,0,0:0:0:0:
475,192,330034,128,0,330100:0:0:0:0:
256,192,330034,128,0,330100:0:0:0:0:
402,192,330100,128,0,330167:0:0:0:0:
182,192,330167,128,0,330234:0:0:0:0:
329,192,330167,128,0,330234:0:0:0:0:
109,192,330234,128,0,330300:0:0:0:0:
402,192,330300,128,0,330367:0:0:0:0:
36,192,330300,128,0,330367:0:0:0:0:
329,192,330367,128,0,330434:0:0:0:0:
109,192,330434,128,0,330500:0:0:0:0:
256,192,330434,128,0,330500:0:0:0:0:
36,192,330500,128,0,330567:0:0:0:0:
475,192,330567,128,0,330634:0:0:0:0:
329,192,330567,128,0,330634:0:0:0:0:
256,192,330634,128,0,330700:0:0:0:0:
36,192,330700,128,0,330767:0:0:0:0:
182,192,330700,128,0,330767:0:0:0:0:
475,192,330767,128,0,330834:0:0:0:0:
402,192,330834,128,0,330900:0:0:0:0:
256,192,330834,128,0,330900:0:0:0:0:
182,192,330900,128,0,330967:0:0:0:0:
475,192,330967,128,0,331034:0:0:0:0:
109,192,330967,128,0,331034:0:0:0:0:
402,192,331034,128,0,331100:0:0:0:0:
182,192,331100,128,0,331372:0:0:0:50:Cymbal.wav
36,192,331100,128,0,331372:0:0:0:30:BeLL.wav
329,192,331100,128,0,331168:0:0:0:0:
475,192,331372,1,0,0:0:0:0:
329,192,331372,1,0,0:0:0:0:
36,192,331509,1,0,0:0:0:0:
182,192,331509,1,0,0:0:0:0:
475,192,331645,1,0,0:0:0:0:
329,192,331645,1,0,0:0:0:0:
402,192,331781,1,0,0:0:0:0:
256,192,331781,1,0,0:0:0:0:
329,192,331918,1,0,0:0:0:0:
182,192,331918,1,0,0:0:0:0:
256,192,332054,128,0,332327:0:0:0:0:
109,192,332054,128,0,332327:0:0:0:0:
475,192,332327,1,0,0:0:0:0:
36,192,332327,1,0,0:0:0:0:
182,192,332463,1,0,0:0:0:0:
329,192,332463,1,0,0:0:0:0:
36,192,332600,1,0,0:0:0:0:
475,192,332600,1,0,0:0:0:0:
402,192,332736,1,0,0:0:0:0:
109,192,332736,1,0,0:0:0:0:
329,192,332872,1,0,0:0:0:0:
182,192,332872,1,0,0:0:0:0:
256,192,333009,1,0,0:0:0:0:
109,192,333009,1,0,0:0:0:0:
329,192,333145,1,0,0:0:0:0:
182,192,333145,1,0,0:0:0:0:
256,192,333281,128,0,333560:0:0:0:0:
402,192,333281,128,0,333560:0:0:0:30:BeLL.wav
182,192,333560,1,0,0:0:0:0:
36,192,333560,1,0,0:0:0:0:
329,192,333699,1,0,0:0:0:0:
475,192,333699,1,0,0:0:0:0:
36,192,333839,1,0,0:0:0:0:
182,192,333839,1,0,0:0:0:0:
329,192,333978,1,0,0:0:0:0:
475,192,333978,1,0,0:0:0:0:
182,192,334118,1,0,0:0:0:0:
329,192,334118,1,0,0:0:0:0:
36,192,334257,128,0,334536:0:0:0:0:
182,192,334257,128,0,334536:0:0:0:0:
256,192,334536,1,0,0:0:0:0:
109,192,334536,1,0,0:0:0:0:
475,192,334676,1,0,0:0:0:0:
329,192,334676,1,0,0:0:0:0:
109,192,334815,1,0,0:0:0:0:
256,192,334815,1,0,0:0:0:0:
182,192,334955,1,0,0:0:0:0:
402,192,334955,1,0,0:0:0:0:
329,192,335094,1,0,0:0:0:0:
36,192,335094,1,0,0:0:0:0:
256,192,335234,1,0,0:0:0:0:
109,192,335234,1,0,0:0:0:0:
329,192,335374,1,0,0:0:0:0:
182,192,335374,1,0,0:0:0:0:
109,192,335513,128,0,335798:0:0:0:0:
402,192,335513,128,0,335798:0:0:0:30:BeLL.wav
329,192,335798,1,0,0:0:0:0:
182,192,335798,1,0,0:0:0:0:
475,192,335941,1,0,0:0:0:0:
36,192,335941,1,0,0:0:0:0:
182,192,336084,1,0,0:0:0:0:
329,192,336084,1,0,0:0:0:0:
256,192,336227,1,0,0:0:0:0:
109,192,336227,1,0,0:0:0:0:
182,192,336370,1,0,0:0:0:0:
329,192,336370,1,0,0:0:0:0:
402,192,336513,128,0,336798:0:0:0:0:
256,192,336513,128,0,336798:0:0:0:0:
36,192,336798,1,0,0:0:0:0:
182,192,336798,1,0,0:0:0:0:
329,192,336941,1,0,0:0:0:0:
475,192,336941,1,0,0:0:0:0:
36,192,337084,1,0,0:0:0:0:
182,192,337084,1,0,0:0:0:0:
402,192,337227,1,0,0:0:0:0:
256,192,337227,1,0,0:0:0:0:
182,192,337370,1,0,0:0:0:0:
329,192,337370,1,0,0:0:0:0:
109,192,337513,1,0,0:0:0:0:
256,192,337513,1,0,0:0:0:0:
36,192,337655,1,0,0:0:0:0:
182,192,337655,1,0,0:0:0:0:
329,192,337798,128,0,338090:0:0:0:30:BeLL.wav
475,192,337798,128,0,338090:0:0:0:0:
109,192,338090,1,0,0:0:0:0:
256,192,338090,1,0,0:0:0:0:
475,192,338237,1,0,0:0:0:0:
329,192,338237,1,0,0:0:0:0:
109,192,338383,1,0,0:0:0:0:
256,192,338383,1,0,0:0:0:0:
36,192,338529,1,0,0:0:0:0:
475,192,338529,1,0,0:0:0:0:
329,192,338676,1,0,0:0:0:0:
182,192,338676,1,0,0:0:0:0:
402,192,338822,128,0,339115:0:0:0:0:
109,192,338822,128,0,339115:0:0:0:0:
182,192,339115,1,0,0:0:0:0:
329,192,339115,1,0,0:0:0:0:
475,192,339261,1,0,0:0:0:0:
36,192,339261,1,0,0:0:0:0:
182,192,339407,1,0,0:0:0:0:
329,192,339407,1,0,0:0:0:0:
402,192,339554,1,0,0:0:0:0:
109,192,339554,1,0,0:0:0:0:
475,192,339700,1,0,0:0:0:0:
256,192,339700,1,0,0:0:0:0:
402,192,339846,1,0,0:0:0:0:
182,192,339846,1,0,0:0:0:0:
329,192,339993,1,0,0:0:0:0:
109,192,339993,1,0,0:0:0:0:
36,192,340139,128,0,340439:0:0:0:30:BeLL.wav
256,192,340139,1,0,0:0:0:0:
475,192,340289,1,0,0:0:0:50:Highlight.wav
182,192,340439,1,0,0:0:0:0:
475,192,340439,1,0,0:0:0:50:Highlight.wav
329,192,340589,1,0,0:0:0:0:
109,192,340739,1,0,0:0:0:0:
475,192,340739,1,0,0:0:0:50:Highlight.wav
256,192,340889,1,0,0:0:0:0:
475,192,340889,1,0,0:0:0:50:Highlight.wav
36,192,341039,1,0,0:0:0:0:
475,192,341189,1,0,0:0:0:50:Highlight.wav
182,192,341189,128,0,341489:0:0:0:0:
329,192,341489,1,0,0:0:0:0:
109,192,341489,1,0,0:0:0:50:Highlight.wav
475,192,341639,1,0,0:0:0:0:
109,192,341639,1,0,0:0:0:50:Highlight.wav
329,192,341789,1,0,0:0:0:0:
475,192,341939,1,0,0:0:0:0:
109,192,341939,1,0,0:0:0:50:Highlight.wav
256,192,342089,1,0,0:0:0:0:
109,192,342089,1,0,0:0:0:50:Highlight.wav
402,192,342239,1,0,0:0:0:0:
329,192,342389,1,0,0:0:0:0:
109,192,342389,1,0,0:0:0:50:Highlight.wav
256,192,342539,128,0,342846:0:0:0:30:BeLL.wav
475,192,342692,1,0,0:0:0:50:Highlight.wav
36,192,342846,1,0,0:0:0:0:
475,192,342846,1,0,0:0:0:50:Highlight.wav
182,192,343000,1,0,0:0:0:0:
329,192,343154,1,0,0:0:0:0:
475,192,343154,1,0,0:0:0:50:Highlight.wav
109,192,343308,1,0,0:0:0:0:
475,192,343308,1,0,0:0:0:50:Highlight.wav
256,192,343462,1,0,0:0:0:0:
109,192,343615,128,0,343923:0:0:0:0:
475,192,343615,1,0,0:0:0:50:Highlight.wav
329,192,343923,1,0,0:0:0:0:
36,192,343923,1,0,0:0:0:50:Highlight.wav
475,192,344077,1,0,0:0:0:0:
36,192,344077,1,0,0:0:0:50:Highlight.wav
256,192,344231,1,0,0:0:0:0:
402,192,344385,1,0,0:0:0:0:
36,192,344385,1,0,0:0:0:50:Highlight.wav
182,192,344539,1,0,0:0:0:0:
36,192,344539,1,0,0:0:0:50:Highlight.wav
329,192,344692,1,0,0:0:0:0:
256,192,344846,1,0,0:0:0:0:
36,192,344846,1,0,0:0:0:50:Highlight.wav
182,192,345000,128,0,345315:0:0:0:30:BeLL.wav
402,192,345157,1,0,0:0:0:50:Highlight.wav
36,192,345315,1,0,0:0:0:0:
402,192,345315,1,0,0:0:0:50:Highlight.wav
182,192,345473,1,0,0:0:0:0:
109,192,345631,1,0,0:0:0:0:
402,192,345631,1,0,0:0:0:50:Highlight.wav
256,192,345789,1,0,0:0:0:0:
402,192,345789,1,0,0:0:0:50:Highlight.wav
182,192,345947,1,0,0:0:0:0:
329,192,346105,128,0,346421:0:0:0:0:
402,192,346105,1,0,0:0:0:50:Highlight.wav
475,192,346421,1,0,0:0:0:0:
109,192,346421,1,0,0:0:0:50:Highlight.wav
256,192,346578,1,0,0:0:0:0:
109,192,346578,1,0,0:0:0:50:Highlight.wav
402,192,346736,1,0,0:0:0:0:
329,192,346894,1,0,0:0:0:0:
109,192,346894,1,0,0:0:0:50:Highlight.wav
475,192,347052,1,0,0:0:0:0:
109,192,347052,1,0,0:0:0:50:Highlight.wav
329,192,347210,1,0,0:0:0:0:
402,192,347368,1,0,0:0:0:0:
109,192,347368,1,0,0:0:0:50:Highlight.wav
475,192,347526,128,0,347850:0:0:0:30:BeLL.wav
329,192,347688,1,0,0:0:0:50:Highlight.wav
36,192,347850,1,0,0:0:0:0:
329,192,347850,1,0,0:0:0:50:Highlight.wav
182,192,348012,1,0,0:0:0:0:
36,192,348174,1,0,0:0:0:0:
329,192,348174,1,0,0:0:0:50:Highlight.wav
109,192,348336,1,0,0:0:0:0:
329,192,348336,1,0,0:0:0:50:Highlight.wav
182,192,348498,1,0,0:0:0:0:
109,192,348661,1,0,0:0:0:0:
329,192,348661,1,0,0:0:0:50:Highlight.wav
475,192,348823,128,0,348904:0:0:0:0:
256,192,348823,128,0,348904:0:0:0:0:
36,192,348823,128,0,348904:0:0:0:0:
109,192,348904,128,0,348986:0:0:0:0:
329,192,348986,128,0,349067:0:0:0:50:Highlight.wav
182,192,348986,128,0,349067:0:0:0:0:
402,192,349067,128,0,349149:0:0:0:0:
182,192,349149,128,0,349230:0:0:0:50:Highlight.wav
475,192,349149,128,0,349230:0:0:0:0:
256,192,349230,128,0,349312:0:0:0:0:
36,192,349312,128,0,349393:0:0:0:0:
329,192,349312,128,0,349393:0:0:0:0:
109,192,349393,128,0,349475:0:0:0:0:
329,192,349475,128,0,349556:0:0:0:0:
182,192,349475,128,0,349556:0:0:0:50:Highlight.wav
402,192,349556,128,0,349638:0:0:0:0:
109,192,349638,128,0,349719:0:0:0:50:Highlight.wav
475,192,349638,128,0,349719:0:0:0:0:
256,192,349719,128,0,349801:0:0:0:0:
36,192,349801,128,0,349882:0:0:0:0:
402,192,349801,128,0,349882:0:0:0:0:
109,192,349882,128,0,349964:0:0:0:0:
329,192,349964,128,0,350045:0:0:0:0:
182,192,349964,128,0,350045:0:0:0:50:Highlight.wav
402,192,350045,128,0,350127:0:0:0:0:
36,192,350127,128,0,355460:0:0:0:0:
475,192,350127,128,0,350210:0:0:0:50:BeLL2.wav
256,192,350127,128,0,355460:0:0:0:30:BeLL.wav
109,192,350127,128,0,355460:0:0:0:0:
