osu file format v14

[General]
AudioFilename: audio.mp3
AudioLeadIn: 0
PreviewTime:74132
Countdown: 0
SampleSet: Soft
StackLeniency: 0.7
Mode: 0
LetterboxInBreaks: 0
WidescreenStoryboard: 1

[Editor]
Bookmarks:30248,39614,48979,58345,74736,93467,102833,107516,119223,126248
DistanceSpacing: 0.6
BeatDivisor: 4
GridSize: 8
TimelineZoom: 2.3

[Metadata]
Title:Hoshi no Otoshimono
TitleUnicode:ほしのおとしもの
Artist:AAAA
ArtistUnicode:ああああ
Creator:Ryuusei Aika
Version:Skytuna's Insane
Source:
Tags:LMT sanairrt Skytuna Elcheer Electronic Instrumental 8bit 8-bit セーブデータとほうき星
BeatmapID:2733483
BeatmapSetID:1305045

[Difficulty]
HPDrainRate:4
CircleSize:3.8
OverallDifficulty:8
ApproachRate:9
SliderMultiplier:1.8
SliderTickRate:1

[Events]
//Background and Video events
0,0,"BG.jpg",0,0
//Break Periods
//Storyboard Layer 0 (Background)
//Storyboard Layer 1 (Fail)
//Storyboard Layer 2 (Pass)
//Storyboard Layer 3 (Foreground)
//Storyboard Layer 4 (Overlay)
//Storyboard Sound Samples

[TimingPoints]
980,292.682926829268,4,2,1,30,1,0
980,-166.666666666667,4,2,1,30,0,0
11223,-166.666666666667,4,2,1,40,0,0
13272,-500.000000000003,4,2,1,40,0,0
13858,-166.666666666667,4,2,1,40,0,0
22053,-125,4,1,1,60,0,0
23223,-100,4,2,1,70,0,0
23516,-125,4,2,1,70,0,0
25565,-100,4,2,1,70,0,0
25858,-125,4,2,1,70,0,0
27906,-100,4,2,1,70,0,0
28199,-125,4,2,1,70,0,0
30248,-125,4,2,1,70,0,0
30540,-99.9999999999999,4,2,1,70,0,0
31272,-111.111111111111,4,2,1,70,0,0
32589,-125,4,2,1,70,0,0
32882,-99.9999999999999,4,2,1,70,0,0
33614,-111.111111111111,4,2,1,70,0,0
34931,-125,4,2,1,70,0,0
35223,-99.9999999999999,4,2,1,70,0,0
35955,-111.111111111111,4,2,1,70,0,0
37272,-125,4,2,1,70,0,0
37565,-99.9999999999999,4,2,1,70,0,0
38297,-111.111111111111,4,2,1,70,0,0
39614,-125,4,2,1,55,0,0
47809,-166.666666666667,4,2,1,70,0,0
48979,-111.111111111111,4,2,1,70,0,0
58345,-142.857142857143,4,2,1,45,0,0
64931,-142.857142857143,4,2,0,50,0,0
65370,-142.857142857143,4,2,1,60,0,0
68882,-133.333333333333,4,2,1,60,0,0
70053,-125,4,2,1,70,0,0
71223,-111.111111111111,4,2,1,75,0,0
74150,-111.111111111111,4,2,1,30,0,0
74443,-111.111111111111,4,2,1,65,0,0
74736,-100,4,2,1,80,0,1
81760,-90.9090909090909,4,2,1,60,0,1
82053,-71.4285714285714,4,2,1,60,0,1
82199,-100,4,2,1,60,0,1
82492,-83.3333333333333,4,2,1,60,0,1
82784,-200,4,2,1,70,0,1
83077,-90.9090909090909,4,2,1,70,0,1
83223,-100,4,2,1,70,0,1
84101,-100,4,2,1,80,0,1
93467,-100,4,2,1,85,0,1
99614,-200,4,2,1,85,0,1
99906,-100,4,2,1,85,0,1
100492,-90.9090909090909,4,2,1,70,0,1
100784,-71.4285714285714,4,2,1,70,0,1
100931,-100,4,2,1,70,0,1
101223,-125,4,2,1,70,0,1
101516,-100,4,2,1,70,0,1
102833,-100,4,2,1,85,0,1
114540,-100,4,2,1,90,0,1
116882,-100,4,2,1,90,0,0
119223,-100,4,2,1,30,0,0
130931,-100,4,2,1,15,0,0

[Colours]
Combo1 : 255,128,128
Combo2 : 0,172,255
Combo3 : 128,191,255
Combo4 : 192,192,192
Combo5 : 128,128,128
Combo6 : 0,223,0
Combo7 : 0,191,191
Combo8 : 255,64,64

[HitObjects]
86,175,980,6,0,L|102:290,1,107.999996704102,4|0,1:0|0:0,0:0:0:0:
180,278,1419,2,0,L|165:171,1,107.999996704102,2|0,0:0|0:0,0:0:0:0:
240,154,1858,2,0,L|247:208,1,53.9999983520508,0|2,0:0|0:0,0:0:0:0:
143,351,2150,6,0,B|176:366|176:366|253:341,1,107.999996704102
286,277,2589,1,2,0:0:0:0:
370,340,2736,1,0,0:0:0:0:
384,263,2882,2,0,L|389:232,2,26.9999991760254,0|2|2,0:0|0:0|0:0,0:0:0:0:
370,334,3175,1,2,0:0:0:0:
440,187,3321,102,0,P|396:209|325:184,1,107.999996704102
336,119,3760,2,0,P|380:97|451:122,1,107.999996704102,2|0,0:0|0:0,0:0:0:0:
497,57,4199,2,0,P|473:39|432:28,1,53.9999983520508,0|2,0:0|0:0,0:0:0:0:
435,109,4492,2,0,P|426:134|427:161,1,53.9999983520508
260,182,4784,1,2,0:0:0:0:
260,182,5077,6,0,L|348:198,2,80.9999975280763,2|2|2,0:0|0:0|0:0,0:0:0:0:
87,56,5662,101,2,0:0:0:0:
95,64,6101,5,2,0:0:0:0:
95,64,6175,1,2,0:0:0:0:
95,64,6248,2,0,B|112:102|112:102|90:141,2,80.9999975280763,2|2|2,0:0|0:0|0:0,0:0:0:0:
23,182,6833,102,0,P|89:187|126:237,1,107.999996704102,2|2,0:0|0:0,0:0:0:0:
116,214,7419,2,0,P|87:252|13:269,1,107.999996704102,2|2,0:0|0:0,0:0:0:0:
181,373,8004,5,2,0:0:0:0:
181,373,8297,101,0,0:0:0:0:
226,306,8443,2,0,L|208:197,1,107.999996704102,2|0,0:0|0:0,0:0:0:0:
191,114,8882,2,0,B|216:106|216:106|253:127,1,53.9999983520508,0|2,0:0|0:0,0:0:0:0:
124,176,9175,5,4,1:0:0:0:
405,43,10199,102,0,L|398:78,2,26.9999991760254,0|0|2,0:0|0:0|0:0,0:0:0:0:
371,180,10638,6,0,L|336:187,3,26.9999991760254
452,200,10931,2,0,L|478:194,3,26.9999991760254
385,268,11223,2,0,L|350:275,3,26.9999991760254,2|2|2|2,0:0|0:0|0:0|0:0,0:0:0:0:
473,315,11516,1,2,0:0:0:0:
333,78,13272,102,0,L|347:81,7,9
348,49,13858,38,0,L|358:115,1,53.9999983520508,2|0,0:0|0:0,0:0:0:0:
455,135,14150,1,0,0:0:0:0:
416,206,14297,1,0,0:0:0:0:
416,206,14370,1,0,0:0:0:0:
416,206,14443,2,0,L|372:190,2,26.9999991760254
486,250,14736,2,0,L|492:321,1,53.9999983520508
374,363,15028,102,0,P|337:370|305:358,1,53.9999983520508
256,286,15321,1,0,0:0:0:0:
215,353,15467,1,0,0:0:0:0:
215,353,15540,1,0,0:0:0:0:
215,353,15613,2,0,L|171:337,2,26.9999991760254
153,267,15906,2,0,L|91:282,1,53.9999983520508
18,366,16199,6,0,P|34:328|32:309,1,53.9999983520508
11,202,16492,1,2,0:0:0:0:
83,160,16638,1,0,0:0:0:0:
83,160,16711,1,0,0:0:0:0:
83,160,16784,2,0,L|127:176,2,26.9999991760254
20,92,17077,2,0,P|18:61|29:25,1,53.9999983520508,0|2,0:0|0:0,0:0:0:0:
155,54,17370,102,0,L|77:66,1,53.9999983520508
205,124,17662,1,0,0:0:0:0:
255,65,17809,1,0,0:0:0:0:
255,65,17882,1,0,0:0:0:0:
255,65,17955,1,2,0:0:0:0:
328,84,18101,1,0,0:0:0:0:
327,160,18248,1,0,0:0:0:0:
254,183,18394,1,0,0:0:0:0:
354,239,18540,6,0,L|345:300,1,53.9999983520508
428,197,18833,1,0,0:0:0:0:
464,274,18979,1,0,0:0:0:0:
464,274,19052,1,0,0:0:0:0:
464,274,19125,2,0,L|508:258,2,26.9999991760254,2|0|0,0:0|0:0|0:0,0:0:0:0:
428,197,19419,2,0,P|425:157|432:135,1,53.9999983520508,2|0,0:0|0:0,0:0:0:0:
487,34,19711,102,0,L|416:46,1,53.9999983520508
338,1,20004,1,0,0:0:0:0:
276,49,20150,1,2,0:0:0:0:
276,49,20223,1,0,0:0:0:0:
276,49,20296,2,0,L|232:33,2,26.9999991760254,0|0|2,0:0|0:0|0:0,0:0:0:0:
329,111,20589,2,0,L|317:172,1,53.9999983520508
237,247,20882,6,0,L|220:183,2,53.9999983520508
174,294,21321,1,0,0:0:0:0:
45,226,21467,102,0,L|39:199,3,26.9999991760254
107,161,21760,2,0,L|113:190,3,26.9999991760254
99,78,22053,86,0,L|144:90,1,36,2|0,0:0|0:0,0:0:0:0:
153,93,22199,2,0,L|198:105,1,36,2|0,0:0|0:0,0:0:0:0:
398,293,22492,1,0,0:0:0:0:
398,293,22565,1,0,0:0:0:0:
398,293,22638,6,0,L|353:305,1,36,2|0,0:0|0:0,0:0:0:0:
332,310,22784,2,0,L|287:322,1,36,2|0,0:0|0:0,0:0:0:0:
358,85,23077,1,0,0:0:0:0:
358,85,23150,1,0,0:0:0:0:
358,85,23223,54,0,B|325:115|325:115|306:218,1,135,0|0,1:0|0:0,0:0:0:0:
308,214,23516,1,0,1:0:0:0:
395,179,23662,2,0,P|434:194|456:225,1,72,0|0,0:0|1:0,0:0:0:0:
394,167,23955,1,0,0:0:0:0:
261,276,24101,1,0,1:0:0:0:
230,176,24248,2,0,P|186:176|159:196,2,72,0|0|0,0:0|1:0|0:0,0:0:0:0:
170,97,24687,1,0,1:0:0:0:
86,201,24833,102,0,L|105:277,1,72,0|0,0:0|1:0,0:0:0:0:
172,318,25126,1,0,0:0:0:0:
18,366,25272,1,0,1:0:0:0:
26,277,25419,1,0,0:0:0:0:
168,329,25565,6,0,B|212:335|240:299|220:293|246:260|279:258,1,135,0|0,1:0|0:0,0:0:0:0:
286,248,25858,1,0,1:0:0:0:
376,349,26004,2,0,L|287:327,1,72,0|0,0:0|1:0,0:0:0:0:
376,259,26297,1,0,0:0:0:0:
451,314,26443,1,0,1:0:0:0:
407,169,26589,2,0,L|337:186,1,72,0|0,0:0|1:0,0:0:0:0:
246,101,26882,102,0,P|232:90|216:84,2,36,0|0|0,0:0|0:0|1:0,0:0:0:0:
326,84,27175,2,0,P|320:68|309:54,2,36,0|0|0,0:0|0:0|1:0,0:0:0:0:
262,178,27467,5,2,0:0:0:0:
288,281,27614,1,2,1:2:0:0:
397,258,27760,1,0,0:0:0:0:
242,189,27906,102,0,P|189:202|147:273,1,135,6|0,1:2|0:0,0:0:0:0:
148,284,28199,1,2,1:2:0:0:
32,167,28345,2,0,L|58:90,1,72,2|0,0:0|1:0,0:0:0:0:
124,55,28638,1,2,0:0:0:0:
44,10,28784,1,0,1:0:0:0:
129,141,28931,5,4,1:2:0:0:
128,151,29223,101,4,1:2:0:0:
206,42,29370,2,0,L|253:52,1,36,4|0,1:2|0:0,0:0:0:0:
262,54,29516,2,0,L|309:64,1,36,4|0,1:2|0:0,0:0:0:0:
361,119,29662,5,2,0:0:0:0:
369,111,29736,1,2,0:0:0:0:
375,102,29809,1,2,0:0:0:0:
379,91,29882,1,2,0:0:0:0:
381,80,29955,2,0,P|382:56|376:34,3,36,2|2|2|2,0:0|0:0|0:0|0:0,0:0:0:0:
271,141,30248,102,0,B|288:225|288:225|322:257,1,108,4|0,1:0|0:0,0:0:0:0:
340,260,30540,2,0,P|302:260|260:311,1,90,8|0,0:0|0:0,0:0:0:0:
262,302,30760,1,0,0:0:0:0:
259,310,30833,1,0,1:0:0:0:
194,260,30979,1,0,1:0:0:0:
172,354,31126,1,8,0:0:0:0:
68,262,31272,6,0,B|81:193|81:193|103:180|103:180|116:102,1,161.999995056153,0|0,1:0|1:0,0:0:0:0:
36,30,31711,2,0,P|15:73|37:124,1,80.9999975280763,8|0,0:0|0:0,0:0:0:0:
118,38,32004,1,0,1:0:0:0:
118,38,32150,1,0,1:0:0:0:
197,116,32297,2,0,L|289:97,1,80.9999975280763,2|0,1:0|0:0,0:0:0:0:
444,209,32589,38,0,P|402:204|370:145,1,108,0|0,1:0|0:0,0:0:0:0:
354,132,32882,2,0,L|336:228,1,90,8|0,0:0|0:0,0:0:0:0:
340,228,33101,1,8,0:0:0:0:
344,235,33175,1,0,1:0:0:0:
413,286,33321,1,0,1:0:0:0:
311,338,33467,1,8,0:0:0:0:
414,206,33614,6,0,P|474:230|469:341,1,161.999995056153,0|0,1:0|1:0,0:0:0:0:
400,198,34053,2,0,P|394:150|413:117,1,80.9999975280763,8|0,0:0|0:0,0:0:0:0:
455,41,34345,1,0,1:0:0:0:
455,41,34492,1,0,1:0:0:0:
336,86,34638,2,0,L|246:67,1,80.9999975280763,10|0,0:0|2:0,2:0:0:0:
85,138,34931,54,0,B|112:126|112:126|150:162|136:207,1,108,4|0,1:2|2:0,2:0:0:0:
140,218,35223,2,0,L|158:122,1,90,8|0,2:0|0:0,0:0:0:0:
164,125,35443,1,8,0:0:0:0:
171,120,35516,1,0,0:0:0:0:
241,160,35662,1,0,1:0:0:0:
188,43,35809,1,8,0:0:0:0:
13,127,35955,102,0,B|88:119|88:119|102:129|102:129|170:119,1,161.999995056153,0|0,1:0|1:0,0:0:0:0:
98,15,36394,2,0,L|78:121,1,80.9999975280763,8|0,0:0|0:0,0:0:0:0:
65,201,36687,1,0,1:0:0:0:
65,201,36833,1,0,1:0:0:0:
214,181,36979,2,0,P|201:143|169:118,1,80.9999975280763,10|0,0:0|0:0,0:0:0:0:
141,238,37272,54,0,P|180:216|256:245,1,108,0|0,1:0|0:0,0:0:0:0:
263,244,37565,6,0,B|254:294|254:294|196:309,1,90,8|0,0:0|0:0,0:0:0:0:
207,301,37784,1,8,0:0:0:0:
198,297,37858,1,0,0:0:0:0:
144,363,38004,1,0,1:0:0:0:
77,277,38150,1,8,0:0:0:0:
226,381,38297,54,0,B|266:380|288:339|288:339|316:380|387:373,1,161.999995056153,0|0,1:0|0:0,0:0:0:0:
438,274,38736,2,0,P|374:283|358:321,1,80.9999975280763,8|0,0:0|0:0,0:0:0:0:
305,198,39028,1,0,1:0:0:0:
305,198,39175,1,0,1:0:0:0:
382,143,39321,1,10,0:0:0:0:
382,143,39467,1,2,0:0:0:0:
291,39,39614,101,4,1:2:0:0:
291,39,39906,53,2,1:2:0:0:
226,148,40053,2,0,B|176:147|168:108|181:106|147:62|97:77,1,144,2|2,0:0|0:0,0:0:0:0:
112,74,40492,1,2,1:2:0:0:
35,179,40638,2,0,P|98:152|105:138,1,72,2|0,0:0|1:0,0:0:0:0:
57,32,40931,2,0,P|111:73|127:72,1,72,0|0,0:0|1:0,0:0:0:0:
196,6,41223,5,2,0:0:0:0:
196,6,41297,1,0,0:0:0:0:
196,6,41370,2,0,P|192:36|197:58,1,36
271,97,41516,1,2,0:0:0:0:
271,97,41589,1,0,0:0:0:0:
271,97,41662,2,0,L|318:107,3,36,2|0|2|0,1:2|0:0|0:0|0:0,0:0:0:0:
309,23,41955,102,0,B|338:129|338:129|320:167,1,144,2|2,1:2|1:2,0:0:0:0:
262,237,42394,1,2,0:0:0:0:
262,237,42467,1,0,0:0:0:0:
262,237,42540,2,0,L|316:227,1,36,0|0,1:0|0:0,0:0:0:0:
376,223,42687,1,2,0:0:0:0:
349,356,42833,5,2,1:2:0:0:
395,214,42979,2,0,L|418:312,1,72,2|0,0:0|1:0,0:0:0:0:
434,365,43272,1,0,0:0:0:0:
482,254,43419,1,0,1:0:0:0:
357,364,43565,1,0,0:0:0:0:
357,364,43638,1,0,0:0:0:0:
357,364,43711,102,0,L|308:374,1,36,2|0,1:0|0:0,0:0:0:0:
267,316,43858,2,0,L|218:326,1,36,2|0,0:2|0:0,0:0:0:0:
162,374,44004,5,2,1:0:0:0:
148,371,44077,1,0,0:0:0:0:
135,367,44150,1,2,0:2:0:0:
122,363,44223,1,0,0:0:0:0:
108,359,44297,102,2,B|82:316|82:316|102:218,1,144,2|0,1:0|1:0,0:1:0:0:
67,121,44736,1,0,0:0:0:0:
67,121,44809,1,0,0:0:0:0:
67,121,44882,2,0,P|63:154|67:170,1,36,2|0,1:0|0:0,0:0:0:0:
100,224,45028,1,2,0:2:0:0:
146,98,45175,1,2,1:0:0:0:
99,232,45321,1,2,0:2:0:0:
225,184,45467,6,0,P|242:215|237:262,1,72,2|0,1:0|0:0,0:0:0:0:
311,151,45760,1,0,1:0:0:0:
311,151,45833,1,0,0:0:0:0:
311,151,45906,1,2,0:1:0:0:
442,236,46053,1,0,1:0:0:0:
423,147,46199,2,0,L|403:56,1,72,2|0,0:1|1:0,0:0:0:0:
393,72,46419,1,0,0:0:0:0:
378,71,46492,1,0,0:0:0:0:
364,74,46565,1,0,0:0:0:0:
351,80,46638,102,0,B|458:44|458:44|501:55,1,144,2|0,1:0|1:0,0:0:0:0:
488,51,47077,1,2,0:1:0:0:
277,37,47223,5,2,1:0:0:0:
264,55,47297,1,0,0:0:0:0:
258,75,47370,1,2,0:0:0:0:
259,96,47443,1,2,0:0:0:0:
264,116,47516,2,0,P|288:138|293:140,3,36,2|2|2|2,1:2|0:0|0:0|0:0,0:0:0:0:
173,50,47809,22,0,L|99:65,2,53.9999983520508
92,145,48248,1,0,0:0:0:0:
81,142,48321,1,0,0:0:0:0:
73,139,48394,1,0,0:0:0:0:
65,136,48467,1,0,0:0:0:0:
57,133,48540,1,0,0:0:0:0:
196,163,48687,2,0,L|184:123,3,26.9999991760254,2|2|2|2,0:0|0:0|0:0|0:0,0:0:0:0:
260,219,48979,22,0,P|211:199|126:280,1,161.999995056153,4|8,1:2|0:0,0:0:0:0:
22,299,49419,1,0,0:0:0:0:
22,299,49492,1,8,0:0:0:0:
22,299,49565,2,0,L|44:212,1,80.9999975280763,0|0,0:0|1:0,0:0:0:0:
100,330,49858,1,8,0:0:0:0:
198,209,50004,102,0,B|223:190|223:190|368:214,1,161.999995056153,0|0,1:0|1:0,0:0:0:0:
423,262,50443,1,8,0:0:0:0:
413,160,50589,2,0,P|370:130|339:133,1,80.9999975280763,0|0,0:0|1:0,0:0:0:0:
233,22,50882,1,0,1:0:0:0:
263,127,51028,1,8,0:0:0:0:
312,59,51175,1,0,0:0:0:0:
166,150,51321,54,0,P|97:154|60:46,1,161.999995056153,0|8,1:0|0:0,0:0:0:0:
117,0,51760,1,0,0:0:0:0:
117,0,51833,1,8,0:0:0:0:
117,0,51906,2,0,L|136:99,1,80.9999975280763,0|0,0:0|1:0,0:0:0:0:
81,153,52199,1,8,0:0:0:0:
206,36,52345,2,0,B|224:114|224:114|217:124|217:124|236:210,1,161.999995056153,0|0,1:0|1:0,0:0:0:0:
344,132,52784,1,8,0:0:0:0:
344,132,53077,5,0,1:0:0:0:
366,215,53223,1,0,1:0:0:0:
448,192,53370,1,8,0:0:0:0:
426,110,53516,1,0,0:0:0:0:
355,222,53662,54,0,P|356:281|444:326,1,161.999995056153,0|8,1:0|0:0,0:0:0:0:
253,363,54101,1,0,0:0:0:0:
253,363,54175,1,8,0:0:0:0:
253,363,54248,2,0,P|273:324|263:283,1,80.9999975280763,0|0,0:0|1:0,0:0:0:0:
219,214,54540,1,8,0:0:0:0:
192,317,54687,102,0,L|221:147,1,161.999995056153,0|0,1:0|1:0,0:0:0:0:
72,68,55126,54,0,P|101:42|156:41,1,80.9999975280763,8|0,0:0|0:0,0:0:0:0:
203,165,55419,2,0,P|165:152|137:105,1,80.9999975280763,0|0,1:0|1:0,0:0:0:0:
258,19,55711,1,8,0:0:0:0:
258,19,56004,6,0,P|265:70|363:96,1,161.999995056153,4|8,1:2|0:0,0:0:0:0:
470,40,56443,1,0,0:0:0:0:
470,40,56516,1,8,0:0:0:0:
470,40,56589,2,0,L|365:16,1,80.9999975280763,0|0,1:0|1:0,0:0:0:0:
359,97,56882,1,8,0:0:0:0:
507,151,57028,2,0,L|331:196,1,161.999995056153,0|0,1:0|1:0,0:0:0:0:
235,244,57467,2,0,P|271:246|320:278,1,80.9999975280763,8|0,0:0|0:0,0:0:0:0:
403,358,57760,54,0,P|422:347|421:321,1,40.4999987640381,2|2,1:2|0:0,0:0:0:0:
428,314,57906,2,0,P|408:303|386:316,1,40.4999987640381,2|2,1:2|0:0,0:0:0:0:
242,341,58053,102,0,L|202:332,3,40.4999987640381,10|2|2|2,0:0|0:0|0:0|0:0,0:0:0:0:
177,309,58345,102,0,P|132:330|117:355,1,62.9999980773926,6|2,1:2|0:0,0:0:0:0:
5,354,58638,1,2,0:0:0:0:
5,354,58784,2,0,P|50:375|65:400,1,62.9999980773926,2|0,0:0|0:0,0:0:0:0:
129,233,59077,1,0,0:0:0:0:
52,277,59223,1,2,0:0:0:0:
52,277,59370,102,0,L|12:140,1,125.999996154785,2|2,0:0|0:0,0:0:0:0:
16,156,59809,1,2,0:0:0:0:
117,51,59955,2,0,P|135:97|90:166,1,125.999996154785,2|0,0:0|0:0,0:0:0:0:
281,218,60394,2,0,L|263:135,1,62.9999980773926,2|2,0:0|0:0,0:0:0:0:
216,101,60614,1,0,0:0:0:0:
216,101,60687,6,0,P|239:122|339:106,1,125.999996154785,2|2,0:0|0:0,0:0:0:0:
478,108,61126,1,0,0:0:0:0:
478,108,61199,1,0,0:0:0:0:
478,108,61272,1,2,0:0:0:0:
402,150,61419,1,2,0:0:0:0:
398,70,61565,1,2,0:0:0:0:
478,199,61711,1,2,0:0:0:0:
478,199,61784,1,0,0:0:0:0:
478,199,61858,102,0,L|455:276,1,62.9999980773926
317,286,62150,1,0,0:0:0:0:
280,357,62297,2,0,P|316:317|405:333,1,125.999996154785,2|2,0:0|0:0,0:0:0:0:
262,197,62736,1,2,0:0:0:0:
223,270,62882,1,2,0:0:0:0:
223,270,62955,1,0,0:0:0:0:
223,270,63028,6,0,B|134:247|134:247|73:260,1,125.999996154785,0|2,0:0|0:0,0:0:0:0:
18,136,63467,2,0,P|57:151|72:180,1,62.9999980773926,2|0,0:0|0:0,0:0:0:0:
59,45,63760,1,2,0:0:0:0:
150,148,63906,1,2,0:0:0:0:
150,148,64053,102,0,B|199:135|199:135|222:142|222:142|280:128,1,125.999996154785,2|0,0:0|0:0,0:0:0:0:
316,62,64492,1,2,0:0:0:0:
356,153,64638,2,0,L|377:14,1,125.999996154785,2|8,0:0|0:0,0:0:0:0:
456,1,65077,1,8,0:0:0:0:
446,83,65223,1,0,0:0:0:0:
316,62,65370,37,4,1:2:0:0:
239,81,65516,1,0,0:0:0:0:
160,100,65662,1,8,1:2:0:0:
178,20,65809,1,0,0:0:0:0:
241,98,65955,102,0,B|232:156|232:156|218:170|218:170|206:239,2,125.999996154785,0|8|0,1:0|1:2|1:0,0:0:0:0:
56,168,66833,54,0,L|68:229,1,62.9999980773926,8|0,1:2|0:0,0:0:0:0:
122,291,67126,2,0,B|149:275|149:275|148:237,1,62.9999980773926,0|0,1:0|0:0,0:0:0:0:
44,305,67419,2,0,B|44:336|44:336|77:354,1,62.9999980773926,8|0,1:2|0:0,0:0:0:0:
218,346,67711,6,0,L|283:325,1,62.9999980773926,12|0,1:2|0:0,0:0:0:0:
339,271,68004,2,0,P|296:315|299:378,2,125.999996154785,8|0|8,1:2|1:2|1:2,0:0:0:0:
498,337,68736,53,8,0:0:0:0:
498,337,68809,1,8,0:0:0:0:
498,337,68882,6,0,B|452:313|430:355|433:339|407:376|353:337,2,135.000005149842,8|8|8,1:2|1:2|1:2,0:0:0:0:
196,97,69760,5,8,1:2:0:0:
205,205,69906,2,0,L|254:189,1,33.7500012874604,8|8,0:0|0:0,0:0:0:0:
263,184,70053,102,0,L|167:167,1,72,12|0,0:0|1:0,0:0:0:0:
106,159,70345,1,0,1:0:0:0:
274,88,70492,2,0,L|323:72,1,36,8|8,0:0|0:0,0:0:0:0:
353,8,70638,1,4,0:0:0:0:
424,182,70784,1,0,1:0:0:0:
484,117,70931,1,8,1:2:0:0:
396,103,71077,1,8,0:0:0:0:
307,240,71223,70,0,L|277:143,1,80.9999975280763,4|8,1:2|0:0,0:0:0:0:
274,88,71443,1,8,0:0:0:0:
274,88,71516,2,0,L|244:185,1,80.9999975280763,4|8,1:2|0:0,0:0:0:0:
226,238,71736,1,8,0:0:0:0:
226,238,71809,2,0,L|196:141,1,80.9999975280763,4|8,1:2|0:0,0:0:0:0:
165,89,72028,1,8,0:0:0:0:
169,93,72101,2,0,L|139:190,1,80.9999975280763,4|8,1:2|0:0,0:0:0:0:
127,248,72321,1,8,0:0:0:0:
127,248,72394,1,4,1:2:0:0:
256,192,72540,12,2,74150,0:1:0:0:
35,241,74443,101,2,0:0:0:0:
23,219,74516,1,2,0:0:0:0:
19,195,74589,1,2,0:0:0:0:
28,172,74662,1,2,0:0:0:0:
43,156,74736,22,0,B|116:141|116:141|149:160|149:160|250:138,1,180,4|8,1:2|0:0,0:0:0:0:
337,32,75175,2,0,B|316:41|316:41|332:65,1,45,0|8,0:0|0:0,0:0:0:0:
405,61,75321,2,0,L|309:39,1,90,0|0,1:0|1:0,0:0:0:0:
209,18,75614,1,8,0:0:0:0:
302,151,75760,1,0,0:0:0:0:
308,162,75833,1,0,0:0:0:0:
314,173,75906,54,0,L|289:287,1,90,0|0,1:0|0:0,0:0:0:0:
114,305,76199,2,0,P|165:287|211:310,1,90,8|0,0:0|0:0,0:0:0:0:
309,375,76492,1,0,1:0:0:0:
290,273,76638,1,0,1:0:0:0:
158,368,76784,2,0,L|179:263,1,90,8|0,0:0|0:0,0:0:0:0:
272,84,77077,6,0,B|328:71|363:99|345:110|408:130|450:99,1,180,0|8,1:0|0:0,0:0:0:0:
305,167,77516,2,0,B|294:168|282:173|282:173|293:162|303:145,1,45
272,84,77662,2,0,L|284:189,1,90,2|2,1:2|1:2,0:0:0:0:
404,28,77955,1,10,0:0:0:0:
254,87,78101,54,0,P|204:99|113:0,1,180,2|2,1:2|1:2,0:0:0:0:
17,125,78540,1,10,0:0:0:0:
105,25,78687,1,2,0:0:0:0:
10,37,78833,1,2,1:2:0:0:
10,37,78979,1,2,1:2:0:0:
98,156,79126,101,8,0:0:0:0:
91,176,79199,1,0,0:0:0:0:
77,193,79272,1,0,0:0:0:0:
60,208,79345,1,0,0:0:0:0:
37,212,79419,54,0,B|71:81|71:81|114:58,1,180,0|8,1:0|0:0,0:0:0:0:
303,99,79858,2,0,P|316:78|294:73,1,45
217,71,80004,2,0,L|320:104,1,90,0|0,1:0|1:0,0:0:0:0:
376,24,80297,1,8,0:0:0:0:
437,209,80443,1,0,1:0:0:0:
440,196,80516,1,0,0:0:0:0:
435,183,80589,6,0,P|379:172|344:194,1,90,0|0,0:0|1:0,0:0:0:0:
212,240,80882,2,0,P|261:264|306:253,1,90,8|0,0:0|0:0,0:0:0:0:
270,179,81175,1,0,1:0:0:0:
270,179,81321,1,0,1:0:0:0:
149,281,81467,2,0,L|170:382,1,90,8|0,0:0|0:0,0:0:0:0:
13,201,81760,54,0,P|66:176|57:56,1,148.50000453186,4|0,1:2|0:0,0:0:0:0:
84,14,82053,102,0,B|53:1|53:1|36:27,1,62.9999980773926,4|0,1:2|0:0,0:0:0:0:
162,95,82199,54,0,B|192:109|192:109|311:82,1,135,4|0,1:2|0:0,0:0:0:0:
379,79,82492,6,0,B|387:88|387:88|412:61|443:50|443:50|407:54|378:32|378:32|372:45,1,161.999995056153,4|0,1:2|0:0,0:0:0:0:
284,169,82784,54,0,B|295:202|295:202|292:207|292:207|301:244,1,67.5,4|0,1:2|0:0,0:0:0:0:
245,293,83077,102,0,B|219:287|219:287|232:260,1,49.5000015106202,0|0,1:0|0:0,0:0:0:0:
316,233,83223,54,0,P|349:236|390:279,1,90,8|0,0:0|0:0,0:0:0:0:
411,348,83443,1,0,1:0:0:0:
411,348,83516,6,0,P|439:330|449:316,1,45,8|8,0:0|0:0,0:0:0:0:
451,215,83662,1,8,1:2:0:0:
512,354,83809,1,8,0:0:0:0:
459,223,83955,1,8,0:0:0:0:
459,223,84028,1,8,0:0:0:0:
459,223,84101,54,0,B|417:160|336:189|336:189|358:195|368:212,1,180,4|8,1:2|0:0,0:0:0:0:
289,351,84540,2,0,B|265:356|265:356|283:340,1,45,0|8,0:0|0:0,0:0:0:0:
302,262,84687,2,0,L|288:351,1,90,0|0,1:0|1:0,0:0:0:0:
178,377,84979,1,8,0:0:0:0:
127,158,85126,1,0,1:0:0:0:
121,164,85199,1,0,0:0:0:0:
115,171,85272,102,0,L|8:147,1,90,0|0,0:0|1:0,0:0:0:0:
152,14,85565,2,0,B|186:47|186:47|158:104,1,90,8|0,0:0|0:0,0:0:0:0:
77,64,85858,1,0,1:0:0:0:
77,64,86004,1,0,1:0:0:0:
49,269,86150,2,0,L|147:247,1,90,8|0,0:0|0:0,0:0:0:0:
283,88,86443,54,0,P|288:156|167:180,1,180,0|8,1:0|0:0,0:0:0:0:
307,193,86882,2,0,B|310:179|317:170|317:170|306:177|284:179,1,45,0|8,0:0|0:0,0:0:0:0:
387,139,87028,5,2,1:2:0:0:
398,243,87175,1,2,1:2:0:0:
486,210,87321,1,10,0:0:0:0:
405,47,87467,54,0,B|352:32|307:77|324:83|278:120|201:74,1,180,2|2,1:2|1:2,0:0:0:0:
236,102,87833,1,0,0:0:0:0:
234,114,87906,1,8,0:0:0:0:
266,11,88053,1,2,0:0:0:0:
174,169,88199,101,2,1:2:0:0:
174,169,88345,1,2,1:2:0:0:
95,322,88492,2,0,L|70:233,1,90,8|0,0:0|0:0,0:0:0:0:
28,99,88784,53,4,1:2:0:0:
91,155,88931,1,0,0:0:0:0:
13,177,89077,1,8,0:0:0:0:
112,67,89223,6,0,P|172:51|238:125,1,135,4|0,1:2|0:0,0:0:0:0:
230,103,89516,1,0,1:0:0:0:
331,83,89662,1,8,0:0:0:0:
238,181,89809,54,0,L|268:24,1,135,4|0,1:2|0:0,0:0:0:0:
266,35,90101,1,0,1:0:0:0:
369,4,90248,1,8,0:0:0:0:
323,191,90394,102,0,P|302:126|193:112,1,180,4|0,1:2|1:0,0:0:0:0:
77,151,90833,1,8,0:0:0:0:
105,60,90979,1,2,0:0:0:0:
198,200,91126,54,0,L|108:223,1,90,8|8,0:0|0:0,0:0:0:0:
84,297,91345,1,8,0:0:0:0:
84,297,91419,2,0,B|69:343|69:343|102:376,1,90,8|8,0:0|0:0,0:0:0:0:
174,354,91638,1,8,0:0:0:0:
178,358,91711,2,0,B|193:312|193:312|160:279,1,90,12|8,0:0|0:0,0:0:0:0:
116,227,91931,1,8,0:0:0:0:
116,227,92004,1,8,0:0:0:0:
192,365,92150,6,0,B|216:376|216:376|302:362|302:362|339:321,1,135,4|0,1:2|0:0,0:0:0:0:
369,277,92443,54,0,B|356:257|356:257|319:266,1,45,4|0,1:2|0:0,0:0:0:0:
266,227,92589,2,0,B|269:203|269:203|307:195,1,45,4|0,1:2|0:0,0:0:0:0:
400,196,92736,2,0,B|387:176|387:176|350:185,1,45,4|0,1:2|0:0,0:0:0:0:
308,114,92882,101,4,1:2:0:0:
447,43,93028,1,0,1:0:0:0:
447,43,93101,1,0,1:0:0:0:
447,43,93175,53,8,1:2:0:0:
453,69,93248,1,0,1:0:0:0:
458,95,93321,1,8,1:2:0:0:
464,121,93394,1,0,1:0:0:0:
470,146,93467,86,0,L|363:122,1,90,4|8,1:2|0:0,0:0:0:0:
343,43,93760,1,0,1:0:0:0:
175,128,93906,1,8,0:0:0:0:
175,128,94053,2,0,P|216:143|239:181,1,90,0|8,1:0|0:0,0:0:0:0:
245,39,94345,1,0,1:0:0:0:
88,103,94492,1,8,0:0:0:0:
88,103,94565,1,2,0:0:0:0:
88,103,94638,5,0,1:0:0:0:
146,42,94784,1,8,0:0:0:0:
20,141,94931,85,0,1:0:0:0:
5,55,95077,1,8,0:0:0:0:
143,181,95223,2,0,P|133:224|101:255,1,90,0|8,1:0|0:0,0:0:0:0:
21,344,95516,2,0,P|63:331|106:344,1,90,0|8,1:0|0:0,0:0:0:0:
283,293,95809,102,0,L|170:272,1,90,0|8,1:0|0:0,0:0:0:0:
100,255,96101,1,0,1:0:0:0:
227,131,96248,1,8,0:0:0:0:
227,131,96394,2,0,B|255:166|255:166|231:207,1,90,0|8,1:0|0:0,0:0:0:0:
149,169,96687,1,0,1:0:0:0:
304,85,96833,54,0,L|400:105,1,90,8|0,0:0|1:0,0:0:0:0:
293,66,97126,1,8,0:0:0:0:
358,198,97272,2,0,L|475:164,1,90,0|8,1:0|0:0,0:0:0:0:
496,280,97565,2,0,P|471:274|412:309,1,90,0|8,1:0|0:0,0:0:0:0:
298,329,97858,2,0,P|343:348|362:396,1,90,0|8,1:0|0:0,0:0:0:0:
110,251,98150,5,0,1:0:0:0:
125,79,98297,1,10,0:0:0:0:
125,79,98370,1,2,0:0:0:0:
125,79,98443,1,2,1:2:0:0:
172,154,98589,1,10,0:0:0:0:
293,82,98736,1,2,1:2:0:0:
345,165,98882,1,10,0:0:0:0:
409,102,99028,1,2,1:2:0:0:
325,168,99175,2,0,P|301:208|305:269,1,90,10|0,0:0|0:0,0:0:0:0:
431,331,99467,69,8,0:0:0:0:
431,331,99540,1,0,0:0:0:0:
431,331,99614,2,0,L|470:321,3,22.5,0|2|10|2,1:0|0:0|0:0|0:0,0:0:0:0:
366,373,99906,6,0,P|401:327|380:268,1,90,2|10,1:2|0:0,0:0:0:0:
218,250,100199,2,0,B|214:296|214:296|260:317,1,90,2|10,1:2|0:0,0:0:0:0:
301,252,100492,86,0,L|164:309,1,148.50000453186,4|0,1:2|0:0,0:0:0:0:
81,331,100784,102,0,B|77:345|64:355|64:355|78:354|97:356,1,62.9999980773926,6|0,1:0|0:0,0:0:0:0:
107,228,100931,54,0,P|87:176|9:161,1,135,2|0,1:0|0:0,0:0:0:0:
15,158,101223,6,0,B|51:153|51:153|56:149|56:149|111:141,1,72,4|2,1:2|0:1,0:0:0:0:
191,21,101516,70,0,P|196:76|131:47,1,135,4|0,1:2|0:0,0:0:0:0:
129,57,101809,1,2,1:0:0:0:
162,163,101955,1,10,0:0:0:0:
202,269,102101,1,2,0:0:0:0:
202,269,102175,1,0,1:0:0:0:
202,269,102248,6,0,L|223:220,1,45,8|8,0:0|0:0,0:0:0:0:
260,144,102394,1,8,0:0:0:0:
308,276,102540,1,8,0:0:0:0:
269,152,102687,1,8,0:0:0:0:
269,152,102760,1,8,0:0:0:0:
269,152,102833,86,0,L|380:132,1,90,4|8,1:2|0:0,0:0:0:0:
401,70,103126,1,0,1:0:0:0:
488,227,103272,1,8,0:0:0:0:
488,227,103419,2,0,P|436:211|426:172,1,90,0|8,1:0|0:0,0:0:0:0:
482,115,103711,1,0,1:0:0:0:
325,222,103858,1,8,0:0:0:0:
325,222,103931,1,2,0:0:0:0:
325,222,104004,101,0,1:0:0:0:
397,307,104150,1,8,0:0:0:0:
235,188,104297,53,0,1:0:0:0:
263,308,104443,1,8,0:0:0:0:
92,258,104589,2,0,P|42:261|3:293,1,90,0|8,1:0|0:0,0:0:0:0:
41,376,104882,2,0,P|91:373|130:341,1,90,0|8,1:0|0:0,0:0:0:0:
166,215,105175,6,0,L|126:116,1,90,0|8,1:0|0:0,0:0:0:0:
102,55,105467,1,0,1:0:0:0:
223,114,105614,1,8,0:0:0:0:
226,117,105687,1,2,0:0:0:0:
230,121,105760,1,0,1:0:0:0:
266,37,105906,1,8,0:0:0:0:
319,148,106053,1,0,1:0:0:0:
425,42,106199,70,0,B|456:80|456:80|441:127,1,90,8|0,0:0|1:0,0:0:0:0:
375,261,106492,2,0,L|344:198,1,45,8|2,0:0|0:0,0:0:0:0:
319,148,106638,1,0,1:0:0:0:
271,229,106784,1,8,0:0:0:0:
453,230,106931,2,0,P|463:266|444:315,1,90,0|8,1:0|0:0,0:0:0:0:
442,211,107223,1,0,1:0:0:0:
446,215,107370,1,8,0:0:0:0:
315,326,107516,5,4,1:2:0:0:
276,234,107662,1,0,0:0:0:0:
276,234,107809,1,8,0:0:0:0:
147,358,107955,86,0,P|194:327|179:246,1,135,4|0,1:2|0:0,0:0:0:0:
187,242,108248,1,0,1:0:0:0:
236,312,108394,1,8,0:0:0:0:
116,202,108540,102,0,L|150:60,1,135,4|0,1:2|0:0,0:0:0:0:
158,64,108833,1,0,1:0:0:0:
85,122,108979,1,8,0:0:0:0:
238,79,109126,54,0,P|281:84|293:206,1,180,4|0,1:2|1:0,0:0:0:0:
398,152,109565,1,8,0:0:0:0:
480,135,109711,1,0,0:0:0:0:
369,238,109858,5,4,1:2:0:0:
438,288,110004,1,0,0:0:0:0:
438,288,110150,1,8,0:0:0:0:
337,326,110297,70,0,B|352:267|352:267|357:261|357:261|376:182,1,135,4|0,1:2|0:0,0:0:0:0:
386,193,110589,1,0,1:0:0:0:
438,288,110736,1,8,0:0:0:0:
234,263,110882,6,0,B|211:262|168:278|156:322|156:322|173:306|200:298,1,135,4|0,1:2|0:0,0:0:0:0:
194,318,111175,1,0,1:0:0:0:
249,375,111321,1,8,0:0:0:0:
244,253,111467,86,0,B|236:194|191:168|143:169|143:169|101:189,1,180,4|0,1:2|1:0,0:0:0:0:
25,223,111906,1,8,0:0:0:0:
41,139,112053,1,0,0:0:0:0:
100,262,112199,101,4,1:2:0:0:
36,305,112345,1,0,0:0:0:0:
36,305,112492,1,8,0:0:0:0:
111,183,112638,54,0,P|165:159|261:203,1,135,4|0,1:2|0:0,0:0:0:0:
254,181,112931,1,0,1:0:0:0:
188,116,113077,1,8,0:0:0:0:
179,246,113223,6,0,B|200:359|200:359|238:379,1,135,4|0,1:2|0:0,0:0:0:0:
234,376,113516,1,0,1:0:0:0:
157,324,113662,1,8,0:0:0:0:
313,234,113809,70,2,P|370:241|345:339,1,180,4|0,1:2|1:0,0:1:0:0:
439,374,114248,1,8,0:0:0:0:
486,299,114394,1,0,0:0:0:0:
317,245,114540,6,0,P|307:205|331:149,1,90,4|8,1:2|2:0,0:0:0:0:
382,111,114760,1,8,2:0:0:0:
382,111,114833,2,0,L|470:129,1,90,8|8,2:0|2:0,0:0:0:0:
509,56,115053,1,8,2:0:0:0:
509,56,115126,2,0,L|420:37,1,90,8|8,2:0|0:0,0:0:0:0:
347,22,115345,1,8,0:0:0:0:
347,22,115419,1,8,0:0:0:0:
227,141,115565,86,0,B|185:158|153:135|166:125|119:103|74:126,1,135,4|0,1:2|0:0,0:0:0:0:
86,113,115858,1,0,1:0:0:0:
106,201,116004,1,0,1:0:0:0:
207,62,116150,1,0,1:0:0:0:
296,198,116297,2,0,P|314:161|304:103,1,90,0|0,1:0|1:0,0:0:0:0:
304,92,116516,1,0,1:0:0:0:
303,93,116589,2,0,P|307:131|321:138,1,45,0|0,1:0|1:0,0:0:0:0:
385,165,116736,2,0,P|415:142|414:126,1,45,0|0,1:0|1:0,0:0:0:0:
383,66,116882,101,4,1:0:0:0:
