osu file format v14

[General]
AudioFilename: audio.mp3
AudioLeadIn: 0
PreviewTime:74132
Countdown: 0
SampleSet: Soft
StackLeniency: 0.7
Mode: 0
LetterboxInBreaks: 0
WidescreenStoryboard: 0

[Editor]
DistanceSpacing: 1
BeatDivisor: 4
GridSize: 4
TimelineZoom: 1.9

[Metadata]
Title:Hoshi no Otoshimono
TitleUnicode:ほしのおとしもの
Artist:AAAA
ArtistUnicode:ああああ
Creator:Ryuusei Aika
Version:Our Journey and Epilogue
Source:
Tags:LMT sanairrt Skytuna Elcheer Electronic Instrumental 8bit 8-bit セーブデータとほうき星
BeatmapID:2705921
BeatmapSetID:1305045

[Difficulty]
HPDrainRate:6
CircleSize:4
OverallDifficulty:8.8
ApproachRate:9.3
SliderMultiplier:1.8
SliderTickRate:1

[Events]
//Background and Video events
0,0,"BG.jpg",0,0
//Break Periods
2,119423,121011
//Storyboard Layer 0 (Background)
//Storyboard Layer 1 (Fail)
//Storyboard Layer 2 (Pass)
//Storyboard Layer 3 (Foreground)
//Storyboard Layer 4 (Overlay)
//Storyboard Sound Samples

[TimingPoints]
980,292.682926829268,4,2,1,30,1,0
980,-133.333333333333,4,2,1,30,0,0
11223,-133.333333333333,4,2,1,40,0,0
13858,-133.333333333333,4,2,1,40,0,0
22053,-133.333333333333,4,1,1,60,0,0
23223,-100,4,2,1,70,0,0
32297,-66.6666666666667,4,2,1,70,0,0
32589,-100,4,2,1,70,0,0
34638,-80,4,2,1,70,0,0
34931,-80,4,2,1,70,0,0
35223,-100,4,2,1,70,0,0
36979,-80,4,2,1,70,0,0
37271,-100,4,2,1,70,0,0
39614,-100,4,2,1,55,0,0
47809,-133.333333333333,4,2,1,70,0,0
48979,-88.4955752212389,4,2,1,70,0,0
58345,-133.333333333333,4,2,1,45,0,0
64931,-100,4,2,0,50,0,0
65370,-100,4,2,1,60,0,0
70053,-100,4,2,1,70,0,0
71223,-100,4,2,1,75,0,0
74150,-200,4,2,1,30,0,0
74443,-200,4,2,1,65,0,0
74736,-80,4,2,1,80,0,0
81760,-72.463768115942,4,2,1,60,0,0
82784,-88.4955752212389,4,2,1,70,0,0
84101,-80,4,2,1,80,0,0
93467,-80,4,2,1,85,0,1
100492,-72.463768115942,4,2,1,70,0,0
101516,-80,4,2,1,70,0,0
102833,-80,4,2,1,85,0,1
107516,-80,4,2,1,85,0,0
114540,-80,4,2,1,90,0,1
115858,-72.463768115942,4,2,1,90,0,1
119223,-72.463768115942,4,2,1,30,0,0
121565,-133.333333333333,4,2,1,30,0,0
126248,-200,4,2,1,30,0,0
130931,-200,4,2,1,15,0,0

[Colours]
Combo1 : 255,128,128
Combo2 : 0,172,255
Combo3 : 128,191,255
Combo4 : 192,192,192
Combo5 : 128,128,128
Combo6 : 0,223,0
Combo7 : 0,191,191
Combo8 : 255,64,64

[HitObjects]
370,197,980,5,4,1:0:0:0:
451,102,1126,2,0,P|451:136|435:172,2,67.5000025749208,0|0|2,0:0|0:0|0:0,0:0:0:0:
336,61,1711,2,0,P|369:56|399:40,2,67.5000025749208,0|0|2,0:0|0:0|0:0,0:0:0:0:
263,26,2150,1,0,0:0:0:0:
263,26,2297,2,0,L|248:110,2,67.5000025749208,0|0|2,0:0|0:0|0:0,0:0:0:0:
180,40,2736,2,0,L|89:52,1,67.5000025749208
113,48,2955,1,2,0:0:0:0:
113,48,3028,1,2,0:0:0:0:
45,14,3175,1,2,0:0:0:0:
77,120,3321,5,0,0:0:0:0:
77,120,3467,2,0,L|80:187,1,67.5000025749208
9,86,3760,1,2,0:0:0:0:
64,269,4053,2,0,L|134:252,1,67.5000025749208
6,216,4345,1,2,0:0:0:0:
64,269,4492,2,0,P|136:301|198:299,1,135.000005149842,0|2,0:0|0:0,0:0:0:0:
344,280,5077,102,0,P|312:247|250:241,1,101.250003862381,2|2,0:0|0:0,0:0:0:0:
416,197,5516,1,2,0:0:0:0:
332,293,5662,2,0,P|336:202|349:138,1,135.000005149842,2|0,0:0|0:0,0:0:0:0:
376,38,6101,5,2,0:0:0:0:
376,38,6175,1,2,0:0:0:0:
376,38,6248,2,0,P|328:60|254:54,1,101.250003862381,2|2,0:0|0:0,0:0:0:0:
437,117,6687,1,2,0:0:0:0:
372,15,6833,2,0,P|356:79|352:159,1,135.000005149842,2|2,0:0|0:0,0:0:0:0:
184,220,7419,2,0,P|200:156|204:76,1,135.000005149842,2|2,0:0|0:0,0:0:0:0:
6,102,8004,102,0,P|55:145|131:131,1,135.000005149842,2|0,0:0|0:0,0:0:0:0:
192,99,8443,1,2,0:0:0:0:
82,261,8736,2,0,P|71:223|73:172,1,67.5000025749208
121,138,9029,1,2,0:0:0:0:
50,334,9175,6,0,P|160:143|361:106,1,405.000015449525,4|0,1:0|0:0,0:0:0:0:
344,120,10199,2,0,L|289:112,1,33.7500012874604
420,73,10345,1,2,0:0:0:0:
420,73,10492,101,0,0:0:0:0:
420,73,10565,1,0,0:0:0:0:
420,73,10638,5,0,0:0:0:0:
421,94,10711,1,0,0:0:0:0:
423,115,10784,1,0,0:0:0:0:
425,136,10857,1,0,0:0:0:0:
427,157,10930,1,0,0:0:0:0:
429,178,11003,1,0,0:0:0:0:
431,199,11077,1,0,0:0:0:0:
433,220,11150,1,0,0:0:0:0:
435,241,11223,101,2,0:0:0:0:
415,268,11296,1,2,0:0:0:0:
386,285,11369,1,2,0:0:0:0:
353,288,11442,1,2,0:0:0:0:
322,276,11515,1,2,0:0:0:0:
256,192,11589,12,0,13199,0:0:0:0:
246,207,13272,6,0,L|255:246,1,33.7500012874604
275,241,13419,2,0,L|266:280,1,33.7500012874604
246,275,13565,2,0,L|255:314,1,33.7500012874604
265,346,13711,2,0,L|226:357,1,33.7500012874604
155,369,13858,21,2,0:0:0:0:
48,350,14004,1,0,0:0:0:0:
129,278,14150,1,0,0:0:0:0:
155,369,14297,1,0,0:0:0:0:
139,348,14370,1,0,0:0:0:0:
125,328,14443,1,0,0:0:0:0:
127,303,14516,1,0,0:0:0:0:
129,278,14589,1,0,0:0:0:0:
0,236,14736,2,0,L|75:227,1,67.5000025749208
148,155,15028,101,0,0:0:0:0:
41,136,15175,1,0,0:0:0:0:
67,227,15321,1,0,0:0:0:0:
148,155,15467,1,0,0:0:0:0:
150,130,15540,1,0,0:0:0:0:
152,105,15613,1,0,0:0:0:0:
138,85,15686,1,0,0:0:0:0:
122,64,15759,1,0,0:0:0:0:
240,35,15906,1,0,0:0:0:0:
171,2,16053,1,0,0:0:0:0:
230,113,16199,6,0,P|263:125|300:123,1,67.5000025749208
368,64,16492,1,2,0:0:0:0:
383,164,16638,1,0,0:0:0:0:
379,139,16711,1,0,0:0:0:0:
375,114,16784,1,0,0:0:0:0:
371,89,16857,1,0,0:0:0:0:
368,64,16930,1,0,0:0:0:0:
463,143,17077,1,0,0:0:0:0:
474,68,17223,1,2,0:0:0:0:
373,231,17370,102,0,L|383:164,1,67.5000025749208
452,218,17662,1,0,0:0:0:0:
293,206,17809,1,0,0:0:0:0:
296,231,17882,1,0,0:0:0:0:
300,256,17955,1,2,0:0:0:0:
304,281,18028,1,0,0:0:0:0:
308,306,18101,1,0,0:0:0:0:
427,329,18248,1,0,0:0:0:0:
357,361,18394,1,0,0:0:0:0:
238,338,18540,6,0,L|152:350,2,67.5000025749208
121,292,18979,1,0,0:0:0:0:
121,292,19053,1,0,0:0:0:0:
121,292,19126,2,0,L|78:298,1,33.7500012874604,2|0,0:0|0:0,0:0:0:0:
8,313,19272,2,0,L|26:216,1,67.5000025749208
61,127,19565,1,0,0:0:0:0:
2,174,19711,102,0,P|48:169|157:204,1,135.000005149842
254,79,20150,1,2,0:0:0:0:
254,79,20223,1,0,0:0:0:0:
254,79,20297,2,0,P|255:96|272:127,1,33.7500012874604
279,126,20443,2,0,P|209:127|126:101,1,135.000005149842,2|0,0:0|0:0,0:0:0:0:
407,70,20882,6,0,P|412:111|413:220,1,135.000005149842
363,135,21321,1,0,0:0:0:0:
363,135,21394,1,0,0:0:0:0:
363,135,21467,2,0,L|335:178,1,33.7500012874604
348,236,21614,2,0,L|297:246,1,33.7500012874604
267,308,21760,2,0,L|317:318,1,33.7500012874604
344,375,21906,2,0,L|387:346,1,33.7500012874604
446,303,22053,69,2,0:0:0:0:
199,262,22199,1,2,0:0:0:0:
199,262,22491,1,0,0:0:0:0:
199,262,22565,1,0,0:0:0:0:
199,262,22638,5,2,0:0:0:0:
488,173,22784,1,2,0:0:0:0:
129,23,23077,1,0,0:0:0:0:
129,23,23150,1,0,0:0:0:0:
129,23,23223,54,0,L|114:152,1,90,0|0,1:0|0:0,0:0:0:0:
105,254,23516,2,0,P|61:237|39:179,1,90,0|0,1:0|0:0,0:0:0:0:
48,180,23736,1,0,0:0:0:0:
65,166,23809,1,0,1:0:0:0:
184,146,23955,1,0,0:0:0:0:
48,77,24101,1,0,1:0:0:0:
202,47,24248,2,0,P|242:45|301:61,1,90,0|0,0:0|1:0,0:0:0:0:
380,106,24540,1,0,0:0:0:0:
446,29,24687,1,0,1:0:0:0:
446,29,24833,2,0,L|384:20,1,45
370,17,24979,102,0,L|384:131,1,90,0|0,1:0|0:0,0:0:0:0:
447,248,25272,1,0,1:0:0:0:
456,153,25419,1,0,0:0:0:0:
355,265,25565,1,0,1:0:0:0:
305,171,25711,1,0,0:0:0:0:
287,314,25858,1,0,1:0:0:0:
361,373,26004,1,0,0:0:0:0:
361,373,26077,1,0,0:0:0:0:
361,373,26150,1,0,1:0:0:0:
508,327,26297,2,0,L|404:318,1,90,0|0,0:0|1:0,0:0:0:0:
243,249,26589,1,0,0:0:0:0:
243,249,26662,1,0,0:0:0:0:
243,249,26736,6,0,P|203:275|134:268,1,90,0|0,1:0|0:0,0:0:0:0:
102,165,27028,2,0,L|83:289,1,90,0|0,1:0|0:0,0:0:0:0:
88,285,27248,1,0,0:0:0:0:
88,285,27321,1,0,1:0:0:0:
18,201,27467,2,0,L|7:156,1,45,2|0,0:0|0:0,0:0:0:0:
54,46,27614,2,0,L|48:90,1,45,2|0,1:2|0:0,0:0:0:0:
18,201,27760,1,0,0:0:0:0:
48,90,27906,102,0,P|98:69|230:100,1,180,6|2,1:2|1:2,0:0:0:0:
371,13,28345,1,2,0:0:0:0:
398,7,28419,1,0,0:0:0:0:
426,1,28492,1,0,1:0:0:0:
299,24,28638,1,2,0:0:0:0:
295,51,28712,1,0,0:0:0:0:
292,79,28784,2,0,P|297:103|312:132,1,45,0|0,1:0|0:0,0:0:0:0:
429,238,28931,5,4,1:2:0:0:
364,185,29223,101,4,1:2:0:0:
415,319,29369,1,4,1:2:0:0:
506,208,29516,1,4,1:2:0:0:
357,267,29662,5,2,0:0:0:0:
348,267,29735,1,2,0:0:0:0:
340,268,29808,1,2,0:0:0:0:
331,269,29881,1,2,0:0:0:0:
323,270,29954,1,2,0:0:0:0:
315,271,30027,1,2,0:0:0:0:
306,272,30101,1,2,0:0:0:0:
298,272,30174,1,2,0:0:0:0:
266,276,30248,102,0,B|169:273|213:352|109:350,1,180,4|8,1:0|0:0,0:0:0:0:
48,90,30760,1,0,0:0:0:0:
48,90,30833,2,0,P|37:142|15:199,1,90,0|0,1:0|1:0,0:0:0:0:
118,54,31126,1,8,0:0:0:0:
158,167,31272,1,0,1:0:0:0:
158,167,31565,5,0,1:0:0:0:
91,211,31711,1,8,0:0:0:0:
54,281,31858,1,0,0:0:0:0:
159,277,32004,1,0,1:0:0:0:
231,203,32150,1,0,1:0:0:0:
253,60,32297,102,0,P|306:17|375:24,1,135.000005149842,2|0,1:0|0:0,0:0:0:0:
404,48,32516,1,0,0:0:0:0:
417,90,32589,53,0,1:0:0:0:
331,363,32882,2,0,P|329:253|324:249,1,90,8|0,0:0|0:0,0:0:0:0:
319,215,33101,1,8,0:0:0:0:
319,215,33175,2,0,L|440:245,1,90,0|0,1:0|1:0,0:0:0:0:
495,256,33467,1,8,0:0:0:0:
477,170,33614,2,0,P|480:221|505:269,1,90,0|0,1:0|0:0,0:0:0:0:
426,354,33906,6,0,P|470:352|512:335,2,90,0|8|0,1:0|0:0|0:0,0:0:0:0:
326,242,34345,1,0,1:0:0:0:
233,359,34492,1,0,1:0:0:0:
268,127,34638,54,0,P|322:127|356:170,1,112.5,10|0,0:0|2:0,2:0:0:0:
339,201,34858,1,0,2:0:0:0:
307,217,34931,102,0,P|217:211|172:120,1,168.75,4|0,1:2|2:0,2:0:0:0:
220,63,35223,1,8,2:0:0:0:
339,296,35443,1,8,0:0:0:0:
339,296,35516,2,0,L|235:312,1,90,0|0,0:0|1:0,0:0:0:0:
356,313,35809,1,8,0:0:0:0:
194,253,35955,54,0,P|127:259|102:359,1,180,0|0,1:0|1:0,0:0:0:0:
100,355,36394,1,8,0:0:0:0:
18,306,36540,2,0,P|19:261|10:207,1,90,0|0,0:0|1:0,0:0:0:0:
63,93,36833,1,0,1:0:0:0:
12,216,36979,6,0,P|84:193|91:142,1,112.5,10|0,0:0|0:0,0:0:0:0:
81,131,37199,1,0,0:0:0:0:
47,114,37272,53,0,1:0:0:0:
94,248,37419,1,0,0:0:0:0:
163,125,37565,2,0,P|205:151|281:147,1,90,8|0,0:0|0:0,0:0:0:0:
308,112,37784,1,8,0:0:0:0:
308,112,37858,2,0,P|309:62|268:-2,1,90,0|0,0:0|1:0,0:0:0:0:
237,170,38150,1,8,0:0:0:0:
113,47,38297,2,0,P|149:31|204:42,1,90,0|0,1:0|1:0,0:0:0:0:
317,124,38589,1,0,0:0:0:0:
203,0,38736,101,8,0:0:0:0:
200,13,38809,1,0,0:0:0:0:
199,26,38882,1,0,0:0:0:0:
198,39,38955,1,0,0:0:0:0:
210,72,39028,53,0,1:0:0:0:
206,91,39101,1,0,0:0:0:0:
204,111,39174,1,0,1:0:0:0:
202,130,39247,1,0,0:0:0:0:
184,172,39321,5,10,0:0:0:0:
213,198,39394,1,2,0:0:0:0:
250,214,39467,1,2,0:0:0:0:
291,214,39540,1,2,0:0:0:0:
328,199,39614,54,0,B|308:323|266:253|252:372,1,180,4|2,1:2|1:2,0:0:0:0:
397,245,40053,1,2,0:0:0:0:
424,238,40126,1,0,0:0:0:0:
451,242,40199,1,2,1:2:0:0:
474,259,40272,1,0,0:0:0:0:
492,281,40345,1,2,0:0:0:0:
364,318,40492,1,2,1:2:0:0:
449,349,40638,1,2,0:0:0:0:
449,349,40711,1,0,0:0:0:0:
449,349,40784,1,0,1:0:0:0:
301,366,40931,102,0,L|204:379,1,90,0|0,0:0|1:0,0:0:0:0:
57,338,41223,1,2,0:0:0:0:
51,307,41297,1,0,0:0:0:0:
54,284,41370,1,0,0:0:0:0:
54,284,41443,1,0,0:0:0:0:
54,284,41516,1,2,0:0:0:0:
136,330,41662,1,2,1:2:0:0:
132,353,41736,1,0,0:0:0:0:
136,384,41808,1,2,0:0:0:0:
136,384,41881,1,0,0:0:0:0:
136,384,41955,54,0,P|185:301|178:217,1,180,2|2,1:2|1:2,0:0:0:0:
140,122,42394,1,2,0:0:0:0:
118,103,42467,1,0,0:0:0:0:
93,89,42540,1,0,1:0:0:0:
66,90,42613,1,0,0:0:0:0:
40,101,42686,1,2,0:0:0:0:
106,188,42833,1,2,1:2:0:0:
213,154,42979,1,2,0:0:0:0:
235,151,43052,1,0,0:0:0:0:
257,148,43125,1,0,1:0:0:0:
185,41,43272,6,0,P|219:18|297:38,1,90,0|0,0:0|1:0,0:0:0:0:
277,33,43492,1,0,0:0:0:0:
286,41,43565,1,0,0:0:0:0:
297,48,43638,1,0,0:0:0:0:
308,55,43711,102,0,L|359:49,1,45,2|0,1:0|0:0,0:0:0:0:
424,20,43858,2,0,L|430:71,1,45,2|0,0:2|0:0,0:0:0:0:
493,155,44004,2,0,L|442:149,1,45,2|0,1:0|0:0,0:0:0:0:
377,120,44150,2,0,L|371:164,1,45,2|0,0:2|0:0,0:0:0:0:
315,291,44296,2,2,P|364:222|472:204,1,180,2|0,1:0|1:0,0:1:0:0:
453,201,44662,1,0,0:0:0:0:
453,201,44736,1,0,0:0:0:0:
453,201,44809,1,0,0:0:0:0:
453,201,44882,6,0,P|470:247|444:312,1,90,2|2,1:0|0:2,0:0:0:0:
324,374,45175,2,0,P|355:336|424:326,1,90,2|2,1:0|0:2,0:0:0:0:
324,374,45467,1,2,1:0:0:0:
324,374,45540,2,2,P|271:336|170:329,1,135,0|0,0:0|1:0,0:1:0:0:
178,336,45833,1,0,0:0:0:0:
153,349,45906,1,2,0:1:0:0:
212,231,46053,2,0,P|171:250|97:243,1,90,0|2,1:0|0:1,0:0:0:0:
46,356,46345,1,0,1:0:0:0:
47,339,46418,1,0,0:0:0:0:
49,322,46491,1,0,0:0:0:0:
51,305,46564,1,0,0:0:0:0:
53,288,46638,102,0,L|41:177,1,90,2|0,1:0|0:0,0:0:0:0:
49,170,46858,1,0,0:0:0:0:
49,170,46932,1,0,1:0:0:0:
49,170,47005,1,0,0:0:0:0:
49,170,47078,1,2,0:1:0:0:
0,18,47223,5,2,1:0:0:0:
31,7,47297,1,0,0:0:0:0:
72,12,47370,1,2,0:0:0:0:
105,52,47443,1,2,0:0:0:0:
72,92,47516,1,2,1:2:0:0:
105,52,47589,1,2,0:0:0:0:
146,47,47662,1,2,0:0:0:0:
177,58,47736,1,2,0:0:0:0:
184,73,47809,22,0,L|175:143,1,67.5000025749208
246,20,48101,2,0,P|253:40|275:63,1,33.7500012874604
361,70,48248,2,0,P|312:26|246:20,1,135.000005149842
308,129,48687,1,2,0:0:0:0:
310,137,48760,1,2,0:0:0:0:
312,145,48833,1,2,0:0:0:0:
314,153,48906,1,2,0:0:0:0:
324,181,48979,22,0,P|297:223|216:221,1,101.700000310364,4|0,1:2|0:0,0:0:0:0:
475,131,49272,1,8,0:0:0:0:
414,183,49419,1,0,0:0:0:0:
396,216,49492,1,8,0:0:0:0:
400,255,49565,1,0,0:0:0:0:
486,147,49711,1,0,1:0:0:0:
467,290,49858,1,8,0:0:0:0:
464,115,50004,102,0,P|423:86|359:82,1,101.700000310364,0|0,1:0|0:0,0:0:0:0:
197,128,50297,2,0,L|308:119,1,101.700000310364,0|8,1:0|0:0,0:0:0:0:
316,137,50516,1,0,0:0:0:0:
333,154,50589,1,0,0:0:0:0:
258,325,50736,1,0,1:0:0:0:
278,215,50882,1,0,1:0:0:0:
348,328,51028,1,8,0:0:0:0:
330,346,51101,1,0,0:0:0:0:
307,357,51174,1,0,0:0:0:0:
282,360,51247,1,0,0:0:0:0:
258,354,51321,54,0,P|195:312|189:185,1,203.400000620728,0|8,1:0|0:0,0:0:0:0:
41,359,51833,1,8,0:0:0:0:
54,344,51906,2,0,P|104:349|153:389,1,101.700000310364,0|0,0:0|1:0,0:0:0:0:
196,205,52199,1,8,0:0:0:0:
13,279,52345,2,0,P|48:166|130:157,1,203.400000620728,0|0,1:0|1:0,0:0:0:0:
28,374,52784,1,8,0:0:0:0:
194,124,53077,5,0,1:0:0:0:
135,22,53223,2,0,L|186:27,1,50.8500001551819,0|0,1:0|0:0,0:0:0:0:
257,37,53370,2,0,L|207:42,1,50.8500001551819,8|0,0:0|0:0,0:0:0:0:
118,53,53516,1,0,0:0:0:0:
328,1,53662,2,0,P|366:50|378:174,1,152.550000465546,0|0,1:0|0:0,0:0:0:0:
384,137,53955,2,0,P|390:155|444:188,1,50.8500001551819,8|0,0:0|0:0,0:0:0:0:
303,112,54101,1,0,0:0:0:0:
303,112,54175,2,0,P|292:127|301:190,1,50.8500001551819,8|0,0:0|0:0,0:0:0:0:
428,291,54394,1,0,1:0:0:0:
460,114,54540,1,8,0:0:0:0:
415,276,54687,53,0,1:0:0:0:
382,295,54760,1,0,0:0:0:0:
344,300,54833,1,0,0:0:0:0:
475,225,54979,1,0,1:0:0:0:
318,230,55126,1,8,0:0:0:0:
305,232,55199,1,0,0:0:0:0:
292,234,55272,1,0,0:0:0:0:
280,236,55345,1,0,0:0:0:0:
267,238,55418,1,0,1:0:0:0:
319,370,55565,1,0,1:0:0:0:
189,283,55711,2,0,P|243:231|318:230,1,152.550000465546,8|0,0:0|0:0,0:0:0:0:
147,347,56004,102,0,B|177:233|120:264|161:135,1,203.400000620728,4|8,1:2|0:0,0:0:0:0:
73,295,56443,1,0,0:0:0:0:
64,313,56516,1,8,0:0:0:0:
55,331,56589,2,0,L|36:216,1,101.700000310364,0|0,1:0|1:0,0:0:0:0:
94,90,56882,1,8,0:0:0:0:
286,73,57028,2,0,P|245:148|131:153,1,203.400000620728,0|0,1:0|1:0,0:0:0:0:
23,54,57467,1,8,0:0:0:0:
106,2,57614,1,0,0:0:0:0:
121,3,57687,1,0,0:0:0:0:
139,4,57760,1,2,1:2:0:0:
155,5,57833,1,2,0:0:0:0:
172,8,57906,1,2,1:2:0:0:
189,9,57979,1,2,0:0:0:0:
204,11,58053,2,0,L|281:18,1,50.8500001551819,10|2,0:0|0:0,0:0:0:0:
274,27,58199,2,0,L|351:34,1,50.8500001551819,2|2,0:0|0:0,0:0:0:0:
346,24,58345,101,6,1:2:0:0:
417,52,58492,1,2,0:0:0:0:
448,120,58638,1,2,0:0:0:0:
318,227,58784,1,2,0:0:0:0:
318,227,58858,2,0,P|352:184|401:176,1,101.250003862381,2|0,0:0|0:0,0:0:0:0:
451,227,59223,1,2,0:0:0:0:
281,298,59370,2,0,P|324:348|400:330,1,135.000005149842,2|2,0:0|0:0,0:0:0:0:
452,302,59809,1,2,0:0:0:0:
308,380,59955,2,0,L|159:362,1,135.000005149842,2|0,0:0|0:0,0:0:0:0:
174,364,60394,2,0,L|159:282,1,67.5000025749208,2|2,0:0|0:0,0:0:0:0:
136,184,60687,102,0,B|115:236|115:236|98:248|98:248|73:309,2,135.000005149842,2|2|2,0:0|0:0|0:0,0:0:0:0:
136,184,61419,1,2,0:0:0:0:
155,264,61565,1,2,0:0:0:0:
35,178,61711,2,2,P|70:234|76:301,1,135.000005149842,2|0,0:0|0:0,0:0:0:0:
25,192,62150,1,0,0:0:0:0:
92,121,62297,6,0,P|114:80|118:31,1,67.5000025749208,2|0,0:0|0:0,0:0:0:0:
113,43,62516,1,0,0:0:0:0:
99,33,62589,1,2,0:0:0:0:
30,0,62736,1,2,0:0:0:0:
187,94,62882,2,0,P|235:139|300:139,1,135.000005149842,2|0,0:0|0:0,0:0:0:0:
442,60,63321,2,0,L|348:51,1,67.5000025749208,2|2,0:0|0:0,0:0:0:0:
353,55,63540,1,0,0:0:0:0:
353,55,63614,102,0,L|360:112,2,33.7500012874604,0|0|2,0:0|0:0|0:0,0:0:0:0:
413,142,63906,1,2,0:0:0:0:
382,259,64053,1,2,0:0:0:0:
369,238,64126,2,0,P|402:192|501:198,1,135.000005149842,2|0,0:0|0:0,0:0:0:0:
510,253,64492,2,0,L|502:294,1,33.7500012874604,2|0,0:0|0:0,0:0:0:0:
501,309,64638,2,0,P|474:326|419:322,1,67.5000025749208,2|0,0:0|0:0,0:0:0:0:
297,208,64931,6,0,L|214:214,1,45,8|0,0:0|0:0,0:0:0:0:
91,226,65077,2,0,L|8:232,1,45,8|0,0:0|0:0,0:0:0:0:
46,229,65370,22,0,P|54:165|78:131,1,90,4|0,1:2|0:0,0:0:0:0:
252,211,65662,2,0,P|271:251|272:296,1,90,8|0,1:2|0:0,0:0:0:0:
159,180,65882,1,0,0:0:0:0:
159,180,65955,2,0,L|183:51,1,90,0|0,1:0|0:0,0:0:0:0:
175,300,66248,1,8,1:2:0:0:
168,333,66321,1,0,0:0:0:0:
162,366,66394,1,0,0:0:0:0:
124,248,66540,1,0,1:0:0:0:
124,248,66686,1,0,0:0:0:0:
249,320,66833,101,8,1:2:0:0:
273,341,66906,1,0,0:0:0:0:
298,364,66979,1,0,0:0:0:0:
168,333,67126,2,0,L|55:349,1,90,0|0,1:0|0:0,0:0:0:0:
25,244,67419,1,8,1:2:0:0:
10,274,67492,1,0,0:0:0:0:
10,307,67565,1,0,0:0:0:0:
66,144,67711,54,0,P|109:119|184:128,1,90,12|0,1:2|0:0,0:0:0:0:
339,197,68004,2,0,P|296:222|221:213,1,90,8|0,1:2|0:0,0:0:0:0:
80,156,68297,2,0,P|123:131|198:140,1,90,0|0,1:2|0:0,0:0:0:0:
353,209,68590,2,0,P|310:234|235:225,1,90,8|8,1:2|0:0,0:0:0:0:
243,207,68809,1,8,0:0:0:0:
234,168,68882,6,0,P|254:120|305:97,1,90,8|0,1:2|0:0,0:0:0:0:
389,287,69175,2,0,P|369:335|318:358,1,90,8|0,1:2|0:0,0:0:0:0:
355,128,69467,2,0,L|477:144,1,90,8|0,1:2|0:0,0:0:0:0:
268,327,69760,2,0,L|146:311,1,90,8|8,1:2|0:0,0:0:0:0:
139,308,69979,1,8,0:0:0:0:
112,278,70053,53,12,0:0:0:0:
289,253,70199,1,0,1:0:0:0:
93,371,70345,1,0,1:0:0:0:
224,210,70492,1,8,0:0:0:0:
247,171,70565,1,8,0:0:0:0:
252,127,70638,1,4,0:0:0:0:
298,338,70784,1,0,1:0:0:0:
265,141,70931,1,8,1:2:0:0:
77,270,71077,5,8,0:0:0:0:
48,229,71150,1,8,0:0:0:0:
51,180,71223,1,4,1:2:0:0:
238,50,71370,1,8,0:0:0:0:
287,45,71443,1,8,0:0:0:0:
328,72,71516,1,4,1:2:0:0:
138,207,71662,5,8,0:0:0:0:
97,234,71735,1,8,0:0:0:0:
48,229,71809,1,4,1:2:0:0:
276,130,71955,1,8,0:0:0:0:
320,152,72028,1,8,0:0:0:0:
341,197,72101,1,4,1:2:0:0:
111,42,72248,37,8,0:0:0:0:
56,34,72321,1,8,0:0:0:0:
130,0,74150,2,2,L|124:29,3,22.5,2|2|2|2,0:1|0:1|0:1|0:1,0:1:0:0:
123,45,74443,1,2,0:0:0:0:
150,41,74516,1,2,0:0:0:0:
178,37,74589,1,2,0:0:0:0:
206,34,74662,1,2,0:0:0:0:
239,29,74736,38,0,P|233:122|91:156,1,225,4|8,1:2|0:0,0:0:0:0:
374,9,75175,1,0,0:0:0:0:
408,23,75248,1,8,0:0:0:0:
429,53,75321,2,0,L|410:173,1,112.5,0|0,1:0|1:0,0:0:0:0:
383,334,75614,1,8,0:0:0:0:
244,263,75760,1,0,0:0:0:0:
238,227,75833,1,0,0:0:0:0:
232,191,75906,102,0,P|317:194|380:262,1,168.75,0|0,1:0|0:0,0:0:0:0:
383,334,76199,2,0,P|307:373|219:345,1,168.75,8|0,0:0|0:0,0:0:0:0:
175,301,76492,2,0,L|120:310,1,56.25,0|0,1:0|0:0,0:0:0:0:
0,279,76638,2,0,L|55:271,1,56.25,0|0,1:0|0:0,0:0:0:0:
151,332,76784,2,0,B|159:264|159:264|141:239|141:239|151:171,1,168.75,8|0,0:0|0:0,0:0:0:0:
225,100,77077,54,0,B|146:138|146:138|68:114,1,168.75,0|0,1:0|0:0,0:0:0:0:
17,51,77370,1,8,0:0:0:0:
176,78,77516,1,0,0:0:0:0:
218,72,77589,1,0,0:0:0:0:
260,67,77662,1,2,1:2:0:0:
227,186,77809,1,2,1:2:0:0:
110,30,77955,1,10,0:0:0:0:
297,143,78101,6,0,P|351:136|388:95,1,112.5,2|0,1:2|0:0,0:0:0:0:
272,250,78394,1,2,1:2:0:0:
255,288,78467,1,2,0:0:0:0:
250,330,78540,1,10,0:0:0:0:
159,151,78687,1,2,0:0:0:0:
126,247,78833,1,2,1:2:0:0:
101,258,78906,1,0,0:0:0:0:
74,263,78979,1,2,1:2:0:0:
233,339,79126,1,8,0:0:0:0:
262,357,79199,1,0,0:0:0:0:
296,365,79272,1,0,0:0:0:0:
331,362,79345,1,0,0:0:0:0:
363,347,79419,54,0,P|416:282|362:118,1,225,0|8,1:0|0:0,0:0:0:0:
471,305,79858,1,0,0:0:0:0:
452,294,79931,1,0,0:0:0:0:
447,273,80004,2,0,L|439:210,1,56.25,0|0,1:0|0:0,0:0:0:0:
453,74,80150,2,0,L|475:125,1,56.25,0|0,1:0|0:0,0:0:0:0:
503,145,80297,1,8,0:0:0:0:
386,33,80443,1,0,1:0:0:0:
359,30,80516,1,0,0:0:0:0:
332,27,80589,102,0,L|214:36,1,112.5,0|0,0:0|1:0,0:0:0:0:
75,4,80882,2,0,B|192:-1|145:79|287:80,1,225,8|0,0:0|1:0,0:0:0:0:
171,153,81248,1,0,0:0:0:0:
158,142,81321,2,0,P|160:106|166:81,1,56.25,0|0,1:0|0:0,0:0:0:0:
5,199,81467,2,0,B|92:202|57:142|164:142,1,168.75,8|0,0:0|0:0,0:0:0:0:
318,158,81760,54,0,P|280:247|170:235,1,186.300000284271,4|0,1:2|0:0,0:0:0:0:
181,239,82053,2,0,P|215:218|250:224,1,62.1000000947571,4|0,1:2|0:0,0:0:0:0:
404,313,82199,1,4,1:2:0:0:
404,313,82492,1,4,1:2:0:0:
410,232,82638,1,0,1:0:0:0:
285,348,82784,6,0,P|209:354|140:311,1,152.550000465546,4|0,1:2|0:0,0:0:0:0:
299,329,83077,2,0,P|318:348|363:366,1,50.8500001551819,0|0,1:0|0:0,0:0:0:0:
452,373,83223,1,8,0:0:0:0:
491,297,83370,1,0,0:0:0:0:
491,297,83443,1,0,1:0:0:0:
491,297,83516,53,8,0:0:0:0:
500,261,83589,1,8,0:0:0:0:
495,225,83662,1,8,1:2:0:0:
446,77,83809,1,8,0:0:0:0:
375,223,83955,1,8,0:0:0:0:
421,202,84028,1,8,0:0:0:0:
441,155,84101,102,0,P|413:91|246:72,1,225,4|8,1:2|0:0,0:0:0:0:
264,187,84540,2,0,P|299:181|325:166,1,56.25,0|8,0:0|0:0,0:0:0:0:
318,172,84687,2,0,P|255:154|222:103,1,112.5,0|0,1:0|1:0,0:0:0:0:
287,38,84979,1,8,0:0:0:0:
151,116,85126,1,0,1:0:0:0:
113,135,85199,1,0,0:0:0:0:
72,136,85272,54,0,P|64:80|109:38,1,112.5,0|0,0:0|1:0,0:0:0:0:
213,193,85565,2,0,P|179:252|75:273,1,168.75,8|0,0:0|0:0,0:0:0:0:
0,227,85858,2,0,P|25:213|53:211,1,56.25,0|0,1:0|0:0,0:0:0:0:
151,243,86004,2,0,P|176:265|199:272,1,56.25,0|0,1:0|0:0,0:0:0:0:
284,384,86150,2,0,P|366:334|377:240,1,168.75,8|0,0:0|0:0,0:0:0:0:
177,349,86443,6,0,P|259:270|362:297,1,225,0|8,1:0|0:0,0:0:0:0:
447,228,86882,1,0,0:0:0:0:
473,213,86955,1,8,0:0:0:0:
479,185,87028,2,0,L|470:112,1,56.25,2|0,1:2|0:0,0:0:0:0:
396,62,87175,2,0,L|384:145,1,56.25,2|0,1:2|0:0,0:0:0:0:
383,162,87321,1,10,0:0:0:0:
478,46,87467,2,0,B|376:58|427:-2|311:7,1,168.75,2|0,1:2|0:0,0:0:0:0:
245,49,87760,2,0,L|237:103,2,37.5,2|2|2,1:2|0:0|0:0,0:0:0:0:
238,106,87906,53,8,0:0:0:0:
176,19,88053,1,2,0:0:0:0:
315,101,88199,1,2,1:2:0:0:
173,148,88345,1,2,1:2:0:0:
100,44,88492,1,8,0:0:0:0:
87,122,88638,1,0,0:0:0:0:
245,49,88784,101,4,1:2:0:0:
73,115,88931,1,0,0:0:0:0:
242,185,89077,1,8,0:0:0:0:
59,108,89223,2,0,P|0:174|33:322,1,225,4|0,1:2|1:0,0:0:0:0:
234,360,89662,1,8,0:0:0:0:
74,355,89809,2,0,P|156:283|288:299,1,225,4|0,1:2|1:0,0:0:0:0:
457,384,90248,1,8,0:0:0:0:
315,150,90394,2,0,B|314:287|380:227|385:388,1,225,4|0,1:2|1:0,0:0:0:0:
479,186,90833,1,8,0:0:0:0:
276,303,90979,1,2,0:0:0:0:
512,328,91126,53,8,0:0:0:0:
397,168,91272,1,8,0:0:0:0:
390,133,91345,1,8,0:0:0:0:
384,98,91418,1,8,0:0:0:0:
235,129,91565,1,8,0:0:0:0:
228,94,91638,1,8,0:0:0:0:
222,59,91711,1,12,0:0:0:0:
73,90,91858,1,8,0:0:0:0:
66,55,91931,1,8,0:0:0:0:
60,20,92004,1,8,0:0:0:0:
291,188,92150,5,4,1:2:0:0:
291,188,92443,1,4,1:2:0:0:
85,133,92589,1,4,1:2:0:0:
305,78,92736,1,4,1:2:0:0:
62,210,92882,1,4,1:2:0:0:
195,107,93028,1,0,1:0:0:0:
222,59,93101,1,0,1:0:0:0:
215,4,93174,1,8,1:2:0:0:
242,277,93321,1,8,1:2:0:0:
147,229,93467,69,4,1:2:0:0:
267,348,93614,1,8,0:0:0:0:
117,301,93760,5,0,1:0:0:0:
344,361,93906,1,8,0:0:0:0:
160,369,94053,85,0,1:0:0:0:
405,306,94199,1,8,0:0:0:0:
332,276,94345,101,0,1:0:0:0:
440,372,94492,53,8,0:0:0:0:
471,384,94565,1,2,0:0:0:0:
505,383,94638,5,0,1:0:0:0:
378,188,94784,1,8,0:0:0:0:
500,299,94931,69,0,1:0:0:0:
296,200,95077,1,8,0:0:0:0:
447,234,95223,5,0,1:0:0:0:
229,246,95370,1,8,0:0:0:0:
449,152,95516,85,0,1:0:0:0:
344,361,95662,1,8,0:0:0:0:
398,88,95809,101,0,1:0:0:0:
153,231,95955,1,8,0:0:0:0:
317,68,96101,53,0,1:0:0:0:
127,158,96248,1,8,0:0:0:0:
236,48,96394,5,0,1:0:0:0:
225,192,96540,1,8,0:0:0:0:
155,28,96687,69,0,1:0:0:0:
297,153,96833,1,8,0:0:0:0:
98,81,96979,5,0,1:0:0:0:
71,294,97126,1,8,0:0:0:0:
21,97,97272,85,0,1:0:0:0:
153,231,97419,1,8,0:0:0:0:
50,170,97565,101,0,1:0:0:0:
112,360,97711,1,8,0:0:0:0:
15,240,97858,53,0,1:0:0:0:
187,371,98004,1,8,0:0:0:0:
39,377,98150,5,0,1:0:0:0:
211,278,98297,1,10,0:0:0:0:
249,260,98370,1,2,0:0:0:0:
290,261,98443,1,2,1:2:0:0:
402,383,98589,2,0,P|376:386|333:372,1,56.25,10|0,0:0|0:0,0:0:0:0:
298,317,98736,1,2,1:2:0:0:
294,289,98809,1,2,0:0:0:0:
290,261,98882,1,10,0:0:0:0:
422,368,99028,1,2,1:2:0:0:
488,199,99175,70,0,P|409:219|385:296,1,168.75,10|0,0:0|0:0,0:0:0:0:
408,285,99467,1,8,0:0:0:0:
406,271,99540,1,0,0:0:0:0:
404,257,99613,1,0,1:0:0:0:
402,243,99686,1,2,0:0:0:0:
386,211,99760,1,10,0:0:0:0:
351,201,99833,1,2,0:0:0:0:
316,208,99906,5,2,1:2:0:0:
347,71,100053,1,10,0:0:0:0:
245,174,100199,1,2,1:2:0:0:
393,136,100345,1,10,0:0:0:0:
199,109,100492,86,0,P|133:114|75:160,1,124.200000189514,4|0,1:2|0:0,0:0:0:0:
187,22,100711,1,0,0:0:0:0:
187,22,100784,2,0,P|222:36|258:36,1,62.1000000947571,6|0,1:0|0:0,0:0:0:0:
381,0,100931,1,2,1:0:0:0:
127,208,101223,101,4,1:2:0:0:
286,105,101370,1,2,0:1:0:0:
107,40,101516,2,0,P|40:68|18:133,1,112.5,4|0,1:2|0:0,0:0:0:0:
35,274,101809,53,2,1:0:0:0:
44,317,101882,1,2,0:0:0:0:
72,352,101955,1,10,0:0:0:0:
113,370,102028,1,2,0:0:0:0:
135,372,102101,1,2,0:0:0:0:
157,369,102174,1,0,1:0:0:0:
178,360,102248,5,8,0:0:0:0:
171,308,102321,1,8,0:0:0:0:
134,271,102394,1,8,0:0:0:0:
249,384,102540,1,8,0:0:0:0:
381,280,102687,1,8,0:0:0:0:
367,330,102760,1,8,0:0:0:0:
325,362,102833,69,4,1:2:0:0:
449,236,102979,1,8,0:0:0:0:
292,288,103126,5,0,1:0:0:0:
482,310,103272,1,8,0:0:0:0:
259,214,103419,85,0,1:0:0:0:
416,162,103565,1,8,0:0:0:0:
338,188,103711,101,0,1:0:0:0:
494,136,103858,53,8,0:0:0:0:
510,97,103931,1,2,0:0:0:0:
504,56,104004,5,0,1:0:0:0:
310,113,104150,1,8,0:0:0:0:
439,14,104297,69,0,1:0:0:0:
335,217,104443,1,8,0:0:0:0:
490,83,104589,5,0,1:0:0:0:
237,80,104736,1,8,0:0:0:0:
361,30,104882,85,0,1:0:0:0:
163,102,105028,1,8,0:0:0:0:
369,56,105175,101,0,1:0:0:0:
138,80,105321,1,8,0:0:0:0:
281,6,105467,53,0,1:0:0:0:
129,174,105614,1,8,0:0:0:0:
127,222,105687,1,2,0:0:0:0:
154,262,105760,5,0,1:0:0:0:
56,55,105906,1,8,0:0:0:0:
222,227,106053,69,0,1:0:0:0:
199,0,106199,1,8,0:0:0:0:
262,163,106345,5,0,1:0:0:0:
60,135,106492,1,8,0:0:0:0:
31,132,106565,1,2,0:0:0:0:
3,130,106638,85,0,1:0:0:0:
148,188,106784,1,8,0:0:0:0:
41,262,106931,1,0,1:0:0:0:
119,331,107077,1,8,0:0:0:0:
53,380,107223,1,0,1:0:0:0:
132,344,107370,1,8,0:0:0:0:
0,326,107516,101,4,1:2:0:0:
119,256,107662,1,0,0:0:0:0:
195,383,107809,2,0,L|250:377,1,56.25,8|0,0:0|0:0,0:0:0:0:
282,232,107955,54,0,B|330:298|330:298|322:404,1,168.75,4|0,1:2|0:0,0:0:0:0:
403,347,108248,2,0,L|458:341,1,56.25,0|0,1:0|0:0,0:0:0:0:
460,260,108394,2,0,L|404:265,1,56.25,8|0,0:0|0:0,0:0:0:0:
203,273,108540,6,0,B|194:191|194:191|254:104,1,168.75,4|0,1:2|0:0,0:0:0:0:
316,85,108833,2,0,L|321:140,1,56.25,0|0,1:0|0:0,0:0:0:0:
120,187,108979,2,0,L|114:131,1,56.25,8|0,0:0|0:0,0:0:0:0:
164,23,109126,70,0,L|390:46,1,225,4|0,1:2|1:0,0:0:0:0:
452,176,109565,1,8,0:0:0:0:
469,86,109711,1,0,0:0:0:0:
449,194,109858,5,4,1:2:0:0:
387,45,110004,1,0,0:0:0:0:
353,220,110150,1,8,0:0:0:0:
228,177,110297,86,0,P|304:132|394:149,1,168.75,4|0,1:2|0:0,0:0:0:0:
464,209,110589,2,0,P|460:239|436:282,1,56.25,0|0,1:0|0:0,0:0:0:0:
379,320,110736,2,0,P|351:331|301:332,1,56.25,8|0,0:0|0:0,0:0:0:0:
185,257,110882,102,0,P|136:188|142:66,1,168.75,4|0,1:2|0:0,0:0:0:0:
276,273,111175,2,0,P|257:296|215:322,1,56.25,0|0,1:0|0:0,0:0:0:0:
67,237,111321,2,0,P|91:218|138:205,1,56.25,8|0,0:0|0:0,0:0:0:0:
286,120,111467,54,0,P|218:33|74:51,1,225,4|0,1:2|1:0,0:0:0:0:
3,190,111906,1,8,0:0:0:0:
48,71,112053,1,0,0:0:0:0:
77,249,112199,5,4,1:2:0:0:
34,56,112345,1,0,0:0:0:0:
57,321,112492,2,0,L|62:265,1,56.25,8|0,0:0|0:0,0:0:0:0:
71,144,112638,70,0,B|159:158|124:212|221:223,1,168.75,4|0,1:2|0:0,0:0:0:0:
329,130,112931,2,0,P|352:154|397:176,1,56.25,0|0,1:0|0:0,0:0:0:0:
308,255,113077,2,0,P|296:230|291:203,1,56.25,8|0,0:0|0:0,0:0:0:0:
452,166,113223,6,0,B|467:252|469:275|428:326,1,168.75,4|0,1:2|0:0,0:0:0:0:
345,119,113516,2,0,P|377:111|418:83,1,56.25,0|0,1:0|0:0,0:0:0:0:
271,60,113662,2,0,P|262:87|248:111,1,56.25,8|0,0:0|0:0,0:0:0:0:
166,319,113809,86,2,P|265:309|278:181,1,225,4|0,1:2|1:0,0:1:0:0:
107,71,114248,1,8,0:0:0:0:
188,246,114394,1,0,0:0:0:0:
216,1,114540,101,4,1:2:0:0:
113,225,114687,1,8,2:0:0:0:
69,259,114760,1,8,2:0:0:0:
12,258,114834,1,8,2:0:0:0:
187,76,114980,1,8,2:0:0:0:
243,83,115053,1,8,2:0:0:0:
283,123,115126,1,8,2:0:0:0:
112,329,115272,1,8,0:0:0:0:
57,337,115345,1,8,0:0:0:0:
2,345,115418,1,8,0:0:0:0:
297,384,115565,1,4,1:2:0:0:
297,384,115858,54,0,L|303:301,1,62.1000000947571,0|0,1:0|0:0,0:0:0:0:
243,268,116004,2,0,L|249:185,1,62.1000000947571,0|0,1:0|0:0,0:0:0:0:
194,77,116150,2,0,L|189:138,1,62.1000000947571,0|0,1:0|0:0,0:0:0:0:
243,268,116297,1,0,1:0:0:0:
443,111,116443,1,0,1:0:0:0:
469,162,116516,1,0,1:0:0:0:
468,220,116589,1,0,1:0:0:0:
438,270,116662,1,0,1:0:0:0:
387,298,116736,2,0,P|361:272|347:226,1,62.1000000947571,0|0,1:0|1:0,0:0:0:0:
489,44,116882,1,4,1:0:0:0:
256,192,116955,12,2,119223,0:0:0:0:
23,340,121565,38,0,L|35:258,1,67.5000025749208,2|0,0:0|0:0,0:0:0:0:
89,219,121858,1,0,0:0:0:0:
131,322,122004,101,2,0:0:0:0:
128,305,122077,1,2,0:0:0:0:
126,288,122150,2,0,P|176:281|237:312,1,101.250003862381,2|2,0:0|0:0,0:0:0:0:
343,372,122589,1,2,0:0:0:0:
214,282,122736,2,0,P|228:328|270:372,1,101.250003862381,2|0,0:0|0:0,0:0:0:0:
263,368,123028,2,0,L|338:359,1,67.5000025749208,2|0,0:0|0:0,0:0:0:0:
370,197,123321,2,0,B|379:252|379:252|393:267|393:267|405:332,1,135.000005149842,2|2,0:0|0:0,0:0:0:0:
370,197,123906,5,2,0:0:0:0:
451,102,124053,2,0,P|451:136|435:172,2,67.5000025749208
336,61,124638,2,0,P|369:56|399:40,2,67.5000025749208
263,26,125077,1,0,0:0:0:0:
221,180,125662,101,2,0:0:0:0:
291,204,125955,1,2,0:0:0:0:
284,280,126248,86,0,B|353:261|353:261|405:309|405:309|412:238|412:238|474:202|474:202|410:174|410:174|393:106|393:106|349:157|349:157|277:150|277:150|311:212|311:212|296:248,1,675,0|0,2:0|0:0,0:0:0:0:
295,248,128516,1,0,0:0:0:0:
295,248,128589,2,0,B|230:248|111:190|63:92|63:92|106:121|150:109|150:109|179:73|173:26|173:26|207:152|310:228,1,720,2|0,0:0|0:0,0:0:0:0:
