osu file format v14

[General]
AudioFilename: audio.mp3
AudioLeadIn: 0
PreviewTime: 74132
Countdown: 0
SampleSet: Soft
StackLeniency: 0.7
Mode: 0
LetterboxInBreaks: 0
WidescreenStoryboard: 1

[Editor]
DistanceSpacing: 1.1
BeatDivisor: 4
GridSize: 4
TimelineZoom: 1.9

[Metadata]
Title:Hoshi no Otoshimono
TitleUnicode:ほしのおとしもの
Artist:AAAA
ArtistUnicode:ああああ
Creator:Ryuusei Aika
Version:LMT's Normal
Source:
Tags:LMT sanairrt Skytuna Elcheer Electronic Instrumental 8bit 8-bit セーブデータとほうき星
BeatmapID:2708865
BeatmapSetID:1305045

[Difficulty]
HPDrainRate:4
CircleSize:3
OverallDifficulty:4
ApproachRate:6.2
SliderMultiplier:1
SliderTickRate:1

[Events]
//Background and Video events
0,0,"BG.jpg",0,0
//Break Periods
2,58545,63881
//Storyboard Layer 0 (Background)
//Storyboard Layer 1 (Fail)
//Storyboard Layer 2 (Pass)
//Storyboard Layer 3 (Foreground)
//Storyboard Layer 4 (Overlay)
//Storyboard Sound Samples

[TimingPoints]
980,292.682926829268,4,2,1,30,1,0
980,-100,4,2,1,30,0,0
11223,-100,4,2,1,40,0,0
13858,-100,4,2,1,40,0,0
22053,-100,4,1,1,60,0,0
23223,-100,4,2,1,70,0,0
32297,-100,4,2,1,70,0,0
32589,-100,4,2,1,70,0,0
34638,-100,4,2,1,70,0,0
34931,-100,4,2,1,70,0,0
35223,-100,4,2,1,70,0,0
36979,-100,4,2,1,70,0,0
37271,-100,4,2,1,70,0,0
39614,-100,4,2,1,55,0,0
47809,-100,4,2,1,70,0,0
48979,-100,4,2,1,70,0,0
58345,-100,4,2,1,45,0,0
64931,-100,4,2,0,50,0,0
65370,-100,4,2,1,60,0,0
70053,-100,4,2,1,70,0,0
71223,-100,4,2,1,75,0,0
74150,-100,4,2,1,30,0,0
74443,-100,4,2,1,65,0,0
74736,-100,4,2,1,80,0,0
81760,-100,4,2,1,60,0,0
82784,-100,4,2,1,70,0,0
84101,-100,4,2,1,80,0,0
93467,-83.3333333333333,4,2,1,85,0,1
100492,-100,4,2,1,70,0,0
101516,-100,4,2,1,70,0,0
102833,-83.3333333333333,4,2,1,85,0,1
107516,-83.3333333333333,4,2,1,85,0,0
114540,-83.3333333333333,4,2,1,90,0,1
115858,-100,4,2,1,90,0,1
119223,-100,4,2,1,30,0,0
121565,-100,4,2,1,30,0,0
126248,-100,4,2,1,30,0,0

[Colours]
Combo1 : 255,128,128
Combo2 : 0,172,255
Combo3 : 128,191,255
Combo4 : 192,192,192
Combo5 : 128,128,128
Combo6 : 0,223,0
Combo7 : 0,191,191
Combo8 : 255,64,64

[HitObjects]
0,52,980,5,4,1:0:0:0:
75,139,1272,1,0,0:0:0:0:
75,139,1419,1,2,0:0:0:0:
212,47,1858,1,0,0:0:0:0:
283,129,2150,1,0,0:0:0:0:
479,30,2736,1,0,0:0:0:0:
488,263,3321,5,0,0:0:0:0:
404,333,3614,1,0,0:0:0:0:
404,333,3760,1,2,0:0:0:0:
259,253,4199,1,0,0:0:0:0:
175,324,4492,1,0,0:0:0:0:
37,208,5077,101,2,0:0:0:0:
115,234,5297,1,2,0:0:0:0:
185,190,5516,1,2,0:0:0:0:
185,190,5662,1,2,0:0:0:0:
331,131,6248,5,2,0:0:0:0:
392,185,6467,1,2,0:0:0:0:
475,166,6687,1,2,0:0:0:0:
475,166,6833,1,2,0:0:0:0:
253,60,7419,101,2,0:0:0:0:
238,168,7711,1,2,0:0:0:0:
220,276,8004,1,2,0:0:0:0:
451,332,8882,5,0,0:0:0:0:
451,332,9028,1,2,0:0:0:0:
451,332,9175,1,4,1:0:0:0:
256,192,9467,12,2,11223,0:0:0:0:
40,304,13858,21,2,0:0:0:0:
124,373,14150,1,0,0:0:0:0:
201,294,14443,1,0,0:0:0:0:
117,231,14736,1,0,0:0:0:0:
117,231,14882,1,0,0:0:0:0:
334,197,15467,1,0,0:0:0:0:
417,277,15760,1,0,0:0:0:0:
417,277,15906,1,0,0:0:0:0:
505,210,16199,101,0,0:0:0:0:
421,147,16492,1,2,0:0:0:0:
421,147,16638,1,0,0:0:0:0:
485,60,16931,1,0,0:0:0:0:
485,60,17077,1,0,0:0:0:0:
485,60,17223,1,2,0:0:0:0:
211,85,17955,5,2,0:0:0:0:
118,143,18248,1,0,0:0:0:0:
16,101,18540,1,0,0:0:0:0:
13,285,19126,101,2,0:0:0:0:
110,337,19419,1,0,0:0:0:0:
214,303,19711,1,0,0:0:0:0:
174,201,20004,5,0,0:0:0:0:
174,201,20150,1,2,0:0:0:0:
269,145,20443,1,2,0:0:0:0:
402,242,20882,1,0,0:0:0:0:
485,101,21321,1,0,0:0:0:0:
485,101,21467,1,0,0:0:0:0:
251,272,22053,69,2,0:0:0:0:
251,272,22199,1,2,0:0:0:0:
92,186,22638,5,2,0:0:0:0:
92,186,22784,1,2,0:0:0:0:
247,92,23223,54,0,L|362:81,1,100,0|0,1:0|1:0,0:0:0:0:
324,178,23809,2,0,L|435:167,1,100,0|0,1:0|1:0,0:0:0:0:
471,190,24248,1,0,0:0:0:0:
330,271,24687,101,0,1:0:0:0:
330,271,24833,2,0,L|222:285,1,100
200,322,25272,2,0,B|178:329|178:329|97:301,1,100,0|0,1:0|1:0,0:0:0:0:
76,225,25858,5,0,1:0:0:0:
76,225,26004,1,0,0:0:0:0:
109,146,26297,1,0,0:0:0:0:
109,146,26443,1,0,1:0:0:0:
109,146,26589,2,0,L|273:128,1,150,0|0,0:0|1:0,0:0:0:0:
340,154,27321,102,0,L|354:254,2,100,0|2|6,1:0|1:2|1:2,0:0:0:0:
407,92,28199,5,2,1:2:0:0:
407,92,28345,1,2,0:0:0:0:
346,36,28638,1,2,0:0:0:0:
264,28,28931,1,4,1:2:0:0:
195,69,29223,1,4,1:2:0:0:
195,69,29370,1,4,1:2:0:0:
195,69,29516,1,4,1:2:0:0:
16,331,30248,102,0,L|122:323,1,100,4|8,1:0|0:0,0:0:0:0:
197,321,30833,1,0,1:0:0:0:
283,316,31126,1,8,0:0:0:0:
283,316,31272,1,0,1:0:0:0:
368,306,31565,1,0,1:0:0:0:
368,306,31711,1,8,0:0:0:0:
396,111,32297,53,2,1:0:0:0:
396,111,32443,2,0,L|402:44,1,50,0|0,0:0|1:0,0:0:0:0:
339,5,32882,5,8,0:0:0:0:
269,51,33175,1,0,1:0:0:0:
188,57,33467,1,8,0:0:0:0:
188,57,33614,1,0,1:0:0:0:
116,16,33906,1,0,1:0:0:0:
116,16,34053,1,8,0:0:0:0:
224,153,34638,54,0,L|239:262,1,100,10|4,0:0|1:2,2:0:0:0:
175,315,35223,101,8,2:0:0:0:
93,304,35516,1,0,0:0:0:0:
53,235,35809,1,8,0:0:0:0:
53,235,35955,1,0,1:0:0:0:
69,153,36248,1,0,1:0:0:0:
69,153,36394,1,8,0:0:0:0:
340,104,36979,54,0,L|445:121,1,100,10|0,0:0|1:0,0:0:0:0:
497,184,37565,5,8,0:0:0:0:
487,264,37858,1,0,0:0:0:0:
416,305,38150,1,8,0:0:0:0:
416,305,38297,1,0,1:0:0:0:
334,283,38589,1,0,0:0:0:0:
334,283,38736,1,8,0:0:0:0:
205,137,39321,54,0,L|197:30,1,100,10|4,0:0|1:2,0:0:0:0:
119,16,39906,101,2,1:2:0:0:
40,36,40199,1,2,1:2:0:0:
6,111,40492,1,2,1:2:0:0:
6,111,40638,1,2,0:0:0:0:
96,283,41223,53,2,0:0:0:0:
174,321,41516,1,2,0:0:0:0:
174,321,41662,2,0,L|280:301,1,100,2|2,1:2|1:2,0:0:0:0:
334,243,42248,5,2,1:2:0:0:
334,243,42394,1,2,0:0:0:0:
423,265,42687,1,2,0:0:0:0:
423,265,42833,1,2,1:2:0:0:
423,265,42979,1,2,0:0:0:0:
465,90,43711,101,2,1:0:0:0:
397,49,44004,1,2,1:0:0:0:
320,76,44297,1,2,1:0:0:0:
177,234,44882,5,2,1:0:0:0:
105,274,45175,1,2,1:0:0:0:
27,248,45467,1,2,1:0:0:0:
10,167,45760,101,0,1:0:0:0:
10,167,45906,1,2,0:1:0:0:
60,100,46199,1,2,0:1:0:0:
199,80,46638,1,2,1:0:0:0:
267,205,47077,1,2,0:1:0:0:
267,205,47223,2,0,L|478:180,1,200,2|0,1:0|0:0,0:0:0:0:
244,340,48979,69,4,1:2:0:0:
172,298,49272,2,0,L|65:287,1,100,8|0,0:0|0:0,0:0:0:0:
30,221,49858,1,8,0:0:0:0:
30,221,50004,1,0,1:0:0:0:
142,136,50443,101,8,0:0:0:0:
142,136,50589,2,0,B|172:129|172:129|241:147,1,100,0|0,0:0|1:0,0:0:0:0:
282,188,51028,2,0,L|396:181,1,100,8|0,0:0|1:0,0:0:0:0:
412,108,51614,53,8,0:0:0:0:
412,108,51760,1,0,1:0:0:0:
411,27,52053,1,0,1:0:0:0:
411,27,52199,1,8,0:0:0:0:
411,27,52345,2,0,B|381:19|381:19|244:43,1,150,0|8,1:0|0:0,0:0:0:0:
184,50,53077,6,0,B|116:45|116:45|89:26,2,100,0|8|0,1:0|0:0|1:0,0:0:0:0:
231,124,53955,1,8,0:0:0:0:
231,124,54101,1,0,0:0:0:0:
231,206,54394,1,0,1:0:0:0:
168,255,54687,2,0,B|70:236|70:236|20:251,1,150,0|8,1:0|0:0,0:0:0:0:
1,328,55419,53,0,1:0:0:0:
70,369,55711,1,8,0:0:0:0:
151,352,56004,1,4,1:2:0:0:
295,286,56443,101,0,0:0:0:0:
295,286,56589,2,0,L|453:298,1,150,0|0,1:0|1:0,0:0:0:0:
495,228,57321,53,0,1:0:0:0:
495,228,57467,1,8,0:0:0:0:
425,179,57760,2,0,B|416:46|416:46|486:6,1,200,2|6,1:2|1:2,0:0:0:0:
256,188,64931,53,8,0:0:0:0:
256,188,65077,1,8,0:0:0:0:
184,231,65370,54,0,B|137:243|137:243|71:217,1,100,4|8,1:2|1:2,0:0:0:0:
67,185,65809,2,0,L|46:348,1,150,0|8,0:0|1:2,0:0:0:0:
326,138,66833,5,8,1:2:0:0:
391,189,67126,1,0,1:0:0:0:
452,133,67419,1,8,1:2:0:0:
437,50,67711,54,0,L|334:44,1,100,12|8,1:2|1:2,0:0:0:0:
273,100,68297,102,0,L|170:94,1,100,0|8,1:2|1:2,0:0:0:0:
168,207,68882,54,0,L|65:201,1,100,8|8,1:2|1:2,0:0:0:0:
99,361,69467,6,0,L|-4:355,1,100,8|8,1:2|1:2,0:0:0:0:
176,382,70053,69,12,0:0:0:0:
256,353,70345,1,0,1:0:0:0:
256,353,70492,1,8,0:0:0:0:
256,353,70638,1,4,0:0:0:0:
292,278,70931,1,8,1:2:0:0:
261,203,71223,5,4,1:2:0:0:
280,125,71516,1,4,1:2:0:0:
280,125,71662,1,8,0:0:0:0:
280,125,71809,1,4,1:2:0:0:
341,70,72101,2,0,L|452:60,1,100,4|12,1:2|0:0,0:0:0:0:
470,245,74443,70,0,B|481:264|481:264|463:288,1,50,2|2,0:0|0:0,0:0:0:0:
420,317,74736,2,0,L|268:304,1,150,4|0,1:2|0:0,0:0:0:0:
228,334,75321,1,0,1:0:0:0:
188,262,75614,1,8,0:0:0:0:
188,262,75760,2,0,B|92:273|92:273|74:267,1,100,0|0,0:0|1:0,0:0:0:0:
47,254,76199,1,8,0:0:0:0:
11,181,76492,1,0,1:0:0:0:
64,116,76784,2,0,B|54:39|54:39|72:9,1,100,8|0,0:0|1:0,0:0:0:0:
227,114,77516,53,0,0:0:0:0:
227,114,77662,2,0,L|333:103,1,100,2|10,1:2|0:0,0:0:0:0:
352,64,78101,1,2,1:2:0:0:
405,1,78394,1,2,1:2:0:0:
405,1,78540,1,10,0:0:0:0:
462,210,79126,6,0,B|466:274,1,50,8|0,0:0|0:0,0:0:0:0:
498,291,79419,2,0,B|473:317|473:317|344:300,1,150,0|0,1:0|0:0,0:0:0:0:
327,265,80004,1,0,1:0:0:0:
254,308,80297,53,8,0:0:0:0:
254,308,80443,2,0,L|140:328,1,100,0|0,1:0|1:0,0:0:0:0:
107,299,80882,1,8,0:0:0:0:
87,222,81175,2,0,B|66:148|66:148|35:128,1,100,0|8,1:0|0:0,0:0:0:0:
38,50,81760,101,4,1:2:0:0:
120,32,82053,1,4,1:2:0:0:
120,32,82199,1,4,1:2:0:0:
202,16,82492,1,4,1:2:0:0:
284,2,82784,2,0,B|316:11|316:11|382:69|382:69|429:77,1,150,4|8,1:2|0:0,0:0:0:0:
469,131,83516,53,8,0:0:0:0:
466,214,83809,1,8,0:0:0:0:
396,257,84101,2,0,B|367:265|367:265|277:239|277:239|243:248,1,150,4|0,1:2|0:0,0:0:0:0:
217,283,84687,1,0,1:0:0:0:
64,251,85126,5,0,1:0:0:0:
64,251,85272,1,0,0:0:0:0:
12,184,85565,1,8,0:0:0:0:
23,103,85858,1,0,1:0:0:0:
91,60,86150,1,8,0:0:0:0:
172,84,86443,54,0,B|199:94|199:94|377:63,1,200,0|2,1:0|1:2,0:0:0:0:
438,116,87321,1,10,0:0:0:0:
438,116,87467,1,2,1:2:0:0:
459,194,87760,1,2,1:2:0:0:
435,272,88053,1,2,0:0:0:0:
388,337,88345,1,2,1:2:0:0:
388,337,88492,2,0,B|362:346|362:346|285:333,1,100,8|4,0:0|1:2,0:0:0:0:
212,298,89077,101,8,0:0:0:0:
212,298,89223,1,4,1:2:0:0:
132,320,89516,1,0,1:0:0:0:
132,320,89662,1,8,0:0:0:0:
132,320,89809,1,4,1:2:0:0:
45,295,90101,1,0,1:0:0:0:
45,295,90248,1,8,0:0:0:0:
45,295,90394,1,4,1:2:0:0:
23,211,90687,1,0,1:0:0:0:
23,211,90833,2,0,B|18:148|18:148|39:111,1,100,8|8,0:0|0:0,0:0:0:0:
115,77,91419,53,8,0:0:0:0:
115,77,91565,1,8,0:0:0:0:
207,74,91858,1,8,0:0:0:0:
207,74,92004,1,8,0:0:0:0:
207,74,92150,1,4,1:2:0:0:
298,108,92443,1,4,1:2:0:0:
298,108,92589,1,4,1:2:0:0:
298,108,92736,1,4,1:2:0:0:
298,108,92882,1,4,1:2:0:0:
441,189,93467,86,0,B|483:224|472:295|397:330|367:277,1,179.999994506836,4|8,1:2|0:0,0:0:0:0:
344,249,94053,2,0,B|326:231|296:211|209:243|248:271,1,119.999996337891,0|0,1:0|1:0,0:0:0:0:
196,327,94638,5,0,1:0:0:0:
115,354,94931,1,8,0:0:0:0:
43,309,95223,1,0,1:0:0:0:
43,309,95370,1,0,1:0:0:0:
43,309,95516,1,8,0:0:0:0:
112,249,95809,86,0,B|81:232|30:172|53:106|112:100|121:124,1,179.999994506836,0|8,1:0|0:0,0:0:0:0:
146,137,96394,2,0,B|193:150|229:85|201:39|192:43,1,119.999996337891,0|0,1:0|1:0,0:0:0:0:
179,18,96833,101,8,0:0:0:0:
261,0,97126,1,8,0:0:0:0:
338,37,97419,1,8,0:0:0:0:
376,114,97711,1,8,0:0:0:0:
376,114,97858,1,0,1:0:0:0:
357,195,98150,53,0,1:0:0:0:
357,195,98297,2,0,B|326:211|314:246|332:288|382:281,1,119.999996337891,10|10,0:0|0:0,0:0:0:0:
419,286,98736,1,2,1:2:0:0:
485,234,99028,1,2,1:2:0:0:
485,234,99175,2,0,P|489:159|504:47,1,179.999994506836,10|0,0:0|1:0,0:0:0:0:
446,0,99906,1,2,1:2:0:0:
384,50,100199,1,2,1:2:0:0:
304,16,100492,5,4,1:2:0:0:
229,50,100784,1,6,1:0:0:0:
229,50,100931,1,2,1:0:0:0:
154,12,101223,1,4,1:2:0:0:
78,46,101516,1,4,1:2:0:0:
60,134,101809,69,2,1:0:0:0:
60,134,101955,1,10,0:0:0:0:
56,217,102248,1,8,0:0:0:0:
123,262,102540,1,8,0:0:0:0:
194,223,102833,2,0,B|226:218|271:237|291:289|361:292,1,179.999994506836,4|8,1:2|0:0,0:0:0:0:
411,269,103419,1,0,1:0:0:0:
258,364,103858,5,8,0:0:0:0:
258,364,104004,1,0,1:0:0:0:
183,324,104297,1,0,1:0:0:0:
104,352,104589,1,0,1:0:0:0:
31,306,104882,1,8,0:0:0:0:
31,306,105028,1,0,1:0:0:0:
31,306,105175,2,0,P|23:210|15:53,1,239.999992675781,0|0,1:0|1:0,0:0:0:0:
101,34,106053,85,0,1:0:0:0:
101,34,106199,1,8,0:0:0:0:
138,107,106492,1,8,0:0:0:0:
217,124,106784,1,8,0:0:0:0:
292,85,107077,1,8,0:0:0:0:
292,85,107223,1,0,1:0:0:0:
377,95,107516,102,0,B|440:86|469:130|471:227|407:204,1,179.999994506836,4|4,1:2|1:2,0:0:0:0:
343,196,108248,1,0,1:0:0:0:
343,196,108394,1,8,0:0:0:0:
343,196,108540,1,4,1:2:0:0:
282,256,108833,1,0,1:0:0:0:
282,256,108979,1,8,0:0:0:0:
282,256,109126,2,0,B|329:268|337:332|255:372|206:317,1,179.999994506836,4|8,1:2|0:0,0:0:0:0:
188,243,109858,54,0,B|209:183|142:101|83:121|91:146,1,179.999994506836,4|4,1:2|1:2,0:0:0:0:
75,224,110589,1,0,1:0:0:0:
75,224,110736,1,8,0:0:0:0:
75,224,110882,1,4,1:2:0:0:
0,175,111175,1,0,1:0:0:0:
0,175,111321,1,8,0:0:0:0:
0,175,111467,2,0,P|26:70|44:-14,1,179.999994506836,4|8,1:2|0:0,0:0:0:0:
122,33,112199,6,0,B|162:35|189:62|196:108|223:146|264:142,1,179.999994506836,4|4,1:2|1:2,0:0:0:0:
322,90,112931,1,0,1:0:0:0:
322,90,113077,1,8,0:0:0:0:
322,90,113223,1,4,1:2:0:0:
403,64,113516,1,0,1:0:0:0:
403,64,113662,1,8,0:0:0:0:
403,64,113809,2,2,B|372:35|332:54|322:104|349:165|389:166,1,179.999994506836,4|8,1:2|0:0,0:1:0:0:
451,213,114540,69,4,1:2:0:0:
431,300,114833,1,8,2:0:0:0:
431,300,114979,1,8,2:0:0:0:
352,329,115272,1,8,0:0:0:0:
352,329,115419,1,8,0:0:0:0:
352,329,115565,1,4,1:2:0:0:
265,329,115858,5,0,1:0:0:0:
265,329,116004,1,0,1:0:0:0:
199,272,116297,1,0,1:0:0:0:
199,272,116443,1,0,1:0:0:0:
231,194,116736,2,0,L|220:137,1,50,0|4,1:0|1:0,0:0:0:0:
256,192,117175,12,2,119223,0:0:0:0:
