osu file format v14

[General]
AudioFilename: audio.mp3
AudioLeadIn: 0
PreviewTime: 70242
Countdown: 0
SampleSet: Soft
StackLeniency: 0.7
Mode: 0
LetterboxInBreaks: 0
WidescreenStoryboard: 1

[Editor]
Bookmarks: 18039,27544,38237,72544,89326
DistanceSpacing: 1
BeatDivisor: 2
GridSize: 16
TimelineZoom: 2.1

[Metadata]
Title:Hiyokko Santa to Yuki no Machi (Dear A Remix)
TitleUnicode:ひよっ子サンタと雪の街(Dear A Remix)
Artist:AAAA
ArtistUnicode:ああああ
Creator:Azzedd
Version:Normal
Source:
Tags:8bit electronic bitpop chiptune vgm 梅干茶漬け Umeboshi Chazuke ZinedineZidane
BeatmapID:1841811
BeatmapSetID:880070

[Difficulty]
HPDrainRate:3
CircleSize:3
OverallDifficulty:4
ApproachRate:5.5
SliderMultiplier:1
SliderTickRate:1

[Events]
//Background and Video events
0,0,"Webp.net-resizeimage.jpg",0,0
//Break Periods
//Storyboard Layer 0 (Background)
//Storyboard Layer 1 (Fail)
//Storyboard Layer 2 (Pass)
//Storyboard Layer 3 (Foreground)
//Storyboard Sound Samples

[TimingPoints]
1406,297.029702970297,4,2,1,55,1,0
13287,-100,4,2,2,75,0,0
13732,-100,4,2,6,75,0,0
14326,-100,4,2,1,75,0,0
14623,-100,4,2,11,75,0,0
14698,-100,4,2,10,75,0,0
14772,-100,4,2,12,75,0,0
14920,-100,4,2,3,75,0,0
15663,-100,4,2,4,75,0,0
15811,-100,4,2,12,75,0,0
15960,-100,4,2,11,75,0,0
16108,-100,4,2,2,75,0,0
16554,-100,4,2,10,75,0,0
16703,-100,4,2,3,75,0,0
17297,-100,4,2,1,55,0,0
18336,-100,4,2,5,55,0,0
27544,-100,4,2,1,65,0,0
32297,-100,4,2,2,75,0,0
32742,-100,4,2,1,75,0,0
33336,-100,4,2,3,75,0,0
33633,-100,4,2,11,75,0,0
33782,-100,4,2,10,75,0,0
33930,-100,4,2,4,75,0,0
34227,-100,4,2,6,75,0,0
34524,-100,4,2,1,75,0,0
35267,-100,4,2,12,75,0,0
35415,-100,4,2,11,75,0,0
35564,-100,4,2,10,75,0,0
35712,-100,4,2,2,75,0,0
37049,-100,4,2,1,65,0,0
46554,-100,4,2,1,30,0,0
46851,-100,4,2,1,40,0,0
47148,-100,4,2,1,50,0,0
47222,-100,4,2,1,51,0,0
47297,-100,4,2,1,52,0,0
47371,-100,4,2,1,53,0,0
47445,-100,4,2,1,54,0,0
47519,-100,4,2,1,55,0,0
47594,-100,4,2,1,56,0,0
47668,-100,4,2,1,57,0,0
47742,-100,4,2,2,65,0,0
48039,-100,4,2,1,65,0,0
54871,-100,4,2,2,65,0,0
55465,-100,4,2,1,65,0,0
55910,-100,4,2,3,65,0,0
56356,-100,4,2,1,65,0,0
56950,-100,4,2,4,65,0,0
57247,-100,4,2,1,65,0,0
61703,-100,4,2,6,65,0,0
62000,-100,4,2,4,65,0,0
62297,-100,4,2,1,65,0,0
64079,-100,4,2,3,65,0,0
64376,-100,4,2,1,55,0,0
65267,-100,4,2,4,65,0,0
65564,-100,4,2,1,75,0,0
67940,-100,4,2,6,75,0,0
69128,-100,4,2,1,75,0,0
69425,-100,4,2,2,75,0,0
70019,-100,4,2,1,75,0,0
70316,-100,4,2,4,55,0,0
70465,-100,4,2,12,55,0,0
70762,-100,4,2,2,55,0,0
70910,-100,4,2,11,55,0,0
71207,-100,4,2,3,55,0,0
71356,-100,4,2,10,55,0,0
71653,-100,4,2,6,55,0,0
71950,-100,4,2,1,65,0,0
72544,-100,4,2,1,75,0,1
82198,-100,4,2,2,75,0,1
82346,-100,4,2,1,75,0,1
83089,-100,4,2,4,75,0,1
83237,-100,4,2,1,75,0,1
83386,-100,4,2,2,75,0,1
83534,-100,4,2,1,75,0,1
84277,-100,4,2,6,75,0,1
84574,-100,4,2,2,75,0,1
85019,-100,4,2,6,75,0,1
85613,-100,4,2,1,75,0,1
85910,-100,4,2,10,75,0,1
85985,-100,4,2,11,75,0,1
86059,-100,4,2,12,75,0,1
86207,-100,4,2,3,75,0,1
86356,-100,4,2,1,75,0,1
87099,-100,4,2,12,75,0,1
87247,-100,4,2,11,75,0,1
87396,-100,4,2,2,75,0,1
87841,-100,4,2,10,75,0,1
87990,-100,4,2,3,75,0,1
88732,-100,4,2,1,75,0,1
89326,-100,4,2,1,40,0,0
91405,-100,4,2,1,30,0,0
97792,-100,4,2,1,20,0,0
100910,-100,4,2,1,5,0,0

[Colours]
Combo1 : 113,160,240
Combo2 : 136,210,221
Combo3 : 231,202,76
Combo4 : 52,145,147

[HitObjects]
384,184,1406,6,0,P|420:187|475:225,1,100,2|2,0:0|0:0,0:0:0:0:
493,267,1851,1,2,0:0:0:0:
395,279,2148,1,2,0:0:0:0:
430,373,2445,2,0,P|389:379|324:348,1,100,2|2,0:0|0:0,0:0:0:0:
300,323,2891,5,2,0:0:0:0:
395,279,3188,1,2,0:0:0:0:
352,189,3485,1,2,0:0:0:0:
257,233,3782,6,0,B|213:252|213:252|175:304,1,100,2|2,0:0|0:0,0:0:0:0:
157,337,4227,1,2,0:0:0:0:
97,256,4524,2,0,L|130:204,1,50,2|2,0:0|0:0,0:0:0:0:
158,176,4821,2,0,P|98:170|34:86,1,150,2|0,0:0|0:0,0:0:0:0:
72,11,5564,2,0,P|27:8|-11:23,2,75,2|2|2,0:0|0:0|0:0,0:0:0:0:
120,25,6158,6,0,P|162:28|207:88,1,100,2|2,0:0|0:0,0:0:0:0:
223,112,6604,1,2,0:0:0:0:
223,211,6901,2,0,P|264:203|315:146,1,100,2|2,0:0|0:0,0:0:0:0:
328,121,7346,5,2,0:0:0:0:
223,112,7643,1,2,0:0:0:0:
284,26,7940,1,2,0:0:0:0:
389,35,8237,2,0,L|462:40,1,50,2|0,0:0|0:0,0:0:0:0:
484,17,8534,6,0,P|458:53|480:160,1,150,2|2,0:0|0:0,0:0:0:0:
494,198,9128,2,0,B|550:251|509:339|509:339|437:290|367:339,1,300,2|2,0:0|0:0,0:0:0:0:
273,345,10316,2,0,P|250:317|179:299,1,100,2|2,0:0|0:0,0:0:0:0:
101,253,10910,6,0,P|122:224|191:200,1,100,2|2,0:0|0:0,0:0:0:0:
229,209,11356,1,2,0:0:0:0:
316,257,11653,2,0,P|348:241|383:177,1,100,2|2,0:0|0:0,0:0:0:0:
381,138,12099,1,2,0:0:0:0:
371,38,12396,2,0,P|323:18|258:16,1,100,2|2,0:0|0:0,0:0:0:0:
226,21,12841,1,0,3:0:0:0:
226,21,12990,1,14,0:0:0:0:
126,15,13287,6,0,P|64:29|6:73,1,100,14|2,0:0|3:2,0:0:0:0:
0,84,13732,2,0,P|-8:147|13:216,1,100,14|2,0:0|3:2,0:0:0:0:
12,230,14178,1,0,3:0:0:0:
12,230,14326,2,0,P|48:285|142:305,1,150,14|4,0:3|0:3,0:0:0:0:
174,294,14920,1,4,3:2:0:0:
323,286,15366,2,0,L|332:356,1,50,10|10,0:0|0:0,0:0:0:0:
356,377,15663,6,0,P|403:370|448:333,1,100,4|6,3:2|0:3,0:0:0:0:
472,297,16108,1,6,3:2:0:0:
451,151,16554,1,6,0:3:0:0:
451,151,16703,2,0,L|359:99,1,100,6|2,3:2|0:0,0:0:0:0:
319,79,17148,1,0,0:0:0:0:
221,101,17445,1,10,0:0:0:0:
124,127,17742,1,12,0:0:0:0:
61,205,18039,6,0,P|101:236|112:293,1,100,6|10,0:1|0:0,0:0:0:0:
104,383,18633,2,0,L|209:351,1,100,2|8,0:0|0:0,0:0:0:0:
247,339,19079,1,2,0:0:0:0:
367,250,19524,2,0,P|389:285|396:345,1,100,10|2,0:0|0:0,0:0:0:0:
482,291,20118,2,0,P|475:259|461:227,1,50,10|2,0:0|0:0,0:0:0:0:
450,196,20415,6,0,P|418:147|377:125,1,100,0|10,3:0|0:0,0:0:0:0:
288,94,21009,2,0,P|254:86|188:101,1,100,2|10,0:0|0:0,0:0:0:0:
157,136,21455,1,2,0:0:0:0:
65,29,21901,2,0,L|53:128,1,100,10|2,0:0|0:0,0:0:0:0:
100,216,22495,2,0,L|93:274,1,50,10|2,0:0|0:0,0:0:0:0:
99,315,22792,6,0,P|120:338|195:353,1,100,0|10,3:0|0:0,0:0:0:0:
284,344,23386,2,0,P|315:342|375:294,1,100,2|10,0:0|0:0,0:0:0:0:
391,258,23831,1,2,0:0:0:0:
488,144,24277,2,0,L|511:248,1,100,10|2,0:0|0:0,0:0:0:0:
411,224,24871,2,0,L|400:175,1,50,10|0,0:0|0:0,0:0:0:0:
389,126,25168,6,0,P|400:88|457:47,1,100,0|10,3:0|0:0,0:0:0:0:
352,12,25762,2,0,P|324:40|303:102,1,100,2|10,0:0|0:0,0:0:0:0:
304,146,26207,1,2,0:0:0:0:
166,85,26653,2,0,P|165:55|174:30,2,50,10|2|2,0:0|0:0|0:0,0:0:0:0:
200,178,27247,1,10,0:0:0:0:
153,266,27544,6,0,P|131:246|57:240,1,100,6|10,3:1|0:0,0:0:0:0:
43,335,28138,2,0,P|65:355|139:361,1,100,2|10,0:0|0:0,0:0:0:0:
178,344,28584,1,2,0:0:0:0:
275,364,28881,1,2,0:0:0:0:
275,364,29029,2,0,P|272:326|308:273,1,100,10|2,0:0|0:0,0:0:0:0:
399,246,29623,2,0,L|472:252,1,50,10|0,0:0|0:0,0:0:0:0:
498,255,29920,6,0,P|494:220|444:160,1,100,2|10,3:1|0:0,0:0:0:0:
357,165,30514,2,0,P|361:130|411:70,1,100,2|10,0:0|0:0,0:0:0:0:
442,55,30960,1,2,0:0:0:0:
355,4,31257,1,2,0:0:0:0:
355,4,31406,2,0,P|319:29|287:76,1,100,10|2,0:0|0:0,0:0:0:0:
272,173,32000,2,0,L|215:161,1,50,14|0,0:0|0:0,0:0:0:0:
174,150,32297,6,0,B|182:206|182:206|151:260,1,100,14|0,0:0|3:0,0:0:0:0:
130,283,32742,1,10,0:0:0:0:
30,296,33039,1,10,0:0:0:0:
91,376,33336,2,0,L|204:377,1,100,14|6,0:0|0:3,0:0:0:0:
290,377,33930,5,14,0:0:0:0:
382,338,34227,1,14,0:0:0:0:
445,261,34524,2,0,P|422:201|329:155,1,150,14|10,0:0|0:0,0:0:0:0:
260,115,35267,2,0,P|251:141|250:173,2,50,6|6|6,0:3|0:3|0:3,0:0:0:0:
284,71,35712,1,14,0:0:0:0:
256,192,35861,12,0,37049,0:0:0:0:
69,67,38237,6,0,P|91:87|102:159,1,100,4|0,3:1|3:0,0:0:0:0:
43,233,38831,2,0,L|145:264,1,100,2|2,3:2|3:2,0:0:0:0:
187,274,39277,1,2,0:0:0:0:
333,226,39722,5,2,3:0:0:0:
278,149,40019,1,2,3:0:0:0:
187,179,40316,1,2,3:0:0:0:
187,274,40613,1,2,3:0:0:0:
278,303,40910,1,2,3:0:0:0:
278,303,41059,2,0,B|348:351|424:295|424:295|401:239|343:239,1,250,2|0,0:0|3:0,0:0:0:0:
491,175,42247,5,2,0:0:0:0:
491,175,42396,2,0,P|456:144|393:122,1,100,2|2,3:0|3:0,0:0:0:0:
308,109,42990,2,0,P|261:111|201:140,1,100,2|2,3:0|3:0,0:0:0:0:
167,112,43435,2,0,P|187:133|199:208,2,100,2|2|2,0:0|0:0|0:0,0:0:0:0:
71,142,44326,2,0,P|49:154|29:170,2,50,2|2|2,0:0|3:0|0:0,0:0:0:0:
88,242,44920,6,0,B|74:302,1,50,2|2,0:0|3:0,0:0:0:0:
108,329,45217,2,0,P|60:313|11:318,2,100,2|2|2,0:0|0:0|0:0,0:0:0:0:
205,352,46108,1,2,0:0:0:0:
254,268,46406,1,2,0:0:0:0:
254,268,46554,6,0,P|217:205|260:80,1,200,2|2,3:0|0:0,0:0:0:0:
319,17,47445,1,14,0:0:0:0:
371,102,47742,5,6,3:2:0:0:
496,20,48188,1,0,0:0:0:0:
496,20,48336,2,0,P|480:70|487:119,1,100,2|10,0:0|0:0,0:0:0:0:
506,162,48782,1,2,0:0:0:0:
399,267,49227,2,0,P|374:223|310:200,1,100,10|2,0:0|0:0,0:0:0:0:
244,164,49821,1,10,0:0:0:0:
244,164,49970,1,2,0:0:0:0:
177,234,50267,1,2,0:0:0:0:
177,234,50415,2,0,P|146:173|174:89,1,150,10|0,0:0|3:0,0:0:0:0:
199,60,51009,1,8,0:0:0:0:
101,48,51306,5,2,3:2:0:0:
21,104,51603,1,10,0:0:0:0:
0,199,51900,1,2,0:0:0:0:
43,286,52197,1,10,0:0:0:0:
135,321,52495,2,0,L|242:297,1,100,2|8,3:2|0:0,0:0:0:0:
282,297,52940,1,2,0:0:0:0:
331,297,53089,2,0,L|438:321,1,100,2|8,0:0|0:0,0:0:0:0:
498,247,53683,5,2,3:2:0:0:
493,148,53980,1,10,0:0:0:0:
433,70,54277,1,2,0:0:0:0:
339,41,54574,1,14,0:0:0:0:
246,71,54871,2,0,P|227:128|245:184,1,100,6|0,3:2|0:0,0:0:0:0:
281,184,55316,1,2,0:0:0:0:
329,199,55465,2,0,P|348:255|330:311,1,100,10|0,0:0|0:0,0:0:0:0:
328,342,55910,6,0,L|221:350,1,100,12|8,0:0|0:0,0:0:0:0:
178,357,56356,1,8,0:0:0:0:
188,257,56653,1,10,0:0:0:0:
93,289,56950,1,12,0:0:0:0:
103,189,57247,6,0,L|121:83,1,100,6|10,3:1|0:0,0:0:0:0:
217,67,57841,2,0,L|208:116,2,50,2|2|10,3:0|0:0|0:0,0:0:0:0:
256,35,58287,2,0,P|328:35|367:56,1,100,2|0,3:2|3:0,0:0:0:0:
391,76,58732,1,10,0:0:0:0:
391,76,58881,1,2,3:2:0:0:
409,174,59178,2,0,L|459:178,2,50,2|10|2,3:0|0:0|0:0,0:0:0:0:
359,174,59623,6,0,P|329:223|334:275,1,100,2|10,3:2|0:0,0:0:0:0:
376,353,60217,2,0,L|425:349,2,50,2|2|10,0:0|3:0|0:0,0:0:0:0:
327,364,60663,2,0,P|274:342|216:353,1,100,2|0,3:2|3:0,0:0:0:0:
190,372,61108,1,10,0:0:0:0:
190,372,61257,1,2,3:0:0:0:
43,337,61703,1,14,0:0:0:0:
65,239,62000,6,0,P|70:189|48:134,1,100,6|8,3:2|0:0,0:0:0:0:
57,42,62594,2,0,P|23:46|5:59,2,50,2|2|2,3:0|3:0|0:0,0:0:0:0:
106,44,63039,2,0,P|150:46|202:85,1,100,14|0,0:0|3:0,0:0:0:0:
228,114,63485,1,10,0:0:0:0:
228,114,63633,1,2,0:0:0:0:
368,167,64079,1,14,0:0:0:0:
410,76,64376,6,0,P|442:32|484:16,2,100,6|2|2,3:2|0:0|0:0,0:0:0:0:
403,178,65267,1,14,0:0:0:0:
405,280,65564,6,0,L|298:257,1,100,14|8,0:1|0:0,0:0:0:0:
257,262,66009,1,2,3:2:0:0:
257,262,66158,2,0,L|165:321,1,100,10|8,0:0|0:0,0:0:0:0:
83,359,66752,2,0,P|75:312|95:259,1,100,8|8,0:0|0:0,0:0:0:0:
104,164,67346,2,0,P|77:163|47:175,2,50,10|2|10,0:0|3:2|0:0,0:0:0:0:
150,181,67792,1,2,3:2:0:0:
200,189,67940,6,0,P|248:175|292:135,1,100,12|8,0:0|0:0,0:0:0:0:
375,98,68534,2,0,P|389:146|429:190,1,100,8|8,0:0|0:0,0:0:0:0:
466,273,69128,2,0,P|418:287|374:327,1,100,12|12,0:0|0:0,0:0:0:0:
291,364,69722,2,0,P|277:316|237:272,1,100,8|12,0:0|0:0,0:0:0:0:
234,180,70316,5,14,0:0:0:0:
97,242,70761,1,14,0:0:0:0:
0,130,71207,1,14,0:0:0:0:
72,0,71653,1,14,0:0:0:0:
212,54,72099,2,0,L|185:118,2,50,8|10|2,0:0|0:0|3:2,0:0:0:0:
252,25,72544,6,0,B|299:10|299:10|364:33,1,100,14|0,0:1|3:0,0:0:0:0:
392,47,72990,1,10,0:0:0:0:
392,47,73138,1,2,0:0:0:0:
468,111,73435,1,2,0:0:0:0:
386,169,73732,2,0,P|338:180|290:218,1,100,2|2,0:0|3:0,0:0:0:0:
274,253,74178,5,10,0:0:0:0:
304,348,74475,1,2,3:2:0:0:
209,378,74772,1,10,0:0:0:0:
179,283,75069,6,0,P|160:232|117:199,1,100,2|8,3:2|0:0,0:0:0:0:
77,190,75514,1,2,0:0:0:0:
8,117,75811,2,0,P|30:102|61:98,1,50,2|8,3:2|0:0,0:0:0:0:
103,97,76108,2,0,P|168:96|238:33,1,150,2|8,3:2|0:0,0:0:0:0:
328,70,76851,2,0,P|321:112|341:163,2,75,2|2|2,3:2|0:0|0:0,0:0:0:0:
351,25,77445,6,0,P|398:10|461:23,1,100,2|10,3:2|0:0,0:0:0:0:
491,41,77891,1,2,0:0:0:0:
409,99,78188,1,2,3:0:0:0:
469,178,78485,1,2,3:2:0:0:
469,178,78633,6,0,B|498:218|498:218|492:278,2,100,2|10|2,0:0|0:0|3:2,0:0:0:0:
391,240,79524,1,10,0:0:0:0:
372,338,79821,6,0,P|306:307|216:321,1,150,2|2,3:2|0:0,0:0:0:0:
182,318,80415,2,0,P|137:334|120:167,1,300,2|8,3:2|0:0,0:0:0:0:
206,130,81604,2,0,L|254:118,2,50,2|2|14,3:2|3:2|0:0,0:0:0:0:
197,28,82198,6,0,L|90:54,1,100,14|10,0:0|0:0,0:0:0:0:
52,66,82643,1,2,3:2:0:0:
14,158,82940,2,0,L|71:252,1,100,2|2,3:0|3:2,0:0:0:0:
98,281,83386,5,12,0:0:0:0:
155,362,83683,1,10,0:0:0:0:
251,335,83979,1,10,0:0:0:0:
254,235,84277,1,14,0:0:0:0:
160,202,84574,6,0,P|185:162|251:137,1,100,14|2,0:0|3:2,0:0:0:0:
280,140,85019,2,0,P|322:161|352:224,1,100,14|2,0:0|3:2,0:0:0:0:
359,254,85465,1,2,3:2:0:0:
335,297,85613,2,0,L|186:268,1,150,14|4,0:0|0:3,0:0:0:0:
138,258,86207,1,0,0:0:0:0:
157,109,86653,2,0,L|206:118,1,50,10|10,0:0|0:0,0:0:0:0:
256,123,86950,6,0,P|260:78|223:18,1,100,4|6,3:2|0:3,0:0:0:0:
198,0,87396,1,14,0:0:0:0:
346,23,87841,1,6,0:3:0:0:
346,23,87990,2,0,L|462:66,1,100,6|2,3:2|0:0,0:0:0:0:
476,91,88435,1,0,3:0:0:0:
440,184,88732,1,10,0:0:0:0:
345,218,89029,1,12,0:0:0:0:
317,313,89326,6,0,P|269:282|264:170,1,150,6|2,0:1|0:0,0:0:0:0:
272,149,89920,1,2,0:0:0:0:
214,67,90217,1,2,0:0:0:0:
214,67,90366,1,2,0:0:0:0:
115,79,90663,2,0,P|93:72|66:56,2,50,2|2|2,0:0|0:0|0:0,0:0:0:0:
160,221,91405,1,2,0:0:0:0:
63,248,91703,6,0,P|85:288|148:323,1,100,2|0,0:0|0:0,0:0:0:0:
178,326,92148,1,2,0:0:0:0:
178,326,92297,2,0,P|223:306|255:268,1,100,2|2,0:0|0:0,0:0:0:0:
276,223,92742,1,2,0:0:0:0:
280,123,93039,6,0,P|254:126|226:140,2,50,2|2|2,0:0|0:0|0:0,0:0:0:0:
329,132,93485,1,2,0:0:0:0:
400,61,93782,1,2,0:0:0:0:
447,149,94079,6,0,P|463:212|414:309,1,150,2|2,0:0|0:0,0:0:0:0:
395,320,94673,1,2,0:0:0:0:
395,320,94821,2,0,L|443:348,2,50,2|2|2,0:0|0:0|0:0,0:0:0:0:
295,307,95415,2,0,L|309:360,2,50,2|2|2,0:0|0:0|0:0,0:0:0:0:
233,227,96009,2,0,L|205:275,2,50,2|2|2,0:0|0:0|0:0,0:0:0:0:
263,187,96455,6,0,P|300:125|101:119,1,400,2|0,0:0|0:0,0:0:0:0:
83,148,97792,6,0,L|27:147,2,50,2|2|2,0:0|0:0|0:0,0:0:0:0:
105,192,98237,2,0,L|154:192,2,50,2|2|2,0:0|0:0|0:0,0:0:0:0:
90,240,98683,1,2,0:0:0:0:
