osu file format v14

[General]
AudioFilename: audio.mp3
AudioLeadIn: 0
PreviewTime: 64385
Countdown: 0
SampleSet: Soft
StackLeniency: 0.7
Mode: 3
LetterboxInBreaks: 0
SpecialStyle: 0
WidescreenStoryboard: 0

[Editor]
DistanceSpacing: 1
BeatDivisor: 4
GridSize: 4
TimelineZoom: 1.100001

[Metadata]
Title:Hiyokko Santa to Yuki no Machi
TitleUnicode:ひよっ子サンタと雪の街
Artist:AAAA
ArtistUnicode:ああああ
Creator:Maxus
Version:Easy
Source:BMSをいっぱい作る2017 -Nextage-
Tags:Winter post pop chiptune Christmas xmas Snow Electronic Instrumental Critical_Star Kuo Kyoka Akasha
BeatmapID:3315673
BeatmapSetID:1617344

[Difficulty]
HPDrainRate:6.5
CircleSize:7
OverallDifficulty:6.5
ApproachRate:5
SliderMultiplier:1.4
SliderTickRate:1

[Events]
//Background and Video events
0,0,"Anime BG christmas.jpg",0,0
//Break Periods
//Storyboard Layer 0 (Background)
//Storyboard Layer 1 (Fail)
//Storyboard Layer 2 (Pass)
//Storyboard Layer 3 (Foreground)
//Storyboard Layer 4 (Overlay)
//Storyboard Sound Samples
Sample,4835,0,"jingle.wav",30
Sample,5285,0,"hihat.wav",30
Sample,5885,0,"hihat.wav",30
Sample,6185,0,"hihat.wav",30
Sample,6485,0,"hihat.wav",30
Sample,7235,0,"jingle.wav",30
Sample,7685,0,"hihat.wav",30
Sample,7985,0,"hihat.wav",30
Sample,9635,0,"jingle.wav",30
Sample,10235,0,"jingle.wav",30
Sample,11435,0,"jingle.wav",30
Sample,12035,0,"jingle.wav",30
Sample,12635,0,"jingle.wav",30
Sample,13835,0,"jingle.wav",30
Sample,14435,0,"jingle.wav",30
Sample,15035,0,"jingle.wav",30
Sample,16235,0,"jingle.wav",30
Sample,16835,0,"jingle.wav",30
Sample,17435,0,"jingle.wav",30
Sample,18635,0,"jingle.wav",30
Sample,19235,0,"jingle.wav",30
Sample,19835,0,"jingle.wav",30
Sample,21035,0,"jingle.wav",30
Sample,21635,0,"jingle.wav",30
Sample,22235,0,"jingle.wav",30
Sample,23435,0,"jingle.wav",30
Sample,24485,0,"CrashL.wav",50
Sample,30035,0,"bell.wav",15
Sample,30635,0,"bell.wav",15
Sample,31835,0,"bell.wav",15
Sample,32435,0,"bell.wav",15
Sample,33035,0,"bell.wav",15
Sample,34235,0,"bell.wav",15
Sample,34835,0,"bell.wav",15
Sample,35435,0,"bell.wav",15
Sample,36635,0,"bell.wav",15
Sample,37235,0,"bell.wav",15
Sample,37835,0,"bell.wav",15
Sample,39635,0,"bell.wav",15
Sample,42035,0,"bell.wav",15
Sample,44435,0,"bell.wav",15
Sample,46835,0,"bell.wav",15
Sample,49985,0,"hihat.wav",30
Sample,50285,0,"hihat.wav",30
Sample,50585,0,"hihat.wav",30
Sample,51185,0,"hihat.wav",30
Sample,52385,0,"hihat.wav",30
Sample,52685,0,"hihat.wav",30
Sample,52985,0,"hihat.wav",30
Sample,53585,0,"hihat.wav",30
Sample,81635,0,"jingle.wav",30
Sample,81935,0,"jingle.wav",30
Sample,82535,0,"jingle.wav",30
Sample,83135,0,"jingle.wav",30
Sample,83735,0,"jingle.wav",30
Sample,84035,0,"jingle.wav",30
Sample,84335,0,"jingle.wav",30
Sample,84935,0,"jingle.wav",30
Sample,85535,0,"jingle.wav",30
Sample,86135,0,"jingle.wav",30
Sample,86435,0,"jingle.wav",30
Sample,86735,0,"jingle.wav",30
Sample,87335,0,"jingle.wav",30
Sample,87935,0,"jingle.wav",30
Sample,88535,0,"jingle.wav",30
Sample,88835,0,"jingle.wav",30
Sample,89135,0,"jingle.wav",30
Sample,89735,0,"jingle.wav",30
Sample,89885,0,"crashL.wav",50
Sample,90335,0,"jingle.wav",30
Sample,90560,0,"crashS.wav",50
Sample,90785,0,"crashS.wav",50
Sample,90935,0,"crashS.wav",50
Sample,90935,0,"jingle.wav",30
Sample,91235,0,"jingle.wav",30
Sample,128435,0,"jingle.wav",30
Sample,129035,0,"jingle.wav",30
Sample,130235,0,"jingle.wav",30
Sample,130835,0,"jingle.wav",30
Sample,131435,0,"jingle.wav",30
Sample,132635,0,"jingle.wav",30
Sample,133235,0,"jingle.wav",30
Sample,133835,0,"jingle.wav",30
Sample,135035,0,"jingle.wav",30
Sample,135635,0,"jingle.wav",30
Sample,136235,0,"jingle.wav",30
Sample,137435,0,"jingle.wav",30
Sample,138035,0,"jingle.wav",30
Sample,138635,0,"jingle.wav",30
Sample,139835,0,"jingle.wav",30
Sample,140435,0,"jingle.wav",30
Sample,141035,0,"jingle.wav",30
Sample,142235,0,"jingle.wav",30
Sample,143285,0,"CrashL.wav",50

[TimingPoints]
35,300,4,2,1,15,1,0
9635,-100,4,2,1,30,0,0
29435,-100,4,2,1,15,0,0
48035,-100,4,2,1,30,0,0
64685,-100,4,2,1,30,0,1
74435,-100,4,2,1,30,0,0
81035,-100,4,2,1,15,0,0
81635,-100,4,2,1,30,0,0
91235,300,3,2,1,15,1,0
101435,-100,4,2,1,30,0,0
102035,300,4,2,1,30,1,0
111935,-100,4,2,1,30,0,1
121235,-100,4,2,1,30,0,0
127835,-100,4,2,1,15,0,0
128435,-100,4,2,1,30,0,0
148235,-100,4,2,1,15,0,0
148835,-100,4,2,1,30,0,0

[HitObjects]
109,192,35,5,0,0:0:0:30:jingle.wav
475,192,635,1,0,0:0:0:30:jingle.wav
182,192,935,1,0,0:0:0:30:jingle.wav
329,192,1085,1,0,0:0:0:30:hihat.wav
256,192,1385,1,0,0:0:0:30:hihat.wav
109,192,1685,1,0,0:0:0:30:hihat.wav
402,192,2135,128,0,2435:0:0:0:30:jingle.wav
36,192,2435,1,0,0:0:0:30:jingle.wav
475,192,2735,1,0,0:0:0:30:jingle.wav
109,192,3035,1,0,0:0:0:30:jingle.wav
256,192,3335,1,0,0:0:0:30:jingle.wav
402,192,3485,1,0,0:0:0:30:hihat.wav
182,192,3935,1,0,0:0:0:30:jingle.wav
329,192,4235,1,0,0:0:0:30:jingle.wav
36,192,4535,128,0,4835:0:0:0:30:jingle.wav
475,192,4835,1,0,0:0:0:50:kick.wav
109,192,5285,1,0,0:0:0:50:kick.wav
329,192,5435,1,0,0:0:0:50:snare.wav
402,192,5435,1,0,0:0:0:30:jingle.wav
256,192,5885,1,0,0:0:0:50:kick.wav
475,192,6185,1,0,0:0:0:50:kick.wav
329,192,6485,1,0,0:0:0:50:kick.wav
109,192,6635,1,0,0:0:0:50:snare.wav
182,192,6635,1,0,0:0:0:30:jingle.wav
36,192,7235,1,0,0:0:0:50:kick.wav
256,192,7685,1,0,0:0:0:50:kick.wav
329,192,7835,1,0,0:0:0:50:snare.wav
402,192,7835,1,0,0:0:0:30:jingle.wav
109,192,7985,1,0,0:0:0:50:kick.wav
182,192,8285,1,0,0:0:0:50:snare.wav
256,192,8285,1,0,0:0:0:30:hihat.wav
475,192,8585,128,0,9335:0:0:0:0:
36,192,9335,1,0,0:0:0:50:snare.wav
109,192,9335,1,0,0:0:0:0:
256,192,9635,1,0,0:0:0:50:kick.wav
329,192,9635,1,0,0:0:0:50:CrashL.wav
475,192,9935,1,0,0:0:0:70:clap.wav
182,192,10235,1,0,0:0:0:50:kick.wav
329,192,10385,1,0,0:0:0:50:kick.wav
36,192,10535,1,0,0:0:0:70:clap.wav
475,192,10685,1,0,0:0:0:50:kick.wav
182,192,10985,1,0,0:0:0:50:kick.wav
329,192,11135,1,0,0:0:0:70:clap.wav
109,192,11435,1,0,0:0:0:50:kick.wav
256,192,11585,1,0,0:0:0:50:kick.wav
402,192,11735,1,0,0:0:0:70:clap.wav
36,192,12035,1,0,0:0:0:50:kick.wav
475,192,12335,1,0,0:0:0:70:clap.wav
109,192,12635,1,0,0:0:0:50:kick.wav
329,192,12785,1,0,0:0:0:50:kick.wav
182,192,12935,1,0,0:0:0:70:clap.wav
402,192,13085,1,0,0:0:0:50:kick.wav
256,192,13385,1,0,0:0:0:50:kick.wav
475,192,13535,1,0,0:0:0:70:clap.wav
329,192,13835,1,0,0:0:0:50:kick.wav
182,192,13985,1,0,0:0:0:50:kick.wav
36,192,14135,1,0,0:0:0:70:clap.wav
402,192,14435,1,0,0:0:0:50:kick.wav
256,192,14735,1,0,0:0:0:70:clap.wav
36,192,15035,1,0,0:0:0:50:kick.wav
182,192,15185,1,0,0:0:0:50:kick.wav
329,192,15335,1,0,0:0:0:70:clap.wav
475,192,15485,1,0,0:0:0:50:kick.wav
109,192,15785,1,0,0:0:0:50:kick.wav
402,192,15935,1,0,0:0:0:70:clap.wav
256,192,16235,1,0,0:0:0:50:kick.wav
475,192,16385,1,0,0:0:0:50:kick.wav
36,192,16535,1,0,0:0:0:70:clap.wav
182,192,16835,1,0,0:0:0:50:kick.wav
402,192,17135,1,0,0:0:0:70:clap.wav
109,192,17435,1,0,0:0:0:50:kick.wav
329,192,17585,1,0,0:0:0:50:kick.wav
36,192,17735,1,0,0:0:0:70:clap.wav
475,192,17885,1,0,0:0:0:50:kick.wav
182,192,18185,1,0,0:0:0:50:kick.wav
402,192,18335,1,0,0:0:0:70:clap.wav
109,192,18635,1,0,0:0:0:50:kick.wav
182,192,18785,1,0,0:0:0:50:kick.wav
256,192,18935,1,0,0:0:0:70:clap.wav
329,192,19085,1,0,0:0:0:50:kick.wav
402,192,19235,1,0,0:0:0:50:kick.wav
475,192,19235,1,0,0:0:0:50:CrashL.wav
36,192,19535,1,0,0:0:0:70:clap.wav
182,192,19835,1,0,0:0:0:50:kick.wav
329,192,19985,1,0,0:0:0:50:kick.wav
475,192,20135,1,0,0:0:0:70:clap.wav
36,192,20285,1,0,0:0:0:50:kick.wav
182,192,20585,1,0,0:0:0:50:kick.wav
402,192,20735,1,0,0:0:0:70:clap.wav
109,192,21035,1,0,0:0:0:50:kick.wav
256,192,21185,1,0,0:0:0:50:kick.wav
402,192,21335,1,0,0:0:0:70:clap.wav
109,192,21635,1,0,0:0:0:50:kick.wav
329,192,21935,1,0,0:0:0:70:clap.wav
475,192,22235,1,0,0:0:0:50:kick.wav
182,192,22385,1,0,0:0:0:50:kick.wav
329,192,22535,1,0,0:0:0:70:clap.wav
36,192,22685,1,0,0:0:0:50:kick.wav
256,192,22985,1,0,0:0:0:50:kick.wav
402,192,23135,1,0,0:0:0:70:clap.wav
182,192,23435,1,0,0:0:0:50:kick.wav
329,192,23585,1,0,0:0:0:50:kick.wav
475,192,23735,1,0,0:0:0:70:clap.wav
109,192,24035,1,0,0:0:0:50:kick.wav
182,192,24185,1,0,0:0:0:50:snare.wav
256,192,24335,1,0,0:0:0:50:kick.wav
329,192,24485,1,0,0:0:0:50:kick.wav
402,192,24785,1,0,0:0:0:50:kick.wav
36,192,25085,1,0,0:0:0:50:kick.wav
109,192,25085,1,0,0:0:0:50:CrashL.wav
256,192,25385,1,0,0:0:0:50:kick.wav
329,192,25535,1,0,0:0:0:50:snare.wav
402,192,25685,1,0,0:0:0:50:kick.wav
182,192,25985,1,0,0:0:0:50:kick.wav
109,192,26285,1,0,0:0:0:50:kick.wav
402,192,26285,128,0,26735:0:0:0:50:CrashL.wav
256,192,26735,1,0,0:0:0:50:kick.wav
109,192,27035,128,0,27485:0:0:0:50:kick.wav
182,192,27485,1,0,0:0:0:50:kick.wav
475,192,27485,128,0,27785:0:0:0:50:CrashL.wav
36,192,27935,1,0,0:0:0:30:bell.wav
475,192,28235,1,0,0:0:0:30:bell.wav
36,192,28535,1,0,0:0:0:30:bell.wav
475,192,28835,1,0,0:0:0:30:bell.wav
36,192,29135,1,0,0:0:0:30:bell.wav
256,192,29435,128,0,30035:0:0:0:0:
36,192,30035,1,0,0:0:0:30:kick.wav
109,192,30035,1,0,0:0:0:30:crashL.wav
256,192,30635,1,0,0:0:0:30:snare.wav
109,192,31235,1,0,0:0:0:15:bell.wav
256,192,31835,1,0,0:0:0:30:snare.wav
402,192,32435,1,0,0:0:0:30:kick.wav
256,192,33035,1,0,0:0:0:30:snare.wav
402,192,33635,1,0,0:0:0:15:bell.wav
182,192,34235,1,0,0:0:0:30:snare.wav
329,192,34835,1,0,0:0:0:30:kick.wav
182,192,35435,1,0,0:0:0:30:snare.wav
36,192,36035,1,0,0:0:0:15:bell.wav
475,192,36635,1,0,0:0:0:30:snare.wav
36,192,37235,1,0,0:0:0:30:kick.wav
402,192,37835,1,0,0:0:0:30:snare.wav
109,192,38435,1,0,0:0:0:15:bell.wav
402,192,39035,1,0,0:0:0:15:bell.wav
109,192,39335,1,0,0:0:0:30:snare.wav
182,192,39335,1,0,0:0:0:15:bell.wav
256,192,39635,1,0,0:0:0:40:kick.wav
329,192,39635,1,0,0:0:0:40:crashL.wav
402,192,40235,1,0,0:0:0:40:snare.wav
475,192,40235,1,0,0:0:0:15:bell.wav
256,192,40835,1,0,0:0:0:15:bell.wav
109,192,41435,1,0,0:0:0:40:snare.wav
402,192,41435,1,0,0:0:0:15:bell.wav
182,192,42035,1,0,0:0:0:40:kick.wav
256,192,42635,1,0,0:0:0:40:snare.wav
329,192,42635,1,0,0:0:0:15:bell.wav
36,192,43235,1,0,0:0:0:15:bell.wav
402,192,43835,1,0,0:0:0:40:snare.wav
475,192,43835,1,0,0:0:0:15:bell.wav
109,192,44435,1,0,0:0:0:40:kick.wav
182,192,45035,1,0,0:0:0:40:snare.wav
256,192,45035,1,0,0:0:0:15:bell.wav
329,192,45635,1,0,0:0:0:15:bell.wav
402,192,46235,1,0,0:0:0:40:snare.wav
475,192,46235,1,0,0:0:0:15:bell.wav
182,192,46535,1,0,0:0:0:40:snare.wav
329,192,46535,1,0,0:0:0:15:bell.wav
36,192,46835,1,0,0:0:0:40:kick.wav
109,192,46835,1,0,0:0:0:40:crashL.wav
402,192,48035,1,0,0:0:0:50:snare.wav
475,192,48035,1,0,0:0:0:50:crashS.wav
36,192,48335,1,0,0:0:0:50:snare.wav
109,192,48335,1,0,0:0:0:50:crashS.wav
182,192,48635,1,0,0:0:0:50:snare.wav
256,192,48635,1,0,0:0:0:50:crashS.wav
329,192,48935,1,0,0:0:0:50:snare.wav
402,192,48935,1,0,0:0:0:50:crashS.wav
36,192,49235,1,0,0:0:0:50:kick.wav
475,192,49235,1,0,0:0:0:50:CrashL.wav
329,192,49535,1,0,0:0:0:50:snare.wav
182,192,49835,1,0,0:0:0:50:kick.wav
329,192,49985,1,0,0:0:0:50:kick.wav
475,192,50135,1,0,0:0:0:50:snare.wav
36,192,50285,128,0,50585:0:0:0:50:kick.wav
182,192,50585,1,0,0:0:0:50:kick.wav
329,192,50735,1,0,0:0:0:50:snare.wav
475,192,50885,128,0,51185:0:0:0:30:hihat.wav
182,192,51185,1,0,0:0:0:50:kick.wav
256,192,51335,1,0,0:0:0:50:snare.wav
329,192,51485,1,0,0:0:0:30:hihat.wav
36,192,51635,1,0,0:0:0:50:kick.wav
182,192,51935,1,0,0:0:0:50:snare.wav
329,192,52235,1,0,0:0:0:50:kick.wav
182,192,52385,1,0,0:0:0:50:kick.wav
36,192,52535,1,0,0:0:0:50:snare.wav
475,192,52685,128,0,52985:0:0:0:50:kick.wav
329,192,52985,1,0,0:0:0:50:kick.wav
182,192,53135,1,0,0:0:0:50:snare.wav
36,192,53285,128,0,53585:0:0:0:30:hihat.wav
182,192,53585,1,0,0:0:0:50:kick.wav
329,192,53735,1,0,0:0:0:50:snare.wav
475,192,53885,1,0,0:0:0:30:hihat.wav
36,192,54035,1,0,0:0:0:50:snare.wav
182,192,54035,1,0,0:0:0:50:CrashL.wav
182,192,54335,1,0,0:0:0:50:snare.wav
329,192,54635,1,0,0:0:0:50:snare.wav
329,192,54935,1,0,0:0:0:50:snare.wav
109,192,55235,1,0,0:0:0:50:snare.wav
109,192,55535,1,0,0:0:0:50:snare.wav
402,192,55835,1,0,0:0:0:50:snare.wav
402,192,56135,1,0,0:0:0:50:snare.wav
36,192,56435,1,0,0:0:0:50:snare.wav
36,192,56735,1,0,0:0:0:50:snare.wav
475,192,57035,128,0,57335:0:0:0:50:kick.wav
329,192,57335,128,0,57635:0:0:0:50:kick.wav
36,192,57635,1,0,0:0:0:50:kick.wav
182,192,57635,1,0,0:0:0:50:CrashL.wav
402,192,57935,1,0,0:0:0:50:kick.wav
109,192,58235,1,0,0:0:0:50:kick.wav
329,192,58535,1,0,0:0:0:50:kick.wav
182,192,58835,1,0,0:0:0:50:kick.wav
402,192,59135,1,0,0:0:0:50:kick.wav
109,192,59435,1,0,0:0:0:50:kick.wav
329,192,59735,1,0,0:0:0:50:kick.wav
36,192,60035,1,0,0:0:0:50:kick.wav
109,192,60035,1,0,0:0:0:50:CrashL.wav
256,192,60335,1,0,0:0:0:50:kick.wav
402,192,60635,1,0,0:0:0:50:kick.wav
475,192,60635,1,0,0:0:0:50:CrashL.wav
256,192,60935,1,0,0:0:0:50:kick.wav
36,192,61235,1,0,0:0:0:50:kick.wav
109,192,61235,1,0,0:0:0:50:CrashL.wav
256,192,61535,1,0,0:0:0:50:kick.wav
402,192,61835,1,0,0:0:0:50:kick.wav
475,192,61835,1,0,0:0:0:50:CrashL.wav
256,192,62135,1,0,0:0:0:50:kick.wav
109,192,62435,1,0,0:0:0:50:kick.wav
402,192,62435,128,0,62885:0:0:0:50:CrashL.wav
329,192,62885,128,0,63335:0:0:0:0:
256,192,63335,128,0,63785:0:0:0:0:
182,192,63785,128,0,64235:0:0:0:0:
475,192,64235,1,0,0:0:0:50:snare.wav
36,192,64385,1,0,0:0:0:50:snare.wav
256,192,64685,128,0,65135:0:0:0:50:kick.wav
329,192,64685,1,0,0:0:0:50:CrashL.wav
402,192,65135,1,0,0:0:0:50:snare.wav
36,192,65285,1,0,0:0:0:30:hihat.wav
475,192,65585,1,0,0:0:0:30:hihat.wav
329,192,65885,128,0,66185:0:0:0:30:hihat.wav
256,192,66335,1,0,0:0:0:50:snare.wav
182,192,66635,1,0,0:0:0:50:kick.wav
109,192,66935,1,0,0:0:0:50:snare.wav
402,192,67235,128,0,67535:0:0:0:50:kick.wav
329,192,67535,1,0,0:0:0:50:snare.wav
256,192,67685,1,0,0:0:0:30:hihat.wav
36,192,67985,1,0,0:0:0:30:hihat.wav
109,192,68135,1,0,0:0:0:50:snare.wav
182,192,68285,128,0,68735:0:0:0:30:hihat.wav
329,192,69035,1,0,0:0:0:50:kick.wav
182,192,69260,1,0,0:0:0:0:
329,192,69485,1,0,0:0:0:30:hihat.wav
36,192,69635,128,0,69935:0:0:0:50:kick.wav
182,192,69935,1,0,0:0:0:50:snare.wav
475,192,70085,1,0,0:0:0:30:hihat.wav
329,192,70385,128,0,70685:0:0:0:30:hihat.wav
109,192,70685,1,0,0:0:0:30:hihat.wav
182,192,70835,128,0,71135:0:0:0:50:kick.wav
256,192,71135,128,0,71435:0:0:0:50:snare.wav
329,192,71435,128,0,71735:0:0:0:50:kick.wav
402,192,71735,128,0,72035:0:0:0:50:snare.wav
475,192,72035,128,0,72485:0:0:0:50:kick.wav
256,192,72485,1,0,0:0:0:30:hihat.wav
36,192,72635,128,0,73535:0:0:0:50:kick.wav
182,192,73835,128,0,74135:0:0:0:50:kick.wav
475,192,74135,128,0,74435:0:0:0:50:snare.wav
256,192,74435,1,0,0:0:0:50:snare.wav
329,192,74435,1,0,0:0:0:50:CrashL.wav
182,192,74735,1,0,0:0:0:50:snare.wav
329,192,75035,1,0,0:0:0:50:snare.wav
182,192,75335,1,0,0:0:0:50:snare.wav
402,192,75635,1,0,0:0:0:50:snare.wav
109,192,75935,1,0,0:0:0:50:snare.wav
402,192,76235,1,0,0:0:0:50:snare.wav
109,192,76535,1,0,0:0:0:50:snare.wav
182,192,76835,1,0,0:0:0:50:snare.wav
329,192,76835,1,0,0:0:0:50:CrashL.wav
256,192,77135,1,0,0:0:0:0:
36,192,77285,128,0,77585:0:0:0:50:kick.wav
256,192,77735,1,0,0:0:0:0:
475,192,77885,128,0,78635:0:0:0:50:kick.wav
329,192,78635,1,0,0:0:0:50:snare.wav
182,192,78935,1,0,0:0:0:50:snare.wav
36,192,79235,1,0,0:0:0:50:kick.wav
475,192,79235,1,0,0:0:0:50:crashL.wav
256,192,79535,1,0,0:0:0:50:snare.wav
36,192,79685,1,0,0:0:0:50:kick.wav
475,192,79685,1,0,0:0:0:50:crashL.wav
256,192,79985,1,0,0:0:0:50:snare.wav
109,192,80135,1,0,0:0:0:50:kick.wav
402,192,80135,1,0,0:0:0:50:crashL.wav
256,192,80435,1,0,0:0:0:50:snare.wav
109,192,80585,1,0,0:0:0:50:kick.wav
402,192,80585,1,0,0:0:0:50:crashL.wav
182,192,81035,1,0,0:0:0:0:
329,192,81260,1,0,0:0:0:0:
182,192,81485,1,0,0:0:0:0:
36,192,81635,1,0,0:0:0:50:kick.wav
475,192,81635,1,0,0:0:0:50:CrashL.wav
329,192,81935,1,0,0:0:0:50:snare.wav
182,192,82160,1,0,0:0:0:50:snare.wav
402,192,82535,1,0,0:0:0:50:snare.wav
109,192,82685,1,0,0:0:0:50:kick.wav
109,192,82985,1,0,0:0:0:50:kick.wav
402,192,83135,1,0,0:0:0:50:snare.wav
182,192,83360,1,0,0:0:0:50:snare.wav
475,192,83585,1,0,0:0:0:50:kick.wav
256,192,83735,1,0,0:0:0:50:snare.wav
36,192,84035,1,0,0:0:0:50:kick.wav
182,192,84335,1,0,0:0:0:50:snare.wav
329,192,84560,1,0,0:0:0:50:snare.wav
402,192,84935,1,0,0:0:0:50:snare.wav
109,192,85085,1,0,0:0:0:50:kick.wav
109,192,85385,1,0,0:0:0:50:kick.wav
402,192,85535,1,0,0:0:0:50:snare.wav
256,192,85760,1,0,0:0:0:50:snare.wav
182,192,85985,1,0,0:0:0:50:kick.wav
329,192,86135,1,0,0:0:0:50:snare.wav
36,192,86435,1,0,0:0:0:50:kick.wav
475,192,86435,1,0,0:0:0:50:CrashL.wav
182,192,86735,1,0,0:0:0:50:snare.wav
329,192,86960,1,0,0:0:0:50:snare.wav
402,192,87335,1,0,0:0:0:50:snare.wav
109,192,87485,1,0,0:0:0:50:kick.wav
109,192,87785,1,0,0:0:0:50:kick.wav
402,192,87935,1,0,0:0:0:50:snare.wav
256,192,88160,1,0,0:0:0:50:snare.wav
182,192,88385,1,0,0:0:0:50:kick.wav
329,192,88535,1,0,0:0:0:50:snare.wav
475,192,88835,1,0,0:0:0:50:kick.wav
36,192,89135,1,0,0:0:0:50:snare.wav
256,192,89360,1,0,0:0:0:50:snare.wav
109,192,89735,1,0,0:0:0:50:snare.wav
402,192,89885,1,0,0:0:0:50:kick.wav
402,192,90185,1,0,0:0:0:50:kick.wav
109,192,90335,1,0,0:0:0:50:snare.wav
329,192,90560,1,0,0:0:0:50:snare.wav
182,192,90785,1,0,0:0:0:50:kick.wav
329,192,90935,1,0,0:0:0:50:snare.wav
36,192,91235,1,0,0:0:0:50:snare.wav
475,192,91235,1,0,0:0:0:50:CrashL.wav
109,192,91535,1,0,0:0:0:0:
182,192,91835,1,0,0:0:0:0:
475,192,92135,1,0,0:0:0:0:
402,192,92435,1,0,0:0:0:0:
329,192,92735,1,0,0:0:0:0:
36,192,93035,1,0,0:0:0:0:
256,192,93335,1,0,0:0:0:0:
182,192,93635,1,0,0:0:0:0:
329,192,93785,1,0,0:0:0:0:
475,192,93935,128,0,94385:0:0:0:0:
36,192,94535,128,0,94835:0:0:0:0:
329,192,94835,128,0,95135:0:0:0:0:
182,192,95135,128,0,95435:0:0:0:0:
329,192,95435,128,0,95735:0:0:0:0:
36,192,95735,128,0,96035:0:0:0:0:
475,192,96035,128,0,96335:0:0:0:0:
182,192,96335,128,0,96635:0:0:0:0:
329,192,96635,128,0,97085:0:0:0:0:
36,192,97235,128,0,97535:0:0:0:0:
475,192,97535,128,0,98135:0:0:0:0:
256,192,98435,1,0,0:0:0:50:kick.wav
182,192,99035,1,0,0:0:0:50:kick.wav
402,192,99335,1,0,0:0:0:50:snare.wav
475,192,99335,1,0,0:0:0:0:
36,192,99785,1,0,0:0:0:50:kick.wav
256,192,100085,1,0,0:0:0:50:kick.wav
475,192,100235,1,0,0:0:0:50:kick.wav
256,192,100835,1,0,0:0:0:50:kick.wav
36,192,101135,1,0,0:0:0:50:snare.wav
109,192,101135,1,0,0:0:0:0:
402,192,101435,1,0,0:0:0:50:snare.wav
329,192,101585,1,0,0:0:0:50:snare.wav
256,192,101735,1,0,0:0:0:50:snare.wav
182,192,101885,1,0,0:0:0:50:snare.wav
36,192,102035,1,0,0:0:0:50:kick.wav
475,192,102035,1,0,0:0:0:50:CrashL.wav
329,192,102335,1,0,0:0:0:50:kick.wav
182,192,102635,1,0,0:0:0:50:kick.wav
402,192,102935,1,0,0:0:0:50:kick.wav
109,192,103235,1,0,0:0:0:50:kick.wav
329,192,103535,1,0,0:0:0:50:kick.wav
182,192,103835,1,0,0:0:0:50:kick.wav
475,192,104135,1,0,0:0:0:50:kick.wav
182,192,104435,1,0,0:0:0:50:kick.wav
329,192,104435,1,0,0:0:0:50:CrashL.wav
36,192,104735,1,0,0:0:0:50:kick.wav
182,192,105035,1,0,0:0:0:50:kick.wav
329,192,105035,1,0,0:0:0:50:CrashL.wav
475,192,105335,1,0,0:0:0:50:kick.wav
182,192,105635,1,0,0:0:0:50:kick.wav
329,192,105635,1,0,0:0:0:50:CrashL.wav
36,192,105935,1,0,0:0:0:50:kick.wav
182,192,106235,1,0,0:0:0:50:kick.wav
329,192,106235,1,0,0:0:0:50:CrashL.wav
475,192,106535,1,0,0:0:0:50:kick.wav
109,192,106835,1,0,0:0:0:50:kick.wav
182,192,106835,1,0,0:0:0:50:CrashL.wav
256,192,107135,1,0,0:0:0:50:kick.wav
329,192,107435,1,0,0:0:0:50:kick.wav
402,192,107435,1,0,0:0:0:50:CrashL.wav
256,192,107735,1,0,0:0:0:50:kick.wav
109,192,108035,1,0,0:0:0:50:kick.wav
182,192,108035,1,0,0:0:0:50:CrashL.wav
256,192,108335,1,0,0:0:0:50:kick.wav
329,192,108635,1,0,0:0:0:50:kick.wav
402,192,108635,1,0,0:0:0:50:CrashL.wav
256,192,108935,1,0,0:0:0:50:kick.wav
109,192,109235,1,0,0:0:0:50:kick.wav
402,192,109235,128,0,109685:0:0:0:50:CrashL.wav
329,192,109685,128,0,110135:0:0:0:0:
256,192,110135,128,0,110585:0:0:0:0:
182,192,110585,128,0,111035:0:0:0:0:
109,192,111035,1,0,0:0:0:50:snare.wav
402,192,111185,1,0,0:0:0:50:snare.wav
256,192,111485,128,0,111935:0:0:0:50:snare.wav
36,192,111935,1,0,0:0:0:50:snare.wav
109,192,111935,1,0,0:0:0:50:CrashL.wav
329,192,112085,1,0,0:0:0:30:hihat.wav
475,192,112385,1,0,0:0:0:30:hihat.wav
36,192,112685,128,0,112985:0:0:0:30:hihat.wav
475,192,113135,1,0,0:0:0:50:snare.wav
329,192,113435,1,0,0:0:0:50:kick.wav
182,192,113735,1,0,0:0:0:50:snare.wav
36,192,114035,128,0,114335:0:0:0:50:kick.wav
475,192,114335,1,0,0:0:0:50:snare.wav
182,192,114485,1,0,0:0:0:30:hihat.wav
329,192,114785,1,0,0:0:0:30:hihat.wav
402,192,114935,1,0,0:0:0:50:snare.wav
475,192,115085,128,0,115535:0:0:0:30:hihat.wav
182,192,115835,1,0,0:0:0:50:kick.wav
329,192,116060,1,0,0:0:0:0:
475,192,116285,1,0,0:0:0:30:hihat.wav
36,192,116435,128,0,116735:0:0:0:50:kick.wav
256,192,116735,1,0,0:0:0:50:snare.wav
402,192,116885,1,0,0:0:0:30:hihat.wav
329,192,117185,128,0,117485:0:0:0:30:hihat.wav
109,192,117485,1,0,0:0:0:30:hihat.wav
182,192,117635,128,0,117935:0:0:0:50:kick.wav
256,192,117935,128,0,118235:0:0:0:50:snare.wav
329,192,118235,128,0,118535:0:0:0:50:kick.wav
402,192,118535,128,0,118835:0:0:0:50:snare.wav
475,192,118835,128,0,119285:0:0:0:50:kick.wav
256,192,119285,1,0,0:0:0:30:hihat.wav
36,192,119435,128,0,120335:0:0:0:50:kick.wav
182,192,120635,128,0,120935:0:0:0:50:kick.wav
475,192,120935,128,0,121235:0:0:0:50:snare.wav
256,192,121235,1,0,0:0:0:50:snare.wav
329,192,121235,1,0,0:0:0:50:CrashL.wav
109,192,121535,1,0,0:0:0:50:snare.wav
402,192,121835,1,0,0:0:0:50:snare.wav
109,192,122135,1,0,0:0:0:50:snare.wav
329,192,122435,1,0,0:0:0:50:snare.wav
182,192,122735,1,0,0:0:0:50:snare.wav
329,192,123035,1,0,0:0:0:50:snare.wav
182,192,123335,1,0,0:0:0:50:snare.wav
402,192,123635,1,0,0:0:0:50:snare.wav
475,192,123635,1,0,0:0:0:50:CrashL.wav
256,192,123935,1,0,0:0:0:0:
36,192,124085,128,0,124385:0:0:0:50:kick.wav
256,192,124535,1,0,0:0:0:0:
475,192,124685,128,0,125435:0:0:0:50:kick.wav
182,192,125435,1,0,0:0:0:50:snare.wav
329,192,125735,1,0,0:0:0:50:snare.wav
36,192,126035,1,0,0:0:0:50:kick.wav
109,192,126035,1,0,0:0:0:50:CrashL.wav
256,192,126335,1,0,0:0:0:50:snare.wav
36,192,126485,1,0,0:0:0:50:kick.wav
109,192,126485,1,0,0:0:0:50:CrashL.wav
256,192,126785,1,0,0:0:0:50:snare.wav
402,192,126935,1,0,0:0:0:50:kick.wav
475,192,126935,1,0,0:0:0:50:CrashL.wav
256,192,127235,1,0,0:0:0:50:snare.wav
402,192,127385,1,0,0:0:0:50:kick.wav
475,192,127385,1,0,0:0:0:50:CrashL.wav
182,192,127835,1,0,0:0:0:0:
329,192,128060,1,0,0:0:0:0:
475,192,128285,1,0,0:0:0:0:
36,192,128435,1,0,0:0:0:50:kick.wav
109,192,128435,1,0,0:0:0:50:CrashL.wav
475,192,128735,1,0,0:0:0:70:clap.wav
329,192,129035,1,0,0:0:0:50:kick.wav
182,192,129185,1,0,0:0:0:50:kick.wav
475,192,129335,1,0,0:0:0:70:clap.wav
36,192,129485,1,0,0:0:0:50:kick.wav
182,192,129785,1,0,0:0:0:50:kick.wav
329,192,129935,1,0,0:0:0:70:clap.wav
109,192,130235,1,0,0:0:0:50:kick.wav
256,192,130385,1,0,0:0:0:50:kick.wav
402,192,130535,1,0,0:0:0:70:clap.wav
36,192,130835,1,0,0:0:0:50:kick.wav
475,192,131135,1,0,0:0:0:70:clap.wav
109,192,131435,1,0,0:0:0:50:kick.wav
329,192,131585,1,0,0:0:0:50:kick.wav
256,192,131735,1,0,0:0:0:70:clap.wav
182,192,131885,1,0,0:0:0:50:kick.wav
402,192,132185,1,0,0:0:0:50:kick.wav
36,192,132335,1,0,0:0:0:70:clap.wav
182,192,132635,1,0,0:0:0:50:kick.wav
329,192,132785,1,0,0:0:0:50:kick.wav
475,192,132935,1,0,0:0:0:70:clap.wav
109,192,133235,1,0,0:0:0:50:kick.wav
256,192,133535,1,0,0:0:0:70:clap.wav
36,192,133835,1,0,0:0:0:50:kick.wav
329,192,133985,1,0,0:0:0:50:kick.wav
182,192,134135,1,0,0:0:0:70:clap.wav
475,192,134285,1,0,0:0:0:50:kick.wav
402,192,134585,1,0,0:0:0:50:kick.wav
109,192,134735,1,0,0:0:0:70:clap.wav
182,192,135035,1,0,0:0:0:50:kick.wav
256,192,135185,1,0,0:0:0:50:kick.wav
329,192,135335,1,0,0:0:0:70:clap.wav
475,192,135635,1,0,0:0:0:50:kick.wav
36,192,135935,1,0,0:0:0:70:clap.wav
182,192,136235,1,0,0:0:0:50:kick.wav
329,192,136385,1,0,0:0:0:50:kick.wav
109,192,136535,1,0,0:0:0:70:clap.wav
402,192,136685,1,0,0:0:0:50:kick.wav
36,192,136985,1,0,0:0:0:50:kick.wav
475,192,137135,1,0,0:0:0:70:clap.wav
109,192,137435,1,0,0:0:0:50:kick.wav
182,192,137585,1,0,0:0:0:50:kick.wav
256,192,137735,1,0,0:0:0:70:clap.wav
329,192,137885,1,0,0:0:0:50:kick.wav
36,192,138035,1,0,0:0:0:50:kick.wav
475,192,138035,1,0,0:0:0:50:CrashL.wav
109,192,138335,1,0,0:0:0:70:clap.wav
402,192,138635,1,0,0:0:0:50:kick.wav
182,192,138785,1,0,0:0:0:50:kick.wav
256,192,138935,1,0,0:0:0:70:clap.wav
475,192,139085,1,0,0:0:0:50:kick.wav
329,192,139385,1,0,0:0:0:50:kick.wav
182,192,139535,1,0,0:0:0:70:clap.wav
36,192,139835,1,0,0:0:0:50:kick.wav
256,192,139985,1,0,0:0:0:50:kick.wav
475,192,140135,1,0,0:0:0:70:clap.wav
109,192,140435,1,0,0:0:0:50:kick.wav
402,192,140735,1,0,0:0:0:70:clap.wav
182,192,141035,1,0,0:0:0:50:kick.wav
36,192,141185,1,0,0:0:0:50:kick.wav
329,192,141335,1,0,0:0:0:70:clap.wav
475,192,141485,1,0,0:0:0:50:kick.wav
256,192,141785,1,0,0:0:0:50:kick.wav
36,192,141935,1,0,0:0:0:70:clap.wav
182,192,142235,1,0,0:0:0:50:kick.wav
402,192,142385,1,0,0:0:0:50:kick.wav
109,192,142535,1,0,0:0:0:70:clap.wav
182,192,142835,1,0,0:0:0:50:kick.wav
256,192,142985,1,0,0:0:0:50:snare.wav
329,192,143135,1,0,0:0:0:50:kick.wav
402,192,143285,1,0,0:0:0:50:kick.wav
36,192,143585,1,0,0:0:0:50:kick.wav
402,192,143885,1,0,0:0:0:50:kick.wav
475,192,143885,1,0,0:0:0:50:CrashL.wav
109,192,144185,1,0,0:0:0:50:kick.wav
182,192,144335,1,0,0:0:0:50:snare.wav
256,192,144485,1,0,0:0:0:50:kick.wav
182,192,144785,1,0,0:0:0:50:kick.wav
109,192,145085,1,0,0:0:0:50:kick.wav
402,192,145085,128,0,145535:0:0:0:50:CrashL.wav
256,192,145535,1,0,0:0:0:50:kick.wav
109,192,145835,128,0,146285:0:0:0:50:kick.wav
182,192,146285,1,0,0:0:0:50:kick.wav
475,192,146285,128,0,146585:0:0:0:50:CrashL.wav
36,192,146735,1,0,0:0:0:30:bell.wav
475,192,147035,1,0,0:0:0:30:bell.wav
36,192,147335,1,0,0:0:0:30:bell.wav
475,192,147635,1,0,0:0:0:30:bell.wav
36,192,147935,1,0,0:0:0:30:bell.wav
182,192,148235,128,0,148835:0:0:0:0:
475,192,148835,1,0,0:0:0:50:snare.wav
36,192,149135,1,0,0:0:0:50:kick.wav
109,192,149135,1,0,0:0:0:50:CrashL.wav
36,192,149585,1,0,0:0:0:50:kick.wav
109,192,149585,1,0,0:0:0:50:CrashL.wav
402,192,149885,1,0,0:0:0:50:kick.wav
475,192,149885,1,0,0:0:0:50:CrashL.wav
