osu file format v14

[General]
AudioFilename: audio.mp3
AudioLeadIn: 0
PreviewTime: 70242
Countdown: 0
SampleSet: Soft
StackLeniency: 0.4
Mode: 0
LetterboxInBreaks: 0
WidescreenStoryboard: 0

[Editor]
Bookmarks: 18039,27544,38237,72544,89326
DistanceSpacing: 1
BeatDivisor: 2
GridSize: 16
TimelineZoom: 3.399999

[Metadata]
Title:Hiyokko Santa to Yuki no Machi (Dear A Remix)
TitleUnicode:ひよっ子サンタと雪の街(Dear A Remix)
Artist:AAAA
ArtistUnicode:ああああ
Creator:Azzedd
Version:Extra
Source:
Tags:8bit electronic bitpop chiptune vgm 梅干茶漬け Umeboshi Chazuke ZinedineZidane
BeatmapID:1840374
BeatmapSetID:880070

[Difficulty]
HPDrainRate:5.5
CircleSize:4
OverallDifficulty:8.2
ApproachRate:9.3
SliderMultiplier:1.8
SliderTickRate:1

[Events]
//Background and Video events
0,0,"Webp.net-resizeimage.jpg",0,0
//Break Periods
//Storyboard Layer 0 (Background)
//Storyboard Layer 1 (Fail)
//Storyboard Layer 2 (Pass)
//Storyboard Layer 3 (Foreground)
//Storyboard Sound Samples

[TimingPoints]
1406,297.029702970297,4,2,1,55,1,0
1406,-90.9090909090909,4,2,1,55,0,0
2148,-80,4,2,1,55,0,0
2445,-90.9090909090909,4,2,1,55,0,0
2742,-181.818181818181,4,2,1,55,0,0
2816,-90.9090909090909,4,2,1,55,0,0
11950,-181.818181818182,4,2,1,55,0,0
12099,-90.9090909090909,4,2,1,55,0,0
13287,-90.9090909090909,4,2,2,75,0,0
13732,-90.9090909090909,4,2,6,75,0,0
14326,-90.9090909090909,4,2,1,75,0,0
14623,-90.9090909090909,4,2,11,75,0,0
14698,-90.9090909090909,4,2,10,75,0,0
14772,-90.9090909090909,4,2,12,75,0,0
14920,-90.9090909090909,4,2,3,75,0,0
15663,-90.9090909090909,4,2,4,75,0,0
15811,-90.9090909090909,4,2,12,75,0,0
15960,-90.9090909090909,4,2,11,75,0,0
16108,-90.9090909090909,4,2,2,75,0,0
16554,-90.9090909090909,4,2,10,75,0,0
16703,-90.9090909090909,4,2,3,75,0,0
17297,-90.9090909090909,4,2,1,55,0,0
17445,-125,4,2,1,55,0,0
18039,-133.333333333333,4,2,1,55,0,0
18336,-133.333333333333,4,2,5,55,0,0
27544,-117.647058823529,4,2,1,65,0,0
32297,-117.647058823529,4,2,2,75,0,0
32742,-86.9565217391302,4,2,1,75,0,0
33336,-86.9565217391302,4,2,3,75,0,0
33633,-86.9565217391302,4,2,11,75,0,0
33782,-86.9565217391302,4,2,10,75,0,0
33930,-66.6666666666667,4,2,4,75,0,0
34227,-66.6666666666667,4,2,6,75,0,0
34524,-80,4,2,1,75,0,0
35267,-80,4,2,12,75,0,0
35415,-80,4,2,11,75,0,0
35564,-80,4,2,10,75,0,0
35712,-100,4,2,2,75,0,0
37049,-181.818181818181,4,2,1,65,0,0
38237,-111.111111111111,4,2,1,65,0,0
41430,-111.111111111111,4,2,1,5,0,0
41505,-111.111111111111,4,2,1,65,0,0
46554,-111.111111111111,4,2,1,30,0,0
46851,-111.111111111111,4,2,1,40,0,0
47148,-111.111111111111,4,2,1,50,0,0
47222,-111.111111111111,4,2,1,51,0,0
47297,-111.111111111111,4,2,1,52,0,0
47371,-111.111111111111,4,2,1,53,0,0
47445,-111.111111111111,4,2,1,54,0,0
47519,-111.111111111111,4,2,1,55,0,0
47594,-111.111111111111,4,2,1,56,0,0
47668,-111.111111111111,4,2,1,57,0,0
47742,-95.2380952380952,4,2,2,65,0,0
48039,-95.2380952380952,4,2,1,65,0,0
51604,-86.9565217391304,4,2,1,65,0,0
51901,-80,4,2,1,65,0,0
52198,-95.2380952380952,4,2,1,65,0,0
53980,-105.263157894737,4,2,1,65,0,0
54277,-117.647058823529,4,2,1,65,0,0
54574,-95.2380952380952,4,2,1,65,0,0
54871,-95.2380952380952,4,2,2,65,0,0
55465,-83.3333333333333,4,2,1,65,0,0
55910,-74.0740740740741,4,2,3,65,0,0
56356,-95.2380952380952,4,2,1,65,0,0
56653,-83.3333333333333,4,2,1,65,0,0
56950,-74.0740740740741,4,2,4,65,0,0
57247,-83.3333333333333,4,2,1,65,0,0
61703,-83.3333333333333,4,2,6,65,0,0
62000,-83.3333333333333,4,2,4,65,0,0
62297,-83.3333333333333,4,2,1,65,0,0
64079,-83.3333333333333,4,2,3,65,0,0
64376,-100,4,2,1,55,0,0
65267,-100,4,2,4,65,0,0
65564,-74.0740740740741,4,2,1,75,0,0
67940,-74.0740740740741,4,2,6,75,0,0
69128,-74.0740740740741,4,2,1,75,0,0
69425,-74.0740740740741,4,2,2,75,0,0
70019,-74.0740740740741,4,2,1,75,0,0
70316,-74.0740740740741,4,2,4,55,0,0
70465,-74.0740740740741,4,2,12,55,0,0
70613,-133.333333333333,4,2,12,55,0,0
70762,-133.333333333333,4,2,2,55,0,0
70910,-133.333333333333,4,2,11,55,0,0
71207,-133.333333333333,4,2,3,55,0,0
71356,-133.333333333333,4,2,10,55,0,0
71653,-133.333333333333,4,2,6,55,0,0
71950,-133.333333333333,4,2,1,65,0,0
72544,-64.5161290322581,4,2,1,75,0,1
82198,-64.5161290322581,4,2,2,75,0,1
82346,-64.5161290322581,4,2,1,75,0,1
83089,-64.5161290322581,4,2,4,75,0,1
83237,-80,4,2,1,75,0,1
83311,-64.5161290322581,4,2,1,75,0,1
83386,-64.5161290322581,4,2,2,75,0,1
83534,-64.5161290322581,4,2,1,75,0,1
84277,-64.5161290322581,4,2,6,75,0,1
84574,-64.5161290322581,4,2,2,75,0,1
85019,-64.5161290322581,4,2,6,75,0,1
85613,-64.5161290322581,4,2,1,75,0,1
85910,-64.5161290322581,4,2,10,75,0,1
85985,-64.5161290322581,4,2,11,75,0,1
86059,-64.5161290322581,4,2,12,75,0,1
86207,-64.5161290322581,4,2,3,75,0,1
86356,-64.5161290322581,4,2,1,75,0,1
86950,-83.3333333333333,4,2,1,75,0,1
87099,-83.3333333333333,4,2,12,75,0,1
87247,-83.3333333333333,4,2,11,75,0,1
87396,-83.3333333333333,4,2,2,75,0,1
87841,-83.3333333333333,4,2,10,75,0,1
87990,-83.3333333333333,4,2,3,75,0,1
88732,-111.111111111111,4,2,1,75,0,1
89326,-133.333333333333,4,2,1,40,0,0
89623,-133.333333333333,4,2,7,40,0,0
91405,-133.333333333333,4,2,7,30,0,0
96455,-181.818181818182,4,2,7,30,0,0
97792,-178.571428571429,4,2,7,20,0,0
98683,-303.030303030303,4,2,7,20,0,0
100910,-294.117647058824,4,2,7,5,0,0

[Colours]
Combo1 : 113,160,240
Combo2 : 136,210,221
Combo3 : 231,202,76
Combo4 : 52,145,147

[HitObjects]
0,24,1406,6,0,L|69:116,1,99.0000030212403,2|0,0:0|0:0,0:0:0:0:
227,32,1703,1,2,0:0:0:0:
227,32,1851,2,0,B|216:-5|216:-5|174:95,1,148.50000453186,2|0,0:0|0:0,0:0:0:0:
182,152,2148,2,0,P|126:119|43:170,1,168.75,2|0,0:0|0:0,0:0:0:0:
118,200,2445,1,2,0:0:0:0:
118,211,2519,1,2,0:0:0:0:
118,220,2593,1,2,0:0:0:0:
120,230,2667,1,2,0:0:0:0:
120,240,2742,2,0,L|123:284,1,24.7500007553101,2|0,0:0|0:0,0:0:0:0:
151,352,2891,6,0,P|203:355|244:330,1,99.0000030212403,2|0,0:0|0:0,0:0:0:0:
320,384,3113,1,0,0:0:0:0:
320,384,3188,2,0,P|337:333|323:287,1,99.0000030212403,2|0,0:0|0:0,0:0:0:0:
394,228,3410,1,0,0:0:0:0:
394,228,3485,2,0,P|349:198|302:199,1,99.0000030212403,2|0,0:0|0:0,0:0:0:0:
196,14,3782,6,0,P|221:60|216:108,1,99.0000030212403,2|0,0:0|0:0,0:0:0:0:
317,108,4079,1,2,0:0:0:0:
317,108,4227,2,0,B|367:46|380:109|450:38,1,148.50000453186,2|0,0:0|0:0,0:0:0:0:
465,26,4524,1,2,0:0:0:0:
374,0,4673,1,2,0:0:0:0:
379,157,4821,2,0,B|434:158|483:120|483:120|434:206|485:303,1,297.000009063721,2|0,0:0|0:0,0:0:0:0:
512,384,5415,5,2,0:0:0:0:
512,384,5490,1,0,0:0:0:0:
512,384,5564,2,0,P|463:371|405:383,1,99.0000030212403,2|0,0:0|0:0,0:0:0:0:
380,382,5787,2,0,P|374:340|401:282,1,99.0000030212403,2|0,0:0|0:0,0:0:0:0:
417,270,6009,1,2,0:0:0:0:
331,184,6158,6,0,P|285:212|260:257,1,99.0000030212403,2|0,0:0|0:0,0:0:0:0:
229,345,6455,1,2,0:0:0:0:
229,345,6604,2,0,L|87:272,1,148.50000453186,2|0,0:0|0:0,0:0:0:0:
58,252,6901,2,0,P|104:211|122:127,1,148.50000453186,2|0,0:0|0:0,0:0:0:0:
115,104,7198,1,2,0:0:0:0:
294,105,7346,5,2,0:0:0:0:
275,88,7420,1,2,0:0:0:0:
253,77,7494,1,2,0:0:0:0:
229,72,7568,1,2,0:0:0:0:
204,74,7643,1,2,0:0:0:0:
222,90,7717,1,2,0:0:0:0:
244,101,7791,1,2,0:0:0:0:
268,106,7865,1,2,0:0:0:0:
294,105,7940,6,0,P|346:85|410:90,1,99.0000030212403,2|0,0:0|0:0,0:0:0:0:
480,127,8237,1,2,0:0:0:0:
363,193,8386,1,0,0:0:0:0:
512,294,8534,6,0,B|414:261|437:352|315:315,1,198.000006042481,2|0,0:0|0:0,0:0:0:0:
363,193,8980,1,2,0:0:0:0:
363,193,9128,1,2,0:0:0:0:
426,281,9277,2,0,P|371:303|316:289,1,99.0000030212403,2|0,0:0|0:0,0:0:0:0:
234,242,9574,2,0,B|215:179|235:130|235:130|210:173|160:189,1,198.000006042481,2|0,0:0|0:0,0:0:0:0:
80,87,10019,1,2,0:0:0:0:
125,13,10316,5,2,0:0:0:0:
160,106,10465,1,2,0:0:0:0:
0,114,10613,1,2,0:0:0:0:
25,19,10762,1,2,0:0:0:0:
84,170,10910,6,0,B|105:211|105:211|91:271,1,99.0000030212403,2|0,0:0|0:0,0:0:0:0:
7,360,11207,1,2,0:0:0:0:
7,360,11356,2,0,P|46:313|153:338,1,148.50000453186,2|0,0:0|0:0,0:0:0:0:
195,364,11653,1,2,0:0:0:0:
204,367,11727,1,2,0:0:0:0:
213,369,11801,1,2,0:0:0:0:
223,371,11875,1,2,0:0:0:0:
233,372,11950,6,0,L|263:368,1,24.7500007553101,2|0,0:0|0:0,0:0:0:0:
328,332,12099,2,0,P|384:319|427:351,1,99.0000030212403,2|0,0:0|0:0,0:0:0:0:
472,177,12396,6,0,P|468:236|502:283,1,99.0000030212403,2|0,0:0|0:0,0:0:0:0:
444,98,12618,1,0,0:0:0:0:
444,98,12693,2,0,P|399:136|390:194,1,99.0000030212403,2|0,0:0|3:0,0:0:0:0:
509,31,12915,1,0,0:0:0:0:
484,14,12990,2,0,P|424:7|375:33,1,99.0000030212403,14|0,0:0|0:0,0:0:0:0:
283,69,13287,6,0,B|201:49|241:136|109:104,1,148.50000453186,14|0,0:0|0:0,0:0:0:0:
109,106,13584,1,2,3:2:0:0:
372,114,13732,1,14,0:0:0:0:
391,136,13806,1,2,0:0:0:0:
403,163,13880,1,2,0:0:0:0:
407,192,13954,1,2,0:0:0:0:
402,222,14029,6,0,P|391:245|375:272,1,49.5000015106202,2|0,3:2|3:0,0:0:0:0:
235,356,14178,1,0,3:0:0:0:
235,356,14326,2,0,L|145:317,1,99.0000030212403,14|0,0:3|0:0,0:0:0:0:
260,195,14623,1,4,0:3:0:0:
260,195,14698,1,4,0:3:0:0:
260,195,14772,5,4,0:3:0:0:
317,318,14920,1,4,3:2:0:0:
259,162,15069,1,0,0:0:0:0:
88,241,15217,1,8,0:0:0:0:
88,241,15292,1,8,0:0:0:0:
88,241,15366,2,0,L|34:218,1,49.5000015106202,10|8,0:0|0:0,0:0:0:0:
30,104,15514,2,0,L|75:84,1,49.5000015106202,10|0,0:0|0:0,0:0:0:0:
189,54,15663,5,4,3:2:0:0:
232,174,15811,1,4,0:3:0:0:
192,296,15960,1,6,0:3:0:0:
367,193,16108,2,0,B|244:189|244:189|301:276,1,198.000006042481,6|8,3:2|0:0,0:0:0:0:
360,342,16554,1,6,0:3:0:0:
360,342,16703,2,0,B|392:384|392:384|443:283,1,148.50000453186,6|0,3:2|0:0,0:0:0:0:
458,225,17000,2,0,L|439:200,4,24.7500007553101,2|0|0|0|0,0:0|0:0|0:0|0:0|0:0,0:0:0:0:
458,43,17297,5,2,0:0:0:0:
458,43,17371,1,0,0:0:0:0:
458,43,17445,2,0,P|413:32|384:39,1,72,10|0,0:0|0:0,0:0:0:0:
364,49,17668,1,2,0:0:0:0:
364,49,17742,2,0,P|332:65|310:94,1,72,12|2,0:0|0:0,0:0:0:0:
283,207,18039,6,0,L|207:186,1,67.5000025749208,6|2,0:1|0:0,0:0:0:0:
118,248,18336,2,0,L|137:324,1,67.5000025749208,10|0,0:0|0:0,0:0:0:0:
236,370,18633,2,0,L|292:314,1,67.5000025749208,2|0,0:0|3:0,0:0:0:0:
356,261,18930,1,8,0:0:0:0:
211,274,19079,1,2,0:0:0:0:
211,274,19153,1,0,0:0:0:0:
211,274,19227,1,0,3:0:0:0:
125,160,19376,5,2,0:0:0:0:
125,160,19524,2,0,L|80:98,1,67.5000025749208,10|0,0:0|0:0,0:0:0:0:
229,143,19821,2,0,L|241:67,1,67.5000025749208,2|0,0:0|3:0,0:0:0:0:
314,204,20118,2,0,L|376:159,1,67.5000025749208,10|2,0:0|0:0,0:0:0:0:
478,115,20415,6,0,L|518:186,1,67.5000025749208,0|2,3:0|0:0,0:0:0:0:
453,259,20712,2,0,L|431:337,1,67.5000025749208,10|0,0:0|0:0,0:0:0:0:
333,343,21009,2,0,L|262:383,1,67.5000025749208,2|0,0:0|3:0,0:0:0:0:
188,317,21306,1,10,0:0:0:0:
185,223,21455,1,2,0:0:0:0:
185,223,21529,1,0,0:0:0:0:
185,223,21604,1,0,3:0:0:0:
237,148,21752,5,2,0:0:0:0:
237,148,21901,2,0,L|304:179,1,67.5000025749208,10|0,0:0|0:0,0:0:0:0:
86,196,22198,2,0,L|25:238,1,67.5000025749208,2|0,0:0|3:0,0:0:0:0:
132,67,22495,2,0,L|125:-6,1,67.5000025749208,10|2,0:0|0:0,0:0:0:0:
237,133,22792,6,0,L|308:151,1,67.5000025749208,0|2,3:0|0:0,0:0:0:0:
97,206,23089,2,0,L|45:258,1,67.5000025749208,10|0,0:0|0:0,0:0:0:0:
120,71,23386,2,0,L|100:0,1,67.5000025749208,2|0,0:0|3:0,0:0:0:0:
159,146,23683,1,10,0:0:0:0:
214,50,23831,1,2,0:0:0:0:
214,50,23906,1,0,0:0:0:0:
214,50,23980,1,0,3:0:0:0:
322,48,24128,5,2,0:0:0:0:
322,48,24277,2,0,L|393:66,1,67.5000025749208,10|0,0:0|0:0,0:0:0:0:
489,142,24574,2,0,L|417:160,1,67.5000025749208,2|0,0:0|3:0,0:0:0:0:
322,236,24871,2,0,L|393:254,1,67.5000025749208,10|0,0:0|0:0,0:0:0:0:
247,348,25168,6,0,L|229:284,1,67.5000025749208,0|2,3:0|0:0,0:0:0:0:
92,275,25465,2,0,L|140:227,1,67.5000025749208,10|0,0:0|0:0,0:0:0:0:
78,104,25762,2,0,L|144:121,1,67.5000025749208,2|0,0:0|3:0,0:0:0:0:
250,145,26059,1,10,0:0:0:0:
204,63,26207,1,2,0:0:0:0:
204,63,26282,1,0,0:0:0:0:
204,63,26356,1,0,3:0:0:0:
401,100,26505,5,2,0:0:0:0:
355,18,26653,1,10,0:0:0:0:
499,102,26801,1,2,0:0:0:0:
355,186,26950,1,2,0:0:0:0:
355,18,27099,5,2,3:2:0:0:
370,47,27173,1,2,0:0:0:0:
386,77,27247,1,10,0:0:0:0:
336,71,27321,1,2,0:0:0:0:
289,88,27395,1,2,0:0:0:0:
254,124,27469,1,2,0:0:0:0:
239,172,27544,6,0,P|240:217|256:253,1,76.5000014591217,6|2,3:1|0:0,0:0:0:0:
240,383,27841,2,0,P|200:361|161:357,1,76.5000014591217,10|0,0:0|0:0,0:0:0:0:
56,278,28138,2,0,P|94:254|117:222,1,76.5000014591217,2|0,0:0|3:0,0:0:0:0:
141,107,28435,1,10,0:0:0:0:
48,141,28584,1,2,0:0:0:0:
48,141,28658,1,0,0:0:0:0:
48,141,28732,1,0,3:0:0:0:
153,17,28881,5,2,0:0:0:0:
153,17,29029,2,0,P|192:27|221:60,1,76.5000014591217,10|0,0:0|0:0,0:0:0:0:
328,16,29326,2,0,P|348:50|345:94,1,76.5000014591217,2|0,0:0|3:0,0:0:0:0:
452,139,29623,2,0,P|442:178|409:207,1,76.5000014591217,10|0,0:0|0:0,0:0:0:0:
303,222,29920,6,0,L|213:193,1,76.5000014591217,2|2,3:1|0:0,0:0:0:0:
155,65,30217,2,0,L|227:88,1,76.5000014591217,10|0,0:0|0:0,0:0:0:0:
72,148,30514,2,0,L|-18:119,1,76.5000014591217,2|0,0:0|3:0,0:0:0:0:
129,260,30811,1,10,0:0:0:0:
153,174,30960,1,2,0:0:0:0:
153,174,31034,1,0,0:0:0:0:
153,174,31108,1,0,3:0:0:0:
72,333,31257,5,2,0:0:0:0:
72,333,31406,2,0,L|144:356,1,76.5000014591217,10|0,0:0|0:0,0:0:0:0:
231,282,31703,2,0,L|303:258,1,76.5000014591217,2|0,0:0|3:0,0:0:0:0:
461,355,32000,2,0,L|389:332,1,76.5000014591217,14|0,0:0|0:0,0:0:0:0:
236,177,32297,5,14,0:0:0:0:
225,372,32445,1,8,0:0:0:0:
347,331,32594,1,0,3:0:0:0:
223,148,32742,2,0,B|183:93|183:93|241:48|326:87,1,207.000003948212,10|10,0:0|0:0,0:0:0:0:
349,100,33113,1,8,0:0:0:0:
349,100,33188,5,0,3:0:0:0:
330,301,33336,1,14,0:0:0:0:
308,269,33410,1,2,0:0:0:0:
286,238,33484,1,2,0:0:0:0:
266,208,33558,1,2,0:0:0:0:
244,177,33633,5,6,0:3:0:0:
349,100,33782,1,6,0:3:0:0:
105,204,33930,2,0,L|178:317,1,135.000005149842,14|0,0:0|0:0,0:0:0:0:
199,3,34227,1,14,0:0:0:0:
357,80,34376,1,0,3:0:0:0:
44,109,34524,1,14,0:0:0:0:
44,109,34599,1,0,0:0:0:0:
44,109,34673,6,0,L|129:241,1,112.5,0|0,0:0|3:0,0:0:0:0:
308,269,34970,1,10,0:0:0:0:
223,136,35118,1,0,0:0:0:0:
223,136,35193,1,0,0:0:0:0:
223,136,35267,1,6,0:3:0:0:
220,339,35415,1,6,0:3:0:0:
396,199,35564,1,6,0:3:0:0:
199,116,35712,6,0,B|118:109|86:35|175:-33|299:-6|336:63|396:199|396:199|231:168|136:285,1,720,14|0,0:0|0:0,0:0:0:0:
150,288,36950,1,0,0:0:0:0:
150,288,37000,1,0,0:0:0:0:
150,288,37049,2,0,P|178:331|447:284,1,371.250014162064
396,199,38237,6,0,P|362:193|312:196,2,80.9999975280763,4|0|0,3:1|0:0|3:0,0:0:0:0:
485,211,38683,1,2,0:0:0:0:
346,274,38831,1,2,3:2:0:0:
485,211,38980,1,2,0:0:0:0:
396,199,39128,1,2,3:2:0:0:
512,306,39277,2,0,P|437:328|358:283,1,161.999995056153,2|0,0:0|0:0,0:0:0:0:
447,127,39722,6,0,P|403:112|362:114,1,80.9999975280763,2|0,3:0|0:0,0:0:0:0:
297,18,40019,2,0,P|262:48|243:85,1,80.9999975280763,2|0,3:0|0:0,0:0:0:0:
98,81,40316,2,0,P|107:126|129:161,1,80.9999975280763,2|0,3:0|0:0,0:0:0:0:
225,239,40613,6,0,B|181:255|181:255|146:292,1,80.9999975280763,2|0,3:0|0:0,0:0:0:0:
0,318,40910,1,2,3:0:0:0:
0,318,41059,2,0,B|118:298|69:398|209:364,1,202.499993820191,2|0,0:0|0:0,0:0:0:0:
214,366,41505,2,0,B|258:350|258:350|293:313,1,80.9999975280763,0|0,3:0|0:0,0:0:0:0:
225,239,41802,2,0,B|181:255|181:255|146:292,2,80.9999975280763,0|0|0,3:0|0:0|3:0,0:0:0:0:
328,234,42247,5,2,0:0:0:0:
281,325,42396,1,2,3:0:0:0:
272,148,42544,1,2,0:0:0:0:
384,320,42693,1,2,3:0:0:0:
375,143,42841,1,2,0:0:0:0:
375,143,42990,6,0,B|374:96|374:96|401:65,1,80.9999975280763,2|0,3:0|0:0,0:0:0:0:
512,22,43287,1,2,3:0:0:0:
512,22,43435,2,0,P|460:18|433:2,1,80.9999975280763,2|0,0:0|3:0,0:0:0:0:
331,15,43732,2,0,P|279:19|252:35,1,80.9999975280763,2|0,0:0|3:0,0:0:0:0:
131,170,44029,2,0,P|148:120|170:98,1,80.9999975280763,2|0,0:0|3:0,0:0:0:0:
258,128,44326,1,2,0:0:0:0:
164,4,44475,1,2,3:0:0:0:
258,128,44623,2,0,L|321:202,1,80.9999975280763,2|0,0:0|3:0,0:0:0:0:
411,223,44920,5,2,0:0:0:0:
340,286,45069,1,2,3:0:0:0:
433,206,45217,1,2,0:0:0:0:
321,301,45366,1,2,3:0:0:0:
448,319,45514,1,2,0:0:0:0:
433,206,45663,1,2,3:0:0:0:
321,301,45811,2,0,L|245:363,1,80.9999975280763,2|0,0:0|3:0,0:0:0:0:
78,308,46108,2,0,L|154:370,1,80.9999975280763,2|0,0:0|3:0,0:0:0:0:
190,200,46406,1,2,0:0:0:0:
198,299,46554,5,2,3:0:0:0:
178,278,46628,1,2,0:0:0:0:
170,251,46702,1,2,0:0:0:0:
174,223,46776,1,2,0:0:0:0:
190,200,46851,1,2,0:0:0:0:
210,179,46925,1,2,0:0:0:0:
218,152,46999,1,2,0:0:0:0:
214,124,47073,1,2,0:0:0:0:
201,99,47148,5,2,0:0:0:0:
174,73,47222,1,2,0:0:0:0:
142,56,47296,1,2,3:2:0:0:
106,54,47370,1,2,0:0:0:0:
71,65,47445,1,14,0:0:0:0:
29,102,47519,1,2,0:0:0:0:
15,156,47593,1,2,0:0:0:0:
34,209,47667,1,2,0:0:0:0:
79,242,47742,6,0,P|138:204|263:236,1,188.999994232178,6|8,3:2|0:0,0:0:0:0:
306,322,48188,1,2,0:0:0:0:
249,224,48336,1,2,0:0:0:0:
418,300,48484,1,2,3:0:0:0:
326,140,48633,1,10,0:0:0:0:
429,187,48782,1,2,0:0:0:0:
429,187,48930,6,0,L|515:135,1,94.499997116089,0|0,3:0|3:0,0:0:0:0:
383,23,49227,2,0,L|334:103,1,94.499997116089,10|0,0:0|3:0,0:0:0:0:
244,290,49524,2,0,L|318:213,1,94.499997116089,2|0,0:0|3:0,0:0:0:0:
131,139,49821,1,10,0:0:0:0:
131,139,49970,2,0,B|81:133|81:133|41:158,1,94.499997116089,2|0,0:0|3:0,0:0:0:0:
55,313,50267,1,2,0:0:0:0:
55,313,50415,2,0,B|163:267|130:370|252:312,1,188.999994232178,10|0,0:0|0:0,0:0:0:0:
365,263,50861,1,0,3:0:0:0:
247,120,51009,2,0,P|203:156|195:201,1,94.499997116089,8|0,0:0|0:0,0:0:0:0:
461,198,51306,6,0,P|413:161|335:150,1,141.749995674133,2|0,3:2|0:0,0:0:0:0:
276,196,51604,2,0,P|267:262|299:342,1,155.250002961159,10|0,0:0|0:0,0:0:0:0:
367,373,51901,2,0,B|446:354|446:354|470:262,1,168.75,2|0,0:0|0:0,0:0:0:0:
432,284,52198,2,0,B|420:331|420:331|371:340,1,94.499997116089,10|0,0:0|0:0,0:0:0:0:
226,271,52495,6,0,B|125:260|174:349|48:335,1,188.999994232178,2|8,3:2|0:0,0:0:0:0:
0,173,52940,1,2,0:0:0:0:
0,173,53014,1,0,0:0:0:0:
0,173,53089,2,0,P|43:189|66:244,1,94.499997116089,2|0,0:0|3:0,0:0:0:0:
62,43,53386,2,0,P|98:72|157:64,1,94.499997116089,8|0,0:0|0:0,0:0:0:0:
327,49,53683,6,0,L|259:181,1,141.749995674133,2|0,3:2|0:0,0:0:0:0:
322,234,53980,2,0,L|455:189,1,128.249996575356,10|0,0:0|0:0,0:0:0:0:
476,119,54277,2,0,P|426:80|403:16,1,114.750002188683,2|0,0:0|0:0,0:0:0:0:
442,22,54574,2,0,P|467:61|506:87,1,94.499997116089,14|0,0:0|0:0,0:0:0:0:
249,13,54871,6,0,P|181:17|74:119,1,188.999994232178,6|0,3:2|0:0,0:0:0:0:
183,292,55316,1,2,0:0:0:0:
183,292,55391,1,0,0:0:0:0:
183,292,55465,2,0,B|239:260|287:204|244:141|176:145|176:197,1,215.999993408203,10|0,0:0|0:0,0:0:0:0:
293,368,55910,2,0,B|328:305|389:252|458:300|454:375|396:375,1,243.000000926971,12|8,0:0|0:0,0:0:0:0:
347,209,56356,6,0,L|419:140,1,94.499997116089,8|0,0:0|3:0,0:0:0:0:
467,91,56579,1,0,3:0:0:0:
496,99,56653,2,0,P|521:148|506:206,1,107.999996704102,10|0,0:0|3:0,0:0:0:0:
512,21,56876,1,0,3:0:0:0:
490,0,56950,2,0,P|429:3|382:49,1,121.500000463486,12|0,0:0|0:0,0:0:0:0:
176,39,57247,6,0,P|235:45|269:89,1,107.999996704102,6|0,3:1|0:0,0:0:0:0:
88,187,57544,2,0,P|64:132|85:80,1,107.999996704102,10|0,0:0|0:0,0:0:0:0:
187,149,57841,1,2,3:0:0:0:
88,187,57990,1,2,0:0:0:0:
101,12,58138,1,10,0:0:0:0:
265,80,58287,2,0,P|228:144|250:237,1,161.999995056153,2|0,3:2|0:0,0:0:0:0:
267,255,58584,1,0,3:0:0:0:
419,105,58732,1,10,0:0:0:0:
444,258,58881,2,0,P|374:295|296:279,1,161.999995056153,2|0,3:2|0:0,0:0:0:0:
267,255,59178,5,2,3:0:0:0:
342,94,59326,1,10,0:0:0:0:
434,182,59475,1,2,0:0:0:0:
267,255,59623,6,0,L|195:338,1,107.999996704102,2|0,3:2|0:0,0:0:0:0:
105,170,59920,2,0,L|60:270,1,107.999996704102,10|0,0:0|3:0,0:0:0:0:
264,227,60217,1,2,0:0:0:0:
126,157,60366,1,2,3:0:0:0:
125,313,60514,1,10,0:0:0:0:
251,85,60663,2,0,B|279:35|279:35|328:19|389:70,1,161.999995056153,2|0,3:2|0:0,0:0:0:0:
401,86,60960,1,0,3:0:0:0:
304,214,61108,1,10,0:0:0:0:
454,227,61257,2,0,B|491:183|491:183|489:132|420:92,1,161.999995056153,2|0,3:0|0:0,0:0:0:0:
401,86,61554,5,2,3:2:0:0:
234,164,61703,1,14,0:0:0:0:
401,86,61851,1,2,0:0:0:0:
380,253,62000,6,0,B|339:288|339:288|291:213|193:193,1,215.999993408203,6|8,3:2|0:0,0:0:0:0:
103,160,62445,1,2,0:0:0:0:
66,309,62594,2,0,P|95:363|144:389,1,107.999996704102,2|2,3:0|3:0,0:0:0:0:
43,219,62891,1,2,0:0:0:0:
223,42,63039,2,0,B|260:2|260:2|348:45|274:168,1,215.999993408203,14|0,0:0|3:0,0:0:0:0:
413,209,63485,1,10,0:0:0:0:
413,209,63559,1,0,0:0:0:0:
413,209,63633,2,0,P|439:162|489:144,1,107.999996704102,2|0,0:0|3:0,0:0:0:0:
414,328,63930,5,2,3:2:0:0:
299,174,64079,1,14,0:0:0:0:
304,368,64227,1,14,0:0:0:0:
231,271,64376,5,6,3:2:0:0:
288,190,64524,1,2,0:0:0:0:
200,270,64673,1,2,0:0:0:0:
289,350,64821,1,2,0:0:0:0:
169,269,64970,1,2,0:0:0:0:
299,174,65118,1,2,3:2:0:0:
138,268,65267,1,14,0:0:0:0:
304,368,65415,1,2,0:0:0:0:
41,270,65564,6,0,B|27:213|1:193|1:193|83:162|177:197,1,243.000000926971,14|8,0:1|0:0,0:0:0:0:
353,280,66009,1,2,3:2:0:0:
353,280,66084,1,0,0:0:0:0:
353,280,66158,2,0,P|396:237|403:169,1,121.500000463486,10|0,0:0|3:0,0:0:0:0:
138,268,66455,2,0,P|181:311|249:318,1,121.500000463486,8|0,0:0|3:0,0:0:0:0:
151,54,66752,6,0,P|108:97|101:165,1,121.500000463486,8|0,0:0|3:0,0:0:0:0:
365,66,67049,2,0,P|322:23|254:16,1,121.500000463486,8|2,0:0|3:2,0:0:0:0:
236,20,67272,1,0,0:0:0:0:
236,20,67346,1,10,0:0:0:0:
253,173,67495,1,2,3:2:0:0:
253,173,67569,1,0,3:0:0:0:
253,173,67643,1,10,0:0:0:0:
365,66,67792,1,2,3:2:0:0:
91,95,67940,6,0,P|36:120|3:177,1,121.500000463486,12|0,0:0|0:0,0:0:0:0:
275,285,68237,2,0,P|280:224|247:167,1,121.500000463486,8|0,0:0|3:0,0:0:0:0:
175,137,68460,1,0,3:0:0:0:
158,161,68534,2,0,B|109:209|157:224|95:286,1,121.500000463486,8|0,0:0|3:0,0:0:0:0:
3,380,68831,2,0,P|67:369|133:393,1,121.500000463486,8|0,0:0|3:0,0:0:0:0:
280,311,69128,5,12,0:0:0:0:
287,105,69277,1,0,3:0:0:0:
463,212,69425,1,12,0:0:0:0:
280,311,69574,1,0,3:0:0:0:
289,81,69722,2,0,L|397:25,1,121.500000463486,8|0,0:0|3:0,0:0:0:0:
479,72,69945,1,0,3:0:0:0:
479,72,70019,2,0,L|483:199,1,121.500000463486,12|0,0:0|3:0,0:0:0:0:
373,383,70316,5,14,0:0:0:0:
356,323,70390,1,2,0:0:0:0:
318,279,70464,1,6,0:3:0:0:
262,252,70538,1,6,0:3:0:0:
203,250,70613,2,0,L|162:256,1,33.7500012874604,6|0,0:3|0:0,0:0:0:0:
374,339,70762,5,14,0:0:0:0:
360,292,70836,1,2,0:0:0:0:
329,257,70910,1,6,0:3:0:0:
284,236,70984,1,6,0:3:0:0:
237,234,71059,2,0,L|203:240,1,33.7500012874604,6|0,0:3|0:0,0:0:0:0:
374,306,71207,5,14,0:0:0:0:
363,268,71281,1,2,0:0:0:0:
337,239,71355,1,6,0:3:0:0:
304,223,71429,1,6,0:3:0:0:
264,220,71504,2,0,L|230:226,1,33.7500012874604,6|0,0:3|0:0,0:0:0:0:
374,279,71653,5,14,0:0:0:0:
363,249,71727,1,2,0:0:0:0:
346,226,71801,1,14,0:0:0:0:
317,213,71875,1,2,0:0:0:0:
287,211,71950,2,0,L|253:216,1,33.7500012874604,2|0,3:0|3:0,0:0:0:0:
280,311,72099,5,8,0:0:0:0:
346,76,72247,1,10,0:0:0:0:
449,136,72396,1,2,3:2:0:0:
264,329,72544,6,0,B|240:358|193:371|193:371|139:260|3:308,1,279.000002128601,14|0,0:1|3:0,0:0:0:0:
27,66,72990,1,10,0:0:0:0:
27,66,73138,2,0,P|71:124|62:210,1,139.500001064301,2|0,0:0|3:0,0:0:0:0:
284,0,73435,2,0,P|293:72|361:126,1,139.500001064301,2|8,0:0|0:0,0:0:0:0:
158,28,73732,1,2,0:0:0:0:
168,61,73806,1,2,0:0:0:0:
179,94,73880,1,2,0:0:0:0:
189,127,73954,1,2,0:0:0:0:
200,160,74029,2,0,L|223:226,1,69.7500005321503,2|0,3:0|0:0,0:0:0:0:
194,326,74178,6,0,P|273:317|318:268,1,139.500001064301,10|2,0:0|0:0,0:0:0:0:
339,70,74401,1,0,0:0:0:0:
339,70,74475,2,0,P|307:142|327:206,1,139.500001064301,2|2,3:2|3:2,0:0:0:0:
488,323,74698,1,0,0:0:0:0:
488,323,74772,2,0,P|440:259|375:244,1,139.500001064301,10|0,0:0|0:0,0:0:0:0:
145,248,75069,6,0,P|81:296|66:361,1,139.500001064301,2|0,3:2|0:0,0:0:0:0:
278,160,75366,1,8,0:0:0:0:
278,160,75514,2,0,B|293:64|229:13|170:63|197:111,1,209.250001596451,2|0,0:0|0:0,0:0:0:0:
204,131,75811,1,2,3:2:0:0:
401,31,75960,1,8,0:0:0:0:
319,231,76108,2,0,B|473:254|359:379|556:382,1,279.000002128601,2|0,3:2|3:0,0:0:0:0:
512,281,76554,1,8,0:0:0:0:
305,353,76703,5,2,0:0:0:0:
287,309,76777,1,0,0:0:0:0:
293,263,76851,2,0,P|338:212|409:181,1,139.500001064301,2|0,3:2|3:0,0:0:0:0:
492,190,77074,2,0,P|417:153|393:88,1,139.500001064301,2|0,0:0|0:0,0:0:0:0:
396,70,77297,1,2,0:0:0:0:
293,263,77445,5,2,3:2:0:0:
293,263,77519,1,0,0:0:0:0:
293,263,77594,1,0,0:0:0:0:
177,77,77742,1,10,0:0:0:0:
270,136,77891,2,0,P|171:168|179:81,1,209.250001596451,2|0,0:0|0:0,0:0:0:0:
86,47,78188,2,0,P|59:127|113:237,1,209.250001596451,2|0,3:0|0:0,0:0:0:0:
141,252,78485,1,2,3:2:0:0:
330,225,78633,5,2,0:0:0:0:
311,242,78707,1,2,0:0:0:0:
287,256,78781,1,2,3:2:0:0:
261,266,78855,1,2,0:0:0:0:
234,271,78930,1,10,0:0:0:0:
261,276,79005,1,2,0:0:0:0:
287,286,79079,1,2,0:0:0:0:
311,300,79153,1,2,0:0:0:0:
333,319,79227,6,0,P|373:259|301:233,1,139.500001064301,2|0,3:2|3:0,0:0:0:0:
28,297,79524,2,0,L|170:409,1,139.500001064301,10|0,0:0|0:0,0:0:0:0:
214,53,79821,6,0,P|141:77|248:108,1,279.000002128601,2|8,3:2|0:0,0:0:0:0:
424,0,80267,1,2,0:0:0:0:
309,43,80415,1,2,3:2:0:0:
511,83,80564,6,0,P|525:158|501:231,1,139.500001064301,0|8,3:2|0:0,0:0:0:0:
289,63,80861,2,0,P|274:130|291:197,1,139.500001064301,0|0,3:0|0:0,0:0:0:0:
457,281,81158,1,0,3:0:0:0:
457,281,81232,1,0,0:0:0:0:
457,281,81306,2,0,P|385:249|325:275,1,139.500001064301,8|0,0:0|0:0,0:0:0:0:
214,384,81604,5,2,3:2:0:0:
330,343,81752,1,2,3:2:0:0:
116,296,81901,1,14,0:0:0:0:
214,384,82049,1,2,0:0:0:0:
84,217,82198,6,0,P|36:268|40:334,1,139.500001064301,14|0,0:0|0:0,0:0:0:0:
256,156,82495,1,10,0:0:0:0:
214,384,82643,1,2,3:2:0:0:
146,129,82792,1,8,0:0:0:0:
319,268,82940,6,0,L|393:287,1,69.7500005321503,2|2,3:0|0:0,0:0:0:0:
512,199,83088,1,14,0:0:0:0:
485,193,83162,1,2,0:0:0:0:
457,188,83237,2,0,L|383:169,1,56.25,2|0,3:2|0:0,0:0:0:0:
337,24,83386,2,0,B|295:39|295:39|271:131,1,139.500001064301,12|0,0:0|0:0,0:0:0:0:
233,352,83683,5,10,0:0:0:0:
146,129,83831,1,2,3:2:0:0:
106,141,83905,1,0,3:0:0:0:
73,167,83979,1,10,0:0:0:0:
376,165,84128,1,2,3:0:0:0:
415,177,84202,1,0,3:0:0:0:
448,203,84277,2,0,P|486:267|471:336,1,139.500001064301,14|0,0:0|0:0,0:0:0:0:
233,352,84574,6,0,B|193:244|293:267|257:132,1,209.250001596451,14|0,0:0|0:0,0:0:0:0:
254,121,84871,1,2,3:2:0:0:
133,313,85019,1,14,0:0:0:0:
179,341,85093,1,2,0:0:0:0:
233,352,85167,1,2,0:0:0:0:
287,344,85241,1,2,0:0:0:0:
338,319,85316,6,0,P|361:292|367:249,1,69.7500005321503,2|0,3:2|3:0,0:0:0:0:
254,121,85465,1,2,3:2:0:0:
254,121,85613,2,0,B|206:61|288:-3|359:58|374:137|294:208,1,279.000002128601,14|4,0:0|0:3,0:0:0:0:
278,211,85985,1,4,0:3:0:0:
278,211,86059,5,4,0:3:0:0:
94,165,86207,1,12,0:0:0:0:
160,97,86356,1,0,0:0:0:0:
120,257,86505,1,8,0:0:0:0:
167,269,86579,1,8,0:0:0:0:
214,281,86653,2,0,L|270:224,1,69.7500005321503,10|8,0:0|0:0,0:0:0:0:
160,97,86802,2,0,L|104:154,1,69.7500005321503,10|8,0:0|0:0,0:0:0:0:
28,233,86950,5,4,3:2:0:0:
29,89,87099,1,4,0:3:0:0:
181,76,87247,1,6,0:3:0:0:
28,233,87396,2,0,B|58:334|58:334|182:382,1,215.999993408203,14|0,0:0|0:0,0:0:0:0:
242,273,87841,1,6,0:3:0:0:
242,273,87990,2,0,B|221:202|221:202|134:168,1,161.999995056153,6|0,3:2|0:0,0:0:0:0:
125,257,88287,2,0,L|159:286,4,26.9999991760254,2|0|0|0|0,0:0|0:0|0:0|0:0|3:0,0:0:0:0:
260,364,88584,5,2,0:0:0:0:
260,364,88658,1,0,0:0:0:0:
260,364,88732,2,0,P|300:347|330:303,1,80.9999975280763,10|0,0:0|0:0,0:0:0:0:
402,350,88955,1,2,0:0:0:0:
402,350,89029,2,0,P|407:306|384:258,1,80.9999975280763,12|2,0:0|0:0,0:0:0:0:
304,173,89326,6,0,P|318:130|418:98,1,135.000005149842,6|0,0:1|0:0,0:0:0:0:
505,126,89772,1,2,0:0:0:0:
505,126,89920,2,0,L|492:52,1,67.5000025749208,2|0,0:0|0:0,0:0:0:0:
335,0,90217,1,2,0:0:0:0:
335,0,90292,1,0,0:0:0:0:
335,0,90366,2,0,L|280:38,1,67.5000025749208,2|0,0:0|0:0,0:0:0:0:
374,124,90663,5,2,0:0:0:0:
427,10,90811,1,2,0:0:0:0:
374,124,90960,1,2,0:0:0:0:
36,202,91405,5,2,0:0:0:0:
48,197,91480,1,2,0:0:0:0:
48,184,91554,1,2,0:0:0:0:
36,180,91628,1,2,0:0:0:0:
28,191,91703,5,2,0:0:0:0:
205,248,91851,1,2,0:0:0:0:
95,98,91999,1,2,0:0:0:0:
95,284,92148,1,2,0:0:0:0:
205,133,92296,1,2,0:0:0:0:
218,123,92371,1,0,0:0:0:0:
232,113,92445,1,2,0:0:0:0:
95,98,92594,1,2,0:0:0:0:
125,189,92742,1,2,0:0:0:0:
482,147,93039,5,2,0:0:0:0:
403,50,93188,1,2,0:0:0:0:
398,173,93336,1,2,0:0:0:0:
482,147,93485,1,2,0:0:0:0:
468,343,93782,5,2,0:0:0:0:
441,360,93856,1,2,0:0:0:0:
408,366,93930,1,2,0:0:0:0:
375,363,94004,1,2,0:0:0:0:
343,351,94079,6,0,P|388:328|476:349,1,135.000005149842,2|0,0:0|0:0,0:0:0:0:
243,357,94524,1,2,0:0:0:0:
243,357,94673,1,2,0:0:0:0:
147,330,94821,5,2,0:0:0:0:
259,227,94970,1,2,0:0:0:0:
243,357,95118,1,2,0:0:0:0:
243,357,95415,5,2,0:0:0:0:
259,227,95564,1,2,0:0:0:0:
147,330,95712,1,2,0:0:0:0:
102,162,96009,5,2,0:0:0:0:
59,70,96158,1,2,0:0:0:0:
150,27,96306,1,2,0:0:0:0:
192,120,96455,2,0,B|102:162|102:162|59:70|59:70|150:27|150:27|192:120,1,396.000012084961,2|0,0:0|0:0,0:0:0:0:
361,200,97792,5,2,0:0:0:0:
295,128,97940,1,2,0:0:0:0:
310,33,98088,1,2,0:0:0:0:
483,70,98237,1,2,0:0:0:0:
381,181,98386,5,2,0:0:0:0:
336,37,98534,1,2,0:0:0:0:
483,70,98683,6,0,B|381:181|381:181|336:37|336:37|483:70,1,445.499998640442,2|0,0:0|0:0,0:0:0:0:
