osu file format v14

[General]
AudioFilename: audio.mp3
AudioLeadIn: 0
PreviewTime: 115949
Countdown: 0
SampleSet: Soft
StackLeniency: 0.7
Mode: 3
LetterboxInBreaks: 0
SpecialStyle: 0
WidescreenStoryboard: 1

[Editor]
Bookmarks: 183,7544,19324,31103,42882,53189,54661,64968,67913,81164,92943,104722,115949,116502,126808,132698,144477,147054
DistanceSpacing: 1.4
BeatDivisor: 8
GridSize: 8
TimelineZoom: 3.199999

[Metadata]
Title:Hazukashigariya no Toy Soldier
TitleUnicode:はずかしがりやのトイ・ソルジャー
Artist:AAAA
ArtistUnicode:ああああ
Creator:Angki
Version:Normal
Source:
Tags:toy → pop fantasia! 8bit electronic instrumental britpop chiptune toypop vgm AHC-0013 ああ...翡翠茶漬け.. aa...hisui chazuke... M3 2019
BeatmapID:2325443
BeatmapSetID:1113145

[Difficulty]
HPDrainRate:7.5
CircleSize:4
OverallDifficulty:7.5
ApproachRate:5
SliderMultiplier:1.4
SliderTickRate:1

[Events]
//Background and Video events
0,0,"Background.jpg",0,0
//Break Periods
//Storyboard Layer 0 (Background)
//Storyboard Layer 1 (Fail)
//Storyboard Layer 2 (Pass)
//Storyboard Layer 3 (Foreground)
//Storyboard Layer 4 (Overlay)
//Storyboard Sound Samples

[TimingPoints]
183,368.098159509202,4,2,1,65,1,0
42882,-100,4,2,1,65,0,1
53189,-100,4,2,1,65,0,0
54661,-100,4,2,1,65,0,1
64968,-100,4,2,1,65,0,0
67913,-100,4,2,1,20,0,0
73802,-100,4,2,1,25,0,0
74416,-100,4,2,1,30,0,0
74538,-100,4,2,1,35,0,0
74661,-100,4,2,1,40,0,0
74784,-100,4,2,1,45,0,0
74907,-100,4,2,1,50,0,0
75029,-100,4,2,1,55,0,0
75152,-100,4,2,1,60,0,0
75275,-100,4,2,1,65,0,0
116502,-100,4,2,1,65,0,1
126808,-100,4,2,1,65,0,0

[HitObjects]
64,192,183,5,2,0:0:0:0:
320,192,183,128,4,551:0:0:0:0:
192,192,551,1,2,0:0:0:0:
448,192,735,1,0,0:0:0:0:
320,192,827,1,0,0:0:0:0:
64,192,919,128,2,1287:0:0:0:0:
192,192,919,1,4,0:0:0:0:
320,192,1287,1,2,0:0:0:0:
448,192,1287,1,0,0:0:0:0:
192,192,1471,1,0,0:0:0:0:
320,192,1563,1,0,0:0:0:0:
64,192,1655,1,4,0:0:0:0:
448,192,1655,128,2,2023:0:0:0:0:
192,192,2023,1,2,0:0:0:0:
64,192,2207,1,0,0:0:0:0:
192,192,2299,1,0,0:0:0:0:
320,192,2391,128,2,2759:0:0:0:0:
448,192,2391,1,4,0:0:0:0:
64,192,2759,1,2,0:0:0:0:
448,192,2943,1,0,0:0:0:0:
320,192,3035,1,0,0:0:0:0:
64,192,3127,1,4,0:0:0:0:
192,192,3127,128,2,3495:0:0:0:0:
448,192,3495,1,2,0:0:0:0:
320,192,3679,1,0,0:0:0:0:
192,192,3771,1,0,0:0:0:0:
64,192,3863,1,2,0:0:0:0:
448,192,3863,128,4,4232:0:0:0:0:
320,192,4232,1,2,0:0:0:0:
192,192,4416,1,0,0:0:0:0:
320,192,4508,1,0,0:0:0:0:
64,192,4600,128,4,4968:0:0:0:0:
448,192,4600,1,2,0:0:0:0:
192,192,4968,1,2,0:0:0:0:
448,192,5152,1,0,0:0:0:0:
320,192,5244,1,0,0:0:0:0:
64,192,5336,1,2,0:0:0:0:
192,192,5336,128,4,5520:0:0:0:0:
448,192,5520,128,0,5704:0:0:0:0:
64,192,5704,128,0,5888:0:0:0:0:
320,192,5888,128,0,6072:0:0:0:0:
448,192,6072,128,0,6256:0:0:0:0:
320,192,6256,128,0,6440:0:0:0:0:
192,192,6440,128,0,6624:0:0:0:0:
64,192,6624,128,0,6808:0:0:0:0:
448,192,6808,1,0,0:0:0:0:
320,192,6900,1,0,0:0:0:0:
64,192,6992,1,0,0:0:0:0:
192,192,7084,1,0,0:0:0:0:
448,192,7176,1,0,0:0:0:0:
64,192,7544,1,2,0:0:0:0:
320,192,7544,1,4,0:0:0:0:
192,192,7729,1,0,0:0:0:0:
320,192,7913,1,8,0:0:0:0:
448,192,7913,1,0,0:0:0:0:
192,192,8097,1,0,0:0:0:0:
64,192,8281,1,0,0:0:0:0:
320,192,8465,1,2,0:0:0:0:
192,192,8649,1,8,0:0:0:0:
448,192,8649,1,0,0:0:0:0:
192,192,9017,1,2,0:0:0:0:
64,192,9201,1,0,0:0:0:0:
320,192,9385,1,8,0:0:0:0:
448,192,9385,1,0,0:0:0:0:
192,192,9569,1,0,0:0:0:0:
64,192,9753,1,0,0:0:0:0:
192,192,9937,1,2,0:0:0:0:
320,192,10121,1,8,0:0:0:0:
448,192,10121,1,0,0:0:0:0:
64,192,10489,1,2,0:0:0:0:
192,192,10673,1,0,0:0:0:0:
320,192,10857,1,8,0:0:0:0:
448,192,10857,1,0,0:0:0:0:
64,192,11041,1,0,0:0:0:0:
448,192,11225,1,0,0:0:0:0:
320,192,11409,1,2,0:0:0:0:
64,192,11594,1,8,0:0:0:0:
192,192,11594,1,0,0:0:0:0:
448,192,11778,1,0,0:0:0:0:
192,192,11962,1,2,0:0:0:0:
320,192,12146,1,0,0:0:0:0:
64,192,12330,1,8,0:0:0:0:
448,192,12330,1,2,0:0:0:0:
320,192,12514,1,0,0:0:0:0:
64,192,12698,1,0,0:0:0:0:
448,192,12882,1,2,0:0:0:0:
192,192,13066,1,0,0:0:0:0:
320,192,13250,1,8,0:0:0:0:
64,192,13434,1,2,0:0:0:0:
448,192,13434,1,4,0:0:0:0:
320,192,13618,1,0,0:0:0:0:
64,192,13802,1,8,0:0:0:0:
192,192,13802,1,0,0:0:0:0:
448,192,13986,1,0,0:0:0:0:
192,192,14170,1,0,0:0:0:0:
64,192,14354,1,2,0:0:0:0:
320,192,14538,1,8,0:0:0:0:
448,192,14538,1,0,0:0:0:0:
192,192,14906,1,2,0:0:0:0:
448,192,15090,1,0,0:0:0:0:
64,192,15275,1,8,0:0:0:0:
320,192,15275,1,0,0:0:0:0:
192,192,15459,1,0,0:0:0:0:
64,192,15643,1,0,0:0:0:0:
320,192,15827,1,2,0:0:0:0:
192,192,16011,1,8,0:0:0:0:
448,192,16011,1,0,0:0:0:0:
64,192,16379,1,2,0:0:0:0:
192,192,16563,1,0,0:0:0:0:
320,192,16747,1,8,0:0:0:0:
448,192,16747,1,0,0:0:0:0:
192,192,16931,1,0,0:0:0:0:
64,192,17115,1,0,0:0:0:0:
448,192,17299,1,2,0:0:0:0:
64,192,17483,1,8,0:0:0:0:
192,192,17483,1,0,0:0:0:0:
320,192,17667,1,0,0:0:0:0:
448,192,17851,128,2,18035:0:0:0:0:
320,192,18035,128,0,18219:0:0:0:0:
192,192,18219,128,10,18403:0:0:0:0:
64,192,18403,128,0,18587:0:0:0:0:
320,192,18587,1,0,0:0:0:0:
448,192,18771,1,2,0:0:0:0:
64,192,18956,1,0,0:0:0:0:
192,192,18956,1,0,0:0:0:0:
192,192,19324,1,2,0:0:0:0:
448,192,19324,1,4,0:0:0:0:
320,192,19508,1,0,0:0:0:0:
64,192,19692,1,8,0:0:0:0:
192,192,19692,1,2,0:0:0:0:
320,192,19876,1,0,0:0:0:0:
64,192,20060,1,2,0:0:0:0:
192,192,20244,1,0,0:0:0:0:
320,192,20428,1,8,0:0:0:0:
448,192,20428,1,2,0:0:0:0:
192,192,20796,1,2,0:0:0:0:
64,192,20980,1,0,0:0:0:0:
320,192,21164,1,8,0:0:0:0:
448,192,21164,1,2,0:0:0:0:
192,192,21348,1,0,0:0:0:0:
320,192,21532,1,2,0:0:0:0:
448,192,21716,1,0,0:0:0:0:
64,192,21900,1,8,0:0:0:0:
192,192,21900,1,2,0:0:0:0:
448,192,22268,1,2,0:0:0:0:
192,192,22452,1,0,0:0:0:0:
64,192,22636,1,8,0:0:0:0:
320,192,22636,1,2,0:0:0:0:
448,192,22821,1,0,0:0:0:0:
192,192,23005,1,2,0:0:0:0:
320,192,23189,1,0,0:0:0:0:
64,192,23373,1,8,0:0:0:0:
448,192,23373,1,2,0:0:0:0:
192,192,23557,1,0,0:0:0:0:
448,192,23741,1,2,0:0:0:0:
320,192,23925,1,0,0:0:0:0:
192,192,24109,1,8,0:0:0:0:
448,192,24109,1,2,0:0:0:0:
64,192,24293,1,0,0:0:0:0:
320,192,24477,1,2,0:0:0:0:
448,192,24661,1,8,0:0:0:0:
192,192,24845,1,2,0:0:0:0:
320,192,25029,1,8,0:0:0:0:
64,192,25213,1,2,0:0:0:0:
448,192,25213,1,4,0:0:0:0:
192,192,25397,1,0,0:0:0:0:
320,192,25581,1,8,0:0:0:0:
448,192,25581,1,2,0:0:0:0:
64,192,25765,1,0,0:0:0:0:
192,192,25949,1,2,0:0:0:0:
320,192,26133,1,0,0:0:0:0:
192,192,26317,1,8,0:0:0:0:
448,192,26317,1,2,0:0:0:0:
64,192,26686,1,2,0:0:0:0:
192,192,26870,1,0,0:0:0:0:
64,192,27054,1,8,0:0:0:0:
320,192,27054,1,2,0:0:0:0:
448,192,27238,1,0,0:0:0:0:
192,192,27422,1,2,0:0:0:0:
64,192,27606,1,0,0:0:0:0:
320,192,27790,1,8,0:0:0:0:
448,192,27790,1,2,0:0:0:0:
64,192,28158,1,2,0:0:0:0:
448,192,28342,1,0,0:0:0:0:
192,192,28526,1,8,0:0:0:0:
320,192,28526,1,2,0:0:0:0:
64,192,28710,1,0,0:0:0:0:
320,192,28894,1,2,0:0:0:0:
192,192,29078,1,0,0:0:0:0:
64,192,29262,1,8,0:0:0:0:
448,192,29262,1,2,0:0:0:0:
320,192,29446,1,0,0:0:0:0:
192,192,29630,128,2,29814:0:0:0:0:
64,192,29814,128,0,29998:0:0:0:0:
320,192,29998,128,10,30182:0:0:0:0:
448,192,30182,128,0,30367:0:0:0:0:
64,192,30367,1,2,0:0:0:0:
192,192,30551,1,8,0:0:0:0:
320,192,30735,1,2,0:0:0:0:
448,192,30735,1,0,0:0:0:0:
320,192,31103,128,4,31471:0:0:0:0:
448,192,31103,1,2,0:0:0:0:
64,192,31471,1,2,0:0:0:0:
192,192,31655,1,0,0:0:0:0:
320,192,31747,1,0,0:0:0:0:
64,192,31839,128,2,32207:0:0:0:0:
448,192,31839,1,4,0:0:0:0:
192,192,32207,1,2,0:0:0:0:
448,192,32391,1,0,0:0:0:0:
320,192,32483,1,0,0:0:0:0:
64,192,32575,1,4,0:0:0:0:
192,192,32575,128,2,32943:0:0:0:0:
448,192,32943,1,2,0:0:0:0:
64,192,33127,1,0,0:0:0:0:
192,192,33219,1,0,0:0:0:0:
320,192,33311,128,2,33679:0:0:0:0:
448,192,33311,1,4,0:0:0:0:
64,192,33679,1,2,0:0:0:0:
448,192,33863,1,0,0:0:0:0:
320,192,33956,1,0,0:0:0:0:
64,192,34048,128,4,34416:0:0:0:0:
192,192,34048,1,2,0:0:0:0:
448,192,34416,1,2,0:0:0:0:
320,192,34600,1,0,0:0:0:0:
64,192,34692,1,0,0:0:0:0:
192,192,34784,128,2,35152:0:0:0:0:
448,192,34784,1,4,0:0:0:0:
320,192,35152,1,2,0:0:0:0:
64,192,35336,1,0,0:0:0:0:
448,192,35428,1,0,0:0:0:0:
192,192,35520,1,4,0:0:0:0:
320,192,35520,128,2,35888:0:0:0:0:
64,192,35888,1,2,0:0:0:0:
448,192,36072,1,0,0:0:0:0:
192,192,36164,1,0,0:0:0:0:
64,192,36256,128,2,36624:0:0:0:0:
320,192,36256,1,4,0:0:0:0:
448,192,36624,1,2,0:0:0:0:
320,192,36808,1,0,0:0:0:0:
64,192,36900,1,0,0:0:0:0:
192,192,36992,1,4,0:0:0:0:
448,192,36992,128,2,37360:0:0:0:0:
64,192,37360,1,2,0:0:0:0:
320,192,37544,1,0,0:0:0:0:
64,192,37636,1,0,0:0:0:0:
192,192,37729,128,2,38097:0:0:0:0:
448,192,37729,1,4,0:0:0:0:
64,192,38097,1,2,0:0:0:0:
320,192,38281,1,0,0:0:0:0:
192,192,38373,1,0,0:0:0:0:
64,192,38465,128,4,38833:0:0:0:0:
448,192,38465,1,2,0:0:0:0:
320,192,38833,1,2,0:0:0:0:
192,192,39017,1,0,0:0:0:0:
448,192,39109,1,0,0:0:0:0:
64,192,39201,1,2,0:0:0:0:
320,192,39201,128,4,39569:0:0:0:0:
192,192,39569,1,2,0:0:0:0:
448,192,39753,1,0,0:0:0:0:
64,192,39845,1,0,0:0:0:0:
192,192,39937,128,4,40305:0:0:0:0:
320,192,39937,1,2,0:0:0:0:
448,192,40305,1,2,0:0:0:0:
320,192,40489,1,0,0:0:0:0:
448,192,40581,1,0,0:0:0:0:
64,192,40673,128,2,41041:0:0:0:0:
192,192,40673,1,4,0:0:0:0:
448,192,41041,1,2,0:0:0:0:
320,192,41225,1,0,0:0:0:0:
192,192,41317,1,0,0:0:0:0:
64,192,41409,1,4,0:0:0:0:
448,192,41409,128,2,41778:0:0:0:0:
192,192,41778,1,2,0:0:0:0:
320,192,41962,1,0,0:0:0:0:
448,192,42054,1,0,0:0:0:0:
64,192,42146,1,2,0:0:0:0:
192,192,42146,1,4,0:0:0:0:
320,192,42330,1,0,0:0:0:0:
64,192,42514,1,2,0:0:0:0:
448,192,42514,1,4,0:0:0:0:
192,192,42698,1,0,0:0:0:0:
64,192,42882,1,2,0:0:0:0:
448,192,42882,128,4,43158:0:0:0:0:
320,192,43158,1,0,0:0:0:0:
64,192,43250,1,8,0:0:0:0:
192,192,43250,1,2,0:0:0:0:
320,192,43434,1,0,0:0:0:0:
192,192,43618,1,2,0:0:0:0:
64,192,43802,1,0,0:0:0:0:
320,192,43986,1,8,0:0:0:0:
448,192,43986,1,2,0:0:0:0:
192,192,44170,1,0,0:0:0:0:
448,192,44354,1,2,0:0:0:0:
64,192,44538,1,0,0:0:0:0:
192,192,44722,1,8,0:0:0:0:
320,192,44722,1,2,0:0:0:0:
448,192,44906,1,0,0:0:0:0:
64,192,45090,1,2,0:0:0:0:
192,192,45275,1,0,0:0:0:0:
320,192,45459,1,8,0:0:0:0:
448,192,45459,1,2,0:0:0:0:
192,192,45643,1,0,0:0:0:0:
64,192,45827,128,2,46103:0:0:0:0:
192,192,46103,1,0,0:0:0:0:
320,192,46195,1,8,0:0:0:0:
448,192,46195,1,2,0:0:0:0:
64,192,46379,1,0,0:0:0:0:
192,192,46563,1,2,0:0:0:0:
448,192,46747,1,0,0:0:0:0:
64,192,46931,1,8,0:0:0:0:
192,192,46931,1,2,0:0:0:0:
320,192,47115,1,0,0:0:0:0:
448,192,47299,1,2,0:0:0:0:
192,192,47483,1,0,0:0:0:0:
64,192,47667,1,8,0:0:0:0:
320,192,47667,1,2,0:0:0:0:
448,192,47851,1,8,0:0:0:0:
192,192,48035,1,2,0:0:0:0:
320,192,48219,1,8,0:0:0:0:
64,192,48403,1,2,0:0:0:0:
448,192,48403,1,0,0:0:0:0:
192,192,48587,1,8,0:0:0:0:
64,192,48771,1,2,0:0:0:0:
448,192,48771,128,4,49048:0:0:0:0:
320,192,49048,1,0,0:0:0:0:
64,192,49140,1,8,0:0:0:0:
192,192,49140,1,2,0:0:0:0:
320,192,49324,1,0,0:0:0:0:
64,192,49508,1,2,0:0:0:0:
192,192,49692,1,0,0:0:0:0:
320,192,49876,1,8,0:0:0:0:
448,192,49876,1,2,0:0:0:0:
64,192,50060,1,0,0:0:0:0:
448,192,50244,1,2,0:0:0:0:
320,192,50428,1,0,0:0:0:0:
64,192,50612,1,8,0:0:0:0:
192,192,50612,1,2,0:0:0:0:
320,192,50796,1,0,0:0:0:0:
448,192,50980,1,2,0:0:0:0:
192,192,51164,1,0,0:0:0:0:
320,192,51348,1,8,0:0:0:0:
448,192,51348,1,2,0:0:0:0:
192,192,51532,1,0,0:0:0:0:
64,192,51716,128,2,51992:0:0:0:0:
192,192,51992,1,0,0:0:0:0:
320,192,52084,1,8,0:0:0:0:
448,192,52084,1,2,0:0:0:0:
192,192,52268,1,0,0:0:0:0:
448,192,52452,1,2,0:0:0:0:
320,192,52636,1,0,0:0:0:0:
64,192,52821,1,8,0:0:0:0:
192,192,52821,1,2,0:0:0:0:
320,192,53005,1,0,0:0:0:0:
64,192,53189,1,2,0:0:0:0:
448,192,53189,1,4,0:0:0:0:
64,192,53557,1,2,0:0:0:0:
192,192,53557,128,0,53925:0:0:0:0:
448,192,53925,1,6,0:0:0:0:
320,192,54109,1,8,0:0:0:0:
64,192,54293,1,2,0:0:0:0:
448,192,54477,1,8,0:0:0:0:
192,192,54661,1,6,0:0:0:0:
320,192,54661,128,0,54845:0:0:0:100:twinkling.wav
64,192,54845,128,8,55029:0:0:0:0:
448,192,55029,128,2,55213:0:0:0:0:
192,192,55213,128,8,55397:0:0:0:0:
320,192,55397,1,2,0:0:0:0:
448,192,55581,1,8,0:0:0:0:
192,192,55765,1,2,0:0:0:0:
320,192,55949,128,8,56133:0:0:0:0:
448,192,56133,128,2,56317:0:0:0:0:
192,192,56317,128,8,56502:0:0:0:0:
320,192,56502,128,2,56686:0:0:0:0:
64,192,56686,128,8,56870:0:0:0:0:
448,192,56870,1,2,0:0:0:0:
320,192,57054,1,8,0:0:0:0:
192,192,57238,1,2,0:0:0:0:
448,192,57422,128,8,57606:0:0:0:0:
64,192,57606,128,2,57790:0:0:0:0:
320,192,57790,128,8,57974:0:0:0:0:
448,192,57974,128,2,58158:0:0:0:0:
192,192,58158,128,8,58342:0:0:0:0:
64,192,58342,128,2,58526:0:0:0:0:
320,192,58526,128,8,58710:0:0:0:0:
192,192,58710,128,2,58894:0:0:0:0:
320,192,58894,128,8,59078:0:0:0:0:
448,192,59078,128,2,59262:0:0:0:0:
192,192,59262,128,8,59446:0:0:0:0:
64,192,59446,128,2,59630:0:0:0:0:
448,192,59630,128,8,59814:0:0:0:0:
320,192,59814,128,2,59998:0:0:0:0:
64,192,59998,128,8,60182:0:0:0:0:
192,192,60182,1,2,0:0:0:0:
448,192,60367,1,8,0:0:0:0:
64,192,60551,1,2,0:0:0:0:
192,192,60551,128,4,60735:0:0:0:0:
320,192,60735,128,8,60919:0:0:0:0:
64,192,60919,128,2,61103:0:0:0:0:
448,192,61103,128,8,61287:0:0:0:0:
192,192,61287,1,2,0:0:0:0:
64,192,61471,1,8,0:0:0:0:
320,192,61655,1,2,0:0:0:0:
192,192,61839,128,8,62023:0:0:0:0:
320,192,62023,128,2,62207:0:0:0:0:
448,192,62207,128,8,62391:0:0:0:0:
64,192,62391,128,2,62575:0:0:0:0:
192,192,62575,128,8,62759:0:0:0:0:
448,192,62759,1,2,0:0:0:0:
320,192,62943,1,8,0:0:0:0:
64,192,63127,1,2,0:0:0:0:
192,192,63311,128,8,63495:0:0:0:0:
64,192,63495,128,2,63679:0:0:0:0:
320,192,63679,128,8,63863:0:0:0:0:
448,192,63863,128,2,64048:0:0:0:0:
192,192,64048,128,8,64232:0:0:0:0:
320,192,64232,128,2,64416:0:0:0:0:
64,192,64416,128,8,64600:0:0:0:0:
192,192,64600,128,2,64784:0:0:0:0:
448,192,64784,128,8,64968:0:0:0:0:
64,192,64968,1,2,0:0:0:0:
320,192,64968,1,4,0:0:0:0:
448,192,65336,1,0,0:0:0:0:
320,192,65459,1,0,0:0:0:0:
192,192,65581,1,0,0:0:0:0:
64,192,65704,1,4,0:0:0:0:
448,192,65704,1,2,0:0:0:0:
64,192,66072,1,0,0:0:0:0:
192,192,66195,1,0,0:0:0:0:
320,192,66317,1,0,0:0:0:0:
64,192,66440,1,2,0:0:0:0:
448,192,66440,1,4,0:0:0:0:
64,192,66808,1,4,0:0:0:0:
192,192,66808,1,2,0:0:0:0:
320,192,67176,1,2,0:0:0:0:
448,192,67176,1,4,0:0:0:0:
192,192,67913,128,0,68097:0:0:0:0:
448,192,68097,128,0,68281:0:0:0:0:
64,192,68281,128,0,68465:0:0:0:0:
320,192,68465,128,0,68649:0:0:0:0:
192,192,68649,128,0,68833:0:0:0:0:
448,192,68833,1,0,0:0:0:0:
64,192,69017,128,0,69201:0:0:0:0:
320,192,69201,128,0,69385:0:0:0:0:
448,192,69385,128,0,69569:0:0:0:0:
64,192,69569,128,0,69753:0:0:0:0:
320,192,69753,128,0,69937:0:0:0:0:
192,192,69937,128,0,70121:0:0:0:0:
448,192,70121,128,0,70305:0:0:0:0:
64,192,70305,1,0,0:0:0:0:
320,192,70489,128,0,70673:0:0:0:0:
64,192,70673,128,0,70857:0:0:0:0:
192,192,70857,128,0,71041:0:0:0:0:
320,192,71041,128,0,71225:0:0:0:0:
64,192,71225,128,0,71409:0:0:0:0:
192,192,71409,128,0,71594:0:0:0:0:
448,192,71594,128,0,71778:0:0:0:0:
64,192,71778,1,0,0:0:0:0:
192,192,71962,128,0,72146:0:0:0:0:
320,192,72146,128,0,72330:0:0:0:0:
448,192,72330,128,0,72514:0:0:0:0:
192,192,72514,128,0,72698:0:0:0:0:
64,192,72698,128,0,72882:0:0:0:0:
320,192,72882,128,0,73066:0:0:0:0:
192,192,73066,128,0,73250:0:0:0:0:
448,192,73250,1,0,0:0:0:0:
64,192,73434,128,0,73618:0:0:0:0:
320,192,73618,128,0,73802:0:0:0:0:
448,192,73802,128,0,74293:0:0:0:0:
64,192,74416,1,0,0:0:0:0:
320,192,74538,1,0,0:0:0:0:
64,192,74661,1,0,0:0:0:0:
320,192,74784,1,0,0:0:0:0:
192,192,74906,1,0,0:0:0:0:
448,192,75029,1,0,0:0:0:0:
192,192,75152,1,0,0:0:0:0:
448,192,75275,1,0,0:0:0:0:
320,192,75459,1,0,0:0:0:0:
64,192,75643,1,0,0:0:0:0:
192,192,75735,1,0,0:0:0:0:
320,192,75827,1,0,0:0:0:0:
448,192,75919,128,0,76195:0:0:0:0:
64,192,76195,128,0,76379:0:0:0:0:
192,192,76379,1,0,0:0:0:0:
448,192,76471,1,0,0:0:0:0:
320,192,76563,1,0,0:0:0:0:
192,192,76655,1,0,0:0:0:0:
64,192,76747,128,0,77483:0:0:0:0:
448,192,77483,128,0,77851:0:0:0:0:
64,192,77851,128,0,78219:0:0:0:0:
192,192,78035,128,0,78219:0:0:0:0:
320,192,78219,1,0,0:0:0:0:
448,192,78219,1,0,0:0:0:0:
192,192,78403,1,0,0:0:0:0:
64,192,78587,1,0,0:0:0:0:
448,192,78771,1,0,0:0:0:0:
320,192,78956,1,0,0:0:0:0:
192,192,79140,1,0,0:0:0:0:
64,192,79324,1,0,0:0:0:0:
448,192,79508,1,0,0:0:0:0:
64,192,79692,1,0,0:0:0:0:
192,192,79876,1,0,0:0:0:0:
320,192,80060,1,0,0:0:0:0:
448,192,80244,1,0,0:0:0:0:
64,192,80428,1,0,0:0:0:0:
320,192,80612,1,0,0:0:0:0:
192,192,80796,1,0,0:0:0:0:
64,192,80980,1,0,0:0:0:0:
192,192,81164,1,4,0:0:0:0:
448,192,81164,1,2,0:0:0:0:
320,192,81348,1,0,0:0:0:0:
64,192,81532,1,8,0:0:0:0:
192,192,81532,1,0,0:0:0:0:
320,192,81716,1,0,0:0:0:0:
448,192,81900,1,0,0:0:0:0:
64,192,82084,1,2,0:0:0:0:
192,192,82268,1,8,0:0:0:0:
448,192,82268,1,0,0:0:0:0:
320,192,82636,1,2,0:0:0:0:
448,192,82821,1,0,0:0:0:0:
64,192,83005,1,8,0:0:0:0:
192,192,83005,1,0,0:0:0:0:
320,192,83189,1,0,0:0:0:0:
448,192,83373,1,0,0:0:0:0:
320,192,83557,1,2,0:0:0:0:
64,192,83741,1,8,0:0:0:0:
192,192,83741,1,0,0:0:0:0:
448,192,84109,1,2,0:0:0:0:
320,192,84293,1,0,0:0:0:0:
64,192,84477,1,8,0:0:0:0:
192,192,84477,1,0,0:0:0:0:
448,192,84661,1,0,0:0:0:0:
64,192,84845,1,0,0:0:0:0:
192,192,85029,1,2,0:0:0:0:
320,192,85213,1,8,0:0:0:0:
448,192,85213,1,0,0:0:0:0:
64,192,85397,1,0,0:0:0:0:
320,192,85581,1,2,0:0:0:0:
192,192,85765,1,0,0:0:0:0:
64,192,85949,1,8,0:0:0:0:
448,192,85949,1,2,0:0:0:0:
192,192,86133,1,0,0:0:0:0:
448,192,86317,1,0,0:0:0:0:
64,192,86502,1,2,0:0:0:0:
320,192,86686,1,0,0:0:0:0:
192,192,86870,1,8,0:0:0:0:
64,192,87054,1,4,0:0:0:0:
448,192,87054,1,2,0:0:0:0:
192,192,87238,1,0,0:0:0:0:
320,192,87422,1,8,0:0:0:0:
448,192,87422,1,0,0:0:0:0:
64,192,87606,1,0,0:0:0:0:
320,192,87790,1,0,0:0:0:0:
448,192,87974,1,2,0:0:0:0:
64,192,88158,1,8,0:0:0:0:
192,192,88158,1,0,0:0:0:0:
320,192,88526,1,2,0:0:0:0:
64,192,88710,1,0,0:0:0:0:
192,192,88894,1,8,0:0:0:0:
448,192,88894,1,0,0:0:0:0:
320,192,89078,1,0,0:0:0:0:
448,192,89262,1,0,0:0:0:0:
192,192,89446,1,2,0:0:0:0:
64,192,89630,1,8,0:0:0:0:
320,192,89630,1,0,0:0:0:0:
448,192,89998,1,2,0:0:0:0:
320,192,90182,1,0,0:0:0:0:
64,192,90367,1,8,0:0:0:0:
192,192,90367,1,0,0:0:0:0:
320,192,90551,1,0,0:0:0:0:
448,192,90735,1,0,0:0:0:0:
64,192,90919,1,2,0:0:0:0:
320,192,91103,1,8,0:0:0:0:
448,192,91103,1,0,0:0:0:0:
192,192,91287,1,0,0:0:0:0:
64,192,91471,128,2,91655:0:0:0:0:
192,192,91655,128,0,91839:0:0:0:0:
64,192,91839,1,8,0:0:0:0:
320,192,91839,128,2,92023:0:0:0:0:
448,192,92023,128,0,92207:0:0:0:0:
192,192,92207,1,0,0:0:0:0:
64,192,92391,1,2,0:0:0:0:
320,192,92575,1,0,0:0:0:0:
448,192,92575,1,0,0:0:0:0:
64,192,92943,1,4,0:0:0:0:
448,192,92943,1,2,0:0:0:0:
320,192,93127,128,0,93311:0:0:0:0:
64,192,93311,1,8,0:0:0:0:
192,192,93311,1,2,0:0:0:0:
448,192,93495,1,0,0:0:0:0:
320,192,93679,1,2,0:0:0:0:
64,192,93863,1,0,0:0:0:0:
192,192,94048,1,8,0:0:0:0:
448,192,94048,1,2,0:0:0:0:
320,192,94232,1,0,0:0:0:0:
64,192,94416,128,2,94600:0:0:0:0:
448,192,94600,1,0,0:0:0:0:
192,192,94784,128,8,94968:0:0:0:0:
320,192,94784,1,2,0:0:0:0:
64,192,94968,1,0,0:0:0:0:
320,192,95152,128,2,95336:0:0:0:0:
448,192,95336,1,0,0:0:0:0:
64,192,95520,1,8,0:0:0:0:
448,192,95520,1,2,0:0:0:0:
64,192,95888,128,2,96256:0:0:0:0:
192,192,96072,128,0,96256:0:0:0:0:
320,192,96256,1,8,0:0:0:0:
448,192,96256,1,2,0:0:0:0:
192,192,96440,1,0,0:0:0:0:
320,192,96624,1,2,0:0:0:0:
64,192,96808,1,0,0:0:0:0:
192,192,96992,1,8,0:0:0:0:
448,192,96992,128,2,97360:0:0:0:0:
320,192,97176,128,0,97360:0:0:0:0:
64,192,97360,1,2,0:0:0:0:
192,192,97544,1,0,0:0:0:0:
320,192,97729,1,8,0:0:0:0:
448,192,97729,1,2,0:0:0:0:
192,192,97913,1,0,0:0:0:0:
64,192,98097,1,2,0:0:0:0:
320,192,98281,1,8,0:0:0:0:
448,192,98281,1,0,0:0:0:0:
192,192,98465,1,2,0:0:0:0:
64,192,98649,1,8,0:0:0:0:
192,192,98833,1,4,0:0:0:0:
320,192,98833,1,2,0:0:0:0:
448,192,99017,128,0,99201:0:0:0:0:
64,192,99201,1,8,0:0:0:0:
192,192,99201,1,2,0:0:0:0:
320,192,99385,1,0,0:0:0:0:
448,192,99569,1,2,0:0:0:0:
192,192,99753,1,0,0:0:0:0:
64,192,99937,1,8,0:0:0:0:
448,192,99937,1,2,0:0:0:0:
192,192,100121,1,0,0:0:0:0:
320,192,100305,128,2,100489:0:0:0:0:
448,192,100489,1,0,0:0:0:0:
64,192,100673,1,8,0:0:0:0:
192,192,100673,128,2,100857:0:0:0:0:
320,192,100857,1,0,0:0:0:0:
64,192,101041,128,2,101225:0:0:0:0:
192,192,101225,1,0,0:0:0:0:
192,192,101409,1,8,0:0:0:0:
448,192,101409,1,2,0:0:0:0:
192,192,101778,128,2,102146:0:0:0:0:
64,192,101962,128,0,102146:0:0:0:0:
320,192,102146,1,8,0:0:0:0:
448,192,102146,1,2,0:0:0:0:
192,192,102330,1,0,0:0:0:0:
448,192,102514,1,2,0:0:0:0:
64,192,102698,1,0,0:0:0:0:
192,192,102882,1,8,0:0:0:0:
320,192,102882,128,2,103250:0:0:0:0:
448,192,103066,128,0,103250:0:0:0:0:
64,192,103250,128,2,103434:0:0:0:0:
192,192,103434,128,0,103618:0:0:0:0:
320,192,103618,1,8,0:0:0:0:
448,192,103618,128,2,103802:0:0:0:0:
64,192,103802,128,0,103986:0:0:0:0:
320,192,103986,1,2,0:0:0:0:
448,192,103986,1,4,0:0:0:0:
64,192,104170,1,4,0:0:0:0:
192,192,104170,1,2,0:0:0:0:
320,192,104354,1,2,0:0:0:0:
448,192,104354,1,4,0:0:0:0:
64,192,104722,128,0,104998:0:0:0:0:
192,192,104998,1,0,0:0:0:0:
448,192,105090,1,0,0:0:0:0:
192,192,105275,1,0,0:0:0:0:
64,192,105459,1,0,0:0:0:0:
320,192,105643,1,0,0:0:0:0:
448,192,105827,1,0,0:0:0:0:
64,192,106011,1,0,0:0:0:0:
320,192,106195,1,0,0:0:0:0:
192,192,106379,1,0,0:0:0:0:
64,192,106563,1,0,0:0:0:0:
192,192,106747,1,0,0:0:0:0:
320,192,106931,1,0,0:0:0:0:
64,192,107115,1,0,0:0:0:0:
448,192,107299,1,0,0:0:0:0:
192,192,107483,1,0,0:0:0:0:
448,192,107667,128,0,107943:0:0:0:0:
320,192,107943,1,0,0:0:0:0:
192,192,108035,1,0,0:0:0:0:
320,192,108219,1,0,0:0:0:0:
64,192,108403,1,0,0:0:0:0:
448,192,108587,1,0,0:0:0:0:
320,192,108771,1,0,0:0:0:0:
192,192,108956,1,0,0:0:0:0:
320,192,109140,1,0,0:0:0:0:
192,192,109324,1,0,0:0:0:0:
64,192,109508,1,0,0:0:0:0:
320,192,109692,1,0,0:0:0:0:
448,192,109876,1,0,0:0:0:0:
192,192,110060,1,0,0:0:0:0:
320,192,110244,1,0,0:0:0:0:
192,192,110428,1,0,0:0:0:0:
64,192,110612,128,0,110888:0:0:0:0:
192,192,110888,1,0,0:0:0:0:
448,192,110980,1,0,0:0:0:0:
192,192,111164,1,0,0:0:0:0:
64,192,111348,1,0,0:0:0:0:
320,192,111532,1,0,0:0:0:0:
192,192,111716,1,0,0:0:0:0:
320,192,111900,1,0,0:0:0:0:
448,192,112084,1,0,0:0:0:0:
64,192,112268,1,0,0:0:0:0:
192,192,112452,1,0,0:0:0:0:
64,192,112636,1,0,0:0:0:0:
320,192,112821,1,0,0:0:0:0:
448,192,113005,1,0,0:0:0:0:
64,192,113189,1,0,0:0:0:0:
192,192,113373,1,0,0:0:0:0:
448,192,113557,128,0,113833:0:0:0:0:
320,192,113833,1,0,0:0:0:0:
192,192,113925,1,0,0:0:0:0:
320,192,114109,1,0,0:0:0:0:
64,192,114293,1,0,0:0:0:0:
448,192,114477,1,0,0:0:0:0:
192,192,114661,1,0,0:0:0:0:
64,192,114845,1,0,0:0:0:0:
320,192,115029,1,0,0:0:0:0:
320,192,115397,128,0,115765:0:0:0:0:
64,192,115765,128,0,115949:0:0:0:0:
448,192,115949,1,0,0:0:0:0:
320,192,116133,1,0,0:0:0:0:
64,192,116317,1,0,0:0:0:0:
192,192,116502,128,6,116686:0:0:0:0:
320,192,116502,1,0,0:0:0:100:twinkling.wav
448,192,116686,128,8,116870:0:0:0:0:
64,192,116870,128,2,117054:0:0:0:0:
320,192,117054,128,8,117238:0:0:0:0:
192,192,117238,1,2,0:0:0:0:
64,192,117422,1,8,0:0:0:0:
320,192,117606,1,2,0:0:0:0:
192,192,117790,128,8,117974:0:0:0:0:
64,192,117974,128,2,118158:0:0:0:0:
320,192,118158,128,8,118342:0:0:0:0:
192,192,118342,128,2,118526:0:0:0:0:
448,192,118526,128,8,118710:0:0:0:0:
64,192,118710,1,2,0:0:0:0:
192,192,118894,1,8,0:0:0:0:
320,192,119078,1,2,0:0:0:0:
64,192,119262,128,8,119446:0:0:0:0:
448,192,119446,128,2,119630:0:0:0:0:
192,192,119630,128,8,119814:0:0:0:0:
64,192,119814,128,2,119998:0:0:0:0:
320,192,119998,128,8,120182:0:0:0:0:
448,192,120182,128,2,120367:0:0:0:0:
192,192,120367,128,8,120551:0:0:0:0:
320,192,120551,128,2,120735:0:0:0:0:
192,192,120735,128,8,120919:0:0:0:0:
64,192,120919,128,2,121103:0:0:0:0:
320,192,121103,128,8,121287:0:0:0:0:
448,192,121287,128,2,121471:0:0:0:0:
64,192,121471,128,8,121655:0:0:0:0:
192,192,121655,128,2,121839:0:0:0:0:
448,192,121839,128,8,122023:0:0:0:0:
320,192,122023,1,2,0:0:0:0:
64,192,122207,1,8,0:0:0:0:
320,192,122391,128,4,122575:0:0:0:0:
448,192,122391,1,2,0:0:0:0:
192,192,122575,128,8,122759:0:0:0:0:
448,192,122759,128,2,122943:0:0:0:0:
64,192,122943,128,8,123127:0:0:0:0:
320,192,123127,1,2,0:0:0:0:
448,192,123311,1,8,0:0:0:0:
192,192,123495,1,2,0:0:0:0:
320,192,123679,128,8,123863:0:0:0:0:
192,192,123863,128,2,124048:0:0:0:0:
64,192,124048,128,8,124232:0:0:0:0:
448,192,124232,128,2,124416:0:0:0:0:
320,192,124416,128,8,124600:0:0:0:0:
64,192,124600,1,2,0:0:0:0:
192,192,124784,1,8,0:0:0:0:
448,192,124968,1,2,0:0:0:0:
320,192,125152,128,8,125336:0:0:0:0:
448,192,125336,128,2,125520:0:0:0:0:
192,192,125520,128,8,125704:0:0:0:0:
64,192,125704,128,2,125888:0:0:0:0:
320,192,125888,128,8,126072:0:0:0:0:
192,192,126072,128,2,126256:0:0:0:0:
448,192,126256,128,8,126440:0:0:0:0:
320,192,126440,128,2,126624:0:0:0:0:
64,192,126624,128,8,126808:0:0:0:0:
192,192,126808,1,4,0:0:0:0:
448,192,126808,1,2,0:0:0:0:
64,192,127176,1,0,0:0:0:0:
192,192,127299,1,0,0:0:0:0:
320,192,127422,1,0,0:0:0:0:
64,192,127544,1,2,0:0:0:0:
448,192,127544,1,4,0:0:0:0:
448,192,127913,1,0,0:0:0:0:
320,192,128035,1,0,0:0:0:0:
192,192,128158,1,0,0:0:0:0:
64,192,128281,1,4,0:0:0:0:
448,192,128281,1,2,0:0:0:0:
64,192,128649,1,2,0:0:0:0:
192,192,128649,1,4,0:0:0:0:
320,192,129017,1,4,0:0:0:0:
448,192,129017,1,2,0:0:0:0:
64,192,129385,1,0,0:0:0:0:
192,192,129508,1,0,0:0:0:0:
448,192,129630,1,0,0:0:0:0:
64,192,129753,1,2,0:0:0:0:
320,192,129753,1,4,0:0:0:0:
192,192,130121,1,0,0:0:0:0:
320,192,130244,1,0,0:0:0:0:
448,192,130367,1,0,0:0:0:0:
64,192,130489,1,4,0:0:0:0:
192,192,130489,1,2,0:0:0:0:
320,192,130857,1,0,0:0:0:0:
192,192,130980,1,0,0:0:0:0:
64,192,131103,1,0,0:0:0:0:
320,192,131225,1,2,0:0:0:0:
448,192,131225,1,4,0:0:0:0:
64,192,131594,1,4,0:0:0:0:
192,192,131594,1,2,0:0:0:0:
64,192,131962,1,2,0:0:0:0:
448,192,131962,1,4,0:0:0:0:
64,192,132698,1,4,0:0:0:0:
192,192,132698,128,2,133066:0:0:0:0:
448,192,133066,1,2,0:0:0:0:
320,192,133250,1,0,0:0:0:0:
192,192,133342,1,0,0:0:0:0:
64,192,133434,1,2,0:0:0:0:
448,192,133434,128,4,133802:0:0:0:0:
320,192,133802,1,2,0:0:0:0:
192,192,133986,1,0,0:0:0:0:
320,192,134078,1,0,0:0:0:0:
64,192,134170,128,4,134538:0:0:0:0:
448,192,134170,1,2,0:0:0:0:
320,192,134538,1,2,0:0:0:0:
192,192,134722,1,0,0:0:0:0:
64,192,134814,1,0,0:0:0:0:
320,192,134906,128,2,135275:0:0:0:0:
448,192,134906,1,4,0:0:0:0:
192,192,135275,1,2,0:0:0:0:
64,192,135459,1,0,0:0:0:0:
192,192,135551,1,0,0:0:0:0:
320,192,135643,1,4,0:0:0:0:
448,192,135643,128,2,136011:0:0:0:0:
64,192,136011,1,2,0:0:0:0:
320,192,136195,1,0,0:0:0:0:
448,192,136287,1,0,0:0:0:0:
64,192,136379,1,2,0:0:0:0:
192,192,136379,128,4,136747:0:0:0:0:
320,192,136747,1,2,0:0:0:0:
448,192,136931,1,0,0:0:0:0:
320,192,137023,1,0,0:0:0:0:
64,192,137115,128,4,137483:0:0:0:0:
192,192,137115,1,2,0:0:0:0:
448,192,137483,1,2,0:0:0:0:
320,192,137667,1,0,0:0:0:0:
192,192,137759,1,0,0:0:0:0:
64,192,137851,1,2,0:0:0:0:
448,192,137851,128,4,138219:0:0:0:0:
320,192,138219,1,2,0:0:0:0:
64,192,138403,1,0,0:0:0:0:
192,192,138495,1,0,0:0:0:0:
320,192,138587,128,4,138956:0:0:0:0:
448,192,138587,1,2,0:0:0:0:
64,192,138956,1,2,0:0:0:0:
192,192,139140,1,0,0:0:0:0:
320,192,139232,1,0,0:0:0:0:
64,192,139324,128,2,139692:0:0:0:0:
448,192,139324,1,4,0:0:0:0:
192,192,139692,1,2,0:0:0:0:
320,192,139876,1,0,0:0:0:0:
448,192,139968,1,0,0:0:0:0:
64,192,140060,1,4,0:0:0:0:
192,192,140060,128,2,140428:0:0:0:0:
320,192,140428,1,2,0:0:0:0:
64,192,140612,1,0,0:0:0:0:
192,192,140704,1,0,0:0:0:0:
320,192,140796,1,2,0:0:0:0:
448,192,140796,128,4,141164:0:0:0:0:
192,192,141164,1,2,0:0:0:0:
320,192,141348,1,0,0:0:0:0:
192,192,141440,1,0,0:0:0:0:
64,192,141532,128,4,141900:0:0:0:0:
448,192,141532,1,2,0:0:0:0:
192,192,141900,1,2,0:0:0:0:
448,192,142084,1,0,0:0:0:0:
320,192,142176,1,0,0:0:0:0:
64,192,142268,1,2,0:0:0:0:
192,192,142268,128,4,142636:0:0:0:0:
448,192,142636,1,2,0:0:0:0:
64,192,142821,1,0,0:0:0:0:
192,192,142913,1,0,0:0:0:0:
320,192,143005,1,4,0:0:0:0:
448,192,143005,128,2,143373:0:0:0:0:
64,192,143373,1,2,0:0:0:0:
192,192,143557,1,0,0:0:0:0:
64,192,143649,1,0,0:0:0:0:
320,192,143741,128,2,144109:0:0:0:0:
448,192,143741,1,4,0:0:0:0:
64,192,144109,1,4,0:0:0:0:
192,192,144109,1,2,0:0:0:0:
320,192,144293,1,0,0:0:0:0:
64,192,144385,1,0,0:0:0:0:
448,192,144477,128,0,144661:0:0:0:0:
320,192,144661,128,0,144845:0:0:0:0:
192,192,144845,128,0,145029:0:0:0:0:
64,192,145029,128,0,145213:0:0:0:0:
448,192,145213,128,0,145397:0:0:0:0:
320,192,145397,128,0,145581:0:0:0:0:
192,192,145581,128,0,145765:0:0:0:0:
64,192,145765,128,0,145949:0:0:0:0:
448,192,145949,128,0,146133:0:0:0:0:
320,192,146133,128,0,146317:0:0:0:0:
192,192,146317,128,0,146502:0:0:0:0:
64,192,146502,128,0,146686:0:0:0:0:
448,192,146686,1,0,0:0:0:0:
64,192,146870,1,4,0:0:0:0:
192,192,146870,1,2,0:0:0:0:
320,192,147054,1,2,0:0:0:0:
448,192,147054,1,4,0:0:0:0:
