osu file format v14

[General]
AudioFilename: audio.mp3
AudioLeadIn: 0
PreviewTime: 115949
Countdown: 0
SampleSet: Soft
StackLeniency: 0.7
Mode: 3
LetterboxInBreaks: 0
SpecialStyle: 0
WidescreenStoryboard: 1

[Editor]
Bookmarks: 183,7544,19324,31103,42882,53189,54661,64968,67913,81164,92943,104722,115949,116502,126808,132698,144477,147054
DistanceSpacing: 1.4
BeatDivisor: 4
GridSize: 8
TimelineZoom: 3.199999

[Metadata]
Title:Hazukashigariya no Toy Soldier
TitleUnicode:はずかしがりやのトイ・ソルジャー
Artist:AAAA
ArtistUnicode:ああああ
Creator:Angki
Version:Hard
Source:
Tags:toy → pop fantasia! 8bit electronic instrumental britpop chiptune toypop vgm AHC-0013 ああ...翡翠茶漬け.. aa...hisui chazuke... M3 2019
BeatmapID:2325441
BeatmapSetID:1113145

[Difficulty]
HPDrainRate:8
CircleSize:4
OverallDifficulty:8
ApproachRate:5
SliderMultiplier:1.4
SliderTickRate:1

[Events]
//Background and Video events
0,0,"Background.jpg",0,0
//Break Periods
//Storyboard Layer 0 (Background)
//Storyboard Layer 1 (Fail)
//Storyboard Layer 2 (Pass)
//Storyboard Layer 3 (Foreground)
//Storyboard Layer 4 (Overlay)
//Storyboard Sound Samples

[TimingPoints]
183,368.098159509202,4,2,1,65,1,0
42882,-100.0,4,2,1,65,0,1
53189,-100.0,4,2,1,65,0,0
54661,-100.0,4,2,1,65,0,1
64968,-100.0,4,2,1,65,0,0
67913,-100.0,4,2,1,20,0,0
73802,-100.0,4,2,1,25,0,0
74416,-100.0,4,2,1,30,0,0
74538,-100.0,4,2,1,35,0,0
74661,-100.0,4,2,1,40,0,0
74784,-100.0,4,2,1,45,0,0
74907,-100.0,4,2,1,50,0,0
75029,-100.0,4,2,1,55,0,0
75152,-100.0,4,2,1,60,0,0
75275,-100.0,4,2,1,65,0,0
116502,-100.0,4,2,1,65,0,1
126808,-100.0,4,2,1,65,0,0

[HitObjects]
64,192,183,1,2,0:0:0:0:
320,192,183,1,4,0:0:0:0:
448,192,183,128,0,551:0:0:0:0:
192,192,551,1,2,0:0:0:0:
320,192,551,1,0,0:0:0:0:
64,192,735,1,0,0:0:0:0:
192,192,827,1,0,0:0:0:0:
64,192,919,128,2,1287:0:0:0:0:
320,192,919,1,4,0:0:0:0:
448,192,919,1,0,0:0:0:0:
192,192,1287,1,2,0:0:0:0:
448,192,1287,1,0,0:0:0:0:
320,192,1471,1,0,0:0:0:0:
64,192,1563,1,0,0:0:0:0:
192,192,1655,1,4,0:0:0:0:
320,192,1655,128,2,2023:0:0:0:0:
448,192,1655,1,0,0:0:0:0:
64,192,2023,1,2,0:0:0:0:
192,192,2023,1,0,0:0:0:0:
448,192,2207,1,0,0:0:0:0:
192,192,2299,1,0,0:0:0:0:
64,192,2391,1,2,0:0:0:0:
320,192,2391,1,4,0:0:0:0:
448,192,2391,128,0,2759:0:0:0:0:
192,192,2759,1,2,0:0:0:0:
320,192,2759,1,0,0:0:0:0:
64,192,2943,1,0,0:0:0:0:
192,192,3035,1,0,0:0:0:0:
64,192,3127,128,4,3495:0:0:0:0:
320,192,3127,1,2,0:0:0:0:
448,192,3127,1,0,0:0:0:0:
192,192,3495,1,2,0:0:0:0:
448,192,3495,1,0,0:0:0:0:
320,192,3679,1,0,0:0:0:0:
448,192,3771,1,0,0:0:0:0:
64,192,3863,1,2,0:0:0:0:
192,192,3863,1,4,0:0:0:0:
320,192,3863,128,0,4232:0:0:0:0:
64,192,4232,1,2,0:0:0:0:
448,192,4232,1,0,0:0:0:0:
192,192,4416,1,0,0:0:0:0:
448,192,4508,1,0,0:0:0:0:
64,192,4600,1,4,0:0:0:0:
192,192,4600,128,2,4968:0:0:0:0:
320,192,4600,1,0,0:0:0:0:
320,192,4968,1,2,0:0:0:0:
448,192,4968,1,0,0:0:0:0:
64,192,5152,1,0,0:0:0:0:
320,192,5244,1,0,0:0:0:0:
64,192,5336,128,2,6808:0:0:0:0:
192,192,5336,1,4,0:0:0:0:
448,192,5336,1,0,0:0:0:0:
320,192,5428,1,0,0:0:0:0:
448,192,5520,1,0,0:0:0:0:
192,192,5612,1,0,0:0:0:0:
320,192,5704,1,0,0:0:0:0:
448,192,5796,1,0,0:0:0:0:
192,192,5888,1,0,0:0:0:0:
320,192,5980,1,0,0:0:0:0:
448,192,6072,1,0,0:0:0:0:
192,192,6164,1,0,0:0:0:0:
320,192,6256,1,0,0:0:0:0:
448,192,6348,1,0,0:0:0:0:
192,192,6440,1,0,0:0:0:0:
320,192,6532,1,0,0:0:0:0:
448,192,6624,1,0,0:0:0:0:
192,192,6716,1,0,0:0:0:0:
320,192,6808,1,0,0:0:0:0:
448,192,6900,1,0,0:0:0:0:
192,192,6992,1,0,0:0:0:0:
64,192,7084,1,0,0:0:0:0:
320,192,7176,1,0,0:0:0:0:
64,192,7544,1,2,0:0:0:0:
320,192,7544,1,4,0:0:0:0:
448,192,7544,1,0,0:0:0:0:
192,192,7636,1,0,0:0:0:0:
448,192,7729,1,0,0:0:0:0:
64,192,7821,1,2,0:0:0:0:
192,192,7913,1,8,0:0:0:0:
320,192,7913,1,0,0:0:0:0:
448,192,8005,1,0,0:0:0:0:
64,192,8097,1,0,0:0:0:0:
320,192,8189,1,2,0:0:0:0:
192,192,8281,1,0,0:0:0:0:
448,192,8281,1,0,0:0:0:0:
64,192,8465,1,2,0:0:0:0:
320,192,8465,1,0,0:0:0:0:
192,192,8649,1,8,0:0:0:0:
448,192,8649,1,0,0:0:0:0:
320,192,8833,1,0,0:0:0:0:
64,192,8925,1,2,0:0:0:0:
448,192,9017,1,2,0:0:0:0:
192,192,9109,1,0,0:0:0:0:
64,192,9201,1,0,0:0:0:0:
320,192,9293,1,2,0:0:0:0:
64,192,9385,1,8,0:0:0:0:
448,192,9385,1,0,0:0:0:0:
320,192,9477,1,0,0:0:0:0:
192,192,9569,1,0,0:0:0:0:
448,192,9661,1,2,0:0:0:0:
64,192,9753,1,0,0:0:0:0:
192,192,9753,1,0,0:0:0:0:
320,192,9937,1,2,0:0:0:0:
448,192,9937,1,0,0:0:0:0:
64,192,10121,1,8,0:0:0:0:
192,192,10121,1,0,0:0:0:0:
448,192,10305,1,0,0:0:0:0:
320,192,10397,1,2,0:0:0:0:
64,192,10489,1,2,0:0:0:0:
448,192,10581,1,0,0:0:0:0:
192,192,10673,1,0,0:0:0:0:
320,192,10765,1,2,0:0:0:0:
64,192,10857,1,8,0:0:0:0:
448,192,10857,1,0,0:0:0:0:
192,192,10949,1,0,0:0:0:0:
64,192,11041,1,0,0:0:0:0:
320,192,11133,1,2,0:0:0:0:
448,192,11225,1,0,0:0:0:0:
320,192,11317,1,0,0:0:0:0:
64,192,11409,1,2,0:0:0:0:
192,192,11502,1,0,0:0:0:0:
320,192,11594,1,8,0:0:0:0:
448,192,11594,1,0,0:0:0:0:
192,192,11686,1,2,0:0:0:0:
64,192,11778,1,0,0:0:0:0:
448,192,11870,1,2,0:0:0:0:
320,192,11962,1,2,0:0:0:0:
64,192,12054,1,0,0:0:0:0:
192,192,12146,1,0,0:0:0:0:
320,192,12238,1,2,0:0:0:0:
64,192,12330,1,8,0:0:0:0:
192,192,12330,1,2,0:0:0:0:
448,192,12422,1,2,0:0:0:0:
320,192,12514,1,0,0:0:0:0:
192,192,12606,1,8,0:0:0:0:
64,192,12698,1,0,0:0:0:0:
320,192,12698,1,0,0:0:0:0:
64,192,12882,1,2,0:0:0:0:
192,192,12882,1,0,0:0:0:0:
448,192,13066,1,0,0:0:0:0:
192,192,13158,1,2,0:0:0:0:
320,192,13250,1,8,0:0:0:0:
64,192,13342,1,0,0:0:0:0:
192,192,13434,1,2,0:0:0:0:
320,192,13434,1,4,0:0:0:0:
448,192,13434,1,0,0:0:0:0:
64,192,13526,1,0,0:0:0:0:
448,192,13618,1,0,0:0:0:0:
320,192,13710,1,2,0:0:0:0:
64,192,13802,1,8,0:0:0:0:
192,192,13802,1,0,0:0:0:0:
320,192,13894,1,0,0:0:0:0:
192,192,13986,1,0,0:0:0:0:
64,192,14078,1,2,0:0:0:0:
320,192,14170,1,0,0:0:0:0:
448,192,14170,1,0,0:0:0:0:
64,192,14354,1,2,0:0:0:0:
192,192,14354,1,0,0:0:0:0:
320,192,14538,1,8,0:0:0:0:
448,192,14538,1,0,0:0:0:0:
64,192,14722,1,0,0:0:0:0:
320,192,14814,1,2,0:0:0:0:
448,192,14906,1,2,0:0:0:0:
320,192,14998,1,0,0:0:0:0:
192,192,15090,1,0,0:0:0:0:
448,192,15182,1,2,0:0:0:0:
64,192,15275,1,8,0:0:0:0:
192,192,15275,1,0,0:0:0:0:
320,192,15367,1,0,0:0:0:0:
448,192,15459,1,0,0:0:0:0:
64,192,15551,1,2,0:0:0:0:
192,192,15643,1,0,0:0:0:0:
448,192,15643,1,0,0:0:0:0:
64,192,15827,1,2,0:0:0:0:
320,192,15827,1,0,0:0:0:0:
192,192,16011,1,8,0:0:0:0:
448,192,16011,1,0,0:0:0:0:
320,192,16195,1,0,0:0:0:0:
64,192,16287,1,2,0:0:0:0:
192,192,16379,1,2,0:0:0:0:
448,192,16471,1,0,0:0:0:0:
64,192,16563,1,0,0:0:0:0:
320,192,16655,1,2,0:0:0:0:
64,192,16747,1,8,0:0:0:0:
192,192,16747,1,0,0:0:0:0:
448,192,16839,1,0,0:0:0:0:
192,192,16931,1,0,0:0:0:0:
320,192,17023,1,2,0:0:0:0:
64,192,17115,1,0,0:0:0:0:
192,192,17207,1,0,0:0:0:0:
448,192,17299,1,2,0:0:0:0:
320,192,17391,1,0,0:0:0:0:
64,192,17483,1,8,0:0:0:0:
192,192,17483,1,0,0:0:0:0:
448,192,17575,1,2,0:0:0:0:
192,192,17667,1,0,0:0:0:0:
64,192,17759,1,2,0:0:0:0:
320,192,17851,1,2,0:0:0:0:
192,192,17943,1,0,0:0:0:0:
320,192,18035,1,0,0:0:0:0:
64,192,18127,1,2,0:0:0:0:
192,192,18219,1,8,0:0:0:0:
448,192,18219,1,2,0:0:0:0:
64,192,18311,1,2,0:0:0:0:
320,192,18403,1,0,0:0:0:0:
192,192,18495,1,8,0:0:0:0:
64,192,18587,1,0,0:0:0:0:
448,192,18587,1,0,0:0:0:0:
192,192,18771,1,2,0:0:0:0:
320,192,18771,1,0,0:0:0:0:
64,192,18956,1,0,0:0:0:0:
448,192,18956,1,0,0:0:0:0:
64,192,19324,1,2,0:0:0:0:
320,192,19324,1,4,0:0:0:0:
448,192,19324,1,0,0:0:0:0:
192,192,19416,1,0,0:0:0:0:
448,192,19508,1,0,0:0:0:0:
64,192,19600,1,0,0:0:0:0:
192,192,19692,1,8,0:0:0:0:
320,192,19692,1,2,0:0:0:0:
448,192,19784,1,0,0:0:0:0:
192,192,19876,1,0,0:0:0:0:
64,192,19968,1,0,0:0:0:0:
320,192,20060,1,2,0:0:0:0:
448,192,20060,1,0,0:0:0:0:
64,192,20244,1,0,0:0:0:0:
192,192,20244,1,0,0:0:0:0:
320,192,20428,1,8,0:0:0:0:
448,192,20428,1,2,0:0:0:0:
192,192,20612,1,0,0:0:0:0:
448,192,20704,1,0,0:0:0:0:
192,192,20796,1,2,0:0:0:0:
320,192,20796,1,0,0:0:0:0:
64,192,20888,1,0,0:0:0:0:
448,192,20980,1,0,0:0:0:0:
320,192,21072,1,0,0:0:0:0:
64,192,21164,1,8,0:0:0:0:
448,192,21164,1,2,0:0:0:0:
192,192,21256,1,0,0:0:0:0:
320,192,21348,1,0,0:0:0:0:
448,192,21440,1,0,0:0:0:0:
64,192,21532,1,2,0:0:0:0:
192,192,21532,1,0,0:0:0:0:
320,192,21716,1,0,0:0:0:0:
448,192,21716,1,0,0:0:0:0:
64,192,21900,1,8,0:0:0:0:
192,192,21900,1,2,0:0:0:0:
320,192,22084,1,0,0:0:0:0:
192,192,22176,1,0,0:0:0:0:
64,192,22268,1,2,0:0:0:0:
320,192,22268,1,0,0:0:0:0:
448,192,22360,1,0,0:0:0:0:
192,192,22452,1,0,0:0:0:0:
320,192,22544,1,0,0:0:0:0:
64,192,22636,1,8,0:0:0:0:
192,192,22636,1,2,0:0:0:0:
448,192,22729,1,0,0:0:0:0:
320,192,22821,1,0,0:0:0:0:
192,192,22913,1,0,0:0:0:0:
64,192,23005,1,2,0:0:0:0:
448,192,23005,1,0,0:0:0:0:
320,192,23097,1,0,0:0:0:0:
64,192,23189,1,0,0:0:0:0:
448,192,23281,1,0,0:0:0:0:
192,192,23373,1,8,0:0:0:0:
320,192,23373,1,2,0:0:0:0:
448,192,23465,1,0,0:0:0:0:
64,192,23557,1,0,0:0:0:0:
192,192,23649,1,0,0:0:0:0:
64,192,23741,1,2,0:0:0:0:
320,192,23741,1,0,0:0:0:0:
448,192,23833,1,0,0:0:0:0:
192,192,23925,1,0,0:0:0:0:
320,192,24017,1,0,0:0:0:0:
64,192,24109,1,8,0:0:0:0:
448,192,24109,1,2,0:0:0:0:
192,192,24201,1,0,0:0:0:0:
320,192,24293,1,0,0:0:0:0:
448,192,24385,1,8,0:0:0:0:
64,192,24477,1,2,0:0:0:0:
192,192,24477,1,0,0:0:0:0:
192,192,24661,1,8,0:0:0:0:
448,192,24661,1,0,0:0:0:0:
64,192,24845,1,2,0:0:0:0:
448,192,24845,1,0,0:0:0:0:
192,192,24937,1,0,0:0:0:0:
320,192,25029,1,8,0:0:0:0:
448,192,25121,1,0,0:0:0:0:
64,192,25213,1,2,0:0:0:0:
192,192,25213,1,4,0:0:0:0:
320,192,25213,1,0,0:0:0:0:
448,192,25305,1,0,0:0:0:0:
64,192,25397,1,0,0:0:0:0:
192,192,25489,1,0,0:0:0:0:
320,192,25581,1,8,0:0:0:0:
448,192,25581,1,2,0:0:0:0:
64,192,25673,1,0,0:0:0:0:
448,192,25765,1,0,0:0:0:0:
320,192,25857,1,0,0:0:0:0:
64,192,25949,1,2,0:0:0:0:
192,192,25949,1,0,0:0:0:0:
320,192,26133,1,0,0:0:0:0:
448,192,26133,1,0,0:0:0:0:
64,192,26317,1,8,0:0:0:0:
192,192,26317,1,2,0:0:0:0:
448,192,26502,1,0,0:0:0:0:
192,192,26594,1,0,0:0:0:0:
64,192,26686,1,2,0:0:0:0:
320,192,26686,1,0,0:0:0:0:
448,192,26778,1,0,0:0:0:0:
192,192,26870,1,0,0:0:0:0:
64,192,26962,1,0,0:0:0:0:
192,192,27054,1,8,0:0:0:0:
320,192,27054,1,2,0:0:0:0:
448,192,27146,1,0,0:0:0:0:
64,192,27238,1,0,0:0:0:0:
192,192,27330,1,0,0:0:0:0:
320,192,27422,1,2,0:0:0:0:
448,192,27422,1,0,0:0:0:0:
64,192,27606,1,0,0:0:0:0:
192,192,27606,1,0,0:0:0:0:
320,192,27790,1,8,0:0:0:0:
448,192,27790,1,2,0:0:0:0:
64,192,27974,1,0,0:0:0:0:
448,192,28066,1,0,0:0:0:0:
192,192,28158,1,2,0:0:0:0:
320,192,28158,1,0,0:0:0:0:
64,192,28250,1,0,0:0:0:0:
192,192,28342,1,0,0:0:0:0:
448,192,28434,1,0,0:0:0:0:
64,192,28526,1,8,0:0:0:0:
320,192,28526,1,2,0:0:0:0:
192,192,28618,1,0,0:0:0:0:
448,192,28710,1,0,0:0:0:0:
320,192,28802,1,0,0:0:0:0:
64,192,28894,1,2,0:0:0:0:
192,192,28894,1,0,0:0:0:0:
448,192,28986,1,0,0:0:0:0:
64,192,29078,1,0,0:0:0:0:
192,192,29170,1,0,0:0:0:0:
320,192,29262,1,8,0:0:0:0:
448,192,29262,1,2,0:0:0:0:
192,192,29354,1,0,0:0:0:0:
64,192,29446,1,0,0:0:0:0:
448,192,29538,1,0,0:0:0:0:
64,192,29630,1,2,0:0:0:0:
192,192,29630,1,0,0:0:0:0:
320,192,29722,1,0,0:0:0:0:
192,192,29814,1,0,0:0:0:0:
320,192,29906,1,0,0:0:0:0:
64,192,29998,1,8,0:0:0:0:
448,192,29998,1,2,0:0:0:0:
192,192,30090,1,0,0:0:0:0:
64,192,30182,1,0,0:0:0:0:
192,192,30275,1,8,0:0:0:0:
320,192,30367,1,2,0:0:0:0:
448,192,30367,1,0,0:0:0:0:
64,192,30551,1,8,0:0:0:0:
192,192,30551,1,0,0:0:0:0:
320,192,30735,1,2,0:0:0:0:
448,192,30735,1,0,0:0:0:0:
192,192,30919,1,8,0:0:0:0:
64,192,31103,1,4,0:0:0:0:
320,192,31103,128,2,31471:0:0:0:0:
448,192,31103,1,0,0:0:0:0:
64,192,31471,1,2,0:0:0:0:
192,192,31471,1,0,0:0:0:0:
448,192,31655,1,0,0:0:0:0:
320,192,31747,1,0,0:0:0:0:
64,192,31839,1,2,0:0:0:0:
192,192,31839,1,4,0:0:0:0:
448,192,31839,128,0,32207:0:0:0:0:
192,192,32207,1,2,0:0:0:0:
320,192,32207,1,0,0:0:0:0:
64,192,32391,1,0,0:0:0:0:
192,192,32483,1,0,0:0:0:0:
64,192,32575,128,4,32943:0:0:0:0:
320,192,32575,1,2,0:0:0:0:
448,192,32575,1,0,0:0:0:0:
192,192,32943,1,2,0:0:0:0:
448,192,32943,1,0,0:0:0:0:
320,192,33127,1,0,0:0:0:0:
192,192,33219,1,0,0:0:0:0:
64,192,33311,1,2,0:0:0:0:
320,192,33311,128,4,33679:0:0:0:0:
448,192,33311,1,0,0:0:0:0:
64,192,33679,1,2,0:0:0:0:
192,192,33679,1,0,0:0:0:0:
448,192,33863,1,0,0:0:0:0:
192,192,33956,1,0,0:0:0:0:
64,192,34048,1,4,0:0:0:0:
320,192,34048,1,2,0:0:0:0:
448,192,34048,128,0,34416:0:0:0:0:
64,192,34416,1,2,0:0:0:0:
192,192,34416,1,0,0:0:0:0:
320,192,34600,1,0,0:0:0:0:
64,192,34692,1,0,0:0:0:0:
192,192,34784,128,2,35152:0:0:0:0:
320,192,34784,1,4,0:0:0:0:
448,192,34784,1,0,0:0:0:0:
64,192,35152,1,2,0:0:0:0:
448,192,35152,1,0,0:0:0:0:
320,192,35336,1,0,0:0:0:0:
192,192,35428,1,0,0:0:0:0:
64,192,35520,128,4,35888:0:0:0:0:
320,192,35520,1,2,0:0:0:0:
448,192,35520,1,0,0:0:0:0:
192,192,35888,1,2,0:0:0:0:
448,192,35888,1,0,0:0:0:0:
320,192,36072,1,0,0:0:0:0:
448,192,36164,1,0,0:0:0:0:
64,192,36256,1,2,0:0:0:0:
192,192,36256,128,4,36624:0:0:0:0:
320,192,36256,1,0,0:0:0:0:
320,192,36624,1,2,0:0:0:0:
448,192,36624,1,0,0:0:0:0:
64,192,36808,1,0,0:0:0:0:
320,192,36900,1,0,0:0:0:0:
64,192,36992,1,4,0:0:0:0:
192,192,36992,1,2,0:0:0:0:
448,192,36992,128,0,37360:0:0:0:0:
64,192,37360,1,2,0:0:0:0:
320,192,37360,1,0,0:0:0:0:
448,192,37544,1,0,0:0:0:0:
64,192,37636,1,0,0:0:0:0:
192,192,37729,1,2,0:0:0:0:
320,192,37729,128,4,38097:0:0:0:0:
448,192,37729,1,0,0:0:0:0:
64,192,38097,1,2,0:0:0:0:
448,192,38097,1,0,0:0:0:0:
192,192,38281,1,0,0:0:0:0:
320,192,38373,1,0,0:0:0:0:
64,192,38465,128,4,38833:0:0:0:0:
192,192,38465,1,2,0:0:0:0:
448,192,38465,1,0,0:0:0:0:
192,192,38833,1,2,0:0:0:0:
320,192,38833,1,0,0:0:0:0:
448,192,39017,1,0,0:0:0:0:
192,192,39109,1,0,0:0:0:0:
64,192,39201,1,2,0:0:0:0:
320,192,39201,1,4,0:0:0:0:
448,192,39201,128,0,39569:0:0:0:0:
64,192,39569,1,2,0:0:0:0:
192,192,39569,1,0,0:0:0:0:
320,192,39753,1,0,0:0:0:0:
448,192,39845,1,0,0:0:0:0:
64,192,39937,1,4,0:0:0:0:
192,192,39937,128,2,40305:0:0:0:0:
320,192,39937,1,0,0:0:0:0:
320,192,40305,1,2,0:0:0:0:
448,192,40305,1,0,0:0:0:0:
64,192,40489,1,0,0:0:0:0:
448,192,40581,1,0,0:0:0:0:
64,192,40673,1,2,0:0:0:0:
192,192,40673,1,4,0:0:0:0:
320,192,40673,128,0,41041:0:0:0:0:
192,192,41041,1,2,0:0:0:0:
448,192,41041,1,0,0:0:0:0:
64,192,41225,1,0,0:0:0:0:
192,192,41317,1,0,0:0:0:0:
64,192,41409,1,4,0:0:0:0:
320,192,41409,1,2,0:0:0:0:
448,192,41409,128,0,41778:0:0:0:0:
64,192,41778,1,2,0:0:0:0:
192,192,41778,1,0,0:0:0:0:
320,192,41962,1,0,0:0:0:0:
448,192,42054,1,0,0:0:0:0:
64,192,42146,1,2,0:0:0:0:
192,192,42146,1,4,0:0:0:0:
320,192,42146,1,0,0:0:0:0:
192,192,42330,1,0,0:0:0:0:
64,192,42514,1,2,0:0:0:0:
320,192,42514,1,4,0:0:0:0:
448,192,42514,1,0,0:0:0:0:
448,192,42698,1,0,0:0:0:0:
64,192,42882,128,2,43066:0:0:0:0:
192,192,42882,1,4,0:0:0:0:
320,192,42882,1,0,0:0:0:0:
448,192,43066,1,0,0:0:0:0:
64,192,43158,128,0,43250:0:0:0:0:
192,192,43250,1,8,0:0:0:0:
320,192,43250,1,2,0:0:0:0:
448,192,43434,1,0,0:0:0:0:
64,192,43618,1,2,0:0:0:0:
192,192,43618,1,0,0:0:0:0:
320,192,43802,1,0,0:0:0:0:
64,192,43986,1,8,0:0:0:0:
192,192,43986,1,2,0:0:0:0:
448,192,43986,1,0,0:0:0:0:
64,192,44170,1,0,0:0:0:0:
320,192,44354,1,2,0:0:0:0:
448,192,44354,1,0,0:0:0:0:
192,192,44538,1,0,0:0:0:0:
64,192,44722,1,8,0:0:0:0:
320,192,44722,1,2,0:0:0:0:
448,192,44722,1,0,0:0:0:0:
448,192,44906,1,0,0:0:0:0:
64,192,45090,1,2,0:0:0:0:
192,192,45090,1,0,0:0:0:0:
320,192,45275,1,0,0:0:0:0:
64,192,45459,1,8,0:0:0:0:
192,192,45459,1,2,0:0:0:0:
448,192,45459,1,0,0:0:0:0:
192,192,45643,1,0,0:0:0:0:
320,192,45827,1,2,0:0:0:0:
448,192,45827,128,0,46011:0:0:0:0:
64,192,46011,1,0,0:0:0:0:
448,192,46103,128,0,46195:0:0:0:0:
192,192,46195,1,8,0:0:0:0:
320,192,46195,1,2,0:0:0:0:
64,192,46379,1,0,0:0:0:0:
320,192,46563,1,2,0:0:0:0:
448,192,46563,1,0,0:0:0:0:
192,192,46747,1,0,0:0:0:0:
64,192,46931,1,8,0:0:0:0:
320,192,46931,1,2,0:0:0:0:
448,192,46931,1,0,0:0:0:0:
64,192,47115,1,0,0:0:0:0:
192,192,47299,1,2,0:0:0:0:
320,192,47299,1,0,0:0:0:0:
448,192,47483,1,0,0:0:0:0:
64,192,47667,1,8,0:0:0:0:
192,192,47667,1,2,0:0:0:0:
320,192,47667,1,0,0:0:0:0:
320,192,47851,1,8,0:0:0:0:
64,192,48035,1,2,0:0:0:0:
448,192,48035,1,0,0:0:0:0:
192,192,48219,1,8,0:0:0:0:
64,192,48403,1,2,0:0:0:0:
320,192,48403,1,0,0:0:0:0:
448,192,48587,1,8,0:0:0:0:
64,192,48771,128,2,48956:0:0:0:0:
192,192,48771,1,4,0:0:0:0:
320,192,48771,1,0,0:0:0:0:
448,192,48956,1,0,0:0:0:0:
64,192,49048,128,0,49140:0:0:0:0:
192,192,49140,1,8,0:0:0:0:
320,192,49140,1,2,0:0:0:0:
448,192,49324,1,0,0:0:0:0:
64,192,49508,1,2,0:0:0:0:
192,192,49508,1,0,0:0:0:0:
320,192,49692,1,0,0:0:0:0:
64,192,49876,1,8,0:0:0:0:
192,192,49876,1,2,0:0:0:0:
448,192,49876,1,0,0:0:0:0:
192,192,50060,1,0,0:0:0:0:
320,192,50244,1,2,0:0:0:0:
448,192,50244,1,0,0:0:0:0:
64,192,50428,1,0,0:0:0:0:
192,192,50612,1,8,0:0:0:0:
320,192,50612,1,2,0:0:0:0:
448,192,50612,1,0,0:0:0:0:
320,192,50796,1,0,0:0:0:0:
64,192,50980,1,2,0:0:0:0:
192,192,50980,1,0,0:0:0:0:
448,192,51164,1,0,0:0:0:0:
64,192,51348,1,8,0:0:0:0:
192,192,51348,1,2,0:0:0:0:
320,192,51348,1,0,0:0:0:0:
320,192,51532,1,0,0:0:0:0:
192,192,51716,1,2,0:0:0:0:
448,192,51716,128,0,51900:0:0:0:0:
64,192,51900,1,0,0:0:0:0:
448,192,51992,128,0,52084:0:0:0:0:
192,192,52084,1,8,0:0:0:0:
320,192,52084,1,2,0:0:0:0:
64,192,52268,1,0,0:0:0:0:
320,192,52452,1,2,0:0:0:0:
448,192,52452,1,0,0:0:0:0:
192,192,52636,1,0,0:0:0:0:
64,192,52821,1,8,0:0:0:0:
320,192,52821,1,2,0:0:0:0:
448,192,52821,1,0,0:0:0:0:
64,192,53005,1,0,0:0:0:0:
192,192,53189,1,2,0:0:0:0:
320,192,53189,1,4,0:0:0:0:
448,192,53189,1,0,0:0:0:0:
64,192,53557,1,2,0:0:0:0:
320,192,53557,1,0,0:0:0:0:
448,192,53557,1,0,0:0:0:0:
64,192,53925,1,2,0:0:0:0:
192,192,53925,1,4,0:0:0:0:
320,192,53925,1,0,0:0:0:0:
448,192,54109,1,8,0:0:0:0:
64,192,54293,1,2,0:0:0:0:
320,192,54293,1,0,0:0:0:0:
192,192,54477,1,8,0:0:0:0:
64,192,54661,1,4,0:0:0:0:
320,192,54661,1,2,0:0:0:0:
448,192,54661,1,0,0:0:0:100:twinkling.wav
192,192,54753,1,0,0:0:0:0:
320,192,54845,1,8,0:0:0:0:
448,192,54937,1,0,0:0:0:0:
64,192,55029,1,2,0:0:0:0:
192,192,55029,1,0,0:0:0:0:
320,192,55121,1,0,0:0:0:0:
64,192,55213,1,8,0:0:0:0:
448,192,55305,1,0,0:0:0:0:
192,192,55397,1,2,0:0:0:0:
320,192,55397,1,0,0:0:0:0:
64,192,55581,1,8,0:0:0:0:
192,192,55765,1,2,0:0:0:0:
448,192,55765,1,0,0:0:0:0:
320,192,55949,1,8,0:0:0:0:
448,192,56041,1,0,0:0:0:0:
64,192,56133,1,2,0:0:0:0:
192,192,56133,1,0,0:0:0:0:
320,192,56225,1,0,0:0:0:0:
192,192,56317,1,8,0:0:0:0:
448,192,56409,1,0,0:0:0:0:
64,192,56502,1,2,0:0:0:0:
320,192,56502,1,0,0:0:0:0:
192,192,56594,1,0,0:0:0:0:
320,192,56686,1,8,0:0:0:0:
448,192,56778,1,0,0:0:0:0:
64,192,56870,1,2,0:0:0:0:
192,192,56870,1,0,0:0:0:0:
448,192,57054,1,8,0:0:0:0:
64,192,57238,1,2,0:0:0:0:
320,192,57238,1,0,0:0:0:0:
192,192,57422,1,8,0:0:0:0:
320,192,57514,1,0,0:0:0:0:
64,192,57606,1,2,0:0:0:0:
448,192,57606,1,0,0:0:0:0:
192,192,57698,1,0,0:0:0:0:
320,192,57790,1,8,0:0:0:0:
64,192,57882,1,0,0:0:0:0:
320,192,57974,1,2,0:0:0:0:
448,192,57974,1,0,0:0:0:0:
192,192,58066,1,0,0:0:0:0:
64,192,58158,1,8,0:0:0:0:
320,192,58250,1,0,0:0:0:0:
64,192,58342,1,2,0:0:0:0:
448,192,58342,1,0,0:0:0:0:
320,192,58434,1,0,0:0:0:0:
192,192,58526,1,8,0:0:0:0:
448,192,58618,1,0,0:0:0:0:
64,192,58710,1,2,0:0:0:0:
192,192,58710,1,0,0:0:0:0:
320,192,58802,1,0,0:0:0:0:
448,192,58894,1,8,0:0:0:0:
192,192,58986,1,0,0:0:0:0:
64,192,59078,1,2,0:0:0:0:
320,192,59078,1,0,0:0:0:0:
448,192,59170,1,0,0:0:0:0:
192,192,59262,1,8,0:0:0:0:
64,192,59354,1,0,0:0:0:0:
192,192,59446,1,2,0:0:0:0:
320,192,59446,1,0,0:0:0:0:
448,192,59538,1,0,0:0:0:0:
320,192,59630,1,8,0:0:0:0:
64,192,59722,1,0,0:0:0:0:
192,192,59814,1,2,0:0:0:0:
448,192,59814,1,0,0:0:0:0:
320,192,59906,1,0,0:0:0:0:
192,192,59998,1,8,0:0:0:0:
64,192,60090,1,0,0:0:0:0:
320,192,60182,1,2,0:0:0:0:
448,192,60182,1,0,0:0:0:0:
192,192,60367,1,8,0:0:0:0:
64,192,60551,1,2,0:0:0:0:
320,192,60551,1,4,0:0:0:0:
448,192,60551,1,0,0:0:0:0:
192,192,60643,1,0,0:0:0:0:
448,192,60735,1,8,0:0:0:0:
64,192,60827,1,0,0:0:0:0:
192,192,60919,1,2,0:0:0:0:
320,192,60919,1,0,0:0:0:0:
448,192,61011,1,0,0:0:0:0:
320,192,61103,1,8,0:0:0:0:
64,192,61195,1,0,0:0:0:0:
192,192,61287,1,2,0:0:0:0:
448,192,61287,1,0,0:0:0:0:
320,192,61471,1,8,0:0:0:0:
64,192,61655,1,2,0:0:0:0:
192,192,61655,1,0,0:0:0:0:
448,192,61839,1,8,0:0:0:0:
192,192,61931,1,0,0:0:0:0:
64,192,62023,1,2,0:0:0:0:
320,192,62023,1,0,0:0:0:0:
448,192,62115,1,0,0:0:0:0:
64,192,62207,1,8,0:0:0:0:
192,192,62299,1,0,0:0:0:0:
320,192,62391,1,2,0:0:0:0:
448,192,62391,1,0,0:0:0:0:
192,192,62483,1,0,0:0:0:0:
448,192,62575,1,8,0:0:0:0:
320,192,62667,1,0,0:0:0:0:
64,192,62759,1,2,0:0:0:0:
192,192,62759,1,0,0:0:0:0:
320,192,62943,1,8,0:0:0:0:
64,192,63127,1,2,0:0:0:0:
448,192,63127,1,0,0:0:0:0:
192,192,63311,1,8,0:0:0:0:
64,192,63403,1,0,0:0:0:0:
192,192,63495,1,2,0:0:0:0:
320,192,63495,1,0,0:0:0:0:
448,192,63587,1,0,0:0:0:0:
320,192,63679,1,8,0:0:0:0:
192,192,63771,1,0,0:0:0:0:
64,192,63863,1,2,0:0:0:0:
448,192,63863,1,0,0:0:0:0:
320,192,63956,1,0,0:0:0:0:
448,192,64048,1,8,0:0:0:0:
192,192,64140,1,0,0:0:0:0:
64,192,64232,1,2,0:0:0:0:
320,192,64232,1,0,0:0:0:0:
448,192,64324,1,0,0:0:0:0:
192,192,64416,1,8,0:0:0:0:
64,192,64508,1,0,0:0:0:0:
192,192,64600,1,2,0:0:0:0:
448,192,64600,1,0,0:0:0:0:
320,192,64692,1,0,0:0:0:0:
64,192,64784,1,8,0:0:0:0:
448,192,64876,1,0,0:0:0:0:
64,192,64968,1,2,0:0:0:0:
192,192,64968,1,4,0:0:0:0:
320,192,64968,1,0,0:0:0:0:
448,192,65336,1,0,0:0:0:0:
448,192,65459,1,0,0:0:0:0:
192,192,65581,1,0,0:0:0:0:
64,192,65704,1,4,0:0:0:0:
192,192,65704,1,2,0:0:0:0:
320,192,65704,1,0,0:0:0:0:
64,192,66072,1,0,0:0:0:0:
64,192,66195,1,0,0:0:0:0:
320,192,66317,1,0,0:0:0:0:
192,192,66440,1,2,0:0:0:0:
320,192,66440,1,4,0:0:0:0:
448,192,66440,1,0,0:0:0:0:
64,192,66808,1,4,0:0:0:0:
320,192,66808,1,2,0:0:0:0:
448,192,66808,1,0,0:0:0:0:
64,192,67176,1,2,0:0:0:0:
192,192,67176,1,4,0:0:0:0:
320,192,67176,1,0,0:0:0:0:
448,192,67913,128,0,68097:0:0:0:0:
320,192,68097,1,0,0:0:0:0:
192,192,68189,1,0,0:0:0:0:
64,192,68281,128,0,68465:0:0:0:0:
192,192,68465,1,0,0:0:0:0:
320,192,68557,1,0,0:0:0:0:
448,192,68649,128,0,68833:0:0:0:0:
64,192,68833,1,0,0:0:0:0:
448,192,68925,128,0,69109:0:0:0:0:
320,192,69109,1,0,0:0:0:0:
192,192,69201,1,0,0:0:0:0:
64,192,69293,1,0,0:0:0:0:
320,192,69385,128,0,69569:0:0:0:0:
64,192,69569,1,0,0:0:0:0:
448,192,69661,1,0,0:0:0:0:
192,192,69753,128,0,69937:0:0:0:0:
448,192,69937,1,0,0:0:0:0:
64,192,70029,1,0,0:0:0:0:
320,192,70121,128,0,70305:0:0:0:0:
192,192,70305,1,0,0:0:0:0:
320,192,70397,128,0,70581:0:0:0:0:
64,192,70581,1,0,0:0:0:0:
192,192,70673,1,0,0:0:0:0:
448,192,70765,1,0,0:0:0:0:
64,192,70857,128,0,71041:0:0:0:0:
192,192,71041,1,0,0:0:0:0:
448,192,71133,1,0,0:0:0:0:
320,192,71225,128,0,71409:0:0:0:0:
448,192,71409,1,0,0:0:0:0:
192,192,71502,1,0,0:0:0:0:
64,192,71594,128,0,71778:0:0:0:0:
320,192,71778,1,0,0:0:0:0:
64,192,71870,128,0,72054:0:0:0:0:
448,192,72054,1,0,0:0:0:0:
320,192,72146,1,0,0:0:0:0:
192,192,72238,1,0,0:0:0:0:
448,192,72330,128,0,72514:0:0:0:0:
192,192,72514,1,0,0:0:0:0:
64,192,72606,1,0,0:0:0:0:
320,192,72698,128,0,72882:0:0:0:0:
64,192,72882,1,0,0:0:0:0:
192,192,72974,1,0,0:0:0:0:
448,192,73066,128,0,73250:0:0:0:0:
320,192,73250,1,0,0:0:0:0:
448,192,73342,128,0,73526:0:0:0:0:
320,192,73526,1,0,0:0:0:0:
192,192,73618,1,0,0:0:0:0:
64,192,73710,1,0,0:0:0:0:
448,192,73802,128,0,74293:0:0:0:0:
448,192,74416,1,0,0:0:0:0:
448,192,74538,1,0,0:0:0:0:
192,192,74661,1,0,0:0:0:0:
192,192,74784,1,0,0:0:0:0:
320,192,74906,1,0,0:0:0:0:
320,192,75029,1,0,0:0:0:0:
64,192,75152,1,0,0:0:0:0:
64,192,75275,1,0,0:0:0:0:
448,192,75459,128,0,75551:0:0:0:0:
448,192,75643,128,0,75735:0:0:0:0:
320,192,75735,128,0,75827:0:0:0:0:
192,192,75827,128,0,75919:0:0:0:0:
64,192,75919,128,0,76103:0:0:0:0:
192,192,76103,128,0,76195:0:0:0:0:
448,192,76195,128,0,76287:0:0:0:0:
320,192,76287,128,0,76379:0:0:0:0:
192,192,76379,128,0,76471:0:0:0:0:
64,192,76471,128,0,76563:0:0:0:0:
448,192,76563,128,0,76655:0:0:0:0:
320,192,76655,128,0,76747:0:0:0:0:
64,192,76747,128,0,77483:0:0:0:0:
192,192,76747,1,0,0:0:0:0:
448,192,76931,128,0,77115:0:0:0:0:
320,192,77115,1,0,0:0:0:0:
192,192,77299,128,0,77483:0:0:0:0:
320,192,77483,1,0,0:0:0:0:
448,192,77483,128,0,78035:0:0:0:0:
192,192,77667,128,0,77851:0:0:0:0:
64,192,77851,128,0,78035:0:0:0:0:
192,192,78035,1,0,0:0:0:0:
320,192,78097,1,0,0:0:0:0:
448,192,78158,1,0,0:0:0:0:
64,192,78219,1,0,0:0:0:0:
192,192,78219,1,0,0:0:0:0:
64,192,78403,1,0,0:0:0:0:
192,192,78587,1,0,0:0:0:0:
192,192,78771,1,0,0:0:0:0:
320,192,78956,1,0,0:0:0:0:
320,192,79140,1,0,0:0:0:0:
448,192,79324,1,0,0:0:0:0:
448,192,79508,1,0,0:0:0:0:
320,192,79692,1,0,0:0:0:0:
320,192,79876,1,0,0:0:0:0:
192,192,80060,1,0,0:0:0:0:
192,192,80244,1,0,0:0:0:0:
64,192,80428,1,0,0:0:0:0:
448,192,80612,1,0,0:0:0:0:
320,192,80796,1,0,0:0:0:0:
192,192,80980,1,0,0:0:0:0:
64,192,81164,1,4,0:0:0:0:
320,192,81164,1,2,0:0:0:0:
448,192,81164,1,0,0:0:0:0:
192,192,81256,1,0,0:0:0:0:
64,192,81348,1,0,0:0:0:0:
448,192,81440,1,2,0:0:0:0:
192,192,81532,1,8,0:0:0:0:
320,192,81532,1,0,0:0:0:0:
64,192,81624,1,0,0:0:0:0:
448,192,81716,1,0,0:0:0:0:
192,192,81808,1,2,0:0:0:0:
64,192,81900,1,0,0:0:0:0:
320,192,81900,1,0,0:0:0:0:
192,192,82084,1,2,0:0:0:0:
448,192,82084,1,0,0:0:0:0:
64,192,82268,1,8,0:0:0:0:
320,192,82268,1,0,0:0:0:0:
192,192,82452,1,0,0:0:0:0:
448,192,82544,1,2,0:0:0:0:
64,192,82636,1,2,0:0:0:0:
320,192,82729,1,0,0:0:0:0:
448,192,82821,1,0,0:0:0:0:
192,192,82913,1,2,0:0:0:0:
64,192,83005,1,8,0:0:0:0:
448,192,83005,1,0,0:0:0:0:
192,192,83097,1,0,0:0:0:0:
320,192,83189,1,0,0:0:0:0:
64,192,83281,1,2,0:0:0:0:
320,192,83373,1,0,0:0:0:0:
448,192,83373,1,0,0:0:0:0:
64,192,83557,1,2,0:0:0:0:
192,192,83557,1,0,0:0:0:0:
320,192,83741,1,8,0:0:0:0:
448,192,83741,1,0,0:0:0:0:
64,192,83925,1,0,0:0:0:0:
192,192,84017,1,2,0:0:0:0:
448,192,84109,1,2,0:0:0:0:
64,192,84201,1,0,0:0:0:0:
320,192,84293,1,0,0:0:0:0:
192,192,84385,1,2,0:0:0:0:
64,192,84477,1,8,0:0:0:0:
448,192,84477,1,0,0:0:0:0:
320,192,84569,1,0,0:0:0:0:
448,192,84661,1,0,0:0:0:0:
192,192,84753,1,2,0:0:0:0:
64,192,84845,1,0,0:0:0:0:
192,192,84937,1,0,0:0:0:0:
448,192,85029,1,2,0:0:0:0:
320,192,85121,1,0,0:0:0:0:
64,192,85213,1,8,0:0:0:0:
192,192,85213,1,0,0:0:0:0:
320,192,85305,1,2,0:0:0:0:
448,192,85397,1,0,0:0:0:0:
64,192,85489,1,2,0:0:0:0:
192,192,85581,1,2,0:0:0:0:
448,192,85673,1,0,0:0:0:0:
320,192,85765,1,0,0:0:0:0:
192,192,85857,1,2,0:0:0:0:
320,192,85949,1,8,0:0:0:0:
448,192,85949,1,2,0:0:0:0:
64,192,86041,1,2,0:0:0:0:
192,192,86133,1,0,0:0:0:0:
320,192,86225,1,8,0:0:0:0:
192,192,86317,1,0,0:0:0:0:
448,192,86317,1,0,0:0:0:0:
320,192,86502,1,2,0:0:0:0:
448,192,86502,1,0,0:0:0:0:
64,192,86686,1,0,0:0:0:0:
320,192,86778,1,2,0:0:0:0:
192,192,86870,1,8,0:0:0:0:
448,192,86962,1,0,0:0:0:0:
64,192,87054,1,4,0:0:0:0:
192,192,87054,1,2,0:0:0:0:
320,192,87054,1,0,0:0:0:0:
448,192,87146,1,0,0:0:0:0:
64,192,87238,1,0,0:0:0:0:
192,192,87330,1,2,0:0:0:0:
320,192,87422,1,8,0:0:0:0:
448,192,87422,1,0,0:0:0:0:
192,192,87514,1,0,0:0:0:0:
320,192,87606,1,0,0:0:0:0:
448,192,87698,1,2,0:0:0:0:
64,192,87790,1,0,0:0:0:0:
192,192,87790,1,0,0:0:0:0:
320,192,87974,1,2,0:0:0:0:
448,192,87974,1,0,0:0:0:0:
64,192,88158,1,8,0:0:0:0:
192,192,88158,1,0,0:0:0:0:
448,192,88342,1,0,0:0:0:0:
192,192,88434,1,2,0:0:0:0:
64,192,88526,1,2,0:0:0:0:
192,192,88618,1,0,0:0:0:0:
320,192,88710,1,0,0:0:0:0:
64,192,88802,1,2,0:0:0:0:
320,192,88894,1,8,0:0:0:0:
448,192,88894,1,0,0:0:0:0:
192,192,88986,1,0,0:0:0:0:
64,192,89078,1,0,0:0:0:0:
448,192,89170,1,2,0:0:0:0:
64,192,89262,1,0,0:0:0:0:
320,192,89262,1,0,0:0:0:0:
192,192,89446,1,2,0:0:0:0:
448,192,89446,1,0,0:0:0:0:
64,192,89630,1,8,0:0:0:0:
320,192,89630,1,0,0:0:0:0:
192,192,89814,1,0,0:0:0:0:
448,192,89906,1,2,0:0:0:0:
320,192,89998,1,2,0:0:0:0:
64,192,90090,1,0,0:0:0:0:
448,192,90182,1,0,0:0:0:0:
192,192,90275,1,2,0:0:0:0:
320,192,90367,1,8,0:0:0:0:
448,192,90367,1,0,0:0:0:0:
64,192,90459,1,0,0:0:0:0:
320,192,90551,1,0,0:0:0:0:
192,192,90643,1,2,0:0:0:0:
448,192,90735,1,0,0:0:0:0:
320,192,90827,1,0,0:0:0:0:
192,192,90919,1,2,0:0:0:0:
64,192,91011,1,0,0:0:0:0:
320,192,91103,1,8,0:0:0:0:
448,192,91103,1,0,0:0:0:0:
192,192,91195,1,2,0:0:0:0:
320,192,91287,1,0,0:0:0:0:
64,192,91379,1,2,0:0:0:0:
192,192,91471,1,2,0:0:0:0:
320,192,91563,1,0,0:0:0:0:
192,192,91655,1,0,0:0:0:0:
448,192,91747,1,2,0:0:0:0:
64,192,91839,1,8,0:0:0:0:
320,192,91839,1,2,0:0:0:0:
448,192,91931,1,2,0:0:0:0:
192,192,92023,1,0,0:0:0:0:
320,192,92115,1,8,0:0:0:0:
64,192,92207,1,0,0:0:0:0:
448,192,92207,1,0,0:0:0:0:
192,192,92391,1,2,0:0:0:0:
320,192,92391,1,0,0:0:0:0:
64,192,92575,1,0,0:0:0:0:
448,192,92575,1,0,0:0:0:0:
192,192,92943,1,4,0:0:0:0:
320,192,92943,1,2,0:0:0:0:
448,192,92943,128,0,93127:0:0:0:0:
64,192,93127,1,0,0:0:0:0:
192,192,93189,1,0,0:0:0:0:
320,192,93250,1,0,0:0:0:0:
64,192,93311,1,8,0:0:0:0:
448,192,93311,1,2,0:0:0:0:
192,192,93403,1,0,0:0:0:0:
448,192,93495,1,0,0:0:0:0:
64,192,93587,1,0,0:0:0:0:
192,192,93679,1,2,0:0:0:0:
320,192,93679,1,0,0:0:0:0:
64,192,93771,1,0,0:0:0:0:
448,192,93863,1,0,0:0:0:0:
320,192,93956,1,0,0:0:0:0:
64,192,94048,1,8,0:0:0:0:
192,192,94048,1,2,0:0:0:0:
320,192,94140,1,0,0:0:0:0:
64,192,94232,1,0,0:0:0:0:
192,192,94324,1,0,0:0:0:0:
320,192,94416,1,2,0:0:0:0:
448,192,94416,1,0,0:0:0:0:
192,192,94508,1,0,0:0:0:0:
64,192,94600,1,0,0:0:0:0:
64,192,94784,1,8,0:0:0:0:
192,192,94784,1,2,0:0:0:0:
320,192,94876,1,0,0:0:0:0:
64,192,94968,1,0,0:0:0:0:
320,192,95152,1,2,0:0:0:0:
448,192,95152,1,0,0:0:0:0:
192,192,95244,1,0,0:0:0:0:
448,192,95336,1,0,0:0:0:0:
64,192,95520,1,8,0:0:0:0:
192,192,95520,1,2,0:0:0:0:
320,192,95520,1,0,0:0:0:0:
64,192,95704,1,0,0:0:0:0:
192,192,95796,1,0,0:0:0:0:
448,192,95888,1,2,0:0:0:0:
320,192,95949,1,0,0:0:0:0:
64,192,96011,1,0,0:0:0:0:
192,192,96072,1,0,0:0:0:0:
320,192,96133,1,0,0:0:0:0:
448,192,96195,1,0,0:0:0:0:
64,192,96256,1,8,0:0:0:0:
192,192,96256,1,2,0:0:0:0:
320,192,96348,1,0,0:0:0:0:
192,192,96440,1,0,0:0:0:0:
448,192,96532,1,0,0:0:0:0:
64,192,96624,1,2,0:0:0:0:
320,192,96624,1,0,0:0:0:0:
192,192,96716,1,0,0:0:0:0:
64,192,96808,1,0,0:0:0:0:
320,192,96900,1,0,0:0:0:0:
192,192,96992,1,8,0:0:0:0:
448,192,96992,1,2,0:0:0:0:
64,192,97054,1,0,0:0:0:0:
448,192,97115,1,0,0:0:0:0:
320,192,97176,1,0,0:0:0:0:
192,192,97238,1,0,0:0:0:0:
64,192,97299,1,0,0:0:0:0:
320,192,97360,1,2,0:0:0:0:
448,192,97360,1,0,0:0:0:0:
192,192,97452,1,0,0:0:0:0:
448,192,97544,1,0,0:0:0:0:
64,192,97636,1,0,0:0:0:0:
192,192,97729,1,8,0:0:0:0:
320,192,97729,1,2,0:0:0:0:
448,192,97821,1,0,0:0:0:0:
320,192,97913,1,0,0:0:0:0:
192,192,98005,1,8,0:0:0:0:
64,192,98097,1,2,0:0:0:0:
448,192,98097,1,0,0:0:0:0:
64,192,98281,1,8,0:0:0:0:
320,192,98281,1,0,0:0:0:0:
192,192,98465,1,2,0:0:0:0:
448,192,98465,1,0,0:0:0:0:
320,192,98557,1,0,0:0:0:0:
64,192,98649,1,8,0:0:0:0:
448,192,98741,1,0,0:0:0:0:
64,192,98833,128,4,99017:0:0:0:0:
192,192,98833,1,2,0:0:0:0:
320,192,98833,1,0,0:0:0:0:
448,192,99017,1,0,0:0:0:0:
320,192,99078,1,0,0:0:0:0:
192,192,99140,1,0,0:0:0:0:
64,192,99201,1,8,0:0:0:0:
448,192,99201,1,2,0:0:0:0:
320,192,99293,1,0,0:0:0:0:
64,192,99385,1,0,0:0:0:0:
448,192,99477,1,0,0:0:0:0:
192,192,99569,1,2,0:0:0:0:
320,192,99569,1,0,0:0:0:0:
64,192,99661,1,0,0:0:0:0:
320,192,99753,1,0,0:0:0:0:
192,192,99845,1,0,0:0:0:0:
64,192,99937,1,8,0:0:0:0:
448,192,99937,1,2,0:0:0:0:
320,192,100029,1,0,0:0:0:0:
192,192,100121,1,0,0:0:0:0:
320,192,100213,1,0,0:0:0:0:
64,192,100305,1,2,0:0:0:0:
192,192,100305,1,0,0:0:0:0:
448,192,100397,1,0,0:0:0:0:
320,192,100489,1,0,0:0:0:0:
64,192,100673,1,8,0:0:0:0:
192,192,100673,1,2,0:0:0:0:
320,192,100765,1,0,0:0:0:0:
64,192,100857,1,0,0:0:0:0:
320,192,101041,1,2,0:0:0:0:
448,192,101041,1,0,0:0:0:0:
192,192,101133,1,0,0:0:0:0:
448,192,101225,1,0,0:0:0:0:
64,192,101409,1,8,0:0:0:0:
192,192,101409,1,2,0:0:0:0:
320,192,101409,1,0,0:0:0:0:
320,192,101594,1,0,0:0:0:0:
64,192,101686,1,0,0:0:0:0:
448,192,101778,1,2,0:0:0:0:
320,192,101839,1,0,0:0:0:0:
192,192,101900,1,0,0:0:0:0:
64,192,101962,1,0,0:0:0:0:
320,192,102023,1,0,0:0:0:0:
448,192,102084,1,0,0:0:0:0:
64,192,102146,1,8,0:0:0:0:
192,192,102146,1,2,0:0:0:0:
320,192,102238,1,0,0:0:0:0:
448,192,102330,1,0,0:0:0:0:
64,192,102422,1,0,0:0:0:0:
192,192,102514,1,2,0:0:0:0:
448,192,102514,1,0,0:0:0:0:
320,192,102606,1,0,0:0:0:0:
64,192,102698,1,0,0:0:0:0:
448,192,102790,1,0,0:0:0:0:
64,192,102882,1,8,0:0:0:0:
192,192,102882,1,2,0:0:0:0:
320,192,102943,1,0,0:0:0:0:
448,192,103005,1,0,0:0:0:0:
64,192,103066,1,0,0:0:0:0:
192,192,103127,1,0,0:0:0:0:
448,192,103189,1,0,0:0:0:0:
64,192,103250,1,2,0:0:0:0:
320,192,103250,1,0,0:0:0:0:
192,192,103342,1,0,0:0:0:0:
448,192,103434,1,0,0:0:0:0:
64,192,103526,1,0,0:0:0:0:
192,192,103618,1,8,0:0:0:0:
448,192,103618,1,2,0:0:0:0:
320,192,103710,1,0,0:0:0:0:
64,192,103802,1,0,0:0:0:0:
448,192,103894,1,0,0:0:0:0:
64,192,103986,1,2,0:0:0:0:
192,192,103986,1,4,0:0:0:0:
320,192,103986,1,0,0:0:0:0:
192,192,104170,1,4,0:0:0:0:
320,192,104170,1,2,0:0:0:0:
448,192,104170,1,0,0:0:0:0:
64,192,104354,1,2,0:0:0:0:
320,192,104354,1,4,0:0:0:0:
448,192,104354,1,0,0:0:0:0:
64,192,104722,128,0,104906:0:0:0:0:
320,192,104906,1,0,0:0:0:0:
64,192,104998,128,0,105090:0:0:0:0:
192,192,105090,1,0,0:0:0:0:
320,192,105275,1,0,0:0:0:0:
448,192,105275,1,0,0:0:0:0:
448,192,105459,1,0,0:0:0:0:
64,192,105643,1,0,0:0:0:0:
192,192,105643,1,0,0:0:0:0:
320,192,105827,1,0,0:0:0:0:
192,192,106011,1,0,0:0:0:0:
448,192,106011,1,0,0:0:0:0:
64,192,106195,1,0,0:0:0:0:
320,192,106379,1,0,0:0:0:0:
448,192,106379,1,0,0:0:0:0:
192,192,106563,1,0,0:0:0:0:
64,192,106747,1,0,0:0:0:0:
320,192,106747,1,0,0:0:0:0:
192,192,106931,1,0,0:0:0:0:
64,192,107115,1,0,0:0:0:0:
448,192,107115,1,0,0:0:0:0:
320,192,107299,1,0,0:0:0:0:
64,192,107483,1,0,0:0:0:0:
192,192,107483,1,0,0:0:0:0:
448,192,107667,128,0,107851:0:0:0:0:
192,192,107851,1,0,0:0:0:0:
448,192,107943,128,0,108035:0:0:0:0:
64,192,108035,1,0,0:0:0:0:
320,192,108219,1,0,0:0:0:0:
448,192,108219,1,0,0:0:0:0:
320,192,108403,1,0,0:0:0:0:
64,192,108587,1,0,0:0:0:0:
192,192,108587,1,0,0:0:0:0:
448,192,108771,1,0,0:0:0:0:
64,192,108956,1,0,0:0:0:0:
320,192,108956,1,0,0:0:0:0:
192,192,109140,1,0,0:0:0:0:
320,192,109324,1,0,0:0:0:0:
448,192,109324,1,0,0:0:0:0:
64,192,109508,1,0,0:0:0:0:
192,192,109692,1,0,0:0:0:0:
448,192,109692,1,0,0:0:0:0:
320,192,109876,1,0,0:0:0:0:
64,192,110060,1,0,0:0:0:0:
448,192,110060,1,0,0:0:0:0:
192,192,110244,1,0,0:0:0:0:
320,192,110428,1,0,0:0:0:0:
448,192,110428,1,0,0:0:0:0:
64,192,110612,128,0,110796:0:0:0:0:
448,192,110796,1,0,0:0:0:0:
64,192,110888,128,0,110980:0:0:0:0:
320,192,110980,1,0,0:0:0:0:
192,192,111164,1,0,0:0:0:0:
448,192,111164,1,0,0:0:0:0:
192,192,111348,1,0,0:0:0:0:
64,192,111532,1,0,0:0:0:0:
448,192,111532,1,0,0:0:0:0:
320,192,111716,1,0,0:0:0:0:
64,192,111900,1,0,0:0:0:0:
192,192,111900,1,0,0:0:0:0:
320,192,112084,1,0,0:0:0:0:
192,192,112268,1,0,0:0:0:0:
448,192,112268,1,0,0:0:0:0:
64,192,112452,1,0,0:0:0:0:
320,192,112636,1,0,0:0:0:0:
448,192,112636,1,0,0:0:0:0:
192,192,112821,1,0,0:0:0:0:
64,192,113005,1,0,0:0:0:0:
448,192,113005,1,0,0:0:0:0:
320,192,113189,1,0,0:0:0:0:
64,192,113373,1,0,0:0:0:0:
192,192,113373,1,0,0:0:0:0:
448,192,113557,128,0,113741:0:0:0:0:
192,192,113741,1,0,0:0:0:0:
448,192,113833,128,0,113925:0:0:0:0:
64,192,113925,1,0,0:0:0:0:
192,192,114109,1,0,0:0:0:0:
320,192,114109,1,0,0:0:0:0:
320,192,114293,1,0,0:0:0:0:
64,192,114477,1,0,0:0:0:0:
448,192,114477,1,0,0:0:0:0:
192,192,114661,1,0,0:0:0:0:
320,192,114845,1,0,0:0:0:0:
448,192,114845,1,0,0:0:0:0:
64,192,115029,1,0,0:0:0:0:
64,192,115397,128,0,115949:0:0:0:0:
192,192,115765,128,0,115949:0:0:0:0:
448,192,115949,1,0,0:0:0:0:
320,192,116133,1,0,0:0:0:0:
192,192,116317,1,0,0:0:0:0:
64,192,116502,1,2,0:0:0:0:
320,192,116502,1,4,0:0:0:0:
448,192,116502,1,0,0:0:0:100:twinkling.wav
192,192,116594,1,0,0:0:0:0:
64,192,116686,1,8,0:0:0:0:
448,192,116778,1,0,0:0:0:0:
192,192,116870,1,2,0:0:0:0:
320,192,116870,1,0,0:0:0:0:
64,192,116962,1,0,0:0:0:0:
448,192,117054,1,8,0:0:0:0:
192,192,117146,1,0,0:0:0:0:
64,192,117238,1,2,0:0:0:0:
320,192,117238,1,0,0:0:0:0:
192,192,117422,1,8,0:0:0:0:
320,192,117606,1,2,0:0:0:0:
448,192,117606,1,0,0:0:0:0:
64,192,117790,1,8,0:0:0:0:
192,192,117882,1,0,0:0:0:0:
320,192,117974,1,2,0:0:0:0:
448,192,117974,1,0,0:0:0:0:
192,192,118066,1,0,0:0:0:0:
64,192,118158,1,8,0:0:0:0:
320,192,118250,1,0,0:0:0:0:
64,192,118342,1,2,0:0:0:0:
448,192,118342,1,0,0:0:0:0:
192,192,118434,1,0,0:0:0:0:
320,192,118526,1,8,0:0:0:0:
64,192,118618,1,0,0:0:0:0:
320,192,118710,1,2,0:0:0:0:
448,192,118710,1,0,0:0:0:0:
192,192,118894,1,8,0:0:0:0:
64,192,119078,1,2,0:0:0:0:
448,192,119078,1,0,0:0:0:0:
320,192,119262,1,8,0:0:0:0:
192,192,119354,1,0,0:0:0:0:
64,192,119446,1,2,0:0:0:0:
448,192,119446,1,0,0:0:0:0:
192,192,119538,1,0,0:0:0:0:
320,192,119630,1,8,0:0:0:0:
64,192,119722,1,0,0:0:0:0:
192,192,119814,1,2,0:0:0:0:
448,192,119814,1,0,0:0:0:0:
64,192,119906,1,0,0:0:0:0:
448,192,119998,1,8,0:0:0:0:
320,192,120090,1,0,0:0:0:0:
64,192,120182,1,2,0:0:0:0:
192,192,120182,1,0,0:0:0:0:
448,192,120275,1,0,0:0:0:0:
192,192,120367,1,8,0:0:0:0:
64,192,120459,1,0,0:0:0:0:
320,192,120551,1,2,0:0:0:0:
448,192,120551,1,0,0:0:0:0:
64,192,120643,1,0,0:0:0:0:
192,192,120735,1,8,0:0:0:0:
320,192,120827,1,0,0:0:0:0:
192,192,120919,1,2,0:0:0:0:
448,192,120919,1,0,0:0:0:0:
64,192,121011,1,0,0:0:0:0:
320,192,121103,1,8,0:0:0:0:
448,192,121195,1,0,0:0:0:0:
192,192,121287,1,2,0:0:0:0:
320,192,121287,1,0,0:0:0:0:
64,192,121379,1,0,0:0:0:0:
192,192,121471,1,8,0:0:0:0:
448,192,121563,1,0,0:0:0:0:
64,192,121655,1,2,0:0:0:0:
320,192,121655,1,0,0:0:0:0:
192,192,121747,1,0,0:0:0:0:
448,192,121839,1,8,0:0:0:0:
64,192,121931,1,0,0:0:0:0:
192,192,122023,1,2,0:0:0:0:
448,192,122023,1,0,0:0:0:0:
320,192,122207,1,8,0:0:0:0:
64,192,122391,1,4,0:0:0:0:
192,192,122391,1,2,0:0:0:0:
448,192,122391,1,0,0:0:0:0:
320,192,122483,1,0,0:0:0:0:
192,192,122575,1,8,0:0:0:0:
448,192,122667,1,0,0:0:0:0:
64,192,122759,1,2,0:0:0:0:
320,192,122759,1,0,0:0:0:0:
448,192,122851,1,0,0:0:0:0:
192,192,122943,1,8,0:0:0:0:
64,192,123035,1,0,0:0:0:0:
320,192,123127,1,2,0:0:0:0:
448,192,123127,1,0,0:0:0:0:
192,192,123311,1,8,0:0:0:0:
64,192,123495,1,2,0:0:0:0:
320,192,123495,1,0,0:0:0:0:
448,192,123679,1,8,0:0:0:0:
320,192,123771,1,0,0:0:0:0:
64,192,123863,1,2,0:0:0:0:
192,192,123863,1,0,0:0:0:0:
320,192,123956,1,0,0:0:0:0:
448,192,124048,1,8,0:0:0:0:
64,192,124140,1,0,0:0:0:0:
320,192,124232,1,2,0:0:0:0:
448,192,124232,1,0,0:0:0:0:
192,192,124324,1,0,0:0:0:0:
64,192,124416,1,8,0:0:0:0:
320,192,124508,1,0,0:0:0:0:
192,192,124600,1,2,0:0:0:0:
448,192,124600,1,0,0:0:0:0:
64,192,124784,1,8,0:0:0:0:
320,192,124968,1,2,0:0:0:0:
448,192,124968,1,0,0:0:0:0:
64,192,125152,1,8,0:0:0:0:
192,192,125244,1,0,0:0:0:0:
320,192,125336,1,2,0:0:0:0:
448,192,125336,1,0,0:0:0:0:
192,192,125428,1,0,0:0:0:0:
320,192,125520,1,8,0:0:0:0:
64,192,125612,1,0,0:0:0:0:
192,192,125704,1,2,0:0:0:0:
448,192,125704,1,0,0:0:0:0:
320,192,125796,1,0,0:0:0:0:
448,192,125888,1,8,0:0:0:0:
64,192,125980,1,0,0:0:0:0:
192,192,126072,1,2,0:0:0:0:
320,192,126072,1,0,0:0:0:0:
448,192,126164,1,0,0:0:0:0:
320,192,126256,1,8,0:0:0:0:
192,192,126348,1,0,0:0:0:0:
64,192,126440,1,2,0:0:0:0:
448,192,126440,1,0,0:0:0:0:
192,192,126532,1,0,0:0:0:0:
448,192,126624,1,8,0:0:0:0:
320,192,126716,1,0,0:0:0:0:
64,192,126808,1,4,0:0:0:0:
192,192,126808,1,2,0:0:0:0:
448,192,126808,1,0,0:0:0:0:
320,192,127176,1,0,0:0:0:0:
320,192,127299,1,0,0:0:0:0:
192,192,127422,1,0,0:0:0:0:
64,192,127544,1,2,0:0:0:0:
192,192,127544,1,4,0:0:0:0:
448,192,127544,1,0,0:0:0:0:
192,192,127913,1,0,0:0:0:0:
192,192,128035,1,0,0:0:0:0:
320,192,128158,1,0,0:0:0:0:
64,192,128281,1,4,0:0:0:0:
320,192,128281,1,2,0:0:0:0:
448,192,128281,1,0,0:0:0:0:
192,192,128649,1,2,0:0:0:0:
320,192,128649,1,4,0:0:0:0:
448,192,128649,1,0,0:0:0:0:
64,192,129017,1,4,0:0:0:0:
192,192,129017,1,2,0:0:0:0:
448,192,129017,1,0,0:0:0:0:
448,192,129385,1,0,0:0:0:0:
448,192,129508,1,0,0:0:0:0:
192,192,129630,1,0,0:0:0:0:
64,192,129753,1,2,0:0:0:0:
192,192,129753,1,4,0:0:0:0:
320,192,129753,1,0,0:0:0:0:
64,192,130121,1,0,0:0:0:0:
64,192,130244,1,0,0:0:0:0:
320,192,130367,1,0,0:0:0:0:
192,192,130489,1,4,0:0:0:0:
320,192,130489,1,2,0:0:0:0:
448,192,130489,1,0,0:0:0:0:
448,192,130857,1,0,0:0:0:0:
448,192,130980,1,0,0:0:0:0:
64,192,131103,1,0,0:0:0:0:
64,192,131225,1,2,0:0:0:0:
192,192,131225,1,4,0:0:0:0:
320,192,131225,1,0,0:0:0:0:
192,192,131594,1,4,0:0:0:0:
320,192,131594,1,2,0:0:0:0:
448,192,131594,1,0,0:0:0:0:
64,192,131962,1,2,0:0:0:0:
320,192,131962,1,4,0:0:0:0:
448,192,131962,1,0,0:0:0:0:
64,192,132698,1,4,0:0:0:0:
192,192,132698,128,2,133066:0:0:0:0:
448,192,132698,1,0,0:0:0:0:
320,192,133066,1,2,0:0:0:0:
448,192,133066,1,0,0:0:0:0:
64,192,133250,1,0,0:0:0:0:
192,192,133342,1,0,0:0:0:0:
64,192,133434,128,2,133802:0:0:0:0:
320,192,133434,1,4,0:0:0:0:
448,192,133434,1,0,0:0:0:0:
192,192,133802,1,2,0:0:0:0:
320,192,133802,1,0,0:0:0:0:
448,192,133986,1,0,0:0:0:0:
320,192,134078,1,0,0:0:0:0:
64,192,134170,1,4,0:0:0:0:
192,192,134170,1,2,0:0:0:0:
448,192,134170,128,0,134538:0:0:0:0:
64,192,134538,1,2,0:0:0:0:
320,192,134538,1,0,0:0:0:0:
192,192,134722,1,0,0:0:0:0:
320,192,134814,1,0,0:0:0:0:
64,192,134906,1,2,0:0:0:0:
192,192,134906,128,4,135275:0:0:0:0:
448,192,134906,1,0,0:0:0:0:
320,192,135275,1,2,0:0:0:0:
448,192,135275,1,0,0:0:0:0:
64,192,135459,1,0,0:0:0:0:
192,192,135551,1,0,0:0:0:0:
64,192,135643,128,4,136011:0:0:0:0:
320,192,135643,1,2,0:0:0:0:
448,192,135643,1,0,0:0:0:0:
192,192,136011,1,2,0:0:0:0:
448,192,136011,1,0,0:0:0:0:
320,192,136195,1,0,0:0:0:0:
448,192,136287,1,0,0:0:0:0:
64,192,136379,1,2,0:0:0:0:
192,192,136379,1,4,0:0:0:0:
320,192,136379,128,0,136747:0:0:0:0:
64,192,136747,1,2,0:0:0:0:
448,192,136747,1,0,0:0:0:0:
192,192,136931,1,0,0:0:0:0:
320,192,137023,1,0,0:0:0:0:
64,192,137115,1,4,0:0:0:0:
192,192,137115,128,2,137483:0:0:0:0:
448,192,137115,1,0,0:0:0:0:
64,192,137483,1,2,0:0:0:0:
320,192,137483,1,0,0:0:0:0:
448,192,137667,1,0,0:0:0:0:
192,192,137759,1,0,0:0:0:0:
64,192,137851,1,2,0:0:0:0:
320,192,137851,1,4,0:0:0:0:
448,192,137851,128,0,138219:0:0:0:0:
64,192,138219,1,2,0:0:0:0:
192,192,138219,1,0,0:0:0:0:
320,192,138403,1,0,0:0:0:0:
64,192,138495,1,0,0:0:0:0:
192,192,138587,1,4,0:0:0:0:
320,192,138587,128,2,138956:0:0:0:0:
448,192,138587,1,0,0:0:0:0:
64,192,138956,1,2,0:0:0:0:
448,192,138956,1,0,0:0:0:0:
192,192,139140,1,0,0:0:0:0:
448,192,139232,1,0,0:0:0:0:
64,192,139324,1,2,0:0:0:0:
192,192,139324,128,4,139692:0:0:0:0:
320,192,139324,1,0,0:0:0:0:
320,192,139692,1,2,0:0:0:0:
448,192,139692,1,0,0:0:0:0:
64,192,139876,1,0,0:0:0:0:
320,192,139968,1,0,0:0:0:0:
64,192,140060,128,4,140428:0:0:0:0:
192,192,140060,1,2,0:0:0:0:
448,192,140060,1,0,0:0:0:0:
192,192,140428,1,2,0:0:0:0:
320,192,140428,1,0,0:0:0:0:
448,192,140612,1,0,0:0:0:0:
320,192,140704,1,0,0:0:0:0:
64,192,140796,1,2,0:0:0:0:
192,192,140796,1,4,0:0:0:0:
448,192,140796,128,0,141164:0:0:0:0:
64,192,141164,1,2,0:0:0:0:
320,192,141164,1,0,0:0:0:0:
192,192,141348,1,0,0:0:0:0:
64,192,141440,1,0,0:0:0:0:
192,192,141532,128,4,141900:0:0:0:0:
320,192,141532,1,2,0:0:0:0:
448,192,141532,1,0,0:0:0:0:
64,192,141900,1,2,0:0:0:0:
320,192,141900,1,0,0:0:0:0:
448,192,142084,1,0,0:0:0:0:
64,192,142176,1,0,0:0:0:0:
192,192,142268,1,2,0:0:0:0:
320,192,142268,128,4,142636:0:0:0:0:
448,192,142268,1,0,0:0:0:0:
64,192,142636,1,2,0:0:0:0:
192,192,142636,1,0,0:0:0:0:
448,192,142821,1,0,0:0:0:0:
320,192,142913,1,0,0:0:0:0:
64,192,143005,128,4,143373:0:0:0:0:
192,192,143005,1,2,0:0:0:0:
448,192,143005,1,0,0:0:0:0:
192,192,143373,1,2,0:0:0:0:
320,192,143373,1,0,0:0:0:0:
448,192,143557,1,0,0:0:0:0:
192,192,143649,1,0,0:0:0:0:
64,192,143741,1,2,0:0:0:0:
320,192,143741,1,4,0:0:0:0:
448,192,143741,128,0,144109:0:0:0:0:
64,192,144109,128,4,144477:0:0:0:0:
192,192,144109,1,2,0:0:0:0:
320,192,144109,1,0,0:0:0:0:
448,192,144293,1,0,0:0:0:0:
320,192,144385,1,0,0:0:0:0:
192,192,144477,1,0,0:0:0:0:
448,192,144569,1,0,0:0:0:0:
192,192,144661,1,0,0:0:0:0:
448,192,144753,1,0,0:0:0:0:
64,192,144845,1,0,0:0:0:0:
320,192,144937,1,0,0:0:0:0:
64,192,145029,1,0,0:0:0:0:
320,192,145121,1,0,0:0:0:0:
448,192,145213,1,0,0:0:0:0:
192,192,145305,1,0,0:0:0:0:
448,192,145397,1,0,0:0:0:0:
192,192,145489,1,0,0:0:0:0:
320,192,145581,1,0,0:0:0:0:
64,192,145673,1,0,0:0:0:0:
320,192,145765,1,0,0:0:0:0:
64,192,145857,1,0,0:0:0:0:
448,192,145949,1,0,0:0:0:0:
320,192,146041,1,0,0:0:0:0:
448,192,146133,1,0,0:0:0:0:
320,192,146225,1,0,0:0:0:0:
64,192,146317,1,0,0:0:0:0:
192,192,146409,1,0,0:0:0:0:
64,192,146502,1,0,0:0:0:0:
192,192,146594,1,0,0:0:0:0:
448,192,146686,1,0,0:0:0:0:
64,192,146870,1,4,0:0:0:0:
192,192,146870,1,2,0:0:0:0:
320,192,146870,1,0,0:0:0:0:
64,192,147054,1,2,0:0:0:0:
320,192,147054,1,4,0:0:0:0:
448,192,147054,1,0,0:0:0:0:
