osu file format v14

[General]
AudioFilename: audio.mp3
AudioLeadIn: 0
PreviewTime: 115949
Countdown: 0
SampleSet: Soft
StackLeniency: 0.7
Mode: 3
LetterboxInBreaks: 0
SpecialStyle: 0
WidescreenStoryboard: 1

[Editor]
Bookmarks: 183,7544,19324,31103,42882,53189,54661,64968,67913,81164,92943,104722,115949,116502,126808,132698,144477,147054
DistanceSpacing: 1.4
BeatDivisor: 8
GridSize: 8
TimelineZoom: 3.199999

[Metadata]
Title:Hazukashigariya no Toy Soldier
TitleUnicode:はずかしがりやのトイ・ソルジャー
Artist:AAAA
ArtistUnicode:ああああ
Creator:Angki
Version:Easy
Source:
Tags:toy → pop fantasia! 8bit electronic instrumental britpop chiptune toypop vgm AHC-0013 ああ...翡翠茶漬け.. aa...hisui chazuke... M3 2019
BeatmapID:2325440
BeatmapSetID:1113145

[Difficulty]
HPDrainRate:7
CircleSize:4
OverallDifficulty:7
ApproachRate:5
SliderMultiplier:1.4
SliderTickRate:1

[Events]
//Background and Video events
0,0,"Background.jpg",0,0
//Break Periods
//Storyboard Layer 0 (Background)
//Storyboard Layer 1 (Fail)
//Storyboard Layer 2 (Pass)
//Storyboard Layer 3 (Foreground)
//Storyboard Layer 4 (Overlay)
//Storyboard Sound Samples

[TimingPoints]
183,368.098159509202,4,2,1,65,1,0
42882,-100,4,2,1,65,0,1
53189,-100,4,2,1,65,0,0
54661,-100,4,2,1,65,0,1
64968,-100,4,2,1,65,0,0
67913,-100,4,2,1,20,0,0
73802,-100,4,2,1,25,0,0
74416,-100,4,2,1,30,0,0
74538,-100,4,2,1,35,0,0
74661,-100,4,2,1,40,0,0
74784,-100,4,2,1,45,0,0
74907,-100,4,2,1,50,0,0
75029,-100,4,2,1,55,0,0
75152,-100,4,2,1,60,0,0
75275,-100,4,2,1,65,0,0
116502,-100,4,2,1,65,0,1
126808,-100,4,2,1,65,0,0

[HitObjects]
64,192,183,5,2,0:0:0:0:
448,192,183,128,4,551:0:0:0:0:
192,192,551,1,2,0:0:0:0:
320,192,735,1,0,0:0:0:0:
64,192,919,128,2,1287:0:0:0:0:
448,192,919,1,4,0:0:0:0:
320,192,1287,1,2,0:0:0:0:
192,192,1471,1,0,0:0:0:0:
320,192,1655,128,4,2023:0:0:0:0:
448,192,1655,1,2,0:0:0:0:
64,192,2023,1,2,0:0:0:0:
448,192,2207,1,0,0:0:0:0:
192,192,2391,128,2,2759:0:0:0:0:
320,192,2391,1,4,0:0:0:0:
64,192,2759,1,2,0:0:0:0:
320,192,2943,1,0,0:0:0:0:
192,192,3127,1,4,0:0:0:0:
448,192,3127,128,2,3495:0:0:0:0:
64,192,3495,1,2,0:0:0:0:
192,192,3679,1,0,0:0:0:0:
320,192,3863,128,2,4232:0:0:0:0:
448,192,3863,1,4,0:0:0:0:
64,192,4232,1,2,0:0:0:0:
448,192,4416,1,0,0:0:0:0:
192,192,4600,128,4,4968:0:0:0:0:
320,192,4600,1,2,0:0:0:0:
448,192,4968,1,2,0:0:0:0:
320,192,5152,1,0,0:0:0:0:
64,192,5336,128,2,6808:0:0:0:0:
192,192,5336,1,4,0:0:0:0:
448,192,6808,128,0,7176:0:0:0:0:
192,192,7176,1,0,0:0:0:0:
64,192,7544,1,2,0:0:0:0:
448,192,7544,1,4,0:0:0:0:
64,192,7913,1,8,0:0:0:0:
192,192,7913,1,0,0:0:0:0:
320,192,8281,1,0,0:0:0:0:
192,192,8465,1,2,0:0:0:0:
64,192,8649,1,8,0:0:0:0:
448,192,8649,1,0,0:0:0:0:
320,192,9017,1,2,0:0:0:0:
192,192,9385,1,8,0:0:0:0:
448,192,9385,1,0,0:0:0:0:
64,192,9753,1,0,0:0:0:0:
192,192,9937,1,2,0:0:0:0:
320,192,10121,1,8,0:0:0:0:
448,192,10121,1,0,0:0:0:0:
320,192,10489,1,2,0:0:0:0:
64,192,10857,1,8,0:0:0:0:
192,192,10857,1,0,0:0:0:0:
448,192,11225,1,0,0:0:0:0:
64,192,11594,1,8,0:0:0:0:
320,192,11594,1,0,0:0:0:0:
192,192,11962,1,2,0:0:0:0:
320,192,12330,1,8,0:0:0:0:
448,192,12330,1,2,0:0:0:0:
64,192,12698,1,0,0:0:0:0:
448,192,12882,1,2,0:0:0:0:
192,192,13066,1,0,0:0:0:0:
320,192,13250,1,8,0:0:0:0:
64,192,13434,1,2,0:0:0:0:
448,192,13434,1,4,0:0:0:0:
320,192,13802,1,8,0:0:0:0:
448,192,13802,1,0,0:0:0:0:
448,192,14170,1,0,0:0:0:0:
320,192,14354,1,2,0:0:0:0:
64,192,14538,1,8,0:0:0:0:
192,192,14538,1,0,0:0:0:0:
448,192,14906,1,2,0:0:0:0:
64,192,15275,1,8,0:0:0:0:
320,192,15275,1,0,0:0:0:0:
192,192,15643,1,0,0:0:0:0:
320,192,15827,1,2,0:0:0:0:
64,192,16011,1,8,0:0:0:0:
448,192,16011,1,0,0:0:0:0:
320,192,16379,1,2,0:0:0:0:
192,192,16747,1,8,0:0:0:0:
448,192,16747,1,0,0:0:0:0:
64,192,17115,1,0,0:0:0:0:
192,192,17483,1,8,0:0:0:0:
320,192,17483,1,0,0:0:0:0:
448,192,17851,128,2,18219:0:0:0:0:
64,192,18219,128,10,18587:0:0:0:0:
320,192,18587,1,0,0:0:0:0:
192,192,18771,1,2,0:0:0:0:
320,192,18956,1,0,0:0:0:0:
64,192,19324,1,2,0:0:0:0:
192,192,19324,1,4,0:0:0:0:
192,192,19692,1,8,0:0:0:0:
448,192,19692,1,2,0:0:0:0:
320,192,20060,1,2,0:0:0:0:
192,192,20244,1,0,0:0:0:0:
64,192,20428,1,8,0:0:0:0:
320,192,20428,1,2,0:0:0:0:
448,192,20796,1,2,0:0:0:0:
64,192,21164,1,8,0:0:0:0:
192,192,21164,1,2,0:0:0:0:
320,192,21532,1,2,0:0:0:0:
448,192,21716,1,0,0:0:0:0:
64,192,21900,1,8,0:0:0:0:
320,192,21900,1,2,0:0:0:0:
192,192,22268,1,2,0:0:0:0:
320,192,22636,1,8,0:0:0:0:
448,192,22636,1,2,0:0:0:0:
64,192,23005,1,2,0:0:0:0:
192,192,23373,1,8,0:0:0:0:
320,192,23373,1,2,0:0:0:0:
448,192,23741,1,2,0:0:0:0:
64,192,24109,1,8,0:0:0:0:
320,192,24109,1,2,0:0:0:0:
192,192,24477,1,2,0:0:0:0:
320,192,24661,1,8,0:0:0:0:
64,192,24845,1,2,0:0:0:0:
448,192,24845,1,0,0:0:0:0:
64,192,25213,1,2,0:0:0:0:
320,192,25213,1,4,0:0:0:0:
192,192,25581,1,8,0:0:0:0:
448,192,25581,1,2,0:0:0:0:
448,192,25949,1,2,0:0:0:0:
320,192,26133,1,0,0:0:0:0:
64,192,26317,1,8,0:0:0:0:
192,192,26317,1,2,0:0:0:0:
320,192,26686,1,2,0:0:0:0:
64,192,27054,1,8,0:0:0:0:
448,192,27054,1,2,0:0:0:0:
320,192,27422,1,2,0:0:0:0:
192,192,27606,1,0,0:0:0:0:
64,192,27790,1,8,0:0:0:0:
320,192,27790,1,2,0:0:0:0:
448,192,28158,1,2,0:0:0:0:
192,192,28526,1,8,0:0:0:0:
320,192,28526,1,2,0:0:0:0:
64,192,28894,1,2,0:0:0:0:
192,192,29262,1,8,0:0:0:0:
448,192,29262,1,2,0:0:0:0:
320,192,29630,128,2,29998:0:0:0:0:
64,192,29998,128,8,30367:0:0:0:0:
448,192,29998,1,2,0:0:0:0:
192,192,30367,1,2,0:0:0:0:
448,192,30551,1,8,0:0:0:0:
192,192,30735,1,2,0:0:0:0:
64,192,31103,128,4,31471:0:0:0:0:
448,192,31103,1,2,0:0:0:0:
320,192,31471,1,2,0:0:0:0:
192,192,31655,1,0,0:0:0:0:
64,192,31839,1,2,0:0:0:0:
320,192,31839,128,4,32207:0:0:0:0:
448,192,32207,1,2,0:0:0:0:
64,192,32391,1,0,0:0:0:0:
192,192,32575,128,4,32943:0:0:0:0:
320,192,32575,1,2,0:0:0:0:
448,192,32943,1,2,0:0:0:0:
64,192,33127,1,0,0:0:0:0:
320,192,33311,128,2,33679:0:0:0:0:
448,192,33311,1,4,0:0:0:0:
192,192,33679,1,2,0:0:0:0:
64,192,33863,1,0,0:0:0:0:
192,192,34048,1,4,0:0:0:0:
448,192,34048,128,2,34416:0:0:0:0:
320,192,34416,1,2,0:0:0:0:
64,192,34600,1,0,0:0:0:0:
192,192,34784,128,2,35152:0:0:0:0:
448,192,34784,1,4,0:0:0:0:
320,192,35152,1,2,0:0:0:0:
448,192,35336,1,0,0:0:0:0:
64,192,35520,128,4,35888:0:0:0:0:
192,192,35520,1,2,0:0:0:0:
320,192,35888,1,2,0:0:0:0:
192,192,36072,1,0,0:0:0:0:
64,192,36256,1,2,0:0:0:0:
448,192,36256,128,4,36624:0:0:0:0:
192,192,36624,1,2,0:0:0:0:
320,192,36808,1,0,0:0:0:0:
64,192,36992,1,4,0:0:0:0:
192,192,36992,128,2,37360:0:0:0:0:
448,192,37360,1,2,0:0:0:0:
192,192,37544,1,0,0:0:0:0:
64,192,37729,1,2,0:0:0:0:
320,192,37729,128,4,38097:0:0:0:0:
448,192,38097,1,2,0:0:0:0:
192,192,38281,1,0,0:0:0:0:
64,192,38465,128,4,38833:0:0:0:0:
448,192,38465,1,2,0:0:0:0:
320,192,38833,1,2,0:0:0:0:
192,192,39017,1,0,0:0:0:0:
320,192,39201,1,2,0:0:0:0:
448,192,39201,128,4,39569:0:0:0:0:
64,192,39569,1,2,0:0:0:0:
320,192,39753,1,0,0:0:0:0:
192,192,39937,128,4,40305:0:0:0:0:
448,192,39937,1,2,0:0:0:0:
320,192,40305,1,2,0:0:0:0:
192,192,40489,1,0,0:0:0:0:
64,192,40673,128,2,41041:0:0:0:0:
448,192,40673,1,4,0:0:0:0:
320,192,41041,1,2,0:0:0:0:
192,192,41225,1,0,0:0:0:0:
320,192,41409,1,4,0:0:0:0:
448,192,41409,128,2,41778:0:0:0:0:
64,192,41778,1,2,0:0:0:0:
320,192,41962,1,0,0:0:0:0:
192,192,42146,128,2,42514:0:0:0:0:
448,192,42146,1,4,0:0:0:0:
64,192,42514,1,2,0:0:0:0:
320,192,42514,1,4,0:0:0:0:
192,192,42882,1,2,0:0:0:0:
448,192,42882,1,4,0:0:0:0:
320,192,43250,1,8,0:0:0:0:
448,192,43250,1,2,0:0:0:0:
64,192,43434,1,0,0:0:0:0:
192,192,43618,128,2,43986:0:0:0:0:
320,192,43986,128,8,44354:0:0:0:0:
448,192,43986,1,2,0:0:0:0:
64,192,44354,1,2,0:0:0:0:
192,192,44538,1,0,0:0:0:0:
448,192,44722,1,10,0:0:0:0:
320,192,44906,1,0,0:0:0:0:
64,192,45090,1,2,0:0:0:0:
320,192,45459,1,8,0:0:0:0:
448,192,45459,1,2,0:0:0:0:
192,192,45827,1,2,0:0:0:0:
64,192,46195,1,8,0:0:0:0:
448,192,46195,1,2,0:0:0:0:
320,192,46379,1,0,0:0:0:0:
192,192,46563,128,2,46931:0:0:0:0:
320,192,46931,128,8,47299:0:0:0:0:
448,192,46931,1,2,0:0:0:0:
64,192,47299,1,2,0:0:0:0:
448,192,47483,1,0,0:0:0:0:
320,192,47667,1,10,0:0:0:0:
192,192,47851,1,8,0:0:0:0:
448,192,48035,1,2,0:0:0:0:
192,192,48403,1,2,0:0:0:0:
448,192,48403,1,0,0:0:0:0:
64,192,48771,1,2,0:0:0:0:
320,192,48771,1,4,0:0:0:0:
64,192,49140,1,8,0:0:0:0:
192,192,49140,1,2,0:0:0:0:
320,192,49324,1,0,0:0:0:0:
448,192,49508,128,2,49876:0:0:0:0:
192,192,49876,128,8,50244:0:0:0:0:
320,192,49876,1,2,0:0:0:0:
64,192,50244,1,2,0:0:0:0:
320,192,50428,1,0,0:0:0:0:
448,192,50612,1,10,0:0:0:0:
192,192,50796,1,0,0:0:0:0:
64,192,50980,1,2,0:0:0:0:
64,192,51348,1,8,0:0:0:0:
448,192,51348,1,2,0:0:0:0:
192,192,51532,1,0,0:0:0:0:
320,192,51716,128,2,52084:0:0:0:0:
192,192,52084,1,8,0:0:0:0:
448,192,52084,128,2,52452:0:0:0:0:
64,192,52452,1,2,0:0:0:0:
320,192,52636,1,0,0:0:0:0:
192,192,52821,1,10,0:0:0:0:
448,192,53005,1,0,0:0:0:0:
64,192,53189,1,2,0:0:0:0:
320,192,53189,1,4,0:0:0:0:
64,192,53557,1,2,0:0:0:0:
192,192,53557,1,0,0:0:0:0:
320,192,53925,1,2,0:0:0:0:
448,192,53925,1,4,0:0:0:0:
192,192,54293,1,2,0:0:0:0:
320,192,54477,1,8,0:0:0:0:
64,192,54661,1,6,0:0:0:0:
448,192,54661,128,0,55029:0:0:0:100:twinkling.wav
192,192,55029,128,2,55397:0:0:0:0:
64,192,55397,1,2,0:0:0:0:
448,192,55581,1,8,0:0:0:0:
320,192,55765,128,2,56133:0:0:0:0:
64,192,56133,1,2,0:0:0:0:
192,192,56317,1,8,0:0:0:0:
320,192,56502,1,2,0:0:0:0:
448,192,56686,1,8,0:0:0:0:
64,192,56870,1,2,0:0:0:0:
192,192,57238,1,2,0:0:0:0:
320,192,57422,1,8,0:0:0:0:
448,192,57606,128,2,57974:0:0:0:0:
192,192,57974,128,2,58342:0:0:0:0:
64,192,58342,1,2,0:0:0:0:
448,192,58526,1,8,0:0:0:0:
320,192,58710,128,2,59078:0:0:0:0:
64,192,59078,1,2,0:0:0:0:
192,192,59262,1,8,0:0:0:0:
320,192,59446,1,2,0:0:0:0:
448,192,59630,1,8,0:0:0:0:
64,192,59814,128,2,60182:0:0:0:0:
192,192,60182,1,2,0:0:0:0:
320,192,60367,1,8,0:0:0:0:
64,192,60551,1,2,0:0:0:0:
448,192,60551,128,4,60919:0:0:0:0:
192,192,60919,128,2,61287:0:0:0:0:
320,192,61287,1,2,0:0:0:0:
64,192,61471,1,8,0:0:0:0:
448,192,61655,128,2,62023:0:0:0:0:
320,192,62023,1,2,0:0:0:0:
192,192,62207,1,8,0:0:0:0:
64,192,62391,1,2,0:0:0:0:
320,192,62575,1,8,0:0:0:0:
448,192,62759,1,2,0:0:0:0:
64,192,63127,1,2,0:0:0:0:
192,192,63311,1,8,0:0:0:0:
320,192,63495,128,2,63863:0:0:0:0:
64,192,63863,128,2,64232:0:0:0:0:
448,192,64232,1,2,0:0:0:0:
320,192,64416,1,8,0:0:0:0:
64,192,64600,1,2,0:0:0:0:
192,192,64784,1,8,0:0:0:0:
320,192,64968,1,2,0:0:0:0:
448,192,64968,1,4,0:0:0:0:
64,192,65336,128,0,65704:0:0:0:0:
320,192,65704,1,4,0:0:0:0:
448,192,65704,1,2,0:0:0:0:
192,192,66072,128,0,66440:0:0:0:0:
320,192,66440,1,2,0:0:0:0:
448,192,66440,1,4,0:0:0:0:
64,192,66808,1,4,0:0:0:0:
192,192,66808,1,2,0:0:0:0:
320,192,67176,1,2,0:0:0:0:
448,192,67176,1,4,0:0:0:0:
192,192,67913,128,0,68281:0:0:0:0:
448,192,68281,128,0,68649:0:0:0:0:
64,192,68649,1,0,0:0:0:0:
320,192,68925,1,0,0:0:0:0:
192,192,69201,1,0,0:0:0:0:
64,192,69385,128,0,69753:0:0:0:0:
320,192,69753,128,0,70121:0:0:0:0:
448,192,70121,1,0,0:0:0:0:
192,192,70397,1,0,0:0:0:0:
64,192,70673,1,0,0:0:0:0:
448,192,70857,128,0,71225:0:0:0:0:
64,192,71225,128,0,71594:0:0:0:0:
320,192,71594,1,0,0:0:0:0:
192,192,71870,1,0,0:0:0:0:
448,192,72146,1,0,0:0:0:0:
320,192,72330,128,0,72698:0:0:0:0:
64,192,72698,128,0,73066:0:0:0:0:
448,192,73066,1,0,0:0:0:0:
64,192,73342,1,0,0:0:0:0:
320,192,73618,1,0,0:0:0:0:
192,192,73802,128,0,74354:0:0:0:0:
320,192,74354,128,0,74906:0:0:0:0:
448,192,74906,128,0,75275:0:0:0:0:
64,192,75459,1,0,0:0:0:0:
448,192,75643,1,0,0:0:0:0:
192,192,75919,1,0,0:0:0:0:
320,192,76195,1,0,0:0:0:0:
448,192,76379,128,0,76747:0:0:0:0:
64,192,76747,128,0,77483:0:0:0:0:
320,192,77483,128,0,77851:0:0:0:0:
192,192,77851,128,0,78219:0:0:0:0:
448,192,78219,128,0,78587:0:0:0:0:
320,192,78587,128,0,78956:0:0:0:0:
192,192,78956,128,0,79324:0:0:0:0:
64,192,79324,128,0,79692:0:0:0:0:
448,192,79692,128,0,80060:0:0:0:0:
320,192,80060,128,0,80428:0:0:0:0:
192,192,80428,1,0,0:0:0:0:
64,192,80796,1,0,0:0:0:0:
320,192,81164,1,4,0:0:0:0:
448,192,81164,1,2,0:0:0:0:
64,192,81532,1,8,0:0:0:0:
448,192,81532,1,0,0:0:0:0:
192,192,81900,1,0,0:0:0:0:
320,192,82084,1,2,0:0:0:0:
192,192,82268,1,8,0:0:0:0:
448,192,82268,1,0,0:0:0:0:
64,192,82636,1,2,0:0:0:0:
192,192,83005,1,8,0:0:0:0:
320,192,83005,1,0,0:0:0:0:
448,192,83373,1,0,0:0:0:0:
320,192,83557,1,2,0:0:0:0:
64,192,83741,1,8,0:0:0:0:
192,192,83741,1,0,0:0:0:0:
64,192,84109,1,2,0:0:0:0:
320,192,84477,1,8,0:0:0:0:
448,192,84477,1,0,0:0:0:0:
192,192,84845,1,0,0:0:0:0:
64,192,85213,1,8,0:0:0:0:
448,192,85213,1,0,0:0:0:0:
320,192,85581,1,2,0:0:0:0:
64,192,85949,1,8,0:0:0:0:
192,192,85949,1,2,0:0:0:0:
448,192,86317,1,0,0:0:0:0:
192,192,86502,1,2,0:0:0:0:
64,192,86686,1,0,0:0:0:0:
320,192,86870,1,8,0:0:0:0:
64,192,87054,1,4,0:0:0:0:
448,192,87054,1,2,0:0:0:0:
64,192,87422,1,8,0:0:0:0:
192,192,87422,1,0,0:0:0:0:
320,192,87790,1,0,0:0:0:0:
192,192,87974,1,2,0:0:0:0:
320,192,88158,1,8,0:0:0:0:
448,192,88158,1,0,0:0:0:0:
64,192,88526,1,2,0:0:0:0:
192,192,88894,1,8,0:0:0:0:
448,192,88894,1,0,0:0:0:0:
320,192,89262,1,0,0:0:0:0:
192,192,89446,1,2,0:0:0:0:
64,192,89630,1,8,0:0:0:0:
448,192,89630,1,0,0:0:0:0:
192,192,89998,1,2,0:0:0:0:
64,192,90367,1,8,0:0:0:0:
320,192,90367,1,0,0:0:0:0:
448,192,90735,1,0,0:0:0:0:
192,192,91103,1,8,0:0:0:0:
320,192,91103,1,0,0:0:0:0:
64,192,91471,128,2,91839:0:0:0:0:
448,192,91839,128,10,92207:0:0:0:0:
64,192,92207,1,0,0:0:0:0:
320,192,92391,1,2,0:0:0:0:
64,192,92575,1,0,0:0:0:0:
320,192,92943,1,4,0:0:0:0:
448,192,92943,128,2,93311:0:0:0:0:
64,192,93311,1,8,0:0:0:0:
192,192,93311,1,2,0:0:0:0:
320,192,93679,1,2,0:0:0:0:
64,192,94048,1,8,0:0:0:0:
448,192,94048,1,2,0:0:0:0:
192,192,94416,128,2,94784:0:0:0:0:
320,192,94784,1,8,0:0:0:0:
448,192,94784,128,2,95152:0:0:0:0:
64,192,95152,128,2,95520:0:0:0:0:
192,192,95520,1,8,0:0:0:0:
448,192,95520,1,2,0:0:0:0:
320,192,95888,128,2,96256:0:0:0:0:
64,192,96256,1,8,0:0:0:0:
192,192,96256,1,2,0:0:0:0:
448,192,96624,1,2,0:0:0:0:
64,192,96992,128,8,97360:0:0:0:0:
192,192,96992,1,2,0:0:0:0:
320,192,97360,1,2,0:0:0:0:
192,192,97729,1,8,0:0:0:0:
448,192,97729,1,2,0:0:0:0:
64,192,98097,1,2,0:0:0:0:
192,192,98281,1,8,0:0:0:0:
448,192,98465,1,2,0:0:0:0:
64,192,98833,1,4,0:0:0:0:
448,192,98833,128,2,99201:0:0:0:0:
192,192,99201,1,8,0:0:0:0:
320,192,99201,1,2,0:0:0:0:
64,192,99569,1,2,0:0:0:0:
320,192,99937,1,8,0:0:0:0:
448,192,99937,1,2,0:0:0:0:
192,192,100305,128,2,100673:0:0:0:0:
64,192,100673,1,8,0:0:0:0:
448,192,100673,128,2,101041:0:0:0:0:
320,192,101041,128,2,101409:0:0:0:0:
64,192,101409,1,8,0:0:0:0:
192,192,101409,1,2,0:0:0:0:
64,192,101778,128,2,102146:0:0:0:0:
320,192,102146,1,8,0:0:0:0:
448,192,102146,1,2,0:0:0:0:
192,192,102514,1,2,0:0:0:0:
64,192,102882,1,8,0:0:0:0:
320,192,102882,128,2,103250:0:0:0:0:
448,192,103250,128,2,103618:0:0:0:0:
64,192,103618,128,8,103986:0:0:0:0:
192,192,103618,1,2,0:0:0:0:
448,192,103986,1,6,0:0:0:0:
320,192,104170,1,6,0:0:0:0:
64,192,104354,1,2,0:0:0:0:
192,192,104354,1,4,0:0:0:0:
320,192,104722,1,0,0:0:0:0:
192,192,105090,1,0,0:0:0:0:
64,192,105459,1,0,0:0:0:0:
448,192,105827,1,0,0:0:0:0:
192,192,106195,1,0,0:0:0:0:
320,192,106563,1,0,0:0:0:0:
64,192,106931,1,0,0:0:0:0:
448,192,107299,1,0,0:0:0:0:
192,192,107667,1,0,0:0:0:0:
64,192,108035,1,0,0:0:0:0:
320,192,108403,1,0,0:0:0:0:
192,192,108771,1,0,0:0:0:0:
448,192,109140,1,0,0:0:0:0:
320,192,109508,1,0,0:0:0:0:
64,192,109876,1,0,0:0:0:0:
192,192,110244,1,0,0:0:0:0:
320,192,110612,1,0,0:0:0:0:
448,192,110980,1,0,0:0:0:0:
64,192,111348,1,0,0:0:0:0:
320,192,111716,1,0,0:0:0:0:
64,192,112084,1,0,0:0:0:0:
448,192,112452,1,0,0:0:0:0:
192,192,112821,1,0,0:0:0:0:
320,192,113189,1,0,0:0:0:0:
448,192,113557,1,0,0:0:0:0:
192,192,113925,1,0,0:0:0:0:
320,192,114293,1,0,0:0:0:0:
64,192,114661,1,0,0:0:0:0:
448,192,115029,1,0,0:0:0:0:
192,192,115397,128,0,115765:0:0:0:0:
448,192,115765,1,0,0:0:0:0:
64,192,115949,1,0,0:0:0:0:
192,192,116133,1,0,0:0:0:0:
320,192,116317,1,0,0:0:0:0:
64,192,116502,128,6,116870:0:0:0:0:
448,192,116502,1,0,0:0:0:100:twinkling.wav
320,192,116870,128,2,117238:0:0:0:0:
448,192,117238,1,2,0:0:0:0:
64,192,117422,1,8,0:0:0:0:
192,192,117606,128,2,117974:0:0:0:0:
448,192,117974,1,2,0:0:0:0:
320,192,118158,1,8,0:0:0:0:
192,192,118342,1,2,0:0:0:0:
448,192,118526,1,8,0:0:0:0:
64,192,118710,1,2,0:0:0:0:
320,192,119078,1,2,0:0:0:0:
448,192,119262,1,8,0:0:0:0:
192,192,119446,128,2,119814:0:0:0:0:
320,192,119814,128,2,120182:0:0:0:0:
64,192,120182,1,2,0:0:0:0:
192,192,120367,1,8,0:0:0:0:
448,192,120551,128,2,120919:0:0:0:0:
320,192,120919,1,2,0:0:0:0:
64,192,121103,1,8,0:0:0:0:
448,192,121287,1,2,0:0:0:0:
192,192,121471,1,8,0:0:0:0:
320,192,121655,1,2,0:0:0:0:
64,192,122023,1,2,0:0:0:0:
192,192,122207,1,8,0:0:0:0:
320,192,122391,128,4,122759:0:0:0:0:
448,192,122391,1,2,0:0:0:0:
64,192,122759,128,2,123127:0:0:0:0:
192,192,123127,1,2,0:0:0:0:
320,192,123311,1,8,0:0:0:0:
448,192,123495,128,2,123863:0:0:0:0:
192,192,123863,1,2,0:0:0:0:
320,192,124048,1,8,0:0:0:0:
64,192,124232,1,2,0:0:0:0:
192,192,124416,1,8,0:0:0:0:
448,192,124600,1,2,0:0:0:0:
320,192,124968,1,2,0:0:0:0:
192,192,125152,1,8,0:0:0:0:
64,192,125336,128,2,125704:0:0:0:0:
448,192,125704,128,2,126072:0:0:0:0:
192,192,126072,1,2,0:0:0:0:
320,192,126256,1,8,0:0:0:0:
64,192,126440,1,2,0:0:0:0:
448,192,126624,1,8,0:0:0:0:
64,192,126808,1,4,0:0:0:0:
192,192,126808,1,2,0:0:0:0:
448,192,127176,128,0,127544:0:0:0:0:
64,192,127544,1,2,0:0:0:0:
192,192,127544,1,4,0:0:0:0:
320,192,127913,128,0,128281:0:0:0:0:
64,192,128281,1,4,0:0:0:0:
192,192,128281,1,2,0:0:0:0:
320,192,128649,1,2,0:0:0:0:
448,192,128649,1,4,0:0:0:0:
64,192,129017,1,4,0:0:0:0:
192,192,129017,1,2,0:0:0:0:
320,192,129385,128,0,129753:0:0:0:0:
64,192,129753,1,2,0:0:0:0:
448,192,129753,1,4,0:0:0:0:
192,192,130121,128,0,130489:0:0:0:0:
64,192,130489,1,4,0:0:0:0:
448,192,130489,1,2,0:0:0:0:
320,192,130857,128,0,131225:0:0:0:0:
64,192,131225,1,2,0:0:0:0:
448,192,131225,1,4,0:0:0:0:
192,192,131594,1,4,0:0:0:0:
320,192,131594,1,2,0:0:0:0:
64,192,131962,1,2,0:0:0:0:
448,192,131962,1,4,0:0:0:0:
192,192,132698,1,4,0:0:0:0:
448,192,132698,128,2,133066:0:0:0:0:
64,192,133066,1,2,0:0:0:0:
320,192,133250,1,0,0:0:0:0:
192,192,133434,128,2,133802:0:0:0:0:
448,192,133434,1,4,0:0:0:0:
64,192,133802,1,2,0:0:0:0:
448,192,133986,1,0,0:0:0:0:
192,192,134170,1,4,0:0:0:0:
320,192,134170,128,2,134538:0:0:0:0:
64,192,134538,1,2,0:0:0:0:
192,192,134722,1,0,0:0:0:0:
320,192,134906,1,2,0:0:0:0:
448,192,134906,128,4,135275:0:0:0:0:
192,192,135275,1,2,0:0:0:0:
320,192,135459,1,0,0:0:0:0:
64,192,135643,128,4,136011:0:0:0:0:
448,192,135643,1,2,0:0:0:0:
192,192,136011,1,2,0:0:0:0:
448,192,136195,1,0,0:0:0:0:
64,192,136379,1,2,0:0:0:0:
320,192,136379,128,4,136747:0:0:0:0:
192,192,136747,1,2,0:0:0:0:
64,192,136931,1,0,0:0:0:0:
320,192,137115,1,4,0:0:0:0:
448,192,137115,128,2,137483:0:0:0:0:
192,192,137483,1,2,0:0:0:0:
320,192,137667,1,0,0:0:0:0:
64,192,137851,128,2,138219:0:0:0:0:
448,192,137851,1,4,0:0:0:0:
320,192,138219,1,2,0:0:0:0:
448,192,138403,1,0,0:0:0:0:
64,192,138587,1,4,0:0:0:0:
192,192,138587,128,2,138956:0:0:0:0:
320,192,138956,1,2,0:0:0:0:
64,192,139140,1,0,0:0:0:0:
192,192,139324,1,2,0:0:0:0:
448,192,139324,128,4,139692:0:0:0:0:
320,192,139692,1,2,0:0:0:0:
192,192,139876,1,0,0:0:0:0:
64,192,140060,128,4,140428:0:0:0:0:
448,192,140060,1,2,0:0:0:0:
192,192,140428,1,2,0:0:0:0:
448,192,140612,1,0,0:0:0:0:
64,192,140796,1,2,0:0:0:0:
320,192,140796,128,4,141164:0:0:0:0:
192,192,141164,1,2,0:0:0:0:
448,192,141348,1,0,0:0:0:0:
64,192,141532,128,4,141900:0:0:0:0:
320,192,141532,1,2,0:0:0:0:
192,192,141900,1,2,0:0:0:0:
320,192,142084,1,0,0:0:0:0:
64,192,142268,1,2,0:0:0:0:
448,192,142268,128,4,142636:0:0:0:0:
320,192,142636,1,2,0:0:0:0:
64,192,142821,1,0,0:0:0:0:
192,192,143005,128,4,143373:0:0:0:0:
448,192,143005,1,2,0:0:0:0:
320,192,143373,1,2,0:0:0:0:
64,192,143557,1,0,0:0:0:0:
192,192,143741,1,2,0:0:0:0:
448,192,143741,128,4,144109:0:0:0:0:
64,192,144109,1,4,0:0:0:0:
320,192,144109,128,2,144477:0:0:0:0:
64,192,144477,128,0,144845:0:0:0:0:
192,192,144845,128,0,145213:0:0:0:0:
320,192,145213,128,0,145581:0:0:0:0:
448,192,145581,128,0,145949:0:0:0:0:
64,192,145949,128,0,146317:0:0:0:0:
192,192,146317,128,0,146686:0:0:0:0:
320,192,146686,1,0,0:0:0:0:
448,192,146870,1,6,0:0:0:0:
64,192,147054,1,2,0:0:0:0:
192,192,147054,1,4,0:0:0:0:
