osu file format v14

[General]
AudioFilename: audio.mp3
AudioLeadIn: 0
PreviewTime: 115949
Countdown: 0
SampleSet: Soft
StackLeniency: 0.7
Mode: 3
LetterboxInBreaks: 0
SpecialStyle: 0
WidescreenStoryboard: 1

[Editor]
Bookmarks: 183,7544,19324,31103,42882,54661,67913,81164,92943,104722,116502,132698,146870,147054
DistanceSpacing: 1.4
BeatDivisor: 4
GridSize: 8
TimelineZoom: 1.3

[Metadata]
Title:Hazukashigariya no Toy Soldier
TitleUnicode:はずかしがりやのトイ・ソルジャー
Artist:AAAA
ArtistUnicode:ああああ
Creator:Kawawa
Version:Collab Another
Source:
Tags:Expew Kuo Kyoka Kuo_Kyoka Akasha toy → pop fantasia! 8bit electronic britpop chiptune toypop vgm
BeatmapID:2267846
BeatmapSetID:1060064

[Difficulty]
HPDrainRate:8
CircleSize:7
OverallDifficulty:8
ApproachRate:5
SliderMultiplier:1.4
SliderTickRate:1

[Events]
//Background and Video events
0,0,"Background.jpg",0,0
//Break Periods
//Storyboard Layer 0 (Background)
//Storyboard Layer 1 (Fail)
//Storyboard Layer 2 (Pass)
//Storyboard Layer 3 (Foreground)
//Storyboard Layer 4 (Overlay)
//Storyboard Sound Samples

[TimingPoints]
183,368.098159509202,4,2,1,30,1,0
5336,-100,4,2,1,30,0,1
7176,-100,4,2,1,30,0,0
54661,-100,4,2,1,30,0,1
64968,-100,4,2,1,30,0,0
66440,-100,4,2,1,30,0,1
67176,-100,4,2,1,30,0,0
116502,-100,4,2,1,30,0,1
126808,-100,4,2,1,30,0,0
128281,-100,4,2,1,30,0,1
129017,-100,4,2,1,30,0,0
131225,-100,4,2,1,30,0,1
131962,-100,4,2,1,30,0,0
146870,-100,4,2,1,30,0,1
147054,-100,4,2,1,30,0,0

[HitObjects]
36,192,183,5,0,0:0:0:70:CrashL.wav
109,192,183,1,0,0:0:0:70:Kick.wav
256,192,183,1,0,0:0:0:0:
329,192,183,1,0,0:0:0:0:
475,192,183,1,0,0:0:0:0:
329,192,551,1,0,0:0:0:70:Kick.wav
475,192,551,1,0,0:0:0:0:
36,192,735,1,0,0:0:0:0:
182,192,735,1,0,0:0:0:0:
109,192,827,1,0,0:0:0:0:
256,192,827,1,0,0:0:0:0:
182,192,919,1,0,0:0:0:70:Kick.wav
329,192,919,1,0,0:0:0:70:CrashL.wav
402,192,919,1,0,0:0:0:0:
475,192,919,1,0,0:0:0:0:
329,192,1287,1,0,0:0:0:70:Kick.wav
475,192,1287,1,0,0:0:0:0:
36,192,1471,1,0,0:0:0:0:
182,192,1471,1,0,0:0:0:0:
109,192,1563,1,0,0:0:0:0:
256,192,1563,1,0,0:0:0:0:
182,192,1655,1,0,0:0:0:70:Kick.wav
329,192,1655,1,0,0:0:0:70:CrashL.wav
475,192,1655,1,0,0:0:0:0:
402,192,1655,1,0,0:0:0:0:
329,192,2023,1,0,0:0:0:70:Kick.wav
475,192,2023,1,0,0:0:0:0:
36,192,2207,1,0,0:0:0:0:
182,192,2207,1,0,0:0:0:0:
109,192,2299,1,0,0:0:0:0:
256,192,2299,1,0,0:0:0:0:
182,192,2391,1,0,0:0:0:70:CrashL.wav
329,192,2391,1,0,0:0:0:70:Kick.wav
402,192,2391,1,0,0:0:0:0:
475,192,2391,1,0,0:0:0:0:
329,192,2759,1,0,0:0:0:70:Kick.wav
475,192,2759,1,0,0:0:0:0:
402,192,2943,1,0,0:0:0:0:
256,192,2943,1,0,0:0:0:0:
329,192,3035,1,0,0:0:0:0:
182,192,3035,1,0,0:0:0:0:
256,192,3127,1,0,0:0:0:70:Kick.wav
109,192,3127,1,0,0:0:0:70:CrashL.wav
36,192,3127,1,0,0:0:0:0:
475,192,3127,1,0,0:0:0:0:
109,192,3495,1,0,0:0:0:70:Kick.wav
36,192,3495,1,0,0:0:0:0:
182,192,3679,1,0,0:0:0:0:
329,192,3679,1,0,0:0:0:0:
256,192,3771,1,0,0:0:0:0:
402,192,3771,1,0,0:0:0:0:
329,192,3863,1,0,0:0:0:70:Kick.wav
475,192,3863,1,0,0:0:0:70:CrashL.wav
109,192,3863,1,0,0:0:0:0:
36,192,3863,1,0,0:0:0:0:
109,192,4232,1,0,0:0:0:70:Kick.wav
36,192,4232,1,0,0:0:0:0:
182,192,4416,1,0,0:0:0:0:
329,192,4416,1,0,0:0:0:0:
256,192,4508,1,0,0:0:0:0:
402,192,4508,1,0,0:0:0:0:
329,192,4600,1,0,0:0:0:70:CrashL.wav
475,192,4600,1,0,0:0:0:70:Kick.wav
109,192,4600,1,0,0:0:0:0:
36,192,4600,1,0,0:0:0:0:
109,192,4968,1,0,0:0:0:70:Kick.wav
36,192,4968,1,0,0:0:0:0:
182,192,5152,1,0,0:0:0:0:
329,192,5152,1,0,0:0:0:0:
256,192,5244,1,0,0:0:0:0:
402,192,5244,1,0,0:0:0:0:
329,192,5336,1,0,0:0:0:70:CrashL.wav
475,192,5336,1,0,0:0:0:70:Kick.wav
109,192,5336,1,0,0:0:0:0:
36,192,5336,1,0,0:0:0:0:
182,192,5428,1,0,0:0:0:0:
109,192,5520,1,0,0:0:0:0:
182,192,5612,1,0,0:0:0:0:
109,192,5704,1,0,0:0:0:0:
182,192,5796,1,0,0:0:0:0:
109,192,5888,1,0,0:0:0:0:
182,192,5980,1,0,0:0:0:0:
109,192,6072,1,0,0:0:0:0:
402,192,6072,1,0,0:0:0:0:
329,192,6164,1,0,0:0:0:0:
402,192,6256,1,0,0:0:0:0:
329,192,6348,1,0,0:0:0:0:
402,192,6440,1,0,0:0:0:0:
329,192,6532,1,0,0:0:0:0:
402,192,6624,1,0,0:0:0:0:
329,192,6716,1,0,0:0:0:0:
402,192,6808,1,0,0:0:0:0:
256,192,6900,1,0,0:0:0:0:
182,192,6992,1,0,0:0:0:0:
109,192,7084,1,0,0:0:0:0:
36,192,7176,1,0,0:0:0:0:
36,192,7544,5,0,0:0:0:70:CrashL.wav
182,192,7544,1,0,0:0:0:70:Kick.wav
475,192,7544,1,0,0:0:0:0:
402,192,7636,1,0,0:0:0:0:
256,192,7729,1,0,0:0:0:0:
329,192,7821,1,0,0:0:0:70:Kick.wav
109,192,7821,1,0,0:0:0:0:
475,192,7913,1,0,0:0:0:0:
182,192,7913,1,0,0:0:0:0:
402,192,8005,1,0,0:0:0:0:
256,192,8097,1,0,0:0:0:0:
329,192,8189,1,0,0:0:0:70:Kick.wav
109,192,8189,1,0,0:0:0:0:
475,192,8281,1,0,0:0:0:70:Emphasis.wav
182,192,8281,1,0,0:0:0:0:
36,192,8465,1,0,0:0:0:70:Kick.wav
402,192,8465,1,0,0:0:0:70:Emphasis.wav
256,192,8465,1,0,0:0:0:0:
109,192,8649,1,0,0:0:0:70:Emphasis.wav
329,192,8649,1,0,0:0:0:0:
475,192,8649,1,0,0:0:0:0:
182,192,8741,1,0,0:0:0:70:Kick.wav
402,192,8833,1,0,0:0:0:0:
109,192,8925,1,0,0:0:0:70:Kick.wav
329,192,8925,1,0,0:0:0:0:
475,192,9017,1,0,0:0:0:70:Kick.wav
256,192,9017,1,0,0:0:0:0:
182,192,9109,1,0,0:0:0:0:
36,192,9201,1,0,0:0:0:0:
109,192,9293,1,0,0:0:0:70:Kick.wav
402,192,9293,1,0,0:0:0:0:
256,192,9385,1,0,0:0:0:0:
475,192,9385,1,0,0:0:0:0:
182,192,9477,1,0,0:0:0:0:
36,192,9569,1,0,0:0:0:0:
109,192,9661,1,0,0:0:0:70:Kick.wav
402,192,9661,1,0,0:0:0:0:
475,192,9753,1,0,0:0:0:70:Emphasis.wav
329,192,9753,1,0,0:0:0:0:
182,192,9753,1,0,0:0:0:0:
109,192,9937,1,0,0:0:0:70:Emphasis.wav
256,192,9937,1,0,0:0:0:70:Kick.wav
402,192,9937,1,0,0:0:0:0:
36,192,10121,1,0,0:0:0:70:Emphasis.wav
182,192,10121,1,0,0:0:0:0:
329,192,10121,1,0,0:0:0:0:
475,192,10213,1,0,0:0:0:70:Kick.wav
256,192,10305,1,0,0:0:0:0:
182,192,10397,1,0,0:0:0:70:Kick.wav
475,192,10397,1,0,0:0:0:0:
109,192,10489,1,0,0:0:0:70:Kick.wav
402,192,10489,1,0,0:0:0:0:
329,192,10581,1,0,0:0:0:0:
36,192,10581,1,0,0:0:0:0:
109,192,10673,1,0,0:0:0:0:
402,192,10673,1,0,0:0:0:0:
36,192,10765,1,0,0:0:0:70:Kick.wav
329,192,10765,1,0,0:0:0:0:
475,192,10857,1,0,0:0:0:0:
256,192,10857,1,0,0:0:0:0:
402,192,10949,1,0,0:0:0:0:
182,192,10949,1,0,0:0:0:0:
329,192,11041,1,0,0:0:0:0:
109,192,11041,1,0,0:0:0:0:
256,192,11133,1,0,0:0:0:70:Kick.wav
36,192,11133,1,0,0:0:0:0:
109,192,11225,1,0,0:0:0:0:
402,192,11225,1,0,0:0:0:0:
475,192,11317,1,0,0:0:0:0:
182,192,11317,1,0,0:0:0:0:
402,192,11409,1,0,0:0:0:70:Kick.wav
109,192,11409,1,0,0:0:0:0:
475,192,11502,1,0,0:0:0:0:
182,192,11502,1,0,0:0:0:0:
256,192,11594,1,0,0:0:0:0:
36,192,11594,1,0,0:0:0:0:
329,192,11686,1,0,0:0:0:70:Kick.wav
109,192,11686,1,0,0:0:0:0:
402,192,11778,1,0,0:0:0:0:
182,192,11778,1,0,0:0:0:0:
475,192,11870,1,0,0:0:0:70:Kick.wav
256,192,11870,1,0,0:0:0:0:
36,192,11962,1,0,0:0:0:70:Kick.wav
329,192,11962,1,0,0:0:0:0:
182,192,12054,1,0,0:0:0:0:
475,192,12054,1,0,0:0:0:0:
109,192,12146,1,0,0:0:0:0:
402,192,12146,1,0,0:0:0:0:
182,192,12238,1,0,0:0:0:70:Kick.wav
475,192,12238,1,0,0:0:0:0:
36,192,12330,1,0,0:0:0:70:Kick.wav
329,192,12330,1,0,0:0:0:0:
109,192,12422,1,0,0:0:0:70:Kick.wav
402,192,12422,1,0,0:0:0:0:
36,192,12514,1,0,0:0:0:0:
329,192,12514,1,0,0:0:0:0:
475,192,12606,1,0,0:0:0:0:
182,192,12606,1,0,0:0:0:0:
402,192,12698,1,0,0:0:0:0:
109,192,12698,1,0,0:0:0:0:
256,192,12698,1,0,0:0:0:0:
329,192,12882,1,0,0:0:0:70:Kick.wav
36,192,12882,1,0,0:0:0:0:
475,192,12882,1,0,0:0:0:0:
109,192,13066,1,0,0:0:0:0:
256,192,13066,1,0,0:0:0:0:
402,192,13066,1,0,0:0:0:0:
182,192,13158,1,0,0:0:0:70:Kick.wav
329,192,13158,1,0,0:0:0:0:
36,192,13250,1,0,0:0:0:0:
402,192,13250,1,0,0:0:0:0:
109,192,13342,1,0,0:0:0:0:
475,192,13342,1,0,0:0:0:0:
329,192,13434,1,0,0:0:0:70:Kick.wav
182,192,13434,1,0,0:0:0:70:CrashL.wav
36,192,13434,1,0,0:0:0:0:
475,192,13526,1,0,0:0:0:0:
402,192,13618,1,0,0:0:0:0:
256,192,13710,1,0,0:0:0:70:Kick.wav
109,192,13710,1,0,0:0:0:0:
182,192,13802,1,0,0:0:0:0:
329,192,13802,1,0,0:0:0:0:
475,192,13894,1,0,0:0:0:0:
402,192,13986,1,0,0:0:0:0:
256,192,14078,1,0,0:0:0:70:Kick.wav
109,192,14078,1,0,0:0:0:0:
36,192,14170,1,0,0:0:0:70:Emphasis.wav
182,192,14170,1,0,0:0:0:0:
329,192,14170,1,0,0:0:0:0:
109,192,14354,1,0,0:0:0:70:Emphasis.wav
256,192,14354,1,0,0:0:0:70:Kick.wav
402,192,14354,1,0,0:0:0:0:
182,192,14538,1,0,0:0:0:70:Emphasis.wav
329,192,14538,1,0,0:0:0:0:
475,192,14538,1,0,0:0:0:0:
109,192,14630,1,0,0:0:0:70:Kick.wav
256,192,14722,1,0,0:0:0:0:
109,192,14814,1,0,0:0:0:70:Kick.wav
402,192,14814,1,0,0:0:0:0:
182,192,14906,1,0,0:0:0:70:Kick.wav
329,192,14906,1,0,0:0:0:0:
36,192,14998,1,0,0:0:0:0:
109,192,15090,1,0,0:0:0:0:
256,192,15182,1,0,0:0:0:70:Kick.wav
402,192,15182,1,0,0:0:0:0:
182,192,15275,1,0,0:0:0:0:
329,192,15275,1,0,0:0:0:0:
36,192,15367,1,0,0:0:0:0:
109,192,15459,1,0,0:0:0:0:
256,192,15551,1,0,0:0:0:70:Kick.wav
402,192,15551,1,0,0:0:0:0:
329,192,15643,1,0,0:0:0:70:Emphasis.wav
109,192,15643,1,0,0:0:0:0:
475,192,15643,1,0,0:0:0:0:
36,192,15827,1,0,0:0:0:70:Kick.wav
182,192,15827,1,0,0:0:0:70:Emphasis.wav
402,192,15827,1,0,0:0:0:0:
329,192,16011,1,0,0:0:0:70:Emphasis.wav
475,192,16011,1,0,0:0:0:0:
109,192,16011,1,0,0:0:0:0:
182,192,16103,1,0,0:0:0:70:Kick.wav
402,192,16195,1,0,0:0:0:0:
182,192,16287,1,0,0:0:0:70:Kick.wav
329,192,16287,1,0,0:0:0:0:
109,192,16379,1,0,0:0:0:70:Kick.wav
402,192,16379,1,0,0:0:0:0:
475,192,16471,1,0,0:0:0:0:
36,192,16471,1,0,0:0:0:0:
329,192,16563,1,0,0:0:0:0:
182,192,16563,1,0,0:0:0:0:
402,192,16655,1,0,0:0:0:70:Kick.wav
109,192,16655,1,0,0:0:0:0:
256,192,16747,1,0,0:0:0:0:
475,192,16747,1,0,0:0:0:0:
402,192,16839,1,0,0:0:0:0:
36,192,16839,1,0,0:0:0:0:
329,192,16931,1,0,0:0:0:0:
109,192,16931,1,0,0:0:0:0:
402,192,17023,1,0,0:0:0:70:Kick.wav
182,192,17023,1,0,0:0:0:0:
475,192,17115,1,0,0:0:0:0:
36,192,17115,1,0,0:0:0:0:
256,192,17115,1,0,0:0:0:0:
109,192,17207,1,0,0:0:0:0:
329,192,17207,1,0,0:0:0:0:
182,192,17299,1,0,0:0:0:70:Kick.wav
402,192,17299,1,0,0:0:0:0:
109,192,17391,1,0,0:0:0:0:
475,192,17391,1,0,0:0:0:0:
36,192,17483,1,0,0:0:0:0:
256,192,17483,1,0,0:0:0:0:
475,192,17575,1,0,0:0:0:70:Kick.wav
182,192,17575,1,0,0:0:0:0:
402,192,17667,1,0,0:0:0:0:
109,192,17667,1,0,0:0:0:0:
329,192,17759,1,0,0:0:0:70:Kick.wav
36,192,17759,1,0,0:0:0:0:
256,192,17851,1,0,0:0:0:70:Kick.wav
402,192,17851,1,0,0:0:0:0:
182,192,17943,1,0,0:0:0:0:
475,192,17943,1,0,0:0:0:0:
109,192,18035,1,0,0:0:0:0:
329,192,18035,1,0,0:0:0:0:
36,192,18127,5,0,0:0:0:70:Kick.wav
402,192,18127,1,0,0:0:0:0:
109,192,18219,1,0,0:0:0:70:Kick.wav
475,192,18219,1,0,0:0:0:0:
182,192,18311,1,0,0:0:0:70:Kick.wav
402,192,18311,1,0,0:0:0:0:
36,192,18403,1,0,0:0:0:0:
329,192,18403,1,0,0:0:0:0:
109,192,18495,1,0,0:0:0:0:
256,192,18495,1,0,0:0:0:0:
402,192,18587,1,0,0:0:0:70:Emphasis.wav
475,192,18587,1,0,0:0:0:0:
182,192,18587,1,0,0:0:0:0:
36,192,18771,1,0,0:0:0:70:Emphasis.wav
109,192,18771,1,0,0:0:0:70:Kick.wav
329,192,18771,1,0,0:0:0:0:
182,192,18956,1,0,0:0:0:70:Emphasis.wav
475,192,18956,1,0,0:0:0:0:
402,192,18956,1,0,0:0:0:0:
109,192,19140,1,0,0:0:0:0:
256,192,19140,1,0,0:0:0:0:
182,192,19324,5,0,0:0:0:70:Kick.wav
36,192,19324,1,0,0:0:0:70:CrashL.wav
329,192,19324,1,0,0:0:0:0:
475,192,19324,1,0,0:0:0:0:
402,192,19416,1,0,0:0:0:0:
109,192,19508,1,0,0:0:0:0:
256,192,19508,1,0,0:0:0:0:
402,192,19600,1,0,0:0:0:0:
182,192,19692,1,0,0:0:0:70:Snare.wav
36,192,19692,1,0,0:0:0:0:
402,192,19784,1,0,0:0:0:0:
109,192,19876,1,0,0:0:0:0:
256,192,19876,1,0,0:0:0:0:
402,192,19968,1,0,0:0:0:0:
36,192,20060,128,0,20244:0:0:0:70:Kick.wav
182,192,20060,128,0,20244:0:0:0:70:For Base.wav
329,192,20060,1,0,0:0:0:0:
475,192,20060,1,0,0:0:0:0:
109,192,20244,128,0,20428:0:0:0:70:For Base.wav
256,192,20244,128,0,20428:0:0:0:0:
182,192,20428,128,0,20612:0:0:0:70:Snare.wav
329,192,20428,128,0,20612:0:0:0:70:For Base.wav
475,192,20428,1,0,0:0:0:0:
402,192,20428,1,0,0:0:0:0:
36,192,20612,1,0,0:0:0:0:
109,192,20704,1,0,0:0:0:0:
182,192,20796,1,0,0:0:0:70:Kick.wav
475,192,20796,1,0,0:0:0:0:
329,192,20888,1,0,0:0:0:0:
109,192,20980,1,0,0:0:0:0:
36,192,20980,1,0,0:0:0:0:
329,192,21072,1,0,0:0:0:0:
182,192,21164,1,0,0:0:0:70:Snare.wav
475,192,21164,1,0,0:0:0:0:
329,192,21256,1,0,0:0:0:0:
109,192,21348,1,0,0:0:0:0:
36,192,21348,1,0,0:0:0:0:
329,192,21440,1,0,0:0:0:0:
109,192,21532,128,0,21716:0:0:0:70:Kick.wav
256,192,21532,128,0,21716:0:0:0:70:Emphasis.wav
402,192,21532,1,0,0:0:0:0:
475,192,21532,1,0,0:0:0:0:
182,192,21716,128,0,21900:0:0:0:70:Emphasis.wav
329,192,21716,128,0,21900:0:0:0:0:
256,192,21900,128,0,22084:0:0:0:70:Snare.wav
402,192,21900,128,0,22084:0:0:0:70:Emphasis.wav
109,192,21900,1,0,0:0:0:0:
36,192,21900,1,0,0:0:0:0:
109,192,22084,1,0,0:0:0:0:
182,192,22176,1,0,0:0:0:0:
256,192,22268,1,0,0:0:0:70:Kick.wav
475,192,22268,1,0,0:0:0:0:
36,192,22268,1,0,0:0:0:0:
329,192,22360,1,0,0:0:0:0:
402,192,22452,1,0,0:0:0:0:
182,192,22452,1,0,0:0:0:0:
109,192,22544,1,0,0:0:0:0:
36,192,22636,1,0,0:0:0:70:Snare.wav
475,192,22636,1,0,0:0:0:0:
256,192,22636,1,0,0:0:0:0:
402,192,22729,1,0,0:0:0:0:
329,192,22821,1,0,0:0:0:0:
109,192,22821,1,0,0:0:0:0:
182,192,22913,1,0,0:0:0:0:
256,192,23005,1,0,0:0:0:70:Kick.wav
475,192,23005,1,0,0:0:0:0:
36,192,23005,1,0,0:0:0:0:
402,192,23097,1,0,0:0:0:0:
329,192,23189,1,0,0:0:0:0:
36,192,23189,1,0,0:0:0:0:
109,192,23281,1,0,0:0:0:0:
182,192,23373,1,0,0:0:0:70:Snare.wav
402,192,23373,1,0,0:0:0:0:
475,192,23373,1,0,0:0:0:0:
329,192,23465,1,0,0:0:0:0:
256,192,23557,1,0,0:0:0:0:
36,192,23557,1,0,0:0:0:0:
109,192,23649,1,0,0:0:0:0:
182,192,23741,1,0,0:0:0:70:Kick.wav
475,192,23741,1,0,0:0:0:0:
36,192,23741,1,0,0:0:0:0:
402,192,23833,1,0,0:0:0:0:
256,192,23833,1,0,0:0:0:0:
329,192,23925,1,0,0:0:0:0:
109,192,23925,1,0,0:0:0:0:
182,192,24017,1,0,0:0:0:0:
402,192,24017,1,0,0:0:0:0:
256,192,24109,1,0,0:0:0:70:Snare.wav
475,192,24109,1,0,0:0:0:0:
36,192,24109,1,0,0:0:0:0:
109,192,24201,1,0,0:0:0:0:
402,192,24201,1,0,0:0:0:0:
182,192,24293,1,0,0:0:0:0:
329,192,24293,1,0,0:0:0:0:
402,192,24385,1,0,0:0:0:0:
109,192,24385,1,0,0:0:0:0:
256,192,24477,128,0,24569:0:0:0:70:Kick.wav
36,192,24477,1,0,0:0:0:0:
475,192,24477,1,0,0:0:0:0:
329,192,24661,128,0,24753:0:0:0:70:Emphasis.wav
109,192,24661,1,0,0:0:0:0:
475,192,24845,1,0,0:0:0:70:Kick.wav
402,192,24845,128,0,24937:0:0:0:0:
182,192,24845,1,0,0:0:0:0:
36,192,24937,1,0,0:0:0:0:
329,192,24937,1,0,0:0:0:0:
182,192,25029,1,0,0:0:0:0:
475,192,25029,1,0,0:0:0:0:
36,192,25121,1,0,0:0:0:0:
329,192,25121,1,0,0:0:0:0:
256,192,25213,1,0,0:0:0:70:Kick.wav
475,192,25213,1,0,0:0:0:70:CrashL.wav
402,192,25213,1,0,0:0:0:0:
109,192,25305,1,0,0:0:0:0:
329,192,25397,1,0,0:0:0:0:
182,192,25397,1,0,0:0:0:0:
109,192,25489,1,0,0:0:0:0:
402,192,25581,1,0,0:0:0:70:Snare.wav
475,192,25581,1,0,0:0:0:0:
109,192,25673,1,0,0:0:0:0:
182,192,25765,1,0,0:0:0:0:
329,192,25765,1,0,0:0:0:0:
109,192,25857,1,0,0:0:0:0:
402,192,25949,1,0,0:0:0:70:Kick.wav
475,192,25949,1,0,0:0:0:70:Emphasis.wav
256,192,25949,128,0,26133:0:0:0:0:
36,192,25949,128,0,26133:0:0:0:0:
109,192,26133,128,0,26317:0:0:0:70:Emphasis.wav
329,192,26133,128,0,26317:0:0:0:0:
182,192,26317,128,0,26502:0:0:0:70:Snare.wav
402,192,26317,128,0,26502:0:0:0:70:Emphasis.wav
475,192,26317,1,0,0:0:0:0:
36,192,26317,1,0,0:0:0:0:
256,192,26502,1,0,0:0:0:0:
329,192,26594,1,0,0:0:0:0:
402,192,26686,1,0,0:0:0:70:Kick.wav
36,192,26686,1,0,0:0:0:0:
182,192,26778,1,0,0:0:0:0:
329,192,26870,1,0,0:0:0:0:
475,192,26870,1,0,0:0:0:0:
182,192,26962,1,0,0:0:0:0:
402,192,27054,1,0,0:0:0:70:Snare.wav
36,192,27054,1,0,0:0:0:0:
182,192,27146,1,0,0:0:0:0:
329,192,27238,1,0,0:0:0:0:
475,192,27238,1,0,0:0:0:0:
182,192,27330,1,0,0:0:0:0:
402,192,27422,1,0,0:0:0:70:Kick.wav
36,192,27422,128,0,27606:0:0:0:70:Emphasis.wav
256,192,27422,128,0,27606:0:0:0:0:
475,192,27422,1,0,0:0:0:0:
329,192,27606,128,0,27790:0:0:0:70:Emphasis.wav
109,192,27606,128,0,27790:0:0:0:0:
182,192,27790,128,0,27974:0:0:0:70:Snare.wav
402,192,27790,128,0,27974:0:0:0:70:Emphasis.wav
475,192,27790,1,0,0:0:0:0:
36,192,27790,1,0,0:0:0:0:
256,192,27974,1,0,0:0:0:0:
182,192,28066,1,0,0:0:0:0:
109,192,28158,1,0,0:0:0:70:Kick.wav
475,192,28158,1,0,0:0:0:0:
329,192,28158,1,0,0:0:0:0:
36,192,28250,1,0,0:0:0:0:
182,192,28342,1,0,0:0:0:0:
402,192,28342,1,0,0:0:0:0:
256,192,28434,1,0,0:0:0:0:
329,192,28526,1,0,0:0:0:70:Snare.wav
109,192,28526,1,0,0:0:0:0:
475,192,28526,1,0,0:0:0:0:
402,192,28618,1,0,0:0:0:0:
256,192,28710,1,0,0:0:0:0:
109,192,28710,1,0,0:0:0:0:
329,192,28802,1,0,0:0:0:0:
402,192,28894,1,0,0:0:0:70:Kick.wav
182,192,28894,1,0,0:0:0:0:
36,192,28894,1,0,0:0:0:0:
475,192,28986,1,0,0:0:0:0:
329,192,29078,1,0,0:0:0:0:
109,192,29078,1,0,0:0:0:0:
256,192,29170,1,0,0:0:0:0:
402,192,29262,1,0,0:0:0:70:Snare.wav
182,192,29262,1,0,0:0:0:0:
36,192,29262,1,0,0:0:0:0:
475,192,29354,1,0,0:0:0:0:
256,192,29446,1,0,0:0:0:0:
109,192,29446,1,0,0:0:0:0:
182,192,29538,1,0,0:0:0:0:
36,192,29630,1,0,0:0:0:70:Kick.wav
475,192,29630,1,0,0:0:0:0:
329,192,29630,1,0,0:0:0:0:
402,192,29722,1,0,0:0:0:0:
109,192,29722,1,0,0:0:0:0:
182,192,29814,1,0,0:0:0:0:
256,192,29814,1,0,0:0:0:0:
109,192,29906,1,0,0:0:0:0:
402,192,29906,1,0,0:0:0:0:
36,192,29998,1,0,0:0:0:70:Snare.wav
475,192,29998,1,0,0:0:0:0:
256,192,29998,1,0,0:0:0:0:
402,192,30090,1,0,0:0:0:0:
182,192,30090,1,0,0:0:0:0:
329,192,30182,1,0,0:0:0:0:
36,192,30182,1,0,0:0:0:0:
402,192,30275,1,0,0:0:0:0:
182,192,30275,1,0,0:0:0:0:
36,192,30367,1,0,0:0:0:70:Kick.wav
256,192,30367,128,0,30459:0:0:0:70:Emphasis.wav
475,192,30367,128,0,30459:0:0:0:0:
182,192,30551,128,0,30643:0:0:0:70:Emphasis.wav
402,192,30551,128,0,30643:0:0:0:0:
36,192,30735,128,0,30919:0:0:0:70:Kick.wav
109,192,30735,128,0,30919:0:0:0:70:Emphasis.wav
256,192,30735,128,0,30919:0:0:0:0:
329,192,30735,128,0,30919:0:0:0:0:
36,192,31103,5,0,0:0:0:70:CrashL.wav
402,192,31103,1,0,0:0:0:70:CrashL.wav
256,192,31103,128,0,31471:0:0:0:70:Kick.wav
182,192,31103,1,0,0:0:0:70:Kick.wav
329,192,31471,1,0,0:0:0:70:Kick.wav
109,192,31471,1,0,0:0:0:0:
36,192,31655,1,0,0:0:0:0:
256,192,31655,1,0,0:0:0:0:
182,192,31747,1,0,0:0:0:0:
402,192,31747,1,0,0:0:0:0:
329,192,31839,128,0,32207:0:0:0:70:Kick.wav
475,192,31839,1,0,0:0:0:70:CrashL.wav
109,192,31839,1,0,0:0:0:0:
402,192,32207,1,0,0:0:0:70:Kick.wav
182,192,32207,1,0,0:0:0:0:
109,192,32391,1,0,0:0:0:0:
329,192,32391,1,0,0:0:0:0:
256,192,32483,1,0,0:0:0:0:
475,192,32483,1,0,0:0:0:0:
402,192,32575,128,0,32943:0:0:0:70:Kick.wav
36,192,32575,1,0,0:0:0:70:CrashL.wav
182,192,32575,1,0,0:0:0:0:
475,192,32943,1,0,0:0:0:70:Kick.wav
256,192,32943,1,0,0:0:0:0:
182,192,33127,1,0,0:0:0:0:
402,192,33127,1,0,0:0:0:0:
329,192,33219,1,0,0:0:0:0:
36,192,33219,1,0,0:0:0:0:
475,192,33311,128,0,33679:0:0:0:70:CrashL.wav
109,192,33311,1,0,0:0:0:70:Kick.wav
256,192,33311,1,0,0:0:0:0:
182,192,33679,1,0,0:0:0:70:Kick.wav
402,192,33679,1,0,0:0:0:0:
329,192,33863,1,0,0:0:0:0:
36,192,33863,1,0,0:0:0:0:
182,192,33956,1,0,0:0:0:0:
402,192,33956,1,0,0:0:0:0:
475,192,34048,1,0,0:0:0:70:Kick.wav
109,192,34048,1,0,0:0:0:70:CrashL.wav
256,192,34048,128,0,34416:0:0:0:0:
182,192,34416,1,0,0:0:0:70:Kick.wav
402,192,34416,1,0,0:0:0:0:
475,192,34600,1,0,0:0:0:0:
256,192,34600,1,0,0:0:0:0:
329,192,34692,1,0,0:0:0:0:
109,192,34692,1,0,0:0:0:0:
182,192,34784,128,0,35152:0:0:0:70:CrashL.wav
36,192,34784,1,0,0:0:0:70:Kick.wav
402,192,34784,1,0,0:0:0:0:
109,192,35152,1,0,0:0:0:70:Kick.wav
329,192,35152,1,0,0:0:0:0:
402,192,35336,1,0,0:0:0:0:
182,192,35336,1,0,0:0:0:0:
256,192,35428,1,0,0:0:0:0:
36,192,35428,1,0,0:0:0:0:
109,192,35520,128,0,35888:0:0:0:70:CrashL.wav
475,192,35520,1,0,0:0:0:70:Kick.wav
329,192,35520,1,0,0:0:0:0:
36,192,35888,1,0,0:0:0:70:Kick.wav
256,192,35888,1,0,0:0:0:0:
329,192,36072,1,0,0:0:0:0:
109,192,36072,1,0,0:0:0:0:
182,192,36164,1,0,0:0:0:0:
475,192,36164,1,0,0:0:0:0:
36,192,36256,128,0,36624:0:0:0:70:Kick.wav
402,192,36256,1,0,0:0:0:70:CrashL.wav
256,192,36256,1,0,0:0:0:0:
329,192,36624,1,0,0:0:0:70:Kick.wav
109,192,36624,1,0,0:0:0:0:
182,192,36808,1,0,0:0:0:0:
402,192,36808,1,0,0:0:0:0:
329,192,36900,1,0,0:0:0:0:
36,192,36900,1,0,0:0:0:0:
256,192,36992,128,0,37360:0:0:0:70:CrashL.wav
109,192,36992,1,0,0:0:0:70:Kick.wav
475,192,36992,1,0,0:0:0:0:
329,192,37360,1,0,0:0:0:70:Kick.wav
36,192,37360,1,0,0:0:0:0:
182,192,37544,1,0,0:0:0:0:
402,192,37544,1,0,0:0:0:0:
36,192,37636,1,0,0:0:0:0:
256,192,37636,1,0,0:0:0:0:
109,192,37729,128,0,38097:0:0:0:70:Kick.wav
475,192,37729,1,0,0:0:0:70:CrashL.wav
329,192,37729,1,0,0:0:0:0:
475,192,38097,1,0,0:0:0:70:Kick.wav
182,192,38097,1,0,0:0:0:0:
329,192,38281,1,0,0:0:0:0:
109,192,38281,1,0,0:0:0:0:
475,192,38373,1,0,0:0:0:0:
256,192,38373,1,0,0:0:0:0:
402,192,38465,128,0,38833:0:0:0:70:Kick.wav
182,192,38465,1,0,0:0:0:70:CrashL.wav
36,192,38465,1,0,0:0:0:0:
256,192,38833,1,0,0:0:0:70:Kick.wav
109,192,38833,1,0,0:0:0:0:
329,192,39017,1,0,0:0:0:0:
109,192,39017,1,0,0:0:0:0:
182,192,39109,1,0,0:0:0:0:
475,192,39109,1,0,0:0:0:0:
256,192,39201,128,0,39569:0:0:0:70:CrashL.wav
402,192,39201,1,0,0:0:0:70:Kick.wav
36,192,39201,1,0,0:0:0:0:
109,192,39569,1,0,0:0:0:70:Kick.wav
402,192,39569,1,0,0:0:0:0:
475,192,39753,1,0,0:0:0:0:
256,192,39753,1,0,0:0:0:0:
329,192,39845,1,0,0:0:0:0:
109,192,39845,1,0,0:0:0:0:
182,192,39937,128,0,40305:0:0:0:70:Kick.wav
36,192,39937,1,0,0:0:0:70:CrashL.wav
402,192,39937,1,0,0:0:0:0:
402,192,40305,1,0,0:0:0:70:Kick.wav
109,192,40305,1,0,0:0:0:0:
36,192,40489,1,0,0:0:0:0:
256,192,40489,1,0,0:0:0:0:
182,192,40581,1,0,0:0:0:0:
402,192,40581,1,0,0:0:0:0:
329,192,40673,128,0,41041:0:0:0:70:CrashL.wav
475,192,40673,1,0,0:0:0:70:Kick.wav
109,192,40673,1,0,0:0:0:0:
109,192,41041,1,0,0:0:0:70:Kick.wav
402,192,41041,1,0,0:0:0:0:
402,192,41225,1,0,0:0:0:0:
182,192,41225,1,0,0:0:0:0:
256,192,41317,1,0,0:0:0:0:
36,192,41317,1,0,0:0:0:0:
109,192,41409,128,0,41778:0:0:0:70:CrashL.wav
329,192,41409,1,0,0:0:0:70:Kick.wav
475,192,41409,1,0,0:0:0:0:
256,192,41778,1,0,0:0:0:70:Kick.wav
402,192,41778,1,0,0:0:0:0:
109,192,41962,1,0,0:0:0:0:
329,192,41962,1,0,0:0:0:0:
256,192,42054,1,0,0:0:0:0:
475,192,42054,1,0,0:0:0:0:
402,192,42146,128,0,42514:0:0:0:70:Kick.wav
182,192,42146,1,0,0:0:0:70:CrashL.wav
36,192,42146,1,0,0:0:0:0:
109,192,42330,1,0,0:0:0:0:
329,192,42330,1,0,0:0:0:0:
36,192,42514,1,0,0:0:0:70:Kick.wav
256,192,42514,1,0,0:0:0:70:CrashL.wav
475,192,42514,1,0,0:0:0:0:
109,192,42698,1,0,0:0:0:0:
329,192,42698,1,0,0:0:0:0:
182,192,42882,128,0,43066:0:0:0:70:CrashL.wav
36,192,42882,128,0,43066:0:0:0:70:Kick.wav
402,192,42882,128,0,43066:0:0:0:0:
475,192,42882,1,0,0:0:0:0:
329,192,43066,1,0,0:0:0:0:
256,192,43066,1,0,0:0:0:0:
36,192,43158,128,0,43342:0:0:0:0:
182,192,43158,128,0,43342:0:0:0:0:
402,192,43158,128,0,43342:0:0:0:0:
182,192,43434,1,0,0:0:0:0:
329,192,43434,1,0,0:0:0:0:
475,192,43434,1,0,0:0:0:0:
109,192,43618,1,0,0:0:0:70:Kick.wav
36,192,43618,1,0,0:0:0:0:
402,192,43618,1,0,0:0:0:0:
329,192,43802,1,0,0:0:0:0:
182,192,43802,1,0,0:0:0:0:
475,192,43802,1,0,0:0:0:0:
182,192,43986,1,0,0:0:0:70:Snare.wav
109,192,43986,1,0,0:0:0:0:
36,192,43986,1,0,0:0:0:0:
329,192,43986,1,0,0:0:0:0:
256,192,44170,1,0,0:0:0:0:
402,192,44170,1,0,0:0:0:0:
475,192,44170,1,0,0:0:0:0:
36,192,44354,1,0,0:0:0:70:Kick.wav
109,192,44354,1,0,0:0:0:0:
256,192,44354,1,0,0:0:0:0:
182,192,44538,1,0,0:0:0:0:
329,192,44538,1,0,0:0:0:0:
402,192,44538,1,0,0:0:0:0:
182,192,44722,1,0,0:0:0:70:Snare.wav
256,192,44722,1,0,0:0:0:0:
36,192,44722,1,0,0:0:0:0:
475,192,44722,1,0,0:0:0:0:
109,192,44906,1,0,0:0:0:0:
402,192,44906,1,0,0:0:0:0:
256,192,44906,1,0,0:0:0:0:
109,192,45090,1,0,0:0:0:70:Kick.wav
329,192,45090,1,0,0:0:0:0:
475,192,45090,1,0,0:0:0:0:
36,192,45275,128,0,45367:0:0:0:0:
182,192,45275,128,0,45367:0:0:0:0:
329,192,45275,128,0,45367:0:0:0:0:
109,192,45459,128,0,45551:0:0:0:70:Snare.wav
256,192,45459,128,0,45551:0:0:0:0:
402,192,45459,128,0,45551:0:0:0:0:
182,192,45643,128,0,45735:0:0:0:0:
329,192,45643,128,0,45735:0:0:0:0:
475,192,45643,128,0,45735:0:0:0:0:
36,192,45827,128,0,46011:0:0:0:70:Kick.wav
475,192,45827,128,0,46011:0:0:0:0:
256,192,45827,128,0,46011:0:0:0:0:
182,192,46011,1,0,0:0:0:0:
329,192,46011,1,0,0:0:0:0:
475,192,46103,128,0,46287:0:0:0:0:
36,192,46103,128,0,46287:0:0:0:0:
256,192,46103,128,0,46287:0:0:0:0:
329,192,46379,1,0,0:0:0:0:
182,192,46379,1,0,0:0:0:0:
36,192,46379,1,0,0:0:0:0:
109,192,46563,1,0,0:0:0:70:Kick.wav
256,192,46563,1,0,0:0:0:0:
475,192,46563,1,0,0:0:0:0:
182,192,46747,1,0,0:0:0:0:
36,192,46747,1,0,0:0:0:0:
329,192,46747,1,0,0:0:0:0:
402,192,46931,1,0,0:0:0:70:Snare.wav
475,192,46931,1,0,0:0:0:0:
109,192,46931,1,0,0:0:0:0:
256,192,46931,1,0,0:0:0:0:
109,192,47115,1,0,0:0:0:0:
36,192,47115,1,0,0:0:0:0:
329,192,47115,1,0,0:0:0:0:
182,192,47299,1,0,0:0:0:70:Kick.wav
329,192,47299,1,0,0:0:0:0:
475,192,47299,1,0,0:0:0:0:
182,192,47483,1,0,0:0:0:0:
109,192,47483,1,0,0:0:0:0:
402,192,47483,1,0,0:0:0:0:
256,192,47667,1,0,0:0:0:70:Snare.wav
36,192,47667,1,0,0:0:0:0:
402,192,47667,1,0,0:0:0:0:
475,192,47667,1,0,0:0:0:0:
256,192,47851,1,0,0:0:0:0:
182,192,47851,1,0,0:0:0:0:
475,192,47851,1,0,0:0:0:0:
402,192,47943,1,0,0:0:0:0:
329,192,48035,1,0,0:0:0:70:Kick.wav
182,192,48035,1,0,0:0:0:0:
36,192,48035,1,0,0:0:0:0:
36,192,48219,1,0,0:0:0:0:
256,192,48219,128,0,48311:0:0:0:0:
402,192,48219,128,0,48311:0:0:0:0:
109,192,48311,1,0,0:0:0:0:
182,192,48403,1,0,0:0:0:70:Snare.wav
329,192,48403,128,0,48495:0:0:0:0:
475,192,48403,128,0,48495:0:0:0:0:
182,192,48587,128,0,48679:0:0:0:0:
36,192,48587,128,0,48679:0:0:0:0:
109,192,48771,128,0,48956:0:0:0:70:Kick.wav
256,192,48771,128,0,48956:0:0:0:70:CrashL.wav
402,192,48771,128,0,48956:0:0:0:0:
475,192,48771,1,0,0:0:0:0:
329,192,48956,1,0,0:0:0:0:
36,192,48956,1,0,0:0:0:0:
109,192,49048,128,0,49232:0:0:0:0:
256,192,49048,128,0,49232:0:0:0:0:
402,192,49048,128,0,49232:0:0:0:0:
182,192,49324,1,0,0:0:0:0:
329,192,49324,1,0,0:0:0:0:
475,192,49324,1,0,0:0:0:0:
36,192,49508,1,0,0:0:0:70:Kick.wav
109,192,49508,1,0,0:0:0:0:
402,192,49508,1,0,0:0:0:0:
329,192,49692,1,0,0:0:0:0:
182,192,49692,1,0,0:0:0:0:
475,192,49692,1,0,0:0:0:0:
109,192,49876,1,0,0:0:0:70:Snare.wav
256,192,49876,1,0,0:0:0:0:
36,192,49876,1,0,0:0:0:0:
402,192,49876,1,0,0:0:0:0:
329,192,50060,1,0,0:0:0:0:
475,192,50060,1,0,0:0:0:0:
109,192,50060,1,0,0:0:0:0:
329,192,50244,1,0,0:0:0:70:Kick.wav
182,192,50244,1,0,0:0:0:0:
36,192,50244,1,0,0:0:0:0:
475,192,50428,1,0,0:0:0:0:
109,192,50428,1,0,0:0:0:0:
256,192,50428,1,0,0:0:0:0:
475,192,50612,1,0,0:0:0:70:Snare.wav
182,192,50612,1,0,0:0:0:0:
36,192,50612,1,0,0:0:0:0:
329,192,50612,1,0,0:0:0:0:
402,192,50796,1,0,0:0:0:0:
256,192,50796,1,0,0:0:0:0:
109,192,50796,1,0,0:0:0:0:
402,192,50980,1,0,0:0:0:70:Kick.wav
182,192,50980,1,0,0:0:0:0:
36,192,50980,1,0,0:0:0:0:
36,192,51164,128,0,51256:0:0:0:0:
182,192,51164,128,0,51256:0:0:0:0:
329,192,51164,128,0,51256:0:0:0:0:
402,192,51348,128,0,51440:0:0:0:70:Snare.wav
256,192,51348,128,0,51440:0:0:0:0:
109,192,51348,128,0,51440:0:0:0:0:
329,192,51532,128,0,51624:0:0:0:0:
475,192,51532,128,0,51624:0:0:0:0:
36,192,51532,128,0,51624:0:0:0:0:
402,192,51716,128,0,51900:0:0:0:70:Kick.wav
256,192,51716,128,0,51900:0:0:0:0:
109,192,51716,128,0,51900:0:0:0:0:
475,192,51900,1,0,0:0:0:0:
182,192,51900,1,0,0:0:0:0:
256,192,51992,128,0,52176:0:0:0:0:
402,192,51992,128,0,52176:0:0:0:0:
109,192,51992,128,0,52176:0:0:0:0:
256,192,52268,1,0,0:0:0:0:
475,192,52268,1,0,0:0:0:0:
109,192,52268,1,0,0:0:0:0:
329,192,52452,1,0,0:0:0:70:Kick.wav
182,192,52452,1,0,0:0:0:0:
36,192,52452,1,0,0:0:0:0:
256,192,52636,1,0,0:0:0:0:
402,192,52636,1,0,0:0:0:0:
475,192,52636,1,0,0:0:0:0:
182,192,52821,1,0,0:0:0:70:Snare.wav
36,192,52821,1,0,0:0:0:0:
329,192,52821,1,0,0:0:0:0:
475,192,52821,1,0,0:0:0:0:
109,192,53005,1,0,0:0:0:0:
256,192,53005,1,0,0:0:0:0:
402,192,53005,1,0,0:0:0:0:
182,192,53189,1,0,0:0:0:70:Kick.wav
329,192,53189,1,0,0:0:0:70:CrashS.wav
256,192,53189,128,0,53281:0:0:0:0:
402,192,53189,128,0,53281:0:0:0:0:
475,192,53189,1,0,0:0:0:0:
109,192,53281,1,0,0:0:0:0:
36,192,53373,1,0,0:0:0:0:
402,192,53557,5,0,0:0:0:70:Kick.wav
109,192,53557,1,0,0:0:0:70:CrashS.wav
182,192,53557,128,0,53649:0:0:0:0:
329,192,53557,128,0,53649:0:0:0:0:
256,192,53557,1,0,0:0:0:0:
475,192,53741,1,0,0:0:0:0:
402,192,53833,1,0,0:0:0:0:
329,192,53925,1,0,0:0:0:70:Kick.wav
182,192,53925,1,0,0:0:0:70:CrashS.wav
109,192,53925,128,0,54017:0:0:0:0:
256,192,53925,128,0,54017:0:0:0:0:
36,192,53925,1,0,0:0:0:0:
182,192,54109,128,0,54201:0:0:0:0:
329,192,54109,128,0,54201:0:0:0:0:
256,192,54293,128,0,54385:0:0:0:70:Kick.wav
402,192,54293,128,0,54385:0:0:0:0:
329,192,54477,128,0,54569:0:0:0:0:
475,192,54477,128,0,54569:0:0:0:0:
402,192,54661,5,0,0:0:0:70:Kick.wav
36,192,54661,1,0,0:0:0:70:CrashL.wav
256,192,54661,1,0,0:0:0:0:
109,192,54661,1,0,0:0:0:0:
475,192,54753,1,0,0:0:0:0:
182,192,54753,1,0,0:0:0:0:
109,192,54845,1,0,0:0:0:0:
329,192,54845,1,0,0:0:0:0:
475,192,54937,1,0,0:0:0:0:
36,192,54937,1,0,0:0:0:0:
256,192,55029,1,0,0:0:0:70:Kick.wav
109,192,55029,1,0,0:0:0:0:
402,192,55029,1,0,0:0:0:0:
475,192,55121,1,0,0:0:0:0:
182,192,55121,1,0,0:0:0:0:
109,192,55213,1,0,0:0:0:0:
329,192,55213,1,0,0:0:0:0:
475,192,55305,1,0,0:0:0:0:
36,192,55305,1,0,0:0:0:0:
109,192,55397,1,0,0:0:0:70:Kick.wav
256,192,55397,1,0,0:0:0:0:
402,192,55397,1,0,0:0:0:0:
36,192,55581,1,0,0:0:0:0:
182,192,55581,1,0,0:0:0:0:
402,192,55765,1,0,0:0:0:70:Kick.wav
256,192,55765,1,0,0:0:0:0:
109,192,55765,1,0,0:0:0:0:
475,192,55765,1,0,0:0:0:0:
329,192,55949,1,0,0:0:0:0:
182,192,55949,1,0,0:0:0:0:
256,192,56133,1,0,0:0:0:70:Kick.wav
402,192,56133,1,0,0:0:0:0:
109,192,56133,1,0,0:0:0:0:
329,192,56225,1,0,0:0:0:0:
475,192,56225,1,0,0:0:0:0:
182,192,56317,1,0,0:0:0:0:
36,192,56317,1,0,0:0:0:0:
475,192,56409,1,0,0:0:0:0:
329,192,56409,1,0,0:0:0:0:
109,192,56502,1,0,0:0:0:70:Kick.wav
402,192,56502,1,0,0:0:0:0:
256,192,56502,1,0,0:0:0:0:
182,192,56594,1,0,0:0:0:0:
36,192,56594,1,0,0:0:0:0:
475,192,56686,1,0,0:0:0:0:
329,192,56686,1,0,0:0:0:0:
182,192,56778,1,0,0:0:0:0:
36,192,56778,1,0,0:0:0:0:
109,192,56870,1,0,0:0:0:70:Kick.wav
256,192,56870,1,0,0:0:0:0:
402,192,56870,1,0,0:0:0:0:
182,192,57054,1,0,0:0:0:0:
329,192,57054,1,0,0:0:0:0:
402,192,57238,1,0,0:0:0:70:Kick.wav
36,192,57238,1,0,0:0:0:0:
256,192,57238,1,0,0:0:0:0:
475,192,57238,1,0,0:0:0:0:
329,192,57422,1,0,0:0:0:0:
109,192,57422,1,0,0:0:0:0:
402,192,57514,1,0,0:0:0:0:
182,192,57514,1,0,0:0:0:0:
475,192,57606,1,0,0:0:0:70:Kick.wav
256,192,57606,1,0,0:0:0:0:
36,192,57606,1,0,0:0:0:0:
329,192,57698,1,0,0:0:0:0:
109,192,57698,1,0,0:0:0:0:
402,192,57790,1,0,0:0:0:0:
182,192,57790,1,0,0:0:0:0:
256,192,57882,1,0,0:0:0:0:
36,192,57882,1,0,0:0:0:0:
109,192,57974,1,0,0:0:0:70:Kick.wav
329,192,57974,1,0,0:0:0:0:
475,192,57974,1,0,0:0:0:0:
256,192,58066,1,0,0:0:0:0:
36,192,58066,1,0,0:0:0:0:
329,192,58158,1,0,0:0:0:0:
109,192,58158,1,0,0:0:0:0:
402,192,58250,1,0,0:0:0:0:
182,192,58250,1,0,0:0:0:0:
256,192,58342,1,0,0:0:0:70:Kick.wav
475,192,58342,1,0,0:0:0:0:
36,192,58342,1,0,0:0:0:0:
109,192,58434,1,0,0:0:0:0:
402,192,58434,1,0,0:0:0:0:
182,192,58526,1,0,0:0:0:0:
329,192,58526,1,0,0:0:0:0:
402,192,58618,1,0,0:0:0:0:
109,192,58618,1,0,0:0:0:0:
36,192,58710,1,0,0:0:0:70:Kick.wav
256,192,58710,1,0,0:0:0:0:
475,192,58710,1,0,0:0:0:0:
182,192,58802,1,0,0:0:0:0:
402,192,58802,1,0,0:0:0:0:
329,192,58894,1,0,0:0:0:0:
109,192,58894,1,0,0:0:0:0:
36,192,58986,1,0,0:0:0:0:
256,192,58986,1,0,0:0:0:0:
475,192,59078,1,0,0:0:0:70:Kick.wav
402,192,59078,1,0,0:0:0:0:
182,192,59078,1,0,0:0:0:0:
109,192,59170,1,0,0:0:0:0:
36,192,59170,1,0,0:0:0:0:
329,192,59262,1,0,0:0:0:0:
402,192,59262,1,0,0:0:0:0:
109,192,59354,1,0,0:0:0:0:
182,192,59354,1,0,0:0:0:0:
256,192,59446,1,0,0:0:0:70:Kick.wav
402,192,59446,1,0,0:0:0:0:
475,192,59446,1,0,0:0:0:0:
36,192,59538,1,0,0:0:0:0:
109,192,59538,1,0,0:0:0:0:
329,192,59630,1,0,0:0:0:0:
402,192,59630,1,0,0:0:0:0:
109,192,59722,1,0,0:0:0:0:
182,192,59722,1,0,0:0:0:0:
402,192,59814,1,0,0:0:0:70:Kick.wav
475,192,59814,1,0,0:0:0:0:
256,192,59814,1,0,0:0:0:0:
36,192,59998,1,0,0:0:0:0:
182,192,59998,1,0,0:0:0:0:
109,192,60182,1,0,0:0:0:70:Kick.wav
256,192,60182,1,0,0:0:0:0:
402,192,60182,1,0,0:0:0:0:
475,192,60182,1,0,0:0:0:0:
182,192,60367,1,0,0:0:0:0:
329,192,60367,1,0,0:0:0:0:
109,192,60551,1,0,0:0:0:70:Kick.wav
402,192,60551,1,0,0:0:0:70:CrashL.wav
475,192,60551,1,0,0:0:0:0:
256,192,60551,1,0,0:0:0:0:
36,192,60643,1,0,0:0:0:0:
182,192,60643,1,0,0:0:0:0:
329,192,60735,1,0,0:0:0:0:
402,192,60735,1,0,0:0:0:0:
256,192,60827,1,0,0:0:0:0:
109,192,60827,1,0,0:0:0:0:
36,192,60919,1,0,0:0:0:70:Kick.wav
402,192,60919,1,0,0:0:0:0:
475,192,60919,1,0,0:0:0:0:
256,192,61011,1,0,0:0:0:0:
109,192,61011,1,0,0:0:0:0:
402,192,61103,1,0,0:0:0:0:
329,192,61103,1,0,0:0:0:0:
36,192,61195,1,0,0:0:0:0:
182,192,61195,1,0,0:0:0:0:
256,192,61287,1,0,0:0:0:70:Kick.wav
109,192,61287,1,0,0:0:0:0:
475,192,61287,1,0,0:0:0:0:
329,192,61471,1,0,0:0:0:0:
475,192,61471,1,0,0:0:0:0:
109,192,61655,1,0,0:0:0:70:Kick.wav
256,192,61655,1,0,0:0:0:0:
402,192,61655,1,0,0:0:0:0:
36,192,61655,1,0,0:0:0:0:
329,192,61839,1,0,0:0:0:0:
182,192,61839,1,0,0:0:0:0:
109,192,62023,1,0,0:0:0:70:Kick.wav
256,192,62023,1,0,0:0:0:0:
402,192,62023,1,0,0:0:0:0:
329,192,62115,1,0,0:0:0:0:
475,192,62115,1,0,0:0:0:0:
182,192,62207,1,0,0:0:0:0:
36,192,62207,1,0,0:0:0:0:
475,192,62299,1,0,0:0:0:0:
329,192,62299,1,0,0:0:0:0:
256,192,62391,1,0,0:0:0:70:Kick.wav
109,192,62391,1,0,0:0:0:0:
402,192,62391,1,0,0:0:0:0:
182,192,62483,1,0,0:0:0:0:
36,192,62483,1,0,0:0:0:0:
329,192,62575,1,0,0:0:0:0:
475,192,62575,1,0,0:0:0:0:
182,192,62667,1,0,0:0:0:0:
36,192,62667,1,0,0:0:0:0:
402,192,62759,1,0,0:0:0:70:Kick.wav
109,192,62759,1,0,0:0:0:0:
256,192,62759,1,0,0:0:0:0:
36,192,62943,1,0,0:0:0:0:
182,192,62943,1,0,0:0:0:0:
109,192,63127,1,0,0:0:0:70:Kick.wav
402,192,63127,1,0,0:0:0:0:
475,192,63127,1,0,0:0:0:0:
256,192,63127,1,0,0:0:0:0:
182,192,63311,1,0,0:0:0:0:
329,192,63311,1,0,0:0:0:0:
475,192,63403,1,0,0:0:0:0:
109,192,63403,1,0,0:0:0:0:
256,192,63495,1,0,0:0:0:70:Kick.wav
36,192,63495,1,0,0:0:0:0:
402,192,63495,1,0,0:0:0:0:
329,192,63587,1,0,0:0:0:0:
182,192,63587,1,0,0:0:0:0:
475,192,63679,1,0,0:0:0:0:
109,192,63679,1,0,0:0:0:0:
402,192,63771,1,0,0:0:0:0:
182,192,63771,1,0,0:0:0:0:
475,192,63863,1,0,0:0:0:70:Kick.wav
36,192,63863,1,0,0:0:0:0:
256,192,63863,1,0,0:0:0:0:
329,192,63956,1,0,0:0:0:0:
109,192,63956,1,0,0:0:0:0:
182,192,64048,1,0,0:0:0:0:
36,192,64048,1,0,0:0:0:0:
329,192,64140,1,0,0:0:0:0:
475,192,64140,1,0,0:0:0:0:
256,192,64232,1,0,0:0:0:70:Kick.wav
109,192,64232,1,0,0:0:0:0:
402,192,64232,1,0,0:0:0:0:
475,192,64324,1,0,0:0:0:0:
36,192,64324,1,0,0:0:0:0:
182,192,64416,1,0,0:0:0:0:
329,192,64416,1,0,0:0:0:0:
109,192,64508,1,0,0:0:0:0:
475,192,64508,1,0,0:0:0:0:
402,192,64600,1,0,0:0:0:70:Kick.wav
256,192,64600,1,0,0:0:0:0:
36,192,64600,1,0,0:0:0:0:
109,192,64692,1,0,0:0:0:0:
475,192,64692,1,0,0:0:0:0:
182,192,64784,1,0,0:0:0:0:
329,192,64784,1,0,0:0:0:0:
402,192,64876,1,0,0:0:0:0:
256,192,64876,1,0,0:0:0:0:
36,192,64968,1,0,0:0:0:70:Kick.wav
329,192,64968,1,0,0:0:0:70:CrashL.wav
475,192,64968,1,0,0:0:0:0:
182,192,64968,1,0,0:0:0:0:
329,192,65336,1,0,0:0:0:0:
475,192,65336,1,0,0:0:0:0:
329,192,65459,1,0,0:0:0:0:
475,192,65459,1,0,0:0:0:0:
182,192,65581,1,0,0:0:0:0:
36,192,65581,1,0,0:0:0:0:
329,192,65704,1,0,0:0:0:70:Kick.wav
256,192,65704,1,0,0:0:0:70:CrashL.wav
109,192,65704,1,0,0:0:0:0:
475,192,65704,1,0,0:0:0:0:
182,192,66072,1,0,0:0:0:0:
36,192,66072,1,0,0:0:0:0:
36,192,66195,1,0,0:0:0:0:
182,192,66195,1,0,0:0:0:0:
329,192,66317,1,0,0:0:0:0:
475,192,66317,1,0,0:0:0:0:
402,192,66440,1,0,0:0:0:70:Kick.wav
256,192,66440,1,0,0:0:0:70:CrashS.wav
182,192,66440,1,0,0:0:0:0:
36,192,66440,1,0,0:0:0:0:
109,192,66808,1,0,0:0:0:70:Kick.wav
256,192,66808,1,0,0:0:0:70:CrashS.wav
329,192,66808,1,0,0:0:0:0:
475,192,66808,1,0,0:0:0:0:
182,192,67176,1,0,0:0:0:70:Kick.wav
329,192,67176,1,0,0:0:0:70:CrashS.wav
475,192,67176,1,0,0:0:0:0:
36,192,67176,1,0,0:0:0:0:
329,192,67268,1,0,0:0:0:0:
109,192,67360,1,0,0:0:0:0:
109,192,67452,1,0,0:0:0:0:
256,192,67544,1,0,0:0:0:0:
36,192,67913,128,0,68097:0:0:0:0:
329,192,68097,128,0,68281:0:0:0:0:
182,192,68189,1,0,0:0:0:0:
36,192,68281,128,0,68465:0:0:0:0:
329,192,68465,128,0,68649:0:0:0:0:
182,192,68557,1,0,0:0:0:0:
36,192,68649,128,0,68833:0:0:0:0:
329,192,68833,128,0,69017:0:0:0:0:
109,192,68925,128,0,69109:0:0:0:0:
402,192,69109,128,0,69201:0:0:0:0:
182,192,69201,128,0,69385:0:0:0:0:
475,192,69293,128,0,69385:0:0:0:0:
36,192,69385,128,0,69569:0:0:0:0:
329,192,69569,128,0,69753:0:0:0:0:
182,192,69661,1,0,0:0:0:0:
36,192,69753,128,0,69937:0:0:0:0:
329,192,69937,128,0,70121:0:0:0:0:
182,192,70029,1,0,0:0:0:0:
36,192,70121,128,0,70305:0:0:0:0:
329,192,70305,128,0,70489:0:0:0:0:
109,192,70397,128,0,70581:0:0:0:0:
402,192,70581,128,0,70673:0:0:0:0:
182,192,70673,128,0,70857:0:0:0:0:
475,192,70765,128,0,70857:0:0:0:0:
36,192,70857,128,0,71041:0:0:0:0:
329,192,71041,128,0,71225:0:0:0:0:
182,192,71133,1,0,0:0:0:0:
36,192,71225,128,0,71409:0:0:0:0:
329,192,71409,128,0,71594:0:0:0:0:
182,192,71502,1,0,0:0:0:0:
36,192,71594,128,0,71778:0:0:0:0:
329,192,71778,128,0,71962:0:0:0:0:
109,192,71870,128,0,72054:0:0:0:0:
402,192,72054,128,0,72146:0:0:0:0:
182,192,72146,128,0,72330:0:0:0:0:
475,192,72238,128,0,72330:0:0:0:0:
36,192,72330,128,0,72514:0:0:0:0:
329,192,72514,128,0,72698:0:0:0:0:
182,192,72606,1,0,0:0:0:0:
36,192,72698,128,0,72882:0:0:0:0:
329,192,72882,128,0,73066:0:0:0:0:
182,192,72974,1,0,0:0:0:0:
36,192,73066,128,0,73250:0:0:0:0:
329,192,73250,128,0,73434:0:0:0:0:
109,192,73342,128,0,73526:0:0:0:0:
402,192,73526,128,0,73618:0:0:0:0:
182,192,73618,128,0,73802:0:0:0:0:
475,192,73710,128,0,73802:0:0:0:0:
36,192,73802,1,0,0:0:0:0:
329,192,73802,128,0,74416:0:0:0:0:
36,192,74416,1,0,0:0:0:0:
182,192,74416,1,0,0:0:0:0:
36,192,74538,1,0,0:0:0:0:
182,192,74538,1,0,0:0:0:0:
329,192,74661,1,0,0:0:0:0:
475,192,74661,1,0,0:0:0:0:
475,192,74784,1,0,0:0:0:0:
329,192,74784,1,0,0:0:0:0:
182,192,74906,1,0,0:0:0:0:
36,192,74906,1,0,0:0:0:0:
36,192,75029,1,0,0:0:0:0:
182,192,75029,1,0,0:0:0:0:
329,192,75152,1,0,0:0:0:0:
475,192,75152,1,0,0:0:0:0:
475,192,75275,1,0,0:0:0:0:
329,192,75275,1,0,0:0:0:0:
256,192,75459,1,0,0:0:0:0:
109,192,75459,1,0,0:0:0:0:
182,192,75643,1,0,0:0:0:0:
402,192,75643,1,0,0:0:0:0:
109,192,75735,1,0,0:0:0:0:
36,192,75827,1,0,0:0:0:0:
182,192,75919,1,0,0:0:0:0:
475,192,75919,1,0,0:0:0:0:
329,192,75919,1,0,0:0:0:0:
256,192,76103,1,0,0:0:0:0:
182,192,76195,1,0,0:0:0:0:
36,192,76195,1,0,0:0:0:0:
329,192,76195,1,0,0:0:0:0:
109,192,76287,1,0,0:0:0:0:
256,192,76379,1,0,0:0:0:0:
475,192,76379,1,0,0:0:0:0:
402,192,76471,1,0,0:0:0:0:
329,192,76563,1,0,0:0:0:0:
36,192,76563,1,0,0:0:0:0:
256,192,76655,1,0,0:0:0:0:
109,192,76655,1,0,0:0:0:0:
182,192,76747,1,0,0:0:0:0:
402,192,76747,128,0,77851:0:0:0:0:
475,192,76747,1,0,0:0:0:0:
109,192,76931,128,0,77023:0:0:0:0:
36,192,76931,128,0,77023:0:0:0:0:
36,192,77299,128,0,77391:0:0:0:0:
109,192,77299,128,0,77391:0:0:0:0:
329,192,77483,128,0,77851:0:0:0:0:
109,192,77667,128,0,77759:0:0:0:0:
36,192,77667,128,0,77759:0:0:0:0:
109,192,77851,1,0,0:0:0:0:
256,192,77851,1,0,0:0:0:0:
182,192,78035,1,0,0:0:0:0:
329,192,78035,1,0,0:0:0:0:
109,192,78097,1,0,0:0:0:0:
36,192,78158,1,0,0:0:0:0:
475,192,78219,128,0,78311:0:0:0:0:
402,192,78403,128,0,78495:0:0:0:0:
329,192,78587,128,0,78679:0:0:0:0:
256,192,78771,128,0,78863:0:0:0:0:
402,192,78956,128,0,79048:0:0:0:0:
329,192,79140,128,0,79232:0:0:0:0:
256,192,79324,128,0,79416:0:0:0:0:
182,192,79508,128,0,79600:0:0:0:0:
36,192,79692,1,0,0:0:0:0:
329,192,79692,1,0,0:0:0:0:
402,192,79738,1,0,0:0:0:0:
475,192,79784,1,0,0:0:0:0:
109,192,79876,1,0,0:0:0:0:
256,192,79876,1,0,0:0:0:0:
182,192,79968,1,0,0:0:0:0:
36,192,80060,1,0,0:0:0:0:
329,192,80060,1,0,0:0:0:0:
402,192,80152,1,0,0:0:0:0:
475,192,80152,1,0,0:0:0:0:
256,192,80244,1,0,0:0:0:0:
109,192,80336,1,0,0:0:0:0:
36,192,80336,1,0,0:0:0:0:
182,192,80428,1,0,0:0:0:0:
475,192,80428,1,0,0:0:0:0:
329,192,80612,128,0,80704:0:0:0:0:
402,192,80796,128,0,80888:0:0:0:0:
475,192,80980,128,0,81072:0:0:0:0:
36,192,81164,5,0,0:0:0:70:CrashL.wav
182,192,81164,1,0,0:0:0:70:Kick.wav
329,192,81164,1,0,0:0:0:0:
256,192,81256,1,0,0:0:0:0:
475,192,81348,1,0,0:0:0:0:
182,192,81440,1,0,0:0:0:70:Kick.wav
402,192,81440,1,0,0:0:0:0:
256,192,81532,1,0,0:0:0:0:
109,192,81532,1,0,0:0:0:0:
329,192,81624,1,0,0:0:0:0:
475,192,81716,1,0,0:0:0:0:
36,192,81808,1,0,0:0:0:70:Kick.wav
402,192,81808,1,0,0:0:0:0:
329,192,81900,1,0,0:0:0:70:Emphasis.wav
109,192,81900,1,0,0:0:0:0:
182,192,82084,1,0,0:0:0:70:Kick.wav
402,192,82084,1,0,0:0:0:70:Emphasis.wav
256,192,82084,1,0,0:0:0:0:
109,192,82268,1,0,0:0:0:70:Emphasis.wav
329,192,82268,1,0,0:0:0:0:
475,192,82268,1,0,0:0:0:0:
36,192,82360,1,0,0:0:0:70:Kick.wav
256,192,82452,1,0,0:0:0:0:
182,192,82544,1,0,0:0:0:70:Kick.wav
402,192,82544,1,0,0:0:0:0:
109,192,82636,1,0,0:0:0:70:Kick.wav
329,192,82636,1,0,0:0:0:0:
36,192,82729,1,0,0:0:0:0:
256,192,82821,1,0,0:0:0:0:
329,192,82913,1,0,0:0:0:70:Kick.wav
182,192,82913,1,0,0:0:0:0:
402,192,83005,1,0,0:0:0:0:
36,192,83005,1,0,0:0:0:0:
109,192,83097,1,0,0:0:0:0:
256,192,83189,1,0,0:0:0:0:
402,192,83281,1,0,0:0:0:70:Kick.wav
182,192,83281,1,0,0:0:0:0:
329,192,83373,1,0,0:0:0:70:Emphasis.wav
475,192,83373,1,0,0:0:0:0:
109,192,83373,1,0,0:0:0:0:
36,192,83557,1,0,0:0:0:70:Emphasis.wav
182,192,83557,1,0,0:0:0:70:Kick.wav
402,192,83557,1,0,0:0:0:0:
109,192,83741,1,0,0:0:0:70:Emphasis.wav
329,192,83741,1,0,0:0:0:0:
475,192,83741,1,0,0:0:0:0:
402,192,83833,1,0,0:0:0:70:Kick.wav
256,192,83925,1,0,0:0:0:0:
182,192,84017,1,0,0:0:0:70:Kick.wav
329,192,84017,1,0,0:0:0:0:
109,192,84109,1,0,0:0:0:70:Kick.wav
402,192,84109,1,0,0:0:0:0:
475,192,84201,1,0,0:0:0:0:
36,192,84201,1,0,0:0:0:0:
329,192,84293,1,0,0:0:0:0:
109,192,84293,1,0,0:0:0:0:
402,192,84385,1,0,0:0:0:70:Kick.wav
182,192,84385,1,0,0:0:0:0:
475,192,84477,128,0,84569:0:0:0:0:
36,192,84477,128,0,84569:0:0:0:0:
182,192,84569,128,0,84661:0:0:0:0:
402,192,84569,128,0,84661:0:0:0:0:
109,192,84661,128,0,84753:0:0:0:0:
329,192,84661,128,0,84753:0:0:0:0:
36,192,84753,128,0,84845:0:0:0:70:Kick.wav
475,192,84753,128,0,84845:0:0:0:0:
109,192,84845,1,0,0:0:0:0:
402,192,84845,1,0,0:0:0:0:
329,192,84937,1,0,0:0:0:0:
182,192,84937,1,0,0:0:0:0:
475,192,85029,1,0,0:0:0:70:Kick.wav
36,192,85029,1,0,0:0:0:0:
402,192,85121,1,0,0:0:0:0:
109,192,85121,1,0,0:0:0:0:
329,192,85213,128,0,85305:0:0:0:0:
182,192,85213,128,0,85305:0:0:0:0:
475,192,85305,128,0,85397:0:0:0:70:Kick.wav
109,192,85305,128,0,85397:0:0:0:0:
402,192,85397,128,0,85489:0:0:0:0:
36,192,85397,128,0,85489:0:0:0:0:
329,192,85489,128,0,85581:0:0:0:70:Kick.wav
182,192,85489,128,0,85581:0:0:0:0:
475,192,85581,1,0,0:0:0:70:Kick.wav
109,192,85581,1,0,0:0:0:0:
36,192,85673,1,0,0:0:0:0:
329,192,85673,1,0,0:0:0:0:
109,192,85765,1,0,0:0:0:0:
402,192,85765,1,0,0:0:0:0:
182,192,85857,1,0,0:0:0:70:Kick.wav
475,192,85857,1,0,0:0:0:0:
329,192,85949,1,0,0:0:0:70:Kick.wav
36,192,85949,1,0,0:0:0:0:
402,192,86041,1,0,0:0:0:70:Kick.wav
109,192,86041,1,0,0:0:0:0:
256,192,86133,1,0,0:0:0:0:
475,192,86133,1,0,0:0:0:0:
182,192,86225,1,0,0:0:0:0:
402,192,86225,1,0,0:0:0:0:
36,192,86317,1,0,0:0:0:0:
329,192,86317,1,0,0:0:0:0:
109,192,86317,1,0,0:0:0:0:
256,192,86502,1,0,0:0:0:70:Kick.wav
402,192,86502,1,0,0:0:0:0:
475,192,86502,1,0,0:0:0:0:
36,192,86686,1,0,0:0:0:0:
329,192,86686,1,0,0:0:0:0:
109,192,86686,1,0,0:0:0:0:
182,192,86778,1,0,0:0:0:70:Kick.wav
475,192,86778,1,0,0:0:0:0:
329,192,86870,1,0,0:0:0:0:
109,192,86870,1,0,0:0:0:0:
182,192,86962,1,0,0:0:0:0:
402,192,86962,1,0,0:0:0:0:
256,192,87054,1,0,0:0:0:70:Kick.wav
475,192,87054,1,0,0:0:0:70:CrashL.wav
36,192,87054,1,0,0:0:0:0:
109,192,87146,1,0,0:0:0:0:
402,192,87238,1,0,0:0:0:0:
329,192,87330,1,0,0:0:0:70:Kick.wav
475,192,87330,1,0,0:0:0:0:
36,192,87422,1,0,0:0:0:0:
182,192,87422,1,0,0:0:0:0:
109,192,87514,1,0,0:0:0:0:
329,192,87606,1,0,0:0:0:0:
256,192,87698,1,0,0:0:0:70:Kick.wav
402,192,87698,1,0,0:0:0:0:
36,192,87790,1,0,0:0:0:70:Emphasis.wav
182,192,87790,1,0,0:0:0:0:
475,192,87790,1,0,0:0:0:0:
109,192,87974,1,0,0:0:0:70:Emphasis.wav
256,192,87974,1,0,0:0:0:70:Kick.wav
402,192,87974,1,0,0:0:0:0:
182,192,88158,1,0,0:0:0:70:Emphasis.wav
329,192,88158,1,0,0:0:0:0:
475,192,88158,1,0,0:0:0:0:
36,192,88342,1,0,0:0:0:0:
109,192,88342,1,0,0:0:0:0:
182,192,88434,1,0,0:0:0:70:Kick.wav
256,192,88526,1,0,0:0:0:70:Kick.wav
402,192,88526,1,0,0:0:0:0:
329,192,88618,1,0,0:0:0:0:
109,192,88710,1,0,0:0:0:0:
36,192,88802,1,0,0:0:0:70:Kick.wav
182,192,88802,1,0,0:0:0:0:
329,192,88894,1,0,0:0:0:0:
475,192,88894,1,0,0:0:0:0:
402,192,88986,1,0,0:0:0:0:
182,192,89078,1,0,0:0:0:0:
256,192,89170,1,0,0:0:0:70:Kick.wav
109,192,89170,1,0,0:0:0:0:
329,192,89262,1,0,0:0:0:70:Emphasis.wav
36,192,89262,1,0,0:0:0:0:
475,192,89262,1,0,0:0:0:0:
402,192,89446,1,0,0:0:0:70:Kick.wav
256,192,89446,1,0,0:0:0:70:Emphasis.wav
109,192,89446,1,0,0:0:0:0:
182,192,89630,1,0,0:0:0:70:Emphasis.wav
329,192,89630,1,0,0:0:0:0:
36,192,89630,1,0,0:0:0:0:
109,192,89814,1,0,0:0:0:0:
402,192,89814,1,0,0:0:0:0:
182,192,89906,1,0,0:0:0:70:Kick.wav
36,192,89998,1,0,0:0:0:70:Kick.wav
475,192,89998,1,0,0:0:0:0:
402,192,90090,1,0,0:0:0:0:
182,192,90090,1,0,0:0:0:0:
329,192,90182,1,0,0:0:0:0:
109,192,90182,1,0,0:0:0:0:
36,192,90275,1,0,0:0:0:70:Kick.wav
475,192,90275,1,0,0:0:0:0:
109,192,90367,128,0,90459:0:0:0:0:
402,192,90367,128,0,90459:0:0:0:0:
36,192,90459,128,0,90551:0:0:0:0:
329,192,90459,128,0,90551:0:0:0:0:
475,192,90551,128,0,90643:0:0:0:0:
182,192,90551,128,0,90643:0:0:0:0:
402,192,90643,128,0,90735:0:0:0:70:Kick.wav
109,192,90643,128,0,90735:0:0:0:0:
329,192,90735,1,0,0:0:0:0:
182,192,90735,1,0,0:0:0:0:
475,192,90827,1,0,0:0:0:0:
109,192,90827,1,0,0:0:0:0:
402,192,90919,1,0,0:0:0:70:Kick.wav
36,192,90919,1,0,0:0:0:0:
329,192,91011,1,0,0:0:0:0:
182,192,91011,1,0,0:0:0:0:
402,192,91103,128,0,91195:0:0:0:0:
109,192,91103,128,0,91195:0:0:0:0:
475,192,91195,128,0,91287:0:0:0:70:Kick.wav
182,192,91195,128,0,91287:0:0:0:0:
329,192,91287,128,0,91379:0:0:0:0:
36,192,91287,128,0,91379:0:0:0:0:
402,192,91379,128,0,91471:0:0:0:70:Kick.wav
109,192,91379,128,0,91471:0:0:0:0:
182,192,91471,1,0,0:0:0:70:Kick.wav
475,192,91471,1,0,0:0:0:0:
402,192,91563,1,0,0:0:0:0:
182,192,91563,1,0,0:0:0:0:
36,192,91655,1,0,0:0:0:0:
329,192,91655,1,0,0:0:0:0:
109,192,91747,1,0,0:0:0:70:Kick.wav
329,192,91747,1,0,0:0:0:0:
182,192,91839,1,0,0:0:0:70:Kick.wav
475,192,91839,1,0,0:0:0:0:
402,192,91931,1,0,0:0:0:70:Kick.wav
182,192,91931,1,0,0:0:0:0:
36,192,92023,1,0,0:0:0:0:
329,192,92023,1,0,0:0:0:0:
109,192,92115,1,0,0:0:0:0:
329,192,92115,1,0,0:0:0:0:
182,192,92207,1,0,0:0:0:70:Emphasis.wav
475,192,92207,1,0,0:0:0:0:
402,192,92207,1,0,0:0:0:0:
329,192,92391,1,0,0:0:0:70:Emphasis.wav
36,192,92391,1,0,0:0:0:70:Kick.wav
109,192,92391,1,0,0:0:0:0:
402,192,92575,1,0,0:0:0:70:Emphasis.wav
182,192,92575,1,0,0:0:0:0:
475,192,92575,1,0,0:0:0:0:
256,192,92759,1,0,0:0:0:0:
109,192,92759,1,0,0:0:0:0:
36,192,92943,1,0,0:0:0:70:Kick.wav
402,192,92943,1,0,0:0:0:70:CrashL.wav
475,192,92943,1,0,0:0:0:0:
329,192,92943,1,0,0:0:0:0:
182,192,92943,1,0,0:0:0:0:
402,192,93127,1,0,0:0:0:0:
109,192,93127,1,0,0:0:0:0:
329,192,93189,1,0,0:0:0:0:
256,192,93250,1,0,0:0:0:0:
182,192,93311,1,0,0:0:0:70:Snare.wav
36,192,93311,1,0,0:0:0:0:
475,192,93311,1,0,0:0:0:0:
329,192,93403,1,0,0:0:0:0:
402,192,93495,1,0,0:0:0:0:
109,192,93495,1,0,0:0:0:0:
475,192,93587,1,0,0:0:0:0:
182,192,93679,1,0,0:0:0:70:Kick.wav
36,192,93679,1,0,0:0:0:0:
256,192,93679,1,0,0:0:0:0:
329,192,93771,1,0,0:0:0:0:
402,192,93863,1,0,0:0:0:0:
475,192,93863,1,0,0:0:0:0:
182,192,93956,1,0,0:0:0:0:
256,192,94048,1,0,0:0:0:70:Snare.wav
36,192,94048,1,0,0:0:0:0:
475,192,94048,1,0,0:0:0:0:
329,192,94140,1,0,0:0:0:0:
182,192,94232,1,0,0:0:0:0:
402,192,94232,1,0,0:0:0:0:
109,192,94324,1,0,0:0:0:0:
36,192,94416,1,0,0:0:0:70:Kick.wav
256,192,94416,1,0,0:0:0:0:
402,192,94416,1,0,0:0:0:0:
329,192,94508,1,0,0:0:0:0:
475,192,94508,1,0,0:0:0:0:
182,192,94600,1,0,0:0:0:0:
109,192,94600,1,0,0:0:0:0:
329,192,94692,1,0,0:0:0:0:
402,192,94692,1,0,0:0:0:0:
182,192,94784,1,0,0:0:0:70:Snare.wav
36,192,94784,1,0,0:0:0:0:
256,192,94876,1,0,0:0:0:0:
109,192,94876,1,0,0:0:0:0:
402,192,94968,1,0,0:0:0:0:
475,192,94968,1,0,0:0:0:0:
109,192,95060,1,0,0:0:0:0:
36,192,95060,1,0,0:0:0:0:
402,192,95152,1,0,0:0:0:70:Kick.wav
256,192,95152,1,0,0:0:0:0:
329,192,95244,1,0,0:0:0:0:
182,192,95244,1,0,0:0:0:0:
109,192,95336,128,0,95428:0:0:0:0:
36,192,95336,128,0,95428:0:0:0:0:
256,192,95336,128,0,95428:0:0:0:0:
182,192,95520,128,0,95612:0:0:0:70:Snare.wav
329,192,95520,128,0,95612:0:0:0:0:
475,192,95520,128,0,95612:0:0:0:0:
36,192,95704,1,0,0:0:0:0:
329,192,95704,1,0,0:0:0:0:
109,192,95796,1,0,0:0:0:0:
475,192,95888,1,0,0:0:0:70:Kick.wav
182,192,95888,1,0,0:0:0:0:
36,192,95888,1,0,0:0:0:0:
402,192,95949,1,0,0:0:0:0:
329,192,96011,1,0,0:0:0:0:
256,192,96072,1,0,0:0:0:0:
182,192,96133,1,0,0:0:0:0:
109,192,96195,1,0,0:0:0:0:
36,192,96256,1,0,0:0:0:70:Snare.wav
256,192,96256,1,0,0:0:0:0:
402,192,96256,1,0,0:0:0:0:
329,192,96348,1,0,0:0:0:0:
182,192,96440,1,0,0:0:0:0:
36,192,96440,1,0,0:0:0:0:
109,192,96532,1,0,0:0:0:0:
329,192,96624,1,0,0:0:0:70:Kick.wav
475,192,96624,1,0,0:0:0:0:
182,192,96624,1,0,0:0:0:0:
402,192,96716,1,0,0:0:0:0:
256,192,96808,1,0,0:0:0:0:
109,192,96808,1,0,0:0:0:0:
182,192,96900,1,0,0:0:0:0:
36,192,96992,1,0,0:0:0:70:Snare.wav
329,192,96992,1,0,0:0:0:0:
475,192,96992,1,0,0:0:0:0:
109,192,97054,1,0,0:0:0:0:
182,192,97115,1,0,0:0:0:0:
256,192,97176,1,0,0:0:0:0:
329,192,97238,1,0,0:0:0:0:
402,192,97299,1,0,0:0:0:0:
475,192,97360,1,0,0:0:0:70:Kick.wav
36,192,97360,1,0,0:0:0:0:
256,192,97360,1,0,0:0:0:0:
182,192,97452,1,0,0:0:0:0:
329,192,97452,1,0,0:0:0:0:
109,192,97544,1,0,0:0:0:0:
402,192,97544,1,0,0:0:0:0:
329,192,97636,1,0,0:0:0:0:
182,192,97636,1,0,0:0:0:0:
256,192,97729,1,0,0:0:0:70:Snare.wav
36,192,97729,1,0,0:0:0:0:
475,192,97729,1,0,0:0:0:0:
109,192,97821,1,0,0:0:0:0:
402,192,97821,1,0,0:0:0:0:
182,192,97913,1,0,0:0:0:0:
329,192,97913,1,0,0:0:0:0:
402,192,98005,1,0,0:0:0:0:
109,192,98005,1,0,0:0:0:0:
256,192,98097,1,0,0:0:0:70:Kick.wav
36,192,98097,128,0,98373:0:0:0:0:
475,192,98097,128,0,98373:0:0:0:0:
256,192,98281,128,0,98373:0:0:0:0:
329,192,98465,1,0,0:0:0:70:Kick.wav
475,192,98465,1,0,0:0:0:0:
182,192,98557,1,0,0:0:0:0:
36,192,98557,1,0,0:0:0:0:
329,192,98649,1,0,0:0:0:0:
475,192,98649,1,0,0:0:0:0:
182,192,98741,1,0,0:0:0:0:
36,192,98741,1,0,0:0:0:0:
109,192,98833,1,0,0:0:0:70:CrashL.wav
256,192,98833,1,0,0:0:0:70:Kick.wav
402,192,98833,1,0,0:0:0:0:
475,192,98833,1,0,0:0:0:0:
109,192,99017,1,0,0:0:0:0:
402,192,99017,1,0,0:0:0:0:
182,192,99078,1,0,0:0:0:0:
256,192,99140,1,0,0:0:0:0:
329,192,99201,1,0,0:0:0:70:Snare.wav
475,192,99201,1,0,0:0:0:0:
36,192,99201,1,0,0:0:0:0:
182,192,99293,1,0,0:0:0:0:
109,192,99385,1,0,0:0:0:0:
402,192,99385,1,0,0:0:0:0:
36,192,99477,1,0,0:0:0:0:
329,192,99569,1,0,0:0:0:70:Kick.wav
475,192,99569,1,0,0:0:0:0:
256,192,99569,1,0,0:0:0:0:
182,192,99661,1,0,0:0:0:0:
109,192,99753,1,0,0:0:0:0:
36,192,99753,1,0,0:0:0:0:
329,192,99845,1,0,0:0:0:0:
256,192,99937,1,0,0:0:0:70:Snare.wav
475,192,99937,1,0,0:0:0:0:
36,192,99937,1,0,0:0:0:0:
182,192,100029,1,0,0:0:0:0:
329,192,100121,1,0,0:0:0:0:
109,192,100121,1,0,0:0:0:0:
402,192,100213,1,0,0:0:0:0:
475,192,100305,1,0,0:0:0:70:Kick.wav
256,192,100305,1,0,0:0:0:0:
109,192,100305,1,0,0:0:0:0:
182,192,100397,1,0,0:0:0:0:
36,192,100397,1,0,0:0:0:0:
329,192,100489,1,0,0:0:0:0:
402,192,100489,1,0,0:0:0:0:
182,192,100581,1,0,0:0:0:0:
109,192,100581,1,0,0:0:0:0:
329,192,100673,1,0,0:0:0:70:Snare.wav
475,192,100673,1,0,0:0:0:0:
256,192,100765,1,0,0:0:0:0:
402,192,100765,1,0,0:0:0:0:
109,192,100857,1,0,0:0:0:0:
36,192,100857,1,0,0:0:0:0:
402,192,100949,1,0,0:0:0:0:
475,192,100949,1,0,0:0:0:0:
109,192,101041,1,0,0:0:0:70:Kick.wav
256,192,101041,1,0,0:0:0:0:
182,192,101133,1,0,0:0:0:0:
329,192,101133,1,0,0:0:0:0:
402,192,101225,128,0,101317:0:0:0:0:
475,192,101225,128,0,101317:0:0:0:0:
256,192,101225,128,0,101317:0:0:0:0:
329,192,101409,128,0,101502:0:0:0:70:Snare.wav
182,192,101409,128,0,101502:0:0:0:0:
36,192,101409,128,0,101502:0:0:0:0:
475,192,101594,1,0,0:0:0:0:
182,192,101594,1,0,0:0:0:0:
402,192,101686,1,0,0:0:0:0:
329,192,101778,1,0,0:0:0:70:Kick.wav
36,192,101778,1,0,0:0:0:0:
475,192,101778,1,0,0:0:0:0:
109,192,101839,1,0,0:0:0:0:
182,192,101900,1,0,0:0:0:0:
256,192,101962,1,0,0:0:0:0:
329,192,102023,1,0,0:0:0:0:
402,192,102084,1,0,0:0:0:0:
475,192,102146,1,0,0:0:0:70:Snare.wav
182,192,102146,1,0,0:0:0:0:
36,192,102146,1,0,0:0:0:0:
109,192,102238,1,0,0:0:0:0:
256,192,102330,1,0,0:0:0:0:
402,192,102330,1,0,0:0:0:0:
182,192,102422,1,0,0:0:0:0:
329,192,102514,1,0,0:0:0:70:Kick.wav
36,192,102514,1,0,0:0:0:0:
475,192,102514,1,0,0:0:0:0:
256,192,102606,1,0,0:0:0:0:
402,192,102698,1,0,0:0:0:0:
109,192,102698,1,0,0:0:0:0:
329,192,102790,1,0,0:0:0:0:
36,192,102882,1,0,0:0:0:70:Snare.wav
475,192,102882,1,0,0:0:0:0:
182,192,102882,1,0,0:0:0:0:
402,192,102943,1,0,0:0:0:0:
329,192,103005,1,0,0:0:0:0:
256,192,103066,1,0,0:0:0:0:
182,192,103127,1,0,0:0:0:0:
109,192,103189,1,0,0:0:0:0:
475,192,103250,1,0,0:0:0:70:Kick.wav
36,192,103250,1,0,0:0:0:0:
256,192,103250,1,0,0:0:0:0:
402,192,103342,1,0,0:0:0:0:
182,192,103342,1,0,0:0:0:0:
329,192,103434,1,0,0:0:0:0:
109,192,103434,1,0,0:0:0:0:
182,192,103526,5,0,0:0:0:0:
402,192,103526,1,0,0:0:0:0:
256,192,103618,1,0,0:0:0:70:Snare.wav
36,192,103618,1,0,0:0:0:0:
475,192,103618,1,0,0:0:0:0:
329,192,103710,1,0,0:0:0:0:
109,192,103710,1,0,0:0:0:0:
182,192,103802,1,0,0:0:0:0:
402,192,103802,1,0,0:0:0:0:
109,192,103894,1,0,0:0:0:0:
329,192,103894,1,0,0:0:0:0:
475,192,103986,1,0,0:0:0:70:Kick.wav
36,192,103986,1,0,0:0:0:70:CrashS.wav
256,192,103986,1,0,0:0:0:0:
182,192,104170,1,0,0:0:0:70:Kick.wav
109,192,104170,1,0,0:0:0:70:CrashS.wav
329,192,104170,1,0,0:0:0:0:
402,192,104170,1,0,0:0:0:0:
36,192,104354,1,0,0:0:0:70:CrashS.wav
402,192,104354,1,0,0:0:0:70:Kick.wav
475,192,104354,1,0,0:0:0:0:
109,192,104354,1,0,0:0:0:0:
256,192,104354,1,0,0:0:0:0:
475,192,104722,5,0,0:0:0:0:
36,192,104906,128,0,104998:0:0:0:0:
475,192,104998,1,0,0:0:0:0:
36,192,105275,128,0,105367:0:0:0:0:
329,192,105275,1,0,0:0:0:0:
256,192,105459,1,0,0:0:0:0:
109,192,105643,128,0,105735:0:0:0:0:
402,192,105643,1,0,0:0:0:0:
402,192,105827,1,0,0:0:0:0:
109,192,106011,128,0,106103:0:0:0:0:
475,192,106011,1,0,0:0:0:0:
402,192,106195,1,0,0:0:0:0:
109,192,106379,128,0,106471:0:0:0:0:
329,192,106379,1,0,0:0:0:0:
329,192,106563,1,0,0:0:0:0:
109,192,106747,128,0,106839:0:0:0:0:
256,192,106747,1,0,0:0:0:0:
329,192,106931,1,0,0:0:0:0:
36,192,107115,1,0,0:0:0:0:
182,192,107115,128,0,107207:0:0:0:0:
329,192,107299,1,0,0:0:0:0:
182,192,107483,128,0,107575:0:0:0:0:
475,192,107483,1,0,0:0:0:0:
402,192,107667,1,0,0:0:0:0:
36,192,107851,128,0,107943:0:0:0:0:
402,192,107943,1,0,0:0:0:0:
36,192,108219,128,0,108311:0:0:0:0:
329,192,108219,1,0,0:0:0:0:
256,192,108403,1,0,0:0:0:0:
109,192,108587,128,0,108679:0:0:0:0:
475,192,108587,1,0,0:0:0:0:
402,192,108771,1,0,0:0:0:0:
109,192,108956,128,0,109048:0:0:0:0:
329,192,108956,1,0,0:0:0:0:
329,192,109140,1,0,0:0:0:0:
36,192,109324,128,0,109416:0:0:0:0:
182,192,109324,1,0,0:0:0:0:
109,192,109508,1,0,0:0:0:0:
36,192,109692,128,0,109784:0:0:0:0:
182,192,109692,1,0,0:0:0:0:
256,192,109876,1,0,0:0:0:0:
36,192,110060,128,0,110152:0:0:0:0:
256,192,110060,1,0,0:0:0:0:
329,192,110244,1,0,0:0:0:0:
182,192,110428,128,0,110520:0:0:0:0:
402,192,110428,1,0,0:0:0:0:
475,192,110612,1,0,0:0:0:0:
36,192,110796,128,0,110888:0:0:0:0:
475,192,110888,1,0,0:0:0:0:
36,192,111164,128,0,111256:0:0:0:0:
402,192,111164,1,0,0:0:0:0:
329,192,111348,1,0,0:0:0:0:
109,192,111532,128,0,111624:0:0:0:0:
402,192,111532,1,0,0:0:0:0:
402,192,111716,1,0,0:0:0:0:
109,192,111900,128,0,111992:0:0:0:0:
475,192,111900,1,0,0:0:0:0:
402,192,112084,1,0,0:0:0:0:
109,192,112268,128,0,112360:0:0:0:0:
329,192,112268,1,0,0:0:0:0:
329,192,112452,1,0,0:0:0:0:
109,192,112636,128,0,112729:0:0:0:0:
256,192,112636,1,0,0:0:0:0:
329,192,112821,1,0,0:0:0:0:
182,192,113005,128,0,113097:0:0:0:0:
36,192,113005,1,0,0:0:0:0:
329,192,113189,1,0,0:0:0:0:
182,192,113373,128,0,113465:0:0:0:0:
475,192,113373,1,0,0:0:0:0:
402,192,113557,1,0,0:0:0:0:
36,192,113741,128,0,113833:0:0:0:0:
402,192,113833,1,0,0:0:0:0:
36,192,114109,128,0,114201:0:0:0:0:
329,192,114109,1,0,0:0:0:0:
256,192,114293,1,0,0:0:0:0:
109,192,114477,128,0,114569:0:0:0:0:
402,192,114477,1,0,0:0:0:0:
329,192,114661,1,0,0:0:0:0:
109,192,114845,128,0,114937:0:0:0:0:
402,192,114845,1,0,0:0:0:0:
36,192,115029,128,0,115121:0:0:0:0:
256,192,115029,1,0,0:0:0:0:
36,192,115397,128,0,115857:0:0:0:0:
182,192,115397,128,0,115857:0:0:0:0:
329,192,115765,128,0,115857:0:0:0:0:
475,192,115765,128,0,115857:0:0:0:0:
182,192,115949,128,0,116041:0:0:0:0:
36,192,115949,128,0,116041:0:0:0:0:
109,192,116133,128,0,116225:0:0:0:0:
256,192,116133,128,0,116225:0:0:0:0:
329,192,116317,128,0,116409:0:0:0:0:
182,192,116317,128,0,116409:0:0:0:0:
256,192,116502,128,0,116686:0:0:0:70:Kick.wav
36,192,116502,1,0,0:0:0:70:CrashL.wav
402,192,116502,128,0,116686:0:0:0:0:
475,192,116502,1,0,0:0:0:0:
109,192,116594,1,0,0:0:0:0:
182,192,116686,1,0,0:0:0:0:
329,192,116686,1,0,0:0:0:0:
256,192,116778,128,0,116962:0:0:0:0:
402,192,116778,128,0,116962:0:0:0:0:
36,192,116778,1,0,0:0:0:0:
475,192,116778,1,0,0:0:0:0:
109,192,116870,1,0,0:0:0:70:Kick.wav
182,192,116962,1,0,0:0:0:0:
109,192,117054,1,0,0:0:0:0:
329,192,117054,1,0,0:0:0:0:
182,192,117146,1,0,0:0:0:0:
402,192,117146,1,0,0:0:0:0:
256,192,117238,1,0,0:0:0:70:Kick.wav
475,192,117238,1,0,0:0:0:0:
36,192,117238,1,0,0:0:0:0:
329,192,117422,1,0,0:0:0:0:
475,192,117422,1,0,0:0:0:0:
182,192,117422,1,0,0:0:0:0:
36,192,117606,1,0,0:0:0:70:Kick.wav
256,192,117606,1,0,0:0:0:0:
109,192,117606,1,0,0:0:0:0:
402,192,117606,1,0,0:0:0:0:
329,192,117790,1,0,0:0:0:0:
36,192,117790,1,0,0:0:0:0:
182,192,117790,1,0,0:0:0:0:
256,192,117974,1,0,0:0:0:70:Kick.wav
475,192,117974,1,0,0:0:0:0:
182,192,117974,1,0,0:0:0:0:
402,192,118066,1,0,0:0:0:0:
329,192,118066,1,0,0:0:0:0:
109,192,118158,1,0,0:0:0:0:
36,192,118158,1,0,0:0:0:0:
402,192,118250,1,0,0:0:0:0:
329,192,118250,1,0,0:0:0:0:
475,192,118342,1,0,0:0:0:70:Kick.wav
182,192,118342,1,0,0:0:0:0:
256,192,118342,1,0,0:0:0:0:
329,192,118434,1,0,0:0:0:0:
402,192,118434,1,0,0:0:0:0:
109,192,118526,1,0,0:0:0:0:
36,192,118526,1,0,0:0:0:0:
329,192,118618,1,0,0:0:0:0:
402,192,118618,1,0,0:0:0:0:
475,192,118710,1,0,0:0:0:70:Kick.wav
182,192,118710,1,0,0:0:0:0:
36,192,118710,1,0,0:0:0:0:
182,192,118894,1,0,0:0:0:0:
329,192,118894,1,0,0:0:0:0:
475,192,118894,1,0,0:0:0:0:
109,192,119078,1,0,0:0:0:70:Kick.wav
256,192,119078,1,0,0:0:0:0:
36,192,119078,1,0,0:0:0:0:
402,192,119078,1,0,0:0:0:0:
182,192,119262,1,0,0:0:0:0:
329,192,119262,1,0,0:0:0:0:
475,192,119262,1,0,0:0:0:0:
182,192,119446,128,0,119630:0:0:0:70:Kick.wav
36,192,119446,128,0,119630:0:0:0:0:
475,192,119446,1,0,0:0:0:0:
256,192,119446,1,0,0:0:0:0:
402,192,119538,1,0,0:0:0:0:
109,192,119630,1,0,0:0:0:0:
329,192,119630,1,0,0:0:0:0:
36,192,119722,128,0,119906:0:0:0:0:
182,192,119722,128,0,119906:0:0:0:0:
475,192,119722,1,0,0:0:0:0:
256,192,119722,1,0,0:0:0:0:
329,192,119814,1,0,0:0:0:70:Kick.wav
402,192,119906,1,0,0:0:0:0:
475,192,119998,1,0,0:0:0:0:
256,192,119998,1,0,0:0:0:0:
182,192,120090,1,0,0:0:0:0:
402,192,120090,1,0,0:0:0:0:
109,192,120182,1,0,0:0:0:70:Kick.wav
36,192,120182,1,0,0:0:0:0:
329,192,120182,1,0,0:0:0:0:
256,192,120275,1,0,0:0:0:0:
475,192,120275,1,0,0:0:0:0:
402,192,120367,1,0,0:0:0:0:
182,192,120367,1,0,0:0:0:0:
109,192,120459,1,0,0:0:0:0:
329,192,120459,1,0,0:0:0:0:
256,192,120551,1,0,0:0:0:70:Kick.wav
36,192,120551,1,0,0:0:0:0:
475,192,120551,1,0,0:0:0:0:
109,192,120643,1,0,0:0:0:0:
329,192,120643,1,0,0:0:0:0:
402,192,120735,1,0,0:0:0:0:
182,192,120735,1,0,0:0:0:0:
256,192,120827,1,0,0:0:0:0:
475,192,120827,1,0,0:0:0:0:
182,192,120919,1,0,0:0:0:70:Kick.wav
402,192,120919,1,0,0:0:0:0:
36,192,120919,1,0,0:0:0:0:
256,192,121011,1,0,0:0:0:0:
329,192,121011,1,0,0:0:0:0:
36,192,121103,1,0,0:0:0:0:
109,192,121103,1,0,0:0:0:0:
329,192,121195,1,0,0:0:0:0:
402,192,121195,1,0,0:0:0:0:
36,192,121287,1,0,0:0:0:70:Kick.wav
182,192,121287,1,0,0:0:0:0:
475,192,121287,1,0,0:0:0:0:
256,192,121379,1,0,0:0:0:0:
329,192,121379,1,0,0:0:0:0:
109,192,121471,1,0,0:0:0:0:
36,192,121471,1,0,0:0:0:0:
329,192,121563,1,0,0:0:0:0:
402,192,121563,1,0,0:0:0:0:
475,192,121655,1,0,0:0:0:70:Kick.wav
36,192,121655,1,0,0:0:0:0:
256,192,121655,1,0,0:0:0:0:
182,192,121747,1,0,0:0:0:0:
109,192,121747,1,0,0:0:0:0:
402,192,121839,1,0,0:0:0:0:
329,192,121839,1,0,0:0:0:0:
182,192,121931,1,0,0:0:0:0:
109,192,121931,1,0,0:0:0:0:
36,192,122023,1,0,0:0:0:70:Kick.wav
256,192,122023,1,0,0:0:0:0:
475,192,122023,1,0,0:0:0:0:
182,192,122207,1,0,0:0:0:0:
402,192,122207,1,0,0:0:0:0:
329,192,122207,1,0,0:0:0:0:
329,192,122391,128,0,122575:0:0:0:70:CrashL.wav
475,192,122391,128,0,122575:0:0:0:70:Kick.wav
36,192,122391,1,0,0:0:0:0:
182,192,122391,1,0,0:0:0:0:
109,192,122483,1,0,0:0:0:0:
256,192,122575,1,0,0:0:0:0:
402,192,122575,1,0,0:0:0:0:
475,192,122667,128,0,122851:0:0:0:0:
329,192,122667,128,0,122851:0:0:0:0:
36,192,122667,1,0,0:0:0:0:
182,192,122667,1,0,0:0:0:0:
109,192,122759,1,0,0:0:0:70:Kick.wav
256,192,122851,1,0,0:0:0:0:
182,192,122943,1,0,0:0:0:0:
402,192,122943,1,0,0:0:0:0:
109,192,123035,1,0,0:0:0:0:
329,192,123035,1,0,0:0:0:0:
36,192,123127,1,0,0:0:0:70:Kick.wav
256,192,123127,1,0,0:0:0:0:
475,192,123127,1,0,0:0:0:0:
182,192,123311,1,0,0:0:0:0:
402,192,123311,1,0,0:0:0:0:
329,192,123311,1,0,0:0:0:0:
256,192,123495,1,0,0:0:0:70:Kick.wav
475,192,123495,1,0,0:0:0:0:
36,192,123495,1,0,0:0:0:0:
402,192,123495,1,0,0:0:0:0:
182,192,123679,1,0,0:0:0:0:
329,192,123679,1,0,0:0:0:0:
36,192,123679,1,0,0:0:0:0:
182,192,123863,1,0,0:0:0:70:Kick.wav
256,192,123863,1,0,0:0:0:0:
475,192,123863,1,0,0:0:0:0:
402,192,123956,1,0,0:0:0:0:
109,192,123956,1,0,0:0:0:0:
36,192,124048,1,0,0:0:0:0:
329,192,124048,1,0,0:0:0:0:
402,192,124140,1,0,0:0:0:0:
109,192,124140,1,0,0:0:0:0:
182,192,124232,1,0,0:0:0:70:Kick.wav
256,192,124232,1,0,0:0:0:0:
475,192,124232,1,0,0:0:0:0:
402,192,124324,1,0,0:0:0:0:
109,192,124324,1,0,0:0:0:0:
36,192,124416,1,0,0:0:0:0:
329,192,124416,1,0,0:0:0:0:
402,192,124508,1,0,0:0:0:0:
109,192,124508,1,0,0:0:0:0:
475,192,124600,1,0,0:0:0:70:Kick.wav
182,192,124600,1,0,0:0:0:0:
256,192,124600,1,0,0:0:0:0:
36,192,124784,1,0,0:0:0:0:
256,192,124784,1,0,0:0:0:0:
109,192,124784,1,0,0:0:0:0:
329,192,124968,1,0,0:0:0:70:Kick.wav
182,192,124968,1,0,0:0:0:0:
109,192,124968,1,0,0:0:0:0:
475,192,124968,1,0,0:0:0:0:
256,192,125152,1,0,0:0:0:0:
182,192,125152,1,0,0:0:0:0:
402,192,125152,1,0,0:0:0:0:
256,192,125336,128,0,125520:0:0:0:70:Kick.wav
109,192,125336,128,0,125520:0:0:0:0:
475,192,125336,1,0,0:0:0:0:
36,192,125336,1,0,0:0:0:0:
402,192,125428,1,0,0:0:0:0:
329,192,125520,1,0,0:0:0:0:
182,192,125520,1,0,0:0:0:0:
256,192,125612,128,0,125796:0:0:0:0:
109,192,125612,128,0,125796:0:0:0:0:
475,192,125612,1,0,0:0:0:0:
36,192,125612,1,0,0:0:0:0:
402,192,125704,1,0,0:0:0:70:Kick.wav
329,192,125796,1,0,0:0:0:0:
402,192,125888,1,0,0:0:0:0:
182,192,125888,1,0,0:0:0:0:
329,192,125980,1,0,0:0:0:0:
109,192,125980,1,0,0:0:0:0:
475,192,126072,1,0,0:0:0:70:Kick.wav
256,192,126072,1,0,0:0:0:0:
36,192,126072,1,0,0:0:0:0:
402,192,126164,1,0,0:0:0:0:
182,192,126164,1,0,0:0:0:0:
109,192,126256,1,0,0:0:0:0:
329,192,126256,1,0,0:0:0:0:
36,192,126348,1,0,0:0:0:0:
256,192,126348,1,0,0:0:0:0:
182,192,126440,1,0,0:0:0:70:Kick.wav
402,192,126440,1,0,0:0:0:0:
475,192,126440,1,0,0:0:0:0:
109,192,126532,1,0,0:0:0:0:
329,192,126532,1,0,0:0:0:0:
182,192,126624,1,0,0:0:0:0:
402,192,126624,1,0,0:0:0:0:
256,192,126716,1,0,0:0:0:0:
475,192,126716,1,0,0:0:0:0:
36,192,126808,1,0,0:0:0:70:Kick.wav
182,192,126808,1,0,0:0:0:70:CrashL.wav
329,192,126808,1,0,0:0:0:0:
109,192,126808,1,0,0:0:0:0:
256,192,127176,1,0,0:0:0:0:
109,192,127176,1,0,0:0:0:0:
109,192,127299,1,0,0:0:0:0:
256,192,127299,1,0,0:0:0:0:
182,192,127422,1,0,0:0:0:0:
329,192,127422,1,0,0:0:0:0:
182,192,127544,1,0,0:0:0:70:Kick.wav
329,192,127544,1,0,0:0:0:70:CrashL.wav
475,192,127544,1,0,0:0:0:0:
36,192,127544,1,0,0:0:0:0:
109,192,127913,1,0,0:0:0:0:
256,192,127913,1,0,0:0:0:0:
256,192,128035,1,0,0:0:0:0:
109,192,128035,1,0,0:0:0:0:
182,192,128158,1,0,0:0:0:0:
329,192,128158,1,0,0:0:0:0:
182,192,128281,1,0,0:0:0:70:Kick.wav
36,192,128281,1,0,0:0:0:70:CrashS.wav
329,192,128281,128,0,128465:0:0:0:0:
475,192,128281,128,0,128465:0:0:0:0:
256,192,128649,128,0,128833:0:0:0:70:CrashS.wav
402,192,128649,128,0,128833:0:0:0:70:Kick.wav
36,192,128649,1,0,0:0:0:0:
182,192,128649,1,0,0:0:0:0:
36,192,129017,1,0,0:0:0:70:Kick.wav
475,192,129017,1,0,0:0:0:70:CrashS.wav
182,192,129017,128,0,129201:0:0:0:0:
329,192,129017,128,0,129201:0:0:0:0:
329,192,129385,1,0,0:0:0:0:
109,192,129385,1,0,0:0:0:0:
402,192,129431,1,0,0:0:0:0:
475,192,129477,1,0,0:0:0:0:
109,192,129508,1,0,0:0:0:0:
109,192,129630,1,0,0:0:0:0:
182,192,129753,1,0,0:0:0:70:Kick.wav
36,192,129753,1,0,0:0:0:70:CrashL.wav
329,192,129753,1,0,0:0:0:0:
475,192,129753,1,0,0:0:0:0:
402,192,130121,1,0,0:0:0:0:
256,192,130121,1,0,0:0:0:0:
256,192,130244,1,0,0:0:0:0:
402,192,130244,1,0,0:0:0:0:
329,192,130367,1,0,0:0:0:0:
182,192,130367,1,0,0:0:0:0:
329,192,130489,1,0,0:0:0:70:Kick.wav
182,192,130489,1,0,0:0:0:70:CrashL.wav
475,192,130489,1,0,0:0:0:0:
36,192,130489,1,0,0:0:0:0:
402,192,130857,1,0,0:0:0:0:
256,192,130857,1,0,0:0:0:0:
402,192,130980,1,0,0:0:0:0:
256,192,130980,1,0,0:0:0:0:
329,192,131103,1,0,0:0:0:0:
182,192,131103,1,0,0:0:0:0:
475,192,131225,1,0,0:0:0:70:Kick.wav
36,192,131225,1,0,0:0:0:70:CrashS.wav
182,192,131225,128,0,131409:0:0:0:0:
329,192,131225,128,0,131409:0:0:0:0:
256,192,131594,128,0,131778:0:0:0:70:CrashS.wav
402,192,131594,128,0,131778:0:0:0:70:Kick.wav
182,192,131594,1,0,0:0:0:0:
36,192,131594,1,0,0:0:0:0:
329,192,131962,128,0,132146:0:0:0:70:CrashS.wav
475,192,131962,128,0,132146:0:0:0:70:Kick.wav
182,192,131962,1,0,0:0:0:0:
36,192,131962,1,0,0:0:0:0:
109,192,132054,1,0,0:0:0:0:
182,192,132146,1,0,0:0:0:0:
109,192,132238,1,0,0:0:0:0:
256,192,132330,1,0,0:0:0:0:
329,192,132376,1,0,0:0:0:0:
402,192,132422,1,0,0:0:0:0:
36,192,132698,5,0,0:0:0:70:CrashL.wav
402,192,132698,1,0,0:0:0:70:Kick.wav
256,192,132698,128,0,133066:0:0:0:0:
182,192,132698,1,0,0:0:0:0:
329,192,133066,1,0,0:0:0:70:Kick.wav
109,192,133066,1,0,0:0:0:0:
182,192,133250,1,0,0:0:0:0:
402,192,133250,1,0,0:0:0:0:
182,192,133342,1,0,0:0:0:0:
402,192,133342,1,0,0:0:0:0:
329,192,133434,128,0,133802:0:0:0:70:Kick.wav
475,192,133434,1,0,0:0:0:70:CrashL.wav
109,192,133434,1,0,0:0:0:0:
256,192,133434,1,0,0:0:0:0:
402,192,133802,1,0,0:0:0:70:Kick.wav
182,192,133802,1,0,0:0:0:0:
256,192,133986,1,0,0:0:0:0:
109,192,133986,1,0,0:0:0:0:
256,192,134078,1,0,0:0:0:0:
109,192,134078,1,0,0:0:0:0:
329,192,134170,1,0,0:0:0:70:Kick.wav
402,192,134170,128,0,134538:0:0:0:70:CrashL.wav
36,192,134170,1,0,0:0:0:0:
182,192,134170,1,0,0:0:0:0:
475,192,134538,1,0,0:0:0:70:Kick.wav
256,192,134538,1,0,0:0:0:0:
329,192,134722,1,0,0:0:0:0:
182,192,134722,1,0,0:0:0:0:
329,192,134814,1,0,0:0:0:0:
182,192,134814,1,0,0:0:0:0:
475,192,134906,128,0,135275:0:0:0:70:Kick.wav
109,192,134906,1,0,0:0:0:70:CrashL.wav
256,192,134906,1,0,0:0:0:0:
402,192,134906,1,0,0:0:0:0:
182,192,135275,1,0,0:0:0:70:Kick.wav
329,192,135275,1,0,0:0:0:0:
402,192,135459,1,0,0:0:0:0:
36,192,135459,1,0,0:0:0:0:
402,192,135551,1,0,0:0:0:0:
36,192,135551,1,0,0:0:0:0:
475,192,135643,1,0,0:0:0:70:Kick.wav
109,192,135643,1,0,0:0:0:70:CrashL.wav
256,192,135643,128,0,136011:0:0:0:0:
329,192,135643,1,0,0:0:0:0:
182,192,136011,1,0,0:0:0:70:Kick.wav
402,192,136011,1,0,0:0:0:0:
329,192,136195,1,0,0:0:0:0:
109,192,136195,1,0,0:0:0:0:
329,192,136287,1,0,0:0:0:0:
109,192,136287,1,0,0:0:0:0:
182,192,136379,128,0,136747:0:0:0:70:CrashL.wav
36,192,136379,1,0,0:0:0:70:Kick.wav
402,192,136379,1,0,0:0:0:0:
256,192,136379,1,0,0:0:0:0:
109,192,136747,1,0,0:0:0:70:Kick.wav
329,192,136747,1,0,0:0:0:0:
256,192,136931,1,0,0:0:0:0:
402,192,136931,1,0,0:0:0:0:
256,192,137023,1,0,0:0:0:0:
402,192,137023,1,0,0:0:0:0:
109,192,137115,128,0,137483:0:0:0:70:CrashL.wav
475,192,137115,1,0,0:0:0:70:Kick.wav
329,192,137115,1,0,0:0:0:0:
182,192,137115,1,0,0:0:0:0:
36,192,137483,1,0,0:0:0:70:Kick.wav
256,192,137483,1,0,0:0:0:0:
182,192,137667,1,0,0:0:0:0:
329,192,137667,1,0,0:0:0:0:
182,192,137759,1,0,0:0:0:0:
329,192,137759,1,0,0:0:0:0:
36,192,137851,128,0,138219:0:0:0:70:Kick.wav
402,192,137851,1,0,0:0:0:70:CrashL.wav
256,192,137851,1,0,0:0:0:0:
109,192,137851,1,0,0:0:0:0:
182,192,138219,1,0,0:0:0:70:Kick.wav
329,192,138219,1,0,0:0:0:0:
402,192,138403,1,0,0:0:0:0:
36,192,138403,1,0,0:0:0:0:
402,192,138495,1,0,0:0:0:0:
36,192,138495,1,0,0:0:0:0:
256,192,138587,128,0,138956:0:0:0:70:Kick.wav
109,192,138587,1,0,0:0:0:70:CrashL.wav
475,192,138587,1,0,0:0:0:0:
329,192,138587,1,0,0:0:0:0:
182,192,138956,1,0,0:0:0:70:Kick.wav
402,192,138956,1,0,0:0:0:0:
109,192,139140,1,0,0:0:0:0:
256,192,139140,1,0,0:0:0:0:
109,192,139232,1,0,0:0:0:0:
256,192,139232,1,0,0:0:0:0:
329,192,139324,128,0,139692:0:0:0:70:CrashL.wav
36,192,139324,1,0,0:0:0:70:Kick.wav
182,192,139324,1,0,0:0:0:0:
402,192,139324,1,0,0:0:0:0:
475,192,139692,1,0,0:0:0:70:Kick.wav
256,192,139692,1,0,0:0:0:0:
402,192,139876,1,0,0:0:0:0:
36,192,139876,1,0,0:0:0:0:
402,192,139968,1,0,0:0:0:0:
36,192,139968,1,0,0:0:0:0:
182,192,140060,128,0,140428:0:0:0:70:Kick.wav
329,192,140060,1,0,0:0:0:70:CrashL.wav
475,192,140060,1,0,0:0:0:0:
109,192,140060,1,0,0:0:0:0:
36,192,140428,1,0,0:0:0:70:Kick.wav
256,192,140428,1,0,0:0:0:0:
109,192,140612,1,0,0:0:0:0:
329,192,140612,1,0,0:0:0:0:
109,192,140704,1,0,0:0:0:0:
329,192,140704,1,0,0:0:0:0:
256,192,140796,128,0,141164:0:0:0:70:Kick.wav
36,192,140796,1,0,0:0:0:70:CrashL.wav
402,192,140796,1,0,0:0:0:0:
182,192,140796,1,0,0:0:0:0:
182,192,141164,1,0,0:0:0:70:Kick.wav
402,192,141164,1,0,0:0:0:0:
109,192,141348,1,0,0:0:0:0:
329,192,141348,1,0,0:0:0:0:
109,192,141440,1,0,0:0:0:0:
329,192,141440,1,0,0:0:0:0:
256,192,141532,128,0,141900:0:0:0:70:Kick.wav
36,192,141532,1,0,0:0:0:70:CrashL.wav
402,192,141532,1,0,0:0:0:0:
182,192,141532,1,0,0:0:0:0:
109,192,141900,1,0,0:0:0:70:Kick.wav
475,192,141900,1,0,0:0:0:0:
402,192,142084,1,0,0:0:0:0:
182,192,142084,1,0,0:0:0:0:
402,192,142176,1,0,0:0:0:0:
182,192,142176,1,0,0:0:0:0:
329,192,142268,128,0,142636:0:0:0:70:CrashL.wav
475,192,142268,1,0,0:0:0:70:Kick.wav
109,192,142268,1,0,0:0:0:0:
256,192,142268,1,0,0:0:0:0:
36,192,142636,1,0,0:0:0:70:Kick.wav
182,192,142636,1,0,0:0:0:0:
329,192,142821,1,0,0:0:0:0:
109,192,142821,1,0,0:0:0:0:
329,192,142913,1,0,0:0:0:0:
109,192,142913,1,0,0:0:0:0:
256,192,143005,128,0,143373:0:0:0:70:Kick.wav
182,192,143005,1,0,0:0:0:70:CrashL.wav
402,192,143005,1,0,0:0:0:0:
36,192,143005,1,0,0:0:0:0:
36,192,143373,1,0,0:0:0:70:Kick.wav
402,192,143373,1,0,0:0:0:0:
109,192,143557,1,0,0:0:0:0:
475,192,143557,1,0,0:0:0:0:
109,192,143649,1,0,0:0:0:0:
475,192,143649,1,0,0:0:0:0:
182,192,143741,128,0,144109:0:0:0:70:CrashL.wav
256,192,143741,1,0,0:0:0:70:Kick.wav
36,192,143741,1,0,0:0:0:0:
402,192,143741,1,0,0:0:0:0:
109,192,144109,1,0,0:0:0:70:Kick.wav
475,192,144109,1,0,0:0:0:70:CrashL.wav
256,192,144293,1,0,0:0:0:0:
36,192,144293,1,0,0:0:0:0:
256,192,144385,1,0,0:0:0:0:
36,192,144385,1,0,0:0:0:0:
402,192,144477,1,0,0:0:0:0:
109,192,144477,1,0,0:0:0:0:
475,192,144569,1,0,0:0:0:0:
182,192,144569,1,0,0:0:0:0:
329,192,144661,1,0,0:0:0:0:
36,192,144661,1,0,0:0:0:0:
402,192,144753,1,0,0:0:0:0:
109,192,144753,1,0,0:0:0:0:
182,192,144845,1,0,0:0:0:0:
329,192,144845,1,0,0:0:0:0:
256,192,144937,1,0,0:0:0:0:
402,192,144937,1,0,0:0:0:0:
36,192,145029,1,0,0:0:0:0:
182,192,145029,1,0,0:0:0:0:
109,192,145121,1,0,0:0:0:0:
256,192,145121,1,0,0:0:0:0:
329,192,145213,1,0,0:0:0:0:
475,192,145213,1,0,0:0:0:0:
182,192,145305,1,0,0:0:0:0:
402,192,145305,1,0,0:0:0:0:
329,192,145397,1,0,0:0:0:0:
109,192,145397,1,0,0:0:0:0:
182,192,145489,1,0,0:0:0:0:
36,192,145489,1,0,0:0:0:0:
256,192,145581,1,0,0:0:0:0:
402,192,145581,1,0,0:0:0:0:
329,192,145673,1,0,0:0:0:0:
475,192,145673,1,0,0:0:0:0:
256,192,145765,1,0,0:0:0:0:
109,192,145765,1,0,0:0:0:0:
182,192,145857,1,0,0:0:0:0:
329,192,145857,1,0,0:0:0:0:
402,192,145949,1,0,0:0:0:0:
109,192,145949,1,0,0:0:0:0:
475,192,146041,1,0,0:0:0:0:
182,192,146041,1,0,0:0:0:0:
36,192,146133,1,0,0:0:0:0:
329,192,146133,1,0,0:0:0:0:
109,192,146225,1,0,0:0:0:0:
402,192,146225,1,0,0:0:0:0:
329,192,146317,1,0,0:0:0:0:
36,192,146317,1,0,0:0:0:0:
182,192,146409,1,0,0:0:0:0:
475,192,146409,1,0,0:0:0:0:
109,192,146502,1,0,0:0:0:0:
402,192,146502,1,0,0:0:0:0:
329,192,146594,1,0,0:0:0:0:
36,192,146594,1,0,0:0:0:0:
475,192,146686,1,0,0:0:0:0:
182,192,146686,1,0,0:0:0:0:
36,192,146870,1,0,0:0:0:70:Kick.wav
402,192,146870,1,0,0:0:0:70:CrashS.wav
256,192,146870,1,0,0:0:0:0:
109,192,146870,1,0,0:0:0:0:
109,192,147054,1,0,0:0:0:70:Kick.wav
256,192,147054,1,0,0:0:0:70:CrashS.wav
402,192,147054,1,0,0:0:0:0:
475,192,147054,1,0,0:0:0:0:
