osu file format v14

[General]
AudioFilename: audio.mp3
AudioLeadIn: 0
PreviewTime: 70214
Countdown: 0
SampleSet: Soft
StackLeniency: 0.7
Mode: 3
LetterboxInBreaks: 0
SpecialStyle: 0
WidescreenStoryboard: 1

[Editor]
DistanceSpacing: 1.4
BeatDivisor: 6
GridSize: 32
TimelineZoom: 1.9

[Metadata]
Title:Ending
TitleUnicode:Ending
Artist:AAAA
ArtistUnicode:ああああ
Creator:Hirosheap
Version:Easy
Source:魔法使いハナビィ
Tags:video game Instrumental OST Fireplace HanabyGame piano Hanaby the Witch Enigmatic Network diamant66 baddragon
BeatmapID:4294487
BeatmapSetID:2055189

[Difficulty]
HPDrainRate:6
CircleSize:4
OverallDifficulty:6
ApproachRate:7.5
SliderMultiplier:1.4
SliderTickRate:1

[Events]
//Background and Video events
0,0,"1576791651.jpg",0,0
//Break Periods
//Storyboard Layer 0 (Background)
//Storyboard Layer 1 (Fail)
//Storyboard Layer 2 (Pass)
//Storyboard Layer 3 (Foreground)
//Storyboard Layer 4 (Overlay)
//Storyboard Sound Samples

[TimingPoints]
1015,571.428571428571,4,2,1,40,1,0
57014,582.52427184466,4,2,1,50,1,0
57014,-98.0952381,4,2,1,50,0,0
58177,606.060606060606,4,2,1,35,1,0
58177,-94.28571429,4,2,1,35,0,0
60601,603.015075376884,4,2,1,35,1,0
60601,-94.76190476,4,2,1,35,0,0
63014,600,4,2,1,50,1,0
63014,-95.23809524,4,2,1,50,0,0
105614,612.244897959184,4,2,1,60,1,0
105614,-93.33333333,4,2,1,60,0,0
105920,718.562874251497,4,2,1,60,1,0
105920,-79.52380952,4,2,1,60,0,0
106284,618.556701030928,4,2,1,50,1,0
106284,-92.38095238,4,2,1,50,0,0
106902,652.173913043478,4,2,1,50,1,0
106902,-87.61904762,4,2,1,50,0,0
107554,666.666666666667,4,2,1,50,1,0
107554,-85.71428571,4,2,1,50,0,0
108220,681.818181818182,4,2,1,50,1,0
108220,-83.80952381,4,2,1,50,0,0
108913,674.157303370787,4,2,1,40,1,0
108913,-84.76190476,4,2,1,40,0,0
111609,689.655172413793,4,2,1,40,1,0
111609,-82.85714286,4,2,1,40,0,0
114236,689.655172413793,4,2,1,40,1,0
114236,-82.85714286,4,2,1,40,0,0
114418,727.272727272727,4,2,1,40,1,0
114418,-78.57142857,4,2,1,40,0,0
115145,750,4,2,1,40,1,0
115145,-76.19047619,4,2,1,40,0,0
115520,845.070422535211,4,2,1,40,1,0
115520,-67.61904762,4,2,1,40,0,0
116365,967.741935483871,4,2,1,25,1,0
116365,-59.04761905,4,2,1,25,0,0
117787,1875,4,2,1,40,1,0
117787,-30.47619048,4,2,1,40,0,0
123412,937.5,4,2,1,25,1,0
123412,-60.95238095,4,2,1,25,0,0

[Colours]
Combo1 : 223,112,0
Combo2 : 0,128,255
Combo3 : 115,115,185
Combo4 : 225,207,15
Combo5 : 0,193,97
Combo6 : 0,159,159

[HitObjects]
64,192,1015,5,0,0:0:0:0:
192,192,1300,1,0,0:0:0:0:
320,192,1586,1,0,0:0:0:0:
448,192,1872,128,0,3300:0:0:0:0:
192,192,3300,1,0,0:0:0:0:
320,192,3586,1,0,0:0:0:0:
64,192,3872,1,0,0:0:0:0:
192,192,4157,128,0,5586:0:0:0:0:
64,192,5586,1,0,0:0:0:0:
448,192,5872,1,0,0:0:0:0:
320,192,6157,1,0,0:0:0:0:
192,192,6443,128,0,7872:0:0:0:0:
64,192,7872,1,0,0:0:0:0:
448,192,9014,128,0,11300:0:0:0:0:
320,192,11300,1,0,0:0:0:0:
192,192,12443,128,0,13586:0:0:0:0:
320,192,12443,1,0,0:0:0:0:
64,192,13586,128,0,14729:0:0:0:0:
448,192,13586,1,0,0:0:0:0:
448,192,14729,128,0,15872:0:0:0:0:
320,192,14729,1,0,0:0:0:0:
192,192,15872,1,0,0:0:0:0:
320,192,16253,1,0,0:0:0:0:
448,192,16634,1,0,0:0:0:0:
320,192,17014,128,0,18157:0:0:0:0:
64,192,17014,1,0,0:0:0:0:
192,192,18157,128,0,19300:0:0:0:0:
448,192,18157,1,0,0:0:0:0:
448,192,19300,128,0,20443:0:0:0:0:
64,192,19300,1,0,0:0:0:0:
320,192,20443,1,0,0:0:0:0:
192,192,20824,1,0,0:0:0:0:
64,192,21205,1,0,0:0:0:0:
192,192,21586,128,0,22729:0:0:0:0:
448,192,21586,1,0,0:0:0:0:
320,192,22729,128,0,23872:0:0:0:0:
64,192,22729,1,0,0:0:0:0:
448,192,23872,128,0,25014:0:0:0:0:
64,192,23872,1,0,0:0:0:0:
192,192,25014,1,0,0:0:0:0:
64,192,25014,1,0,0:0:0:0:
192,192,26157,128,0,27300:0:0:0:0:
448,192,26157,1,0,0:0:0:0:
448,192,27300,128,0,28443:0:0:0:0:
64,192,27300,1,0,0:0:0:0:
64,192,28443,128,0,29586:0:0:0:0:
320,192,28443,1,0,0:0:0:0:
448,192,29586,1,0,0:0:0:0:
320,192,29586,1,0,0:0:0:0:
192,192,30729,128,0,31872:0:0:0:0:
64,192,30729,1,0,0:0:0:0:
448,192,31872,128,0,33014:0:0:0:0:
64,192,31872,1,0,0:0:0:0:
64,192,33014,128,0,34157:0:0:0:0:
320,192,33014,1,0,0:0:0:0:
192,192,34157,1,0,0:0:0:0:
320,192,34538,1,0,0:0:0:0:
448,192,34919,1,0,0:0:0:0:
64,192,35300,1,0,0:0:0:0:
192,192,35300,1,0,0:0:0:0:
448,192,35872,1,0,0:0:0:0:
320,192,36062,1,0,0:0:0:0:
192,192,36253,1,0,0:0:0:0:
448,192,36443,1,0,0:0:0:0:
64,192,36443,1,0,0:0:0:0:
448,192,37205,1,0,0:0:0:0:
320,192,37395,1,0,0:0:0:0:
64,192,37586,128,0,38729:0:0:0:0:
192,192,37586,1,0,0:0:0:0:
448,192,38729,1,0,0:0:0:0:
320,192,39110,1,0,0:0:0:0:
192,192,39491,1,0,0:0:0:0:
448,192,39872,128,0,41014:0:0:0:0:
64,192,39872,1,0,0:0:0:0:
320,192,41014,128,0,42157:0:0:0:0:
64,192,41014,1,0,0:0:0:0:
64,192,42157,128,0,43300:0:0:0:0:
192,192,42157,1,0,0:0:0:0:
320,192,43300,1,0,0:0:0:0:
448,192,43300,1,0,0:0:0:0:
192,192,44443,128,0,45586:0:0:0:0:
64,192,44443,1,0,0:0:0:0:
320,192,45586,128,0,46729:0:0:0:0:
448,192,45586,1,0,0:0:0:0:
64,192,46729,128,0,47872:0:0:0:0:
192,192,46729,1,0,0:0:0:0:
192,192,47872,128,0,48443:0:0:0:0:
448,192,47872,1,0,0:0:0:0:
320,192,49014,1,0,0:0:0:0:
320,192,49586,1,0,0:0:0:0:
192,192,49776,1,0,0:0:0:0:
64,192,49967,1,0,0:0:0:0:
448,192,50157,1,0,0:0:0:0:
64,192,50538,1,0,0:0:0:0:
192,192,50729,1,0,0:0:0:0:
448,192,51110,1,0,0:0:0:0:
320,192,51300,128,0,52443:0:0:0:0:
192,192,52443,128,0,53586:0:0:0:0:
64,192,52443,1,0,0:0:0:0:
320,192,53586,128,0,54157:0:0:0:0:
448,192,53586,1,0,0:0:0:0:
64,192,54157,1,0,0:0:0:0:
192,192,54443,1,0,0:0:0:0:
448,192,54729,128,0,55300:0:0:0:0:
320,192,55300,1,0,0:0:0:0:
320,192,55872,128,0,56443:0:0:0:0:
192,192,55872,1,0,0:0:0:0:
448,192,56443,1,0,0:0:0:0:
64,192,57014,128,0,58177:0:0:0:0:
192,192,57014,1,0,0:0:0:0:
320,192,58177,1,0,0:0:0:0:
448,192,58783,1,0,0:0:0:0:
320,192,58985,1,0,0:0:0:0:
192,192,59187,1,0,0:0:0:0:
64,192,59389,1,0,0:0:0:0:
448,192,59793,1,0,0:0:0:0:
320,192,59995,1,0,0:0:0:0:
64,192,60399,1,0,0:0:0:0:
192,192,60601,128,0,61204:0:0:0:0:
448,192,60601,1,0,0:0:0:0:
320,192,61204,128,0,61807:0:0:0:0:
448,192,61807,128,0,62410:0:0:0:0:
64,192,61807,1,0,0:0:0:0:
64,192,62410,128,0,63014:0:0:0:0:
448,192,63014,128,0,65414:0:0:0:0:
320,192,63014,1,0,0:0:0:0:
192,192,65414,128,0,67414:0:0:0:0:
64,192,65414,1,0,0:0:0:0:
320,192,67414,1,0,0:0:0:0:
64,192,67814,128,0,69014:0:0:0:0:
192,192,69014,1,0,0:0:0:0:
448,192,70214,128,0,70814:0:0:0:0:
320,192,70214,1,0,0:0:0:0:
64,192,70814,1,0,0:0:0:0:
192,192,71414,128,0,72014:0:0:0:0:
320,192,71414,1,0,0:0:0:0:
448,192,72014,1,0,0:0:0:0:
64,192,72614,128,0,73214:0:0:0:0:
448,192,72614,1,0,0:0:0:0:
192,192,73214,1,0,0:0:0:0:
320,192,73814,128,0,74414:0:0:0:0:
448,192,73814,1,0,0:0:0:0:
192,192,74414,1,0,0:0:0:0:
64,192,75014,1,0,0:0:0:0:
448,192,75014,1,0,0:0:0:0:
192,192,75314,1,0,0:0:0:0:
448,192,75614,1,0,0:0:0:0:
320,192,75914,1,0,0:0:0:0:
64,192,76214,1,0,0:0:0:0:
192,192,76214,1,0,0:0:0:0:
448,192,76514,1,0,0:0:0:0:
320,192,76814,1,0,0:0:0:0:
192,192,77114,1,0,0:0:0:0:
64,192,77414,128,0,78014:0:0:0:0:
448,192,77414,1,0,0:0:0:0:
320,192,78014,128,0,78614:0:0:0:0:
192,192,78614,128,0,79214:0:0:0:0:
448,192,79214,1,0,0:0:0:0:
448,192,79814,128,0,80414:0:0:0:0:
64,192,79814,1,0,0:0:0:0:
192,192,80414,1,0,0:0:0:0:
320,192,81014,128,0,81614:0:0:0:0:
64,192,81014,1,0,0:0:0:0:
448,192,81614,1,0,0:0:0:0:
448,192,82214,128,0,82814:0:0:0:0:
192,192,82214,1,0,0:0:0:0:
64,192,82814,1,0,0:0:0:0:
192,192,83414,128,0,84014:0:0:0:0:
320,192,83414,1,0,0:0:0:0:
448,192,84014,1,0,0:0:0:0:
448,192,84614,1,0,0:0:0:0:
64,192,84614,1,0,0:0:0:0:
320,192,84914,1,0,0:0:0:0:
64,192,85214,1,0,0:0:0:0:
192,192,85514,1,0,0:0:0:0:
448,192,85814,1,0,0:0:0:0:
320,192,85814,1,0,0:0:0:0:
64,192,86114,1,0,0:0:0:0:
192,192,86414,1,0,0:0:0:0:
320,192,86714,1,0,0:0:0:0:
448,192,87014,128,0,87614:0:0:0:0:
64,192,87014,1,0,0:0:0:0:
192,192,87614,1,0,0:0:0:0:
64,192,88214,128,0,88814:0:0:0:0:
448,192,88814,1,0,0:0:0:0:
320,192,89414,128,0,90014:0:0:0:0:
192,192,89414,1,0,0:0:0:0:
64,192,90014,1,0,0:0:0:0:
448,192,90614,128,0,91214:0:0:0:0:
64,192,90614,1,0,0:0:0:0:
192,192,91214,1,0,0:0:0:0:
64,192,91814,128,0,92414:0:0:0:0:
448,192,91814,1,0,0:0:0:0:
320,192,92414,1,0,0:0:0:0:
448,192,93014,128,0,93614:0:0:0:0:
64,192,93014,1,0,0:0:0:0:
192,192,93614,1,0,0:0:0:0:
64,192,94214,1,0,0:0:0:0:
448,192,94214,1,0,0:0:0:0:
192,192,94514,1,0,0:0:0:0:
448,192,94814,1,0,0:0:0:0:
320,192,95114,1,0,0:0:0:0:
192,192,95414,1,0,0:0:0:0:
64,192,95414,1,0,0:0:0:0:
448,192,95714,1,0,0:0:0:0:
320,192,96014,1,0,0:0:0:0:
192,192,96314,1,0,0:0:0:0:
448,192,96614,128,0,97214:0:0:0:0:
64,192,96614,1,0,0:0:0:0:
192,192,97214,1,0,0:0:0:0:
64,192,97814,128,0,98414:0:0:0:0:
448,192,98414,1,0,0:0:0:0:
448,192,99014,128,0,99614:0:0:0:0:
192,192,99014,1,0,0:0:0:0:
64,192,99614,1,0,0:0:0:0:
192,192,100214,128,0,100814:0:0:0:0:
320,192,100214,1,0,0:0:0:0:
448,192,100814,1,0,0:0:0:0:
448,192,101414,128,0,102014:0:0:0:0:
64,192,101414,1,0,0:0:0:0:
192,192,102014,1,0,0:0:0:0:
64,192,102614,128,0,103214:0:0:0:0:
192,192,102614,1,0,0:0:0:0:
320,192,103214,1,0,0:0:0:0:
448,192,103814,1,0,0:0:0:0:
64,192,103814,1,0,0:0:0:0:
320,192,104114,1,0,0:0:0:0:
64,192,104414,1,0,0:0:0:0:
192,192,104714,1,0,0:0:0:0:
320,192,105014,1,0,0:0:0:0:
448,192,105014,1,0,0:0:0:0:
64,192,105314,1,0,0:0:0:0:
192,192,105614,1,0,0:0:0:0:
320,192,105920,1,0,0:0:0:0:
448,192,106284,1,0,0:0:0:0:
320,192,106902,128,0,108901:0:0:0:0:
64,192,108901,1,0,0:0:0:0:
192,192,109250,1,0,0:0:0:0:
320,192,109587,1,0,0:0:0:0:
448,192,109924,128,0,111609:0:0:0:0:
320,192,111609,1,0,0:0:0:0:
192,192,111953,1,0,0:0:0:0:
64,192,112298,1,0,0:0:0:0:
192,192,112643,128,0,114418:0:0:0:0:
448,192,114418,1,0,0:0:0:0:
64,192,114781,1,0,0:0:0:0:
192,192,115145,1,0,0:0:0:0:
320,192,115520,128,0,116365:0:0:0:0:
64,192,116365,1,0,0:0:0:0:
192,192,116848,1,0,0:0:0:0:
320,192,117332,1,0,0:0:0:0:
448,192,117787,128,0,119662:0:0:0:0:
192,192,119662,128,0,122474:0:0:0:0:
64,192,123412,128,0,130912:0:0:0:0:
