osu file format v14

[General]
AudioFilename: audio.mp3
AudioLeadIn: 0
PreviewTime: 75780
Countdown: 0
SampleSet: Normal
StackLeniency: 0.7
Mode: 1
LetterboxInBreaks: 0
WidescreenStoryboard: 1

[Editor]
DistanceSpacing: 1.1
BeatDivisor: 4
GridSize: 32
TimelineZoom: 0.8

[Metadata]
Title:Dreamer.
TitleUnicode:Dreamer.
Artist:AAAA
ArtistUnicode:ああああ
Creator:JarvisGaming
Version:Muzukashii
Source:UNDERTALE
Tags:precious memory umeboshi chazuke 梅干茶漬け toby fox his theme BMS METTATUNES ricora Asriel Chara
BeatmapID:1402139
BeatmapSetID:662383

[Difficulty]
HPDrainRate:7.5
CircleSize:5
OverallDifficulty:4
ApproachRate:5
SliderMultiplier:1.4
SliderTickRate:1

[Events]
//Background and Video events
0,0,"772024.jpg",0,0
//Break Periods
//Storyboard Layer 0 (Background)
//Storyboard Layer 1 (Fail)
//Storyboard Layer 2 (Pass)
//Storyboard Layer 3 (Foreground)
//Storyboard Sound Samples

[TimingPoints]
3066,750,4,1,0,20,1,0
27066,-100,4,1,0,25,0,8
51066,-133.333333333333,4,1,0,30,0,8
72066,1000,4,1,0,40,1,0
74066,857.142857142857,4,1,0,40,1,8
75780,750,4,1,0,40,1,1
75780,-80,4,1,0,40,0,1
94530,-80,4,1,0,35,0,1
94905,-80,4,1,0,32,0,1
95280,-80,4,1,0,29,0,1
96780,-80,4,1,0,25,0,1
98280,-80,4,1,0,30,0,1
99780,-100,4,1,0,35,0,0
111780,-133.333333333333,4,1,0,25,0,0

[HitObjects]
256,192,3066,5,0,0:0:0:0:
156,161,3816,1,8,0:0:0:0:
256,192,4566,1,0,0:0:0:0:
229,218,5128,1,0,0:0:0:0:
253,137,5691,1,8,0:0:0:0:
256,160,6066,1,0,0:0:0:0:
202,229,6816,1,8,0:0:0:0:
256,160,7566,1,8,0:0:0:0:
213,186,8128,1,0,0:0:0:0:
222,142,8691,1,8,0:0:0:0:
256,160,9066,1,0,0:0:0:0:
179,191,9816,1,8,0:0:0:0:
256,160,10566,1,8,0:0:0:0:
178,197,11128,1,8,0:0:0:0:
128,187,11691,1,0,0:0:0:0:
256,160,12066,1,8,0:0:0:0:
256,160,13566,5,8,0:0:0:0:
129,162,14128,1,0,0:0:0:0:
256,160,14691,5,8,0:0:0:0:
256,160,15066,1,0,0:0:0:0:
256,160,15816,1,8,0:0:0:0:
256,160,16191,1,8,0:0:0:0:
256,160,16566,1,0,0:0:0:0:
256,160,17128,1,0,0:0:0:0:
256,160,17691,1,8,0:0:0:0:
256,160,18066,1,0,0:0:0:0:
256,160,18816,1,8,0:0:0:0:
256,160,19191,1,0,0:0:0:0:
256,160,19566,1,8,0:0:0:0:
256,160,20128,5,8,0:0:0:0:
256,160,20691,1,0,0:0:0:0:
256,160,21066,5,8,0:0:0:0:
256,160,21816,1,8,0:0:0:0:
256,160,22191,1,8,0:0:0:0:
256,160,22566,1,0,0:0:0:0:
256,160,23128,1,8,0:0:0:0:
256,160,23691,1,8,0:0:0:0:
256,160,24066,1,0,0:0:0:0:
256,160,24816,1,0,0:0:0:0:
256,160,25191,1,8,0:0:0:0:
256,160,25566,1,8,0:0:0:0:
256,160,26128,1,0,0:0:0:0:
256,160,27066,1,0,0:0:0:0:
201,92,27441,1,8,0:0:0:0:
256,160,27816,1,8,0:0:0:0:
256,160,28191,1,0,0:0:0:0:
256,160,28566,1,8,0:0:0:0:
256,160,29128,1,0,0:0:0:0:
196,180,29691,1,8,0:0:0:0:
256,160,30066,1,0,0:0:0:0:
256,160,30816,1,0,0:0:0:0:
256,160,31191,1,8,0:0:0:0:
256,160,31566,1,0,0:0:0:0:
165,90,32128,1,0,0:0:0:0:
168,82,32691,1,8,0:0:0:0:
256,160,33066,1,0,0:0:0:0:
256,160,33816,1,8,0:0:0:0:
256,160,34191,1,0,0:0:0:0:
256,160,34566,1,8,0:0:0:0:
199,54,35128,1,0,0:0:0:0:
199,54,35691,1,8,0:0:0:0:
256,160,36066,1,0,0:0:0:0:
256,160,36816,1,8,0:0:0:0:
256,160,37191,1,8,0:0:0:0:
256,160,37566,1,0,0:0:0:0:
256,160,38128,5,0,0:0:0:0:
28,162,38691,1,8,0:0:0:0:
256,192,39066,5,0,0:0:0:0:
256,192,39441,1,8,0:0:0:0:
256,192,39816,1,0,0:0:0:0:
256,192,40191,1,0,0:0:0:0:
256,192,40566,1,8,0:0:0:0:
256,192,41128,1,0,0:0:0:0:
256,192,41691,1,8,0:0:0:0:
256,192,42066,1,0,0:0:0:0:
256,192,42816,1,8,0:0:0:0:
256,192,43191,1,0,0:0:0:0:
256,192,43566,1,8,0:0:0:0:
256,192,44128,1,0,0:0:0:0:
256,192,44691,1,8,0:0:0:0:
256,192,45066,1,0,0:0:0:0:
256,192,45441,1,8,0:0:0:0:
256,192,45816,1,8,0:0:0:0:
256,192,46191,1,0,0:0:0:0:
256,192,46566,1,8,0:0:0:0:
256,192,47128,1,8,0:0:0:0:
256,192,47691,1,8,0:0:0:0:
256,192,48066,1,0,0:0:0:0:
256,192,48816,1,0,0:0:0:0:
256,192,49191,1,8,0:0:0:0:
256,192,49566,1,8,0:0:0:0:
256,192,50128,1,0,0:0:0:0:
256,192,51066,1,0,0:0:0:0:
256,192,53316,1,0,0:0:0:0:
256,192,54066,1,8,0:0:0:0:
256,192,54816,1,8,0:0:0:0:
109,199,55378,1,8,0:0:0:0:
256,192,55566,1,0,0:0:0:0:
256,192,57066,1,0,0:0:0:0:
256,192,57816,1,8,0:0:0:0:
256,192,58566,1,0,0:0:0:0:
256,192,58941,1,0,0:0:0:0:
256,192,59316,1,8,0:0:0:0:
256,192,60066,1,0,0:0:0:0:
256,192,60816,1,8,0:0:0:0:
256,192,61566,1,8,0:0:0:0:
286,120,61941,1,8,0:0:0:0:
256,192,62316,1,0,0:0:0:0:
256,192,63066,1,0,0:0:0:0:
232,115,63816,1,8,0:0:0:0:
256,192,64566,1,8,0:0:0:0:
173,157,64941,1,0,0:0:0:0:
288,160,65316,1,0,0:0:0:0:
166,143,65691,1,0,0:0:0:0:
256,192,66066,1,8,0:0:0:0:
256,192,66816,1,8,0:0:0:0:
194,158,67378,1,8,0:0:0:0:
256,192,67566,1,0,0:0:0:0:
256,192,69066,1,0,0:0:0:0:
211,138,69816,1,8,0:0:0:0:
75,142,70191,1,0,0:0:0:0:
256,192,70566,1,8,0:0:0:0:
243,139,70941,1,0,0:0:0:0:
256,192,71316,1,0,0:0:0:0:
171,157,71691,1,8,0:0:0:0:
256,192,73066,1,4,0:0:0:0:
256,192,74923,1,4,0:0:0:0:
256,192,75780,1,0,0:0:0:0:
256,192,76530,1,8,0:0:0:0:
191,207,76905,1,0,0:0:0:0:
256,192,77280,1,8,0:0:0:0:
256,192,77655,1,8,0:0:0:0:
256,192,78030,1,0,0:0:0:0:
256,192,78780,1,8,0:0:0:0:
256,192,79530,1,8,0:0:0:0:
82,241,80092,1,8,0:0:0:0:
256,192,80280,1,0,0:0:0:0:
256,192,81780,1,0,0:0:0:0:
256,192,82530,1,8,0:0:0:0:
150,231,82905,1,8,0:0:0:0:
256,192,83280,1,0,0:0:0:0:
256,192,83655,1,0,0:0:0:0:
256,192,84030,1,8,0:0:0:0:
256,192,84780,1,0,0:0:0:0:
256,192,85530,1,8,0:0:0:0:
256,192,86280,1,8,0:0:0:0:
256,192,86655,1,0,0:0:0:0:
256,192,87030,1,8,0:0:0:0:
256,192,87405,1,8,0:0:0:0:
256,192,87780,1,0,0:0:0:0:
256,192,88530,1,8,0:0:0:0:
154,214,88905,1,8,0:0:0:0:
256,192,89280,1,0,0:0:0:0:
256,192,89655,1,8,0:0:0:0:
256,192,90030,1,0,0:0:0:0:
256,192,90780,1,8,0:0:0:0:
256,192,91530,1,8,0:0:0:0:
100,171,92092,1,8,0:0:0:0:
256,192,92280,1,0,0:0:0:0:
256,192,93780,1,0,0:0:0:0:
76,141,94155,1,0,0:0:0:0:
256,192,94530,1,8,0:0:0:0:
94,147,94905,1,8,0:0:0:0:
256,192,95280,1,0,0:0:0:0:
256,192,96780,1,8,0:0:0:0:
256,192,97530,1,4,0:0:0:0:
256,192,98280,12,0,99780,0:0:0:0:
256,192,100530,5,8,0:0:0:0:
256,192,101280,1,8,0:0:0:0:
256,192,101842,1,0,0:0:0:0:
256,192,102405,1,8,0:0:0:0:
256,192,102780,1,0,0:0:0:0:
256,192,103530,1,8,0:0:0:0:
329,91,104280,1,0,0:0:0:0:
256,192,104842,1,0,0:0:0:0:
256,192,105405,1,8,0:0:0:0:
256,192,105780,1,8,0:0:0:0:
256,192,106530,1,0,0:0:0:0:
256,192,107280,1,0,0:0:0:0:
256,192,107842,1,0,0:0:0:0:
256,192,108405,1,8,0:0:0:0:
256,192,108780,1,0,0:0:0:0:
256,192,109530,1,8,0:0:0:0:
256,192,110280,1,8,0:0:0:0:
256,192,110842,1,0,0:0:0:0:
256,192,111780,1,0,0:0:0:0:
256,192,112530,1,8,0:0:0:0:
256,192,113280,1,8,0:0:0:0:
256,192,113842,1,8,0:0:0:0:
256,192,114405,1,8,0:0:0:0:
210,179,114780,1,0,0:0:0:0:
256,192,116280,1,0,0:0:0:0:
256,192,116842,1,0,0:0:0:0:
256,192,117405,1,0,0:0:0:0:
242,189,117780,1,8,0:0:0:0:
256,192,118530,1,8,0:0:0:0:
256,192,119280,1,8,0:0:0:0:
256,192,119842,1,8,0:0:0:0:
256,192,120405,1,8,0:0:0:0:
140,189,120780,1,0,0:0:0:0:
256,192,121530,1,8,0:0:0:0:
256,192,122280,1,8,0:0:0:0:
256,192,122842,1,8,0:0:0:0:
