osu file format v14

[General]
AudioFilename: audio.mp3
AudioLeadIn: 0
PreviewTime: 73619
Countdown: 0
SampleSet: Soft
StackLeniency: 0.7
Mode: 3
LetterboxInBreaks: 0
SpecialStyle: 0
WidescreenStoryboard: 1

[Editor]
DistanceSpacing: 1.1
BeatDivisor: 4
GridSize: 32
TimelineZoom: 1.3

[Metadata]
Title:Dreamer.
TitleUnicode:Dreamer.
Artist:AAAA
ArtistUnicode:ああああ
Creator:Carpihat
Version:Normal.
Source:UNDERTALE
Tags:precious memory umeboshi chazuke 梅干茶漬け toby fox his theme bms mettatunes ricora asriel chara video game instrumental piano
BeatmapID:4339621
BeatmapSetID:2072888

[Difficulty]
HPDrainRate:6
CircleSize:5
OverallDifficulty:6
ApproachRate:5
SliderMultiplier:1.4
SliderTickRate:1

[Events]
//Background and Video events
0,0,"dreemurr.jpg",0,0
//Break Periods
//Storyboard Layer 0 (Background)
//Storyboard Layer 1 (Fail)
//Storyboard Layer 2 (Pass)
//Storyboard Layer 3 (Foreground)
//Storyboard Layer 4 (Overlay)
//Storyboard Sound Samples

[TimingPoints]
890,750,4,2,1,10,1,0
69890,1000,4,2,1,10,1,0
69890,-75.187969924812,4,2,1,10,0,0
71890,857.142857142857,4,2,1,10,1,0
71890,-87.719298245614,4,2,1,10,0,0
73619,750,4,2,1,20,1,1
94619,-100,4,2,1,20,0,0
95369,-100,4,2,1,20,0,1
97619,-100,4,2,1,10,0,0

[HitObjects]
256,192,890,5,0,0:0:0:0:
51,192,890,128,0,1265:0:0:0:0:
460,192,1265,1,0,0:0:0:0:
358,192,1640,1,0,0:0:0:0:
153,192,2015,1,0,0:0:0:0:
256,192,2390,1,0,0:0:0:0:
256,192,2952,1,0,0:0:0:0:
460,192,3515,1,0,0:0:0:0:
256,192,3890,128,0,4265:0:0:0:0:
51,192,4265,1,0,0:0:0:0:
460,192,4640,1,0,0:0:0:0:
51,192,5015,1,0,0:0:0:0:
256,192,5390,1,0,0:0:0:0:
256,192,5952,1,0,0:0:0:0:
358,192,6515,1,0,0:0:0:0:
153,192,6890,1,0,0:0:0:0:
460,192,6890,128,0,7265:0:0:0:0:
51,192,7265,1,0,0:0:0:0:
358,192,7640,1,0,0:0:0:0:
153,192,8015,1,0,0:0:0:0:
256,192,8390,1,0,0:0:0:0:
256,192,8952,1,0,0:0:0:0:
460,192,9515,1,0,0:0:0:0:
256,192,9890,128,0,10265:0:0:0:0:
51,192,10265,1,0,0:0:0:0:
153,192,10640,1,0,0:0:0:0:
460,192,11015,1,0,0:0:0:0:
358,192,11390,1,0,0:0:0:0:
51,192,11952,1,0,0:0:0:0:
460,192,12515,1,0,0:0:0:0:
51,192,12890,1,0,0:0:0:0:
358,192,12890,128,0,13265:0:0:0:0:
256,192,13265,128,0,13640:0:0:0:0:
153,192,13640,128,0,14015:0:0:0:0:
51,192,14015,128,0,14390:0:0:0:0:
256,192,14390,1,0,0:0:0:0:
256,192,14952,1,0,0:0:0:0:
460,192,15515,1,0,0:0:0:0:
51,192,15890,128,0,16265:0:0:0:0:
153,192,16265,128,0,16640:0:0:0:0:
358,192,16640,128,0,17015:0:0:0:0:
153,192,17015,128,0,17390:0:0:0:0:
256,192,17390,1,0,0:0:0:0:
256,192,17952,1,0,0:0:0:0:
358,192,18515,1,0,0:0:0:0:
153,192,18890,1,0,0:0:0:0:
460,192,18890,128,0,19265:0:0:0:0:
358,192,19265,128,0,19640:0:0:0:0:
256,192,19640,128,0,20015:0:0:0:0:
51,192,20015,128,0,20390:0:0:0:0:
256,192,20390,1,0,0:0:0:0:
256,192,20952,1,0,0:0:0:0:
460,192,21515,1,0,0:0:0:0:
153,192,21890,128,0,22265:0:0:0:0:
256,192,22265,128,0,22640:0:0:0:0:
358,192,22640,128,0,23015:0:0:0:0:
460,192,23015,128,0,23390:0:0:0:0:
153,192,23390,1,0,0:0:0:0:
51,192,23952,1,0,0:0:0:0:
153,192,24890,1,0,0:0:0:0:
51,192,24890,128,0,25265:0:0:0:0:
256,192,25265,1,0,0:0:0:0:
358,192,25640,1,0,0:0:0:0:
460,192,25640,128,0,26015:0:0:0:0:
256,192,26015,1,0,0:0:0:0:
153,192,26390,1,0,0:0:0:0:
358,192,26390,128,0,26765:0:0:0:0:
153,192,26952,1,0,0:0:0:0:
51,192,27140,128,0,27515:0:0:0:0:
460,192,27515,1,0,0:0:0:0:
256,192,27890,128,0,28265:0:0:0:0:
51,192,28265,1,0,0:0:0:0:
358,192,28640,1,0,0:0:0:0:
460,192,28640,128,0,29015:0:0:0:0:
51,192,29015,1,0,0:0:0:0:
358,192,29390,1,0,0:0:0:0:
256,192,29390,128,0,29765:0:0:0:0:
358,192,29952,1,0,0:0:0:0:
51,192,30140,128,0,30515:0:0:0:0:
460,192,30515,1,0,0:0:0:0:
153,192,30890,128,0,31265:0:0:0:0:
256,192,30890,1,0,0:0:0:0:
51,192,31265,1,0,0:0:0:0:
358,192,31640,128,0,32015:0:0:0:0:
460,192,31640,1,0,0:0:0:0:
153,192,32015,1,0,0:0:0:0:
460,192,32390,128,0,32765:0:0:0:0:
256,192,32390,1,0,0:0:0:0:
256,192,32952,1,0,0:0:0:0:
51,192,33140,128,0,33515:0:0:0:0:
460,192,33515,1,0,0:0:0:0:
256,192,33890,128,0,34265:0:0:0:0:
153,192,34265,1,0,0:0:0:0:
358,192,34640,1,0,0:0:0:0:
51,192,34640,128,0,35015:0:0:0:0:
256,192,35015,1,0,0:0:0:0:
153,192,35390,1,0,0:0:0:0:
460,192,35390,128,0,35765:0:0:0:0:
51,192,35952,1,0,0:0:0:0:
358,192,36140,128,0,36515:0:0:0:0:
256,192,36515,1,0,0:0:0:0:
51,192,36890,128,0,37265:0:0:0:0:
460,192,36890,1,0,0:0:0:0:
358,192,37265,1,0,0:0:0:0:
460,192,37640,128,0,38015:0:0:0:0:
153,192,37640,1,0,0:0:0:0:
51,192,38015,1,0,0:0:0:0:
153,192,38390,128,0,38765:0:0:0:0:
358,192,38390,1,0,0:0:0:0:
358,192,38952,1,0,0:0:0:0:
51,192,39140,128,0,39515:0:0:0:0:
460,192,39515,1,0,0:0:0:0:
256,192,39890,128,0,40265:0:0:0:0:
153,192,40265,1,0,0:0:0:0:
358,192,40640,1,0,0:0:0:0:
460,192,40640,128,0,41015:0:0:0:0:
256,192,41015,1,0,0:0:0:0:
358,192,41390,128,0,41765:0:0:0:0:
51,192,41390,1,0,0:0:0:0:
51,192,41952,1,0,0:0:0:0:
256,192,42140,128,0,42515:0:0:0:0:
460,192,42515,1,0,0:0:0:0:
153,192,42890,128,0,43265:0:0:0:0:
51,192,42890,1,0,0:0:0:0:
256,192,43265,1,0,0:0:0:0:
358,192,43640,128,0,44015:0:0:0:0:
460,192,43640,1,0,0:0:0:0:
256,192,44015,1,0,0:0:0:0:
460,192,44390,128,0,44765:0:0:0:0:
153,192,44390,1,0,0:0:0:0:
153,192,44952,1,0,0:0:0:0:
358,192,45140,128,0,45515:0:0:0:0:
51,192,45515,1,0,0:0:0:0:
153,192,45890,128,0,46265:0:0:0:0:
460,192,46265,1,0,0:0:0:0:
358,192,46640,128,0,47015:0:0:0:0:
51,192,46640,1,0,0:0:0:0:
256,192,47015,1,0,0:0:0:0:
51,192,47390,128,0,47765:0:0:0:0:
460,192,47390,1,0,0:0:0:0:
358,192,47952,1,0,0:0:0:0:
460,192,48890,1,0,0:0:0:0:
51,192,48890,128,0,49640:0:0:0:0:
460,192,49640,1,0,0:0:0:0:
358,192,50015,1,0,0:0:0:0:
256,192,50390,1,0,0:0:0:0:
153,192,50765,1,0,0:0:0:0:
51,192,51140,1,0,0:0:0:0:
256,192,51515,1,0,0:0:0:0:
51,192,51890,1,0,0:0:0:0:
460,192,51890,128,0,52640:0:0:0:0:
256,192,52640,128,0,53202:0:0:0:0:
358,192,53202,1,0,0:0:0:0:
51,192,53390,128,0,54515:0:0:0:0:
358,192,54890,1,0,0:0:0:0:
153,192,54890,128,0,55640:0:0:0:0:
460,192,55640,1,0,0:0:0:0:
358,192,56015,1,0,0:0:0:0:
153,192,56390,1,0,0:0:0:0:
51,192,56765,1,0,0:0:0:0:
358,192,57140,1,0,0:0:0:0:
460,192,57515,1,0,0:0:0:0:
256,192,57890,1,0,0:0:0:0:
153,192,57890,128,0,58640:0:0:0:0:
358,192,58640,128,0,59202:0:0:0:0:
358,192,59390,1,0,0:0:0:0:
153,192,59390,1,0,0:0:0:0:
256,192,59765,1,0,0:0:0:0:
460,192,60140,1,0,0:0:0:0:
51,192,60140,1,0,0:0:0:0:
256,192,60515,1,0,0:0:0:0:
460,192,60890,1,0,0:0:0:0:
358,192,60890,1,0,0:0:0:0:
153,192,61265,1,0,0:0:0:0:
51,192,61640,1,0,0:0:0:0:
358,192,61640,1,0,0:0:0:0:
256,192,62015,1,0,0:0:0:0:
153,192,62390,1,0,0:0:0:0:
460,192,62390,1,0,0:0:0:0:
153,192,62952,1,0,0:0:0:0:
256,192,63140,1,0,0:0:0:0:
460,192,63515,1,0,0:0:0:0:
51,192,63890,1,0,0:0:0:0:
358,192,63890,1,0,0:0:0:0:
256,192,64265,1,0,0:0:0:0:
460,192,64640,1,0,0:0:0:0:
153,192,64640,1,0,0:0:0:0:
51,192,65015,1,0,0:0:0:0:
460,192,65202,1,0,0:0:0:0:
358,192,65390,1,0,0:0:0:0:
153,192,65390,1,0,0:0:0:0:
153,192,65952,1,0,0:0:0:0:
51,192,66515,1,0,0:0:0:0:
460,192,66890,1,0,0:0:0:0:
358,192,66890,1,0,0:0:0:0:
256,192,67265,1,0,0:0:0:0:
51,192,67640,1,0,0:0:0:0:
153,192,67640,1,0,0:0:0:0:
256,192,68015,1,0,0:0:0:0:
358,192,68390,1,0,0:0:0:0:
460,192,68390,1,0,0:0:0:0:
358,192,68952,1,0,0:0:0:0:
460,192,69515,1,0,0:0:0:0:
51,192,70890,1,0,0:0:0:0:
153,192,70890,128,0,72747:0:0:0:0:
460,192,72747,1,0,0:0:0:0:
358,192,72747,128,0,73619:0:0:0:0:
256,192,73619,128,0,74369:0:0:0:0:
51,192,73619,1,0,0:0:0:0:
153,192,74369,128,0,74744:0:0:0:0:
51,192,74744,128,0,75119:0:0:0:0:
460,192,75119,128,0,75494:0:0:0:0:
358,192,75494,128,0,75869:0:0:0:0:
460,192,75869,128,0,76244:0:0:0:0:
153,192,75869,1,0,0:0:0:0:
256,192,76244,128,0,76619:0:0:0:0:
51,192,76619,128,0,77369:0:0:0:0:
358,192,76619,1,0,0:0:0:0:
460,192,77369,128,0,78119:0:0:0:0:
153,192,78119,128,0,78869:0:0:0:0:
51,192,78119,1,0,0:0:0:0:
358,192,78869,128,0,79619:0:0:0:0:
460,192,78869,1,0,0:0:0:0:
256,192,79619,128,0,80369:0:0:0:0:
51,192,79619,1,0,0:0:0:0:
153,192,80369,128,0,80744:0:0:0:0:
358,192,80744,128,0,81119:0:0:0:0:
460,192,81119,128,0,81494:0:0:0:0:
256,192,81119,1,0,0:0:0:0:
51,192,81494,128,0,81869:0:0:0:0:
153,192,81869,128,0,82244:0:0:0:0:
358,192,81869,1,0,0:0:0:0:
256,192,82244,128,0,82619:0:0:0:0:
460,192,82619,1,0,0:0:0:0:
358,192,82619,1,0,0:0:0:0:
358,192,83369,1,0,0:0:0:0:
256,192,83369,1,0,0:0:0:0:
256,192,84119,1,0,0:0:0:0:
153,192,84119,1,0,0:0:0:0:
51,192,84869,1,0,0:0:0:0:
153,192,84869,1,0,0:0:0:0:
460,192,85619,128,0,86369:0:0:0:0:
51,192,85619,1,0,0:0:0:0:
256,192,86369,128,0,86744:0:0:0:0:
51,192,86744,128,0,87119:0:0:0:0:
153,192,87119,1,0,0:0:0:0:
460,192,87119,128,0,87494:0:0:0:0:
256,192,87494,128,0,87869:0:0:0:0:
358,192,87869,1,0,0:0:0:0:
51,192,87869,128,0,88244:0:0:0:0:
460,192,88244,128,0,88619:0:0:0:0:
256,192,88619,1,0,0:0:0:0:
51,192,88619,1,0,0:0:0:0:
256,192,89369,1,0,0:0:0:0:
460,192,89369,1,0,0:0:0:0:
51,192,90119,1,0,0:0:0:0:
153,192,90119,1,0,0:0:0:0:
460,192,90869,1,0,0:0:0:0:
358,192,90869,1,0,0:0:0:0:
51,192,91619,128,0,92369:0:0:0:0:
256,192,91619,1,0,0:0:0:0:
460,192,92369,128,0,92744:0:0:0:0:
358,192,92744,128,0,93119:0:0:0:0:
153,192,92744,1,0,0:0:0:0:
256,192,93119,128,0,93494:0:0:0:0:
153,192,93494,128,0,93869:0:0:0:0:
51,192,93869,128,0,94244:0:0:0:0:
460,192,94244,128,0,94619:0:0:0:0:
460,192,95369,128,0,96119:0:0:0:0:
51,192,95369,1,0,0:0:0:0:
51,192,96119,128,0,96494:0:0:0:0:
153,192,96494,128,0,96869:0:0:0:0:
358,192,96869,128,0,97244:0:0:0:0:
460,192,97244,128,0,97619:0:0:0:0:
51,192,97619,128,0,97994:0:0:0:0:
256,192,97619,1,0,0:0:0:0:
460,192,97994,1,0,0:0:0:0:
358,192,98369,1,0,0:0:0:0:
51,192,98744,1,0,0:0:0:0:
153,192,99119,1,0,0:0:0:0:
153,192,99681,1,0,0:0:0:0:
460,192,100244,1,0,0:0:0:0:
358,192,100619,128,0,100994:0:0:0:0:
51,192,100619,1,0,0:0:0:0:
153,192,100994,1,0,0:0:0:0:
460,192,101369,1,0,0:0:0:0:
153,192,101744,1,0,0:0:0:0:
256,192,102119,1,0,0:0:0:0:
256,192,102681,1,0,0:0:0:0:
460,192,103244,1,0,0:0:0:0:
153,192,103619,128,0,103994:0:0:0:0:
256,192,103619,1,0,0:0:0:0:
460,192,103994,1,0,0:0:0:0:
358,192,104369,1,0,0:0:0:0:
51,192,104744,1,0,0:0:0:0:
153,192,105119,1,0,0:0:0:0:
153,192,105681,1,0,0:0:0:0:
256,192,106244,1,0,0:0:0:0:
460,192,106619,128,0,106994:0:0:0:0:
51,192,106619,1,0,0:0:0:0:
358,192,106994,1,0,0:0:0:0:
153,192,107369,1,0,0:0:0:0:
460,192,107744,1,0,0:0:0:0:
256,192,108119,1,0,0:0:0:0:
51,192,108681,1,0,0:0:0:0:
51,192,109619,128,0,109994:0:0:0:0:
256,192,109619,1,0,0:0:0:0:
460,192,109994,1,0,0:0:0:0:
358,192,110369,1,0,0:0:0:0:
153,192,110744,1,0,0:0:0:0:
256,192,111119,1,0,0:0:0:0:
256,192,111681,1,0,0:0:0:0:
460,192,112244,1,0,0:0:0:0:
358,192,112619,128,0,112994:0:0:0:0:
51,192,112994,1,0,0:0:0:0:
460,192,113369,1,0,0:0:0:0:
51,192,113744,1,0,0:0:0:0:
256,192,114119,1,0,0:0:0:0:
256,192,114681,1,0,0:0:0:0:
358,192,115244,1,0,0:0:0:0:
153,192,115619,128,0,115994:0:0:0:0:
460,192,115619,1,0,0:0:0:0:
51,192,115994,1,0,0:0:0:0:
358,192,116369,1,0,0:0:0:0:
153,192,116744,1,0,0:0:0:0:
256,192,117119,1,0,0:0:0:0:
256,192,117681,1,0,0:0:0:0:
358,192,118244,1,0,0:0:0:0:
460,192,118619,128,0,118994:0:0:0:0:
51,192,118994,1,0,0:0:0:0:
153,192,119369,1,0,0:0:0:0:
460,192,119744,1,0,0:0:0:0:
358,192,120119,1,0,0:0:0:0:
256,192,120681,1,0,0:0:0:0:
