osu file format v14

[General]
AudioFilename: audio.mp3
AudioLeadIn: 0
PreviewTime: 73619
Countdown: 0
SampleSet: Soft
StackLeniency: 0.7
Mode: 3
LetterboxInBreaks: 0
SpecialStyle: 0
WidescreenStoryboard: 1

[Editor]
DistanceSpacing: 1.1
BeatDivisor: 4
GridSize: 32
TimelineZoom: 1.5

[Metadata]
Title:Dreamer.
TitleUnicode:Dreamer.
Artist:AAAA
ArtistUnicode:ああああ
Creator:Carpihat
Version:Advanced.
Source:UNDERTALE
Tags:precious memory umeboshi chazuke 梅干茶漬け toby fox his theme bms mettatunes ricora asriel chara video game instrumental piano
BeatmapID:4339590
BeatmapSetID:2072888

[Difficulty]
HPDrainRate:6.5
CircleSize:5
OverallDifficulty:6.2
ApproachRate:5
SliderMultiplier:1.4
SliderTickRate:1

[Events]
//Background and Video events
0,0,"dreemurr.jpg",0,0
//Break Periods
//Storyboard Layer 0 (Background)
//Storyboard Layer 1 (Fail)
//Storyboard Layer 2 (Pass)
//Storyboard Layer 3 (Foreground)
//Storyboard Layer 4 (Overlay)
//Storyboard Sound Samples

[TimingPoints]
890,750,4,2,1,10,1,0
69890,1000,4,2,1,10,1,0
69890,-75.187969924812,4,2,1,10,0,0
71890,857.142857142857,4,2,1,10,1,0
71890,-87.719298245614,4,2,1,10,0,0
73619,750,4,2,1,20,1,1
94619,-100,4,2,1,20,0,0
95369,-100,4,2,1,20,0,1
97619,-100,4,2,1,10,0,0

[HitObjects]
256,192,890,128,0,1265:0:0:0:0:
51,192,890,128,0,1265:0:0:0:0:
460,192,1265,128,0,1640:0:0:0:0:
358,192,1640,128,0,2015:0:0:0:0:
153,192,2015,128,0,2390:0:0:0:0:
358,192,2390,128,0,2765:0:0:0:0:
358,192,2952,1,0,0:0:0:0:
460,192,3515,128,0,3890:0:0:0:0:
51,192,3890,128,0,4265:0:0:0:0:
256,192,4265,128,0,4640:0:0:0:0:
460,192,4640,128,0,5015:0:0:0:0:
256,192,5015,128,0,5390:0:0:0:0:
358,192,5390,128,0,5765:0:0:0:0:
358,192,5952,1,0,0:0:0:0:
460,192,6515,128,0,6890:0:0:0:0:
51,192,6890,128,0,7265:0:0:0:0:
256,192,6890,128,0,7265:0:0:0:0:
460,192,7265,128,0,7640:0:0:0:0:
358,192,7640,128,0,8015:0:0:0:0:
51,192,8015,128,0,8390:0:0:0:0:
153,192,8390,128,0,8765:0:0:0:0:
153,192,8952,1,0,0:0:0:0:
460,192,9515,128,0,9890:0:0:0:0:
256,192,9890,128,0,10265:0:0:0:0:
51,192,10265,128,0,10640:0:0:0:0:
153,192,10640,128,0,11015:0:0:0:0:
460,192,11015,128,0,11390:0:0:0:0:
358,192,11390,128,0,11765:0:0:0:0:
256,192,11952,128,0,12515:0:0:0:0:
460,192,12515,128,0,12890:0:0:0:0:
51,192,12890,128,0,14390:0:0:0:0:
153,192,12890,128,0,13265:0:0:0:0:
460,192,13265,128,0,13640:0:0:0:0:
358,192,13640,128,0,14015:0:0:0:0:
256,192,14015,128,0,14390:0:0:0:0:
153,192,14390,128,0,14765:0:0:0:0:
153,192,14952,1,0,0:0:0:0:
358,192,15515,128,0,15890:0:0:0:0:
51,192,15890,128,0,16265:0:0:0:0:
256,192,16265,128,0,16640:0:0:0:0:
460,192,16640,128,0,17015:0:0:0:0:
256,192,17015,128,0,17390:0:0:0:0:
358,192,17390,128,0,17765:0:0:0:0:
358,192,17952,1,0,0:0:0:0:
460,192,18515,128,0,18890:0:0:0:0:
358,192,18890,128,0,20390:0:0:0:0:
51,192,18890,128,0,19265:0:0:0:0:
153,192,19265,128,0,19640:0:0:0:0:
460,192,19640,128,0,20015:0:0:0:0:
256,192,20015,128,0,20390:0:0:0:0:
51,192,20390,128,0,20765:0:0:0:0:
51,192,20952,1,0,0:0:0:0:
460,192,21515,128,0,21890:0:0:0:0:
256,192,21890,128,0,22265:0:0:0:0:
51,192,22265,128,0,22640:0:0:0:0:
153,192,22640,128,0,23015:0:0:0:0:
460,192,23015,128,0,23390:0:0:0:0:
358,192,23390,128,0,23765:0:0:0:0:
153,192,23952,128,0,24515:0:0:0:0:
51,192,24890,128,0,25265:0:0:0:0:
153,192,24890,128,0,25265:0:0:0:0:
256,192,25265,128,0,25640:0:0:0:0:
358,192,25640,128,0,26015:0:0:0:0:
460,192,25640,128,0,26015:0:0:0:0:
51,192,26015,128,0,26390:0:0:0:0:
153,192,26390,128,0,26765:0:0:0:0:
358,192,26390,128,0,26765:0:0:0:0:
358,192,26952,1,0,0:0:0:0:
51,192,27140,128,0,27515:0:0:0:0:
460,192,27515,128,0,27890:0:0:0:0:
256,192,27890,128,0,28265:0:0:0:0:
153,192,28265,128,0,28640:0:0:0:0:
460,192,28640,128,0,29015:0:0:0:0:
358,192,28640,128,0,29015:0:0:0:0:
153,192,29015,128,0,29390:0:0:0:0:
358,192,29390,128,0,29765:0:0:0:0:
51,192,29390,128,0,29765:0:0:0:0:
51,192,29952,1,0,0:0:0:0:
460,192,30140,128,0,30515:0:0:0:0:
358,192,30515,128,0,30890:0:0:0:0:
51,192,30890,128,0,31265:0:0:0:0:
153,192,30890,128,0,31265:0:0:0:0:
256,192,31265,128,0,31640:0:0:0:0:
358,192,31640,128,0,32015:0:0:0:0:
460,192,31640,128,0,32015:0:0:0:0:
51,192,32015,128,0,32390:0:0:0:0:
153,192,32390,128,0,32765:0:0:0:0:
358,192,32390,128,0,32765:0:0:0:0:
358,192,32952,1,0,0:0:0:0:
51,192,33140,128,0,33515:0:0:0:0:
460,192,33515,128,0,33890:0:0:0:0:
51,192,33890,128,0,34265:0:0:0:0:
256,192,34265,128,0,34640:0:0:0:0:
153,192,34640,128,0,35015:0:0:0:0:
460,192,34640,1,0,0:0:0:0:
358,192,35015,128,0,35390:0:0:0:0:
51,192,35390,128,0,35765:0:0:0:0:
460,192,35390,128,0,35765:0:0:0:0:
153,192,35952,1,0,0:0:0:0:
358,192,36140,128,0,36515:0:0:0:0:
256,192,36515,128,0,36890:0:0:0:0:
51,192,36890,128,0,37265:0:0:0:0:
358,192,36890,128,0,37640:0:0:0:0:
153,192,37265,1,0,0:0:0:0:
256,192,37640,128,0,38390:0:0:0:0:
460,192,37640,128,0,38015:0:0:0:0:
51,192,38015,1,0,0:0:0:0:
153,192,38390,128,0,39140:0:0:0:0:
358,192,38390,128,0,38765:0:0:0:0:
358,192,38952,1,0,0:0:0:0:
51,192,39140,128,0,39515:0:0:0:0:
460,192,39515,1,0,0:0:0:0:
153,192,39890,128,0,40640:0:0:0:0:
256,192,40265,1,0,0:0:0:0:
460,192,40640,128,0,41015:0:0:0:0:
358,192,40640,128,0,41015:0:0:0:0:
51,192,41015,1,0,0:0:0:0:
358,192,41390,128,0,42140:0:0:0:0:
153,192,41390,128,0,41765:0:0:0:0:
153,192,41952,1,0,0:0:0:0:
460,192,42140,128,0,42515:0:0:0:0:
256,192,42515,1,0,0:0:0:0:
51,192,42890,128,0,43640:0:0:0:0:
153,192,42890,128,0,43265:0:0:0:0:
256,192,43265,1,0,0:0:0:0:
358,192,43640,128,0,44015:0:0:0:0:
460,192,43640,128,0,44015:0:0:0:0:
153,192,44015,1,0,0:0:0:0:
51,192,44390,128,0,44765:0:0:0:0:
460,192,44390,128,0,45140:0:0:0:0:
51,192,44952,1,0,0:0:0:0:
256,192,45140,128,0,45515:0:0:0:0:
460,192,45515,1,0,0:0:0:0:
51,192,45890,128,0,46640:0:0:0:0:
256,192,46265,1,0,0:0:0:0:
153,192,46640,128,0,47015:0:0:0:0:
460,192,46640,1,0,0:0:0:0:
358,192,47015,1,0,0:0:0:0:
51,192,47390,128,0,47765:0:0:0:0:
460,192,47390,128,0,47765:0:0:0:0:
256,192,47952,1,0,0:0:0:0:
256,192,48890,128,0,49640:0:0:0:0:
51,192,48890,128,0,49640:0:0:0:0:
460,192,49640,128,0,50015:0:0:0:0:
358,192,50015,128,0,50390:0:0:0:0:
256,192,50390,128,0,50765:0:0:0:0:
153,192,50765,128,0,51140:0:0:0:0:
51,192,51140,128,0,51515:0:0:0:0:
153,192,51515,128,0,51890:0:0:0:0:
256,192,51890,128,0,52640:0:0:0:0:
460,192,51890,128,0,52640:0:0:0:0:
358,192,52640,128,0,53202:0:0:0:0:
153,192,53202,128,0,53390:0:0:0:0:
51,192,53390,128,0,54515:0:0:0:0:
256,192,54890,128,0,55640:0:0:0:0:
153,192,54890,128,0,55640:0:0:0:0:
460,192,55640,128,0,56015:0:0:0:0:
358,192,56015,128,0,56390:0:0:0:0:
256,192,56390,128,0,56765:0:0:0:0:
51,192,56765,128,0,57140:0:0:0:0:
256,192,57140,128,0,57515:0:0:0:0:
460,192,57515,128,0,57890:0:0:0:0:
153,192,57890,128,0,58640:0:0:0:0:
358,192,57890,128,0,58640:0:0:0:0:
51,192,58640,128,0,59202:0:0:0:0:
51,192,59390,128,0,59765:0:0:0:0:
460,192,59390,1,0,0:0:0:0:
256,192,59765,128,0,60140:0:0:0:0:
153,192,60140,128,0,60515:0:0:0:0:
358,192,60140,1,0,0:0:0:0:
256,192,60515,128,0,60890:0:0:0:0:
460,192,60890,128,0,61265:0:0:0:0:
51,192,60890,1,0,0:0:0:0:
153,192,61265,1,0,0:0:0:0:
256,192,61640,128,0,62015:0:0:0:0:
358,192,61640,1,0,0:0:0:0:
153,192,62015,128,0,62390:0:0:0:0:
460,192,62390,128,0,62765:0:0:0:0:
51,192,62390,1,0,0:0:0:0:
358,192,62765,128,0,63140:0:0:0:0:
51,192,62952,1,0,0:0:0:0:
153,192,63140,128,0,63515:0:0:0:0:
358,192,63515,128,0,63890:0:0:0:0:
51,192,63890,128,0,64265:0:0:0:0:
153,192,63890,1,0,0:0:0:0:
358,192,64265,1,0,0:0:0:0:
256,192,64640,128,0,65015:0:0:0:0:
460,192,64640,1,0,0:0:0:0:
51,192,65015,1,0,0:0:0:0:
460,192,65202,128,0,65390:0:0:0:0:
358,192,65390,128,0,66890:0:0:0:0:
153,192,65390,128,0,65765:0:0:0:0:
153,192,65952,1,0,0:0:0:0:
256,192,66515,128,0,66890:0:0:0:0:
460,192,66890,128,0,67265:0:0:0:0:
51,192,66890,1,0,0:0:0:0:
153,192,67265,1,0,0:0:0:0:
256,192,67640,128,0,68015:0:0:0:0:
51,192,67640,1,0,0:0:0:0:
358,192,68015,128,0,68390:0:0:0:0:
51,192,68390,128,0,68765:0:0:0:0:
460,192,68390,1,0,0:0:0:0:
153,192,68765,128,0,69140:0:0:0:0:
460,192,68952,1,0,0:0:0:0:
358,192,69140,128,0,69515:0:0:0:0:
153,192,69515,128,0,69890:0:0:0:0:
256,192,70890,128,0,72747:0:0:0:0:
51,192,70890,128,0,72747:0:0:0:0:
358,192,72747,128,0,73619:0:0:0:0:
153,192,72747,128,0,73619:0:0:0:0:
256,192,73619,128,0,73994:0:0:0:0:
460,192,73619,128,0,74369:0:0:0:0:
358,192,74369,128,0,74744:0:0:0:0:
256,192,74744,128,0,75119:0:0:0:0:
153,192,75119,128,0,75494:0:0:0:0:
51,192,75494,128,0,75869:0:0:0:0:
460,192,75869,128,0,76244:0:0:0:0:
256,192,75869,128,0,76244:0:0:0:0:
51,192,76244,128,0,76619:0:0:0:0:
153,192,76619,128,0,77369:0:0:0:0:
358,192,76619,128,0,76994:0:0:0:0:
358,192,77369,128,0,77931:0:0:0:0:
51,192,77369,128,0,77744:0:0:0:0:
460,192,77931,128,0,78119:0:0:0:0:
153,192,78119,128,0,78869:0:0:0:0:
51,192,78119,128,0,78869:0:0:0:0:
358,192,78869,128,0,79619:0:0:0:0:
460,192,78869,128,0,79619:0:0:0:0:
153,192,79619,128,0,80369:0:0:0:0:
51,192,79619,128,0,79994:0:0:0:0:
358,192,80369,128,0,80744:0:0:0:0:
51,192,80744,128,0,81119:0:0:0:0:
460,192,81119,128,0,81494:0:0:0:0:
256,192,81119,128,0,81494:0:0:0:0:
153,192,81494,128,0,81869:0:0:0:0:
51,192,81869,128,0,82244:0:0:0:0:
256,192,81869,128,0,82244:0:0:0:0:
358,192,82244,128,0,82619:0:0:0:0:
153,192,82619,128,0,82994:0:0:0:0:
460,192,82619,128,0,83369:0:0:0:0:
51,192,83369,128,0,83744:0:0:0:0:
358,192,83369,128,0,84119:0:0:0:0:
153,192,84119,128,0,84869:0:0:0:0:
460,192,84119,128,0,84494:0:0:0:0:
51,192,84869,128,0,85619:0:0:0:0:
358,192,84869,128,0,85244:0:0:0:0:
256,192,85619,128,0,85994:0:0:0:0:
153,192,85619,128,0,86369:0:0:0:0:
460,192,86369,128,0,86744:0:0:0:0:
256,192,86744,128,0,87119:0:0:0:0:
153,192,87119,128,0,87494:0:0:0:0:
358,192,87119,128,0,87494:0:0:0:0:
51,192,87494,128,0,87869:0:0:0:0:
460,192,87869,128,0,88244:0:0:0:0:
256,192,87869,128,0,88244:0:0:0:0:
153,192,88244,128,0,88619:0:0:0:0:
51,192,88619,128,0,88994:0:0:0:0:
358,192,88619,128,0,89369:0:0:0:0:
460,192,89369,128,0,89931:0:0:0:0:
153,192,89369,128,0,89744:0:0:0:0:
256,192,89931,128,0,90119:0:0:0:0:
153,192,90119,128,0,90869:0:0:0:0:
51,192,90119,128,0,90869:0:0:0:0:
358,192,90869,128,0,91619:0:0:0:0:
460,192,90869,128,0,91619:0:0:0:0:
51,192,91619,128,0,92369:0:0:0:0:
256,192,91619,128,0,91994:0:0:0:0:
460,192,92369,128,0,92744:0:0:0:0:
153,192,92744,128,0,93119:0:0:0:0:
358,192,92744,128,0,93119:0:0:0:0:
256,192,93119,128,0,93494:0:0:0:0:
153,192,93494,128,0,93869:0:0:0:0:
51,192,93869,128,0,94244:0:0:0:0:
358,192,94244,128,0,94619:0:0:0:0:
460,192,95369,128,0,96119:0:0:0:0:
256,192,95369,128,0,97619:0:0:0:0:
51,192,96119,128,0,96494:0:0:0:0:
153,192,96494,128,0,96869:0:0:0:0:
358,192,96869,128,0,97244:0:0:0:0:
460,192,97244,128,0,97619:0:0:0:0:
153,192,97619,128,0,97994:0:0:0:0:
51,192,97619,128,0,97994:0:0:0:0:
460,192,97994,128,0,98369:0:0:0:0:
153,192,98369,1,0,0:0:0:0:
358,192,98369,128,0,98744:0:0:0:0:
51,192,98744,128,0,99119:0:0:0:0:
460,192,99119,1,0,0:0:0:0:
358,192,99119,128,0,99494:0:0:0:0:
358,192,99681,1,0,0:0:0:0:
460,192,100244,128,0,100619:0:0:0:0:
51,192,100619,128,0,100994:0:0:0:0:
256,192,100619,128,0,100994:0:0:0:0:
153,192,100994,128,0,101369:0:0:0:0:
460,192,101369,1,0,0:0:0:0:
358,192,101369,128,0,101744:0:0:0:0:
153,192,101744,128,0,102119:0:0:0:0:
358,192,102119,1,0,0:0:0:0:
256,192,102119,128,0,102494:0:0:0:0:
256,192,102681,1,0,0:0:0:0:
460,192,103244,128,0,103619:0:0:0:0:
358,192,103619,128,0,103994:0:0:0:0:
153,192,103619,128,0,103994:0:0:0:0:
256,192,103994,128,0,104369:0:0:0:0:
51,192,104369,1,0,0:0:0:0:
460,192,104369,128,0,104744:0:0:0:0:
153,192,104744,128,0,105119:0:0:0:0:
358,192,105119,1,0,0:0:0:0:
51,192,105119,128,0,105494:0:0:0:0:
51,192,105681,1,0,0:0:0:0:
460,192,105869,1,0,0:0:0:0:
153,192,106244,128,0,106619:0:0:0:0:
460,192,106619,128,0,106994:0:0:0:0:
358,192,106619,128,0,106994:0:0:0:0:
153,192,106994,128,0,107369:0:0:0:0:
358,192,107369,1,0,0:0:0:0:
256,192,107369,128,0,107744:0:0:0:0:
51,192,107744,128,0,108119:0:0:0:0:
256,192,108119,1,0,0:0:0:0:
153,192,108119,128,0,108494:0:0:0:0:
460,192,108681,128,0,109056:0:0:0:0:
51,192,109619,128,0,109994:0:0:0:0:
256,192,109619,128,0,109994:0:0:0:0:
460,192,109994,128,0,110369:0:0:0:0:
358,192,110369,128,0,110744:0:0:0:0:
153,192,110744,128,0,111119:0:0:0:0:
358,192,111119,128,0,111494:0:0:0:0:
358,192,111681,1,0,0:0:0:0:
460,192,112244,128,0,112619:0:0:0:0:
153,192,112619,128,0,112994:0:0:0:0:
51,192,112994,128,0,113369:0:0:0:0:
358,192,113369,128,0,113744:0:0:0:0:
51,192,113744,128,0,114119:0:0:0:0:
256,192,114119,128,0,114494:0:0:0:0:
256,192,114681,1,0,0:0:0:0:
460,192,115244,128,0,115619:0:0:0:0:
51,192,115619,128,0,115994:0:0:0:0:
256,192,115619,128,0,115994:0:0:0:0:
460,192,115994,128,0,116369:0:0:0:0:
358,192,116369,128,0,116744:0:0:0:0:
153,192,116744,128,0,117119:0:0:0:0:
358,192,117119,128,0,117494:0:0:0:0:
358,192,117681,1,0,0:0:0:0:
460,192,118244,128,0,118619:0:0:0:0:
358,192,118619,128,0,118994:0:0:0:0:
51,192,118994,128,0,119369:0:0:0:0:
153,192,119369,128,0,119744:0:0:0:0:
460,192,119744,128,0,120119:0:0:0:0:
256,192,120119,128,0,120681:0:0:0:0:
51,192,120681,128,0,121619:0:0:0:0:
