osu file format v14

[General]
AudioFilename: audio.mp3
AudioLeadIn: 0
PreviewTime: 257331
Countdown: 0
SampleSet: Soft
StackLeniency: 0.7
Mode: 0
LetterboxInBreaks: 0
WidescreenStoryboard: 0

[Editor]
DistanceSpacing: 1.1
BeatDivisor: 4
GridSize: 8
TimelineZoom: 2.699999

[Metadata]
Title:Bokutachi no Tabi to Epilogue.[Long ver.]
TitleUnicode:僕たちの旅とエピローグ。[Long ver.]
Artist:AAAA
ArtistUnicode:ああああ
Creator:Battle
Version:Conclusion
Source:BMS
Tags:Our Journey And Epilogue Groundbreaking -G2R2014 Compilation Album- 8-bit 8 bit chiptune
BeatmapID:908800
BeatmapSetID:420016

[Difficulty]
HPDrainRate:7
CircleSize:4
OverallDifficulty:8.3
ApproachRate:9
SliderMultiplier:2
SliderTickRate:1

[Events]
//Background and Video events
0,0,"bg.png",0,0
//Break Periods
2,45431,48445
//Storyboard Layer 0 (Background)
//Storyboard Layer 1 (Fail)
//Storyboard Layer 2 (Pass)
//Storyboard Layer 3 (Foreground)
//Storyboard Sound Samples

[TimingPoints]
0.95,-100,4,2,1,30,0,0
324,387.0343492985,4,2,1,30,1,0
1485,-166.666666666667,4,2,1,30,0,0
25868,580.647034345272,4,2,1,30,1,0
25868,-111.111111111111,4,2,1,30,0,0
28190,387.0343492985,3,2,1,30,1,0
28190,-166.666666666667,3,2,1,30,0,0
37479,410.958904109589,3,2,1,30,1,0
37479,-142.857142857143,3,2,1,30,0,0
38061,-100,4,2,1,10,0,0
39810,774.943493703584,4,2,1,30,1,0
39944,983.606557377049,3,2,1,30,1,0
40927,810.810810810811,3,2,1,30,1,8
42008,1153.84615384615,3,2,1,30,1,8
42392,1552.39327296248,3,2,1,30,1,8
42909,917.090909090911,4,2,1,30,1,0
50245,459.770114942529,4,2,1,60,1,0
50245,-66.6666666666667,4,2,1,60,0,0
57602,306.544729985184,3,2,1,60,1,0
61280,461.538461538462,4,2,1,30,1,0
61280,-111.111111111111,3,2,1,30,0,0
62203,492.610837438424,4,2,1,30,1,8
63188,521.739130434783,4,2,1,30,1,0
64231,640,4,2,1,30,1,8
65351,-100,3,2,1,5,0,0
65511,327.863477647907,4,2,1,30,1,0
65511,-83.3333333333333,4,2,1,30,0,0
86494,-125,4,2,1,40,0,0
107477,-125,4,2,1,50,0,0
128132,-83.3333333333333,4,2,1,50,0,0
128460,-100,4,2,1,50,0,0
133706,339.212000000003,4,2,1,45,1,0
133706,-117.647058823529,4,2,1,45,0,0
135062,350.558300000002,4,2,1,45,1,0
135062,-117.647058823529,4,2,1,45,0,0
136464,379.070200000001,4,2,1,45,1,0
137980,407.884300000001,4,2,1,45,1,0
139611,442.8004,4,2,1,40,1,0
141382,446.0393,4,2,1,40,1,0
143166,443.5344,4,2,1,40,1,0
144940,445.7675,4,2,1,40,1,0
146723,443.4074,4,2,1,40,1,0
148496,444.183999999999,4,2,1,40,1,0
150272,461.0999,4,2,1,40,1,0
152116,461.0341,4,2,1,40,1,0
152116,-166.666666666667,4,2,1,40,0,0
153960,463.7749,4,2,1,40,1,0
153960,-166.666666666667,4,2,1,40,0,0
155815,460.8153,4,2,1,40,1,0
155815,-166.666666666667,4,2,1,40,0,0
157658,461.5362,4,2,1,40,1,0
157658,-166.666666666667,4,2,1,40,0,0
159504,460.7658,4,2,1,40,1,0
159504,-133.333333333333,4,2,1,40,0,0
161347,460.5839,4,2,1,40,1,0
163189,462.9486,4,2,1,40,1,0
163189,-133.333333333333,4,2,1,40,0,0
165040,463.338,4,2,1,40,1,0
165040,-133.333333333333,4,2,1,40,0,0
166893,460.325,4,2,1,40,1,0
166893,-133.333333333333,4,2,1,40,0,0
168734,462.4028,4,2,1,40,1,0
168734,-105.263157894737,4,2,1,40,0,0
170583,459.5447,4,2,1,40,1,0
171272,-133.333333333333,4,2,1,40,0,0
172421,462.3072,4,2,1,40,1,0
172421,-133.333333333333,4,2,1,40,0,0
174270,459.3071,4,2,1,40,1,0
174270,-133.333333333333,4,2,1,40,0,0
176107,464.3747,4,2,1,40,1,0
176107,-133.333333333333,4,2,1,40,0,0
177964,461.8207,4,2,1,40,1,0
177964,-133.333333333333,4,2,1,40,0,0
179811,461.2475,4,2,1,40,1,0
179811,-133.333333333333,4,2,1,40,0,0
181655,462.3072,4,2,1,40,1,0
181655,-133.333333333333,4,2,1,40,0,0
183504,459.7609,4,2,1,40,1,0
183504,-133.333333333333,4,2,1,40,0,0
185343,462.6524,4,2,1,40,1,0
185343,-133.333333333333,4,2,1,40,0,0
187193,492.610837438424,4,2,1,40,1,0
187193,-200,4,2,1,40,0,0
188178,601.202404809619,4,2,1,40,1,0
188178,-166.666666666667,4,2,1,40,0,0
189380,375.530200000001,4,2,1,40,1,0
190882,372.5506,4,2,1,40,1,0
192372,365.938200000001,4,2,1,40,1,0
193835,362.0984,4,2,1,40,1,0
195283,352.3141,4,2,1,40,1,0
196692,355.5833,4,2,1,40,1,0
198114,346.253500000001,4,2,1,40,1,0
199499,348.2665,4,2,1,40,1,0
200892,343.839541547278,4,2,1,50,1,0
202267,337.078651685393,4,2,1,50,1,0
203615,334.261838440111,4,2,1,50,1,0
204952,332.409972299169,4,2,1,50,1,0
206281,329.760923330585,4,2,1,50,1,0
207600,326.975476839237,4,2,1,50,1,0
208907,328.767123287671,4,2,1,50,1,0
210222,327.958458595245,4,2,1,50,1,0
211532,327.788248791281,4,2,1,50,1,0
211532,-125,4,2,1,50,0,0
231199,354.0906,4,2,1,40,1,0
232615,375.953983232452,4,2,1,40,1,0
232615,-105.263157894737,4,2,1,40,0,0
235622,374.340225352816,4,2,1,40,1,0
235622,-105.263157894737,4,2,1,40,0,0
238616,363.764232275588,4,2,1,40,1,0
238616,-105.263157894737,4,2,1,40,0,0
241526,363.636363636364,4,2,1,40,1,0
241526,-105.263157894737,4,2,1,40,0,0
244435,366.506218388839,4,2,1,40,1,0
244435,-105.263157894737,4,2,1,40,0,0
247367,360.308424010953,4,2,1,40,1,0
247367,-105.263157894737,4,2,1,40,0,0
250249,352.526439482961,4,2,1,30,1,0
250249,-200,4,2,1,30,0,0
253069,352.941176470588,4,2,1,30,1,0
253069,-200,4,2,1,30,0,0
255892,348.837209302326,4,2,1,40,1,0
256589,371.287128712871,4,2,1,40,1,8
257331,417.392782760232,3,2,1,40,1,0
257331,-200,3,2,1,40,0,0
257748,392.8,3,2,1,40,1,0
257944,345.324752962689,3,2,1,40,1,0
258116,392.799999999999,3,2,1,40,1,0
258116,-200,3,2,1,40,0,0
258312,-200,3,2,1,40,0,0
258509,391.5,3,2,1,40,1,0
258509,-200,3,2,1,40,0,0
259683,397.6,3,2,1,40,1,0
259683,-200,3,2,1,40,0,0
259981,-200,3,2,1,5,0,0
260080,-200,3,2,1,40,0,0
260875,402.4,3,2,1,40,1,0
260875,-200,3,2,1,40,0,0
262082,421,3,2,1,40,1,0
262082,-200,3,2,1,40,0,0
262187,386.100386100386,3,2,1,40,1,0
262187,-200,3,2,1,40,0,0
262476,474.683544303797,3,2,1,40,1,0
262476,-200,3,2,1,40,0,0
262950,394.736842105263,3,2,1,40,1,0
263345,422.832980972516,3,2,1,40,1,0
263345,-200,3,2,1,40,0,0
263767,374.531835205993,3,2,1,40,1,0
264141,398.4,3,2,1,40,1,0
264539,396.8,3,2,1,40,1,0
264539,-200,3,2,1,40,0,0
265729,390.9,3,2,1,40,1,0
265729,-200,3,2,1,40,0,0
266022,-200,3,2,1,5,0,0
266119,417.246175243394,3,2,1,40,1,0
266119,-200,3,2,1,40,0,0
266536,366.300366300366,3,2,1,40,1,0
266536,-200,3,2,1,40,0,0
266902,408,3,2,1,40,1,0
266902,-200,3,2,1,40,0,0
268126,392.156862745098,3,2,1,40,1,0
268126,-200,3,2,1,40,0,0
268518,443.786982248521,3,2,1,40,1,0
268518,-200,3,2,1,40,0,0
268961,475.435816164818,3,2,1,40,1,0
268961,-200,3,2,1,40,0,0
269198,367.647058823529,3,2,1,40,1,0
269381,427.960057061341,3,2,1,40,1,0
269381,-200,3,2,1,40,0,0
269809,508.474576271186,3,2,1,40,1,8
270317,464.2166344294,3,2,1,40,1,8
270781,625,4,2,1,40,1,0
270781,-200,3,2,1,40,0,0
270937,485.044462409054,3,2,1,40,1,0
271027,-200,3,2,1,5,0,0
271906,-200,3,2,1,40,0,0
272119,331.034482758621,4,2,1,40,1,0
272781,315.3471,4,2,1,60,1,0
274042,316.2576,4,2,1,40,1,0
275307,325.024,4,2,1,40,1,0
276607,370.2587,4,2,1,40,1,0
278088,407.193756362402,4,2,1,40,1,0
278088,-125,4,2,1,40,0,0
279716,399.773461705034,4,2,1,40,1,0
306101,-100,4,2,1,20,0,0
306300,-100,4,2,1,25,0,0
306500,-62.5,4,2,1,30,0,0
306900,390.480999999999,4,2,1,40,1,0
306900,-76.9230769230769,4,2,1,40,0,0
308461,387.8318,4,2,1,40,1,0
308461,-76.9230769230769,4,2,1,40,0,0
310012,382.9109,4,2,1,40,1,0
310012,-76.9230769230769,4,2,1,40,0,0
311543,378.2685,4,2,1,40,1,0
311543,-76.9230769230769,4,2,1,40,0,0
313056,372.3664,4,2,1,40,1,0
313056,-76.9230769230769,4,2,1,40,0,0
314545,367.7202,4,2,1,40,1,0
314545,-76.9230769230769,4,2,1,40,0,0
316015,364.4207,4,2,1,40,1,0
316015,-90.9090909090909,4,2,1,40,0,0
317472,363.0741,4,2,1,40,1,0
317472,-90.9090909090909,4,2,1,40,0,0
318924,365.1356,4,2,1,65,1,1
318924,-83.3333333333333,4,2,1,65,0,1
319045,-83.3333333333333,4,1,1,65,0,1
319167,-83.3333333333333,4,2,1,65,0,1
320384,363.1703,4,2,1,65,1,1
320384,-83.3333333333333,4,2,1,65,0,1
321836,364.072,4,2,1,65,1,1
321836,-83.3333333333333,4,2,1,65,0,1
323292,362.5079,4,2,1,65,1,1
323292,-83.3333333333333,4,2,1,65,0,1
324742,364.344,4,2,1,65,1,1
324742,-83.3333333333333,4,2,1,65,0,1
326199,363.373699999999,4,2,1,65,1,1
326199,-83.3333333333333,4,2,1,65,0,1
327652,364.86,4,2,1,65,1,1
327652,-83.3333333333333,4,2,1,65,0,1
329111,362.3438,4,2,1,65,1,1
329111,-83.3333333333333,4,2,1,65,0,1
330560,386.5369,4,2,1,65,1,1
330560,-83.3333333333333,4,2,1,65,0,1
331590,-100,4,2,1,65,0,1
332106,428.571428571429,4,2,1,65,1,1
332106,-200,4,2,1,65,0,1
332963,548.947849954254,4,2,1,65,1,9
334060,400,4,2,1,50,1,0
338860,-83.3333333333333,4,2,1,60,0,0
340451,405.7183,4,2,1,60,1,1
342073,419.4708,4,2,1,60,1,1
343750,417.5244,4,2,1,45,1,0
345420,487.80487804878,4,2,1,20,1,0
346395,596.421471172962,4,2,1,20,1,8
347587,397,3,2,1,45,1,0
347587,-333.333333333333,4,2,1,45,0,0
348778,407.4,3,2,1,45,1,0
348778,-333.333333333333,4,2,1,45,0,0
350000,404.585300067431,3,2,1,45,1,0
350000,-333.333333333333,4,2,1,45,0,0
351213,422.9,3,2,1,45,1,0
351213,-200,4,2,1,45,0,0
352450,410.7,3,2,1,45,1,0
354914,399.0335,3,2,1,45,1,0
356111,399.1335,3,2,1,45,1,0
356111,-500,3,2,1,45,0,0
357308,398.9335,3,2,1,45,1,0
360896,381.6335,3,2,1,45,1,0
362040,400,3,2,1,45,1,0

[Colours]
Combo1 : 89,105,142
Combo2 : 162,146,117
Combo3 : 202,130,81
Combo4 : 140,176,206

[HitObjects]
105,142,324,5,2,0:1:0:0:
105,142,1485,2,0,P|85:195|103:278,2,119.999996337891,2|0|0,0:1|0:0|0:0,0:0:0:0:
170,69,2646,1,2,0:1:0:0:
170,69,3807,2,0,B|227:82|227:82|296:68,2,119.999996337891,2|0|0,0:1|0:0|0:0,0:0:0:0:
65,137,4968,5,2,0:1:0:0:
130,247,5355,1,0,0:0:0:0:
221,161,5742,1,0,0:0:0:0:
286,271,6129,5,2,0:1:0:0:
221,161,6516,1,0,0:0:0:0:
130,247,6903,1,0,0:0:0:0:
221,161,7290,5,2,0:1:0:0:
221,161,8451,1,2,0:1:0:0:
221,161,9612,5,2,0:1:0:0:
221,161,10773,2,0,P|219:71|246:42,2,119.999996337891,2|0|0,0:1|0:0|0:0,0:0:0:0:
278,242,11935,1,2,0:1:0:0:
278,242,13096,2,0,B|340:220|340:220|411:231,2,119.999996337891,2|0|0,0:1|0:0|0:0,0:1:0:0:
176,329,14257,5,2,0:1:0:0:
108,250,14644,1,0,0:0:0:0:
182,177,15031,1,0,0:0:0:0:
114,98,15418,5,2,0:1:0:0:
182,177,15805,1,0,0:0:0:0:
108,250,16192,1,0,0:0:0:0:
182,177,16579,6,0,P|259:190|296:167,1,119.999996337891,2|2,0:1|0:1,0:1:0:0:
263,15,17353,1,2,0:1:0:0:
263,15,17740,2,0,P|228:58|236:122,1,119.999996337891,2|2,0:1|0:1,0:0:0:0:
340,74,18514,1,2,0:1:0:0:
397,212,18901,6,0,P|394:293|392:338,1,119.999996337891,2|2,0:1|0:1,0:0:0:0:
286,246,19675,1,2,0:1:0:0:
204,338,20062,2,0,P|147:352|93:329,1,119.999996337891,2|2,0:1|0:1,0:0:0:0:
99,227,20836,1,2,0:1:0:0:
99,227,21030,1,2,0:1:0:0:
99,227,21223,6,0,P|153:204|210:218,1,119.999996337891,2|0,0:1|0:0,0:0:0:0:
314,288,21997,1,2,0:1:0:0:
384,185,22384,2,0,P|392:97|366:59,1,119.999996337891,2|0,0:1|0:0,0:0:0:0:
274,23,23159,1,2,0:1:0:0:
242,166,23546,6,0,L|110:169,1,119.999996337891,2|2,0:1|0:1,0:0:0:0:
39,231,24320,1,2,0:1:0:0:
128,283,24707,2,0,P|141:218|115:161,2,119.999996337891,2|2|2,0:1|0:1|0:1,0:0:0:0:
48,63,25674,1,2,0:1:0:0:
48,63,25868,6,0,P|140:108|218:43,2,179.999994506836,2|2|2,0:1|0:1|0:1,0:0:0:0:
134,215,27609,1,2,0:1:0:0:
134,215,28190,6,0,P|196:191|267:222,1,119.999996337891,2|2,0:1|0:1,0:0:0:0:
312,290,28964,1,0,0:0:0:0:
381,207,29351,2,0,P|386:131|391:81,1,119.999996337891,2|2,0:1|0:1,0:0:0:0:
300,33,30125,1,0,0:0:0:0:
297,157,30512,6,0,P|198:155|171:154,1,119.999996337891,2|2,0:1|0:1,0:0:0:0:
228,325,31286,1,0,0:0:0:0:
228,326,31673,2,0,P|258:275|398:344,1,239.999992675781,2|2,0:1|0:1,0:0:0:0:
490,287,32834,6,0,P|478:208|491:164,1,119.999996337891,2|2,0:1|0:1,0:0:0:0:
392,55,33608,1,0,0:0:0:0:
392,55,33995,2,0,P|411:127|395:184,1,119.999996337891,2|0,0:1|0:0,0:0:0:0:
311,257,34770,1,2,0:1:0:0:
311,257,35157,6,0,P|307:186|326:131,1,119.999996337891,2|2,0:1|0:1,0:0:0:0:
223,21,35931,1,0,0:0:0:0:
223,21,36318,2,0,P|238:89|223:173,1,119.999996337891,2|0,0:1|0:0,0:0:0:0:
126,237,37092,1,2,0:1:0:0:
126,237,37479,6,0,P|110:156|119:85,1,139.999995727539,2|2,0:1|0:1,0:0:0:0:
256,192,38061,12,0,39810,0:0:0:0:
256,192,39944,12,2,42909,0:1:0:0:
130,68,50245,6,0,P|109:120|125:195,1,100,4|0,0:0|0:0,0:0:0:0:
258,201,50551,1,2,0:1:0:0:
204,132,50704,1,2,0:1:0:0:
202,296,50858,2,0,L|307:297,1,100,2|2,0:1|0:1,0:0:0:0:
197,210,51164,2,0,P|122:269|179:378,1,200,2|2,0:1|0:1,0:0:0:0:
63,205,51624,1,2,0:1:0:0:
217,138,51777,2,0,P|268:188|264:249,1,100,2|0,0:1|0:0,0:0:0:0:
232,339,52084,6,0,P|329:334|368:333,1,100,2|2,0:1|0:1,0:0:0:0:
373,219,52390,2,0,P|276:214|237:213,1,100,2|2,0:1|0:1,0:0:0:0:
168,87,52697,2,0,P|265:82|304:81,1,100,2|0,0:1|0:1,0:0:0:0:
105,197,53003,2,0,P|64:227|78:378,1,200,2|2,0:1|0:1,0:0:0:0:
175,272,53463,1,2,0:1:0:0:
271,359,53616,2,0,P|334:360|378:281,1,150,2|0,0:1|0:0,0:0:0:0:
302,288,53923,5,4,0:2:0:0:
253,206,54076,1,2,0:1:0:0:
328,89,54230,2,0,P|334:136|342:198,1,100,2|2,0:1|0:1,0:0:0:0:
503,207,54536,2,0,P|423:239|386:226,1,100,2|0,0:1|0:0,0:0:0:0:
255,135,54843,6,0,P|207:118|140:149,1,100,2|2,0:1|0:1,0:0:0:0:
13,300,55149,1,2,0:1:0:0:
86,170,55302,1,2,0:1:0:0:
146,298,55456,1,2,0:1:0:0:
18,221,55609,1,2,0:1:0:0:
18,221,55686,1,2,0:1:0:0:
18,221,55762,6,0,P|9:141|29:104,1,100,4|2,0:0|0:1,0:0:0:0:
90,30,56069,2,0,L|150:31,1,50,2|0,0:1|0:0,0:0:0:0:
202,149,56222,2,0,L|142:150,1,50,2|0,0:1|0:0,0:0:0:0:
270,85,56375,2,0,P|287:141|282:193,1,100,2|0,0:1|0:0,0:0:0:0:
195,297,56682,6,0,B|230:271|230:271|319:277,1,100,2|2,0:1|0:1,0:0:0:0:
376,160,56988,2,0,B|341:186|341:186|284:182,1,100,2|2,0:3|0:1,0:0:0:0:
393,280,57218,1,2,0:3:0:0:
393,280,57295,2,0,P|426:227|442:221,1,50,2|0,0:3|0:0,0:0:0:0:
437,102,57448,2,0,P|451:122|457:146,1,50,2|0,0:3|0:0,0:0:0:0:
458,337,57601,5,4,0:0:0:0:
432,300,57678,1,0,0:0:0:0:
393,280,57755,1,0,0:0:0:0:
348,274,57831,1,0,0:0:0:0:
305,286,57908,2,0,P|263:290|224:273,2,66.6666666666667,2|0|0,0:1|0:0|0:0,0:0:0:0:
285,150,58215,2,0,L|275:215,1,50,2|0,0:3|0:0,0:0:0:0:
144,309,58368,2,0,L|135:246,1,50,2|0,0:3|0:0,0:0:0:0:
8,100,58521,5,4,0:0:0:0:
30,94,58597,1,0,0:0:0:0:
53,87,58674,1,0,0:0:0:0:
75,81,58750,1,0,0:0:0:0:
100,74,58828,2,0,L|174:51,1,50,2|0,0:3|0:0,0:0:0:0:
197,195,58981,2,0,L|206:145,1,50
328,176,59134,2,0,L|310:130,1,50,2|0,0:3|0:0,0:0:0:0:
247,31,59288,1,2,0:3:0:0:
176,271,59441,6,0,P|163:338|178:379,1,100,4|0,0:0|0:0,0:0:0:0:
260,220,59747,2,0,L|330:229,2,66.6666666666667,2|0|0,0:3|0:0|0:0,0:0:0:0:
128,191,60054,2,0,P|149:119|124:70,1,100,2|0,0:3|0:0,0:0:0:0:
4,45,60360,6,0,P|27:134|40:9,1,400,4|2,0:0|0:1,0:0:0:0:
70,75,61280,6,0,B|55:131|55:131|70:218,1,119.999996337891,4|0,0:0|0:0,0:0:0:0:
116,293,61741,1,2,0:1:0:0:
256,192,61895,12,12,63188,0:0:0:0:
256,192,63318,12,0,65351,0:0:0:0:
297,191,65511,6,0,B|255:187|255:187|225:205|225:205|169:197,1,119.999996337891,4|0,0:2|0:0,0:0:0:0:
182,198,65756,1,0,0:0:0:0:
182,198,65838,1,2,0:0:0:0:
58,84,66002,2,0,B|100:80|100:80|130:98|130:98|172:91,1,119.999996337891,2|0,0:1|0:0,0:0:0:0:
172,91,66247,1,0,0:0:0:0:
172,91,66329,1,2,0:0:0:0:
355,132,66494,2,0,P|377:189|345:260,1,119.999996337891,2|0,0:1|0:0,0:0:0:0:
360,243,66740,1,0,0:0:0:0:
360,243,66822,5,2,0:0:0:0:
245,188,66986,2,0,P|176:173|134:195,1,119.999996337891,2|0,0:1|0:0,0:0:0:0:
134,194,67232,1,0,0:0:0:0:
134,194,67314,1,2,0:0:0:0:
223,382,67478,2,0,P|229:318|233:262,1,119.999996337891,2|2,0:1|0:0,0:0:0:0:
127,61,67806,2,0,P|131:120|136:180,1,119.999996337891,2|2,0:1|0:0,0:0:0:0:
127,61,68133,6,0,P|213:82|256:60,1,119.999996337891,2|0,0:1|0:0,0:0:0:0:
248,64,68379,1,0,0:0:0:0:
257,57,68461,1,2,0:0:0:0:
404,154,68625,2,0,P|318:133|275:155,1,119.999996337891,2|0,0:1|0:0,0:0:0:0:
283,151,68871,1,0,0:0:0:0:
274,158,68953,1,2,0:0:0:0:
329,330,69117,2,0,B|473:315,1,119.999996337891,2|0,0:1|0:0,0:0:0:0:
448,317,69363,1,0,0:0:0:0:
448,317,69445,5,2,0:0:0:0:
359,214,69609,1,2,0:1:0:0:
359,214,69691,1,0,0:0:0:0:
359,214,69773,2,0,L|292:217,1,59.9999981689454,0|0,0:3|0:0,0:0:0:0:
269,337,69937,2,0,L|345:328,1,59.9999981689454,0|0,0:3|0:0,0:0:0:0:
203,223,70101,2,0,P|189:165|215:102,1,119.999996337891,2|2,0:1|0:0,0:0:0:0:
316,54,70428,1,2,0:1:0:0:
354,81,70510,1,2,0:1:0:0:
362,128,70592,1,2,0:1:0:0:
335,167,70674,1,2,0:1:0:0:
286,173,70756,6,0,P|204:164|142:187,1,119.999996337891,2|0,0:1|0:0,0:0:0:0:
93,239,71002,1,0,0:0:0:0:
93,239,71084,1,2,0:0:0:0:
22,18,71248,2,0,P|22:77|25:137,1,119.999996337891,2|0,0:1|0:0,0:0:0:0:
103,100,71494,1,0,0:0:0:0:
103,100,71576,1,2,0:0:0:0:
169,286,71740,1,2,0:1:0:0:
278,182,71903,1,0,0:0:0:0:
248,181,71985,1,0,0:0:0:0:
218,181,72067,5,2,0:0:0:0:
382,211,72232,2,0,P|386:170|375:137,1,59.9999981689454,2|0,0:1|0:0,0:0:0:0:
289,10,72396,2,0,P|285:51|296:84,1,59.9999981689454,2|0,0:1|0:0,0:0:0:0:
206,251,72560,1,2,0:0:0:0:
206,251,72642,1,0,0:0:0:0:
206,251,72723,2,0,P|211:160|194:131,1,119.999996337891,2|2,0:1|0:0,0:0:0:0:
91,302,73051,2,0,P|86:211|103:182,1,119.999996337891,2|2,0:1|0:0,0:0:0:0:
191,17,73379,6,0,L|200:162,1,119.999996337891,4|0,0:0|0:0,0:0:0:0:
200,148,73625,1,0,0:0:0:0:
201,159,73707,1,2,0:0:0:0:
301,345,73871,2,0,L|310:200,1,119.999996337891,2|0,0:1|0:0,0:0:0:0:
310,214,74117,1,0,0:0:0:0:
311,203,74199,1,2,0:0:0:0:
410,28,74363,2,0,P|466:94|448:167,1,119.999996337891,2|0,0:1|0:0,0:0:0:0:
466,123,74609,1,0,0:0:0:0:
466,123,74691,1,2,0:0:0:0:
413,259,74855,5,2,0:1:0:0:
401,258,74936,1,0,0:0:0:0:
389,257,75018,1,2,0:1:0:0:
377,257,75100,1,0,0:0:0:0:
365,256,75182,1,2,0:1:0:0:
353,256,75264,1,0,0:0:0:0:
341,255,75346,1,2,0:1:0:0:
329,255,75428,1,0,0:0:0:0:
317,254,75510,1,2,0:1:0:0:
305,253,75592,1,0,0:0:0:0:
288,253,75674,6,0,L|299:220,1,29.9999990844727,2|2,0:1|0:1,0:1:0:0:
272,196,75756,2,0,L|307:170,1,29.9999990844727,2|2,0:1|0:1,0:1:0:0:
296,142,75838,2,0,L|332:137,1,29.9999990844727,2|0,0:1|0:1,0:1:0:0:
349,117,75920,2,0,L|380:138,1,29.9999990844727,2|2,0:1|0:1,0:1:0:0:
400,103,76001,5,8,0:0:0:0:
362,338,76166,1,0,0:0:0:0:
362,338,76248,1,8,0:0:0:0:
362,338,76330,1,2,0:0:0:0:
296,142,76494,1,0,0:0:0:0:
211,235,76658,2,0,P|130:237|80:238,1,119.999996337891,2|0,0:0|0:0,0:0:0:0:
180,135,76986,1,8,0:0:0:0:
154,345,77150,1,0,0:0:0:0:
58,145,77314,5,2,0:0:0:0:
263,185,77478,1,0,0:0:0:0:
263,185,77559,1,0,0:0:0:0:
263,185,77641,1,8,0:0:0:0:
72,257,77805,1,0,0:0:0:0:
199,121,77969,2,0,P|271:96|322:123,1,119.999996337891,2|0,0:0|0:0,0:0:0:0:
418,229,78297,1,8,0:0:0:0:
269,295,78461,1,0,0:0:0:0:
334,131,78625,6,0,P|333:217|334:258,1,119.999996337891,2|0,0:0|0:0,0:0:0:0:
370,353,78871,1,2,0:0:0:0:
370,353,78953,2,0,P|434:317|488:343,1,119.999996337891,8|0,0:0|0:0,0:0:0:0:
415,209,79281,1,2,0:0:0:0:
276,309,79445,1,0,0:0:0:0:
221,176,79609,1,8,0:0:0:0:
276,325,79773,1,0,0:0:0:0:
273,120,79936,6,0,P|192:106|151:144,1,119.999996337891,2|0,0:0|0:0,0:0:0:0:
141,290,80264,1,8,0:0:0:0:
150,243,80345,1,0,0:0:0:0:
131,200,80428,2,0,L|45:200,1,59.9999981689454,2|0,0:0|0:0,0:0:0:0:
26,19,80592,2,0,P|5:88|30:149,1,119.999996337891,2|0,0:0|0:0,0:0:0:0:
90,352,80920,1,8,0:0:0:0:
109,302,81001,1,0,0:0:0:0:
153,272,81083,1,2,0:1:0:0:
206,273,81165,1,0,0:0:0:0:
249,305,81247,5,8,0:0:0:0:
387,202,81412,1,2,0:0:0:0:
232,162,81576,1,10,0:0:0:0:
350,329,81740,1,2,0:0:0:0:
336,112,81904,5,2,0:0:0:0:
187,243,82068,1,2,0:0:0:0:
431,272,82232,1,8,0:0:0:0:
233,133,82395,1,0,0:0:0:0:
316,309,82559,5,2,0:0:0:0:
146,102,82723,1,2,0:0:0:0:
146,102,82805,1,0,0:0:0:0:
146,102,82887,1,8,0:0:0:0:
216,360,83051,1,0,0:0:0:0:
401,170,83215,6,0,P|410:76|393:47,1,119.999996337891,2|0,0:0|0:0,0:0:0:0:
323,258,83543,1,8,0:0:0:0:
252,25,83707,1,0,0:0:0:0:
82,171,83871,5,2,0:0:0:0:
116,160,83952,1,2,0:0:0:0:
152,162,84034,1,2,0:0:0:0:
185,175,84116,1,2,0:0:0:0:
211,199,84198,1,8,0:0:0:0:
228,231,84280,1,2,0:0:0:0:
234,266,84362,1,2,0:0:0:0:
227,301,84444,1,2,0:0:0:0:
208,332,84526,1,2,0:0:0:0:
180,355,84608,1,2,0:0:0:0:
147,367,84690,1,2,0:0:0:0:
111,367,84772,1,2,0:0:0:0:
77,355,84854,1,8,0:0:0:0:
50,332,84936,1,2,0:0:0:0:
31,301,85018,1,2,0:0:0:0:
24,266,85100,1,2,0:0:0:0:
30,231,85182,5,2,0:0:0:0:
159,136,85346,2,0,L|153:213,1,59.9999981689454,2|2,0:0|0:0,0:0:0:0:
79,157,85510,1,2,0:0:0:0:
243,116,85674,2,0,L|234:178,1,59.9999981689454,2|2,0:0|0:0,0:0:0:0:
159,136,85838,1,2,0:0:0:0:
322,106,86002,1,2,0:3:0:0:
161,45,86165,1,4,0:0:0:0:
380,48,86330,5,2,0:3:0:0:
380,48,86412,1,2,0:3:0:0:
380,48,86494,2,0,P|403:115|398:148,1,80,2|0,0:1|0:0,0:0:0:0:
274,89,86986,5,2,0:1:0:0:
349,20,87149,2,0,P|387:56|400:106,1,80,2|0,0:1|0:0,0:0:0:0:
296,188,87477,1,2,0:1:0:0:
296,188,87641,2,0,P|347:156|384:157,1,80,2|0,0:1|0:0,0:0:0:0:
369,308,87969,2,0,P|356:271|362:232,1,80,2|0,0:1|0:0,0:0:0:0:
448,305,88297,2,0,P|382:306|274:308,1,160,2|2,0:1|0:1,0:0:0:0:
205,329,88789,1,2,0:1:0:0:
145,196,88953,6,0,P|51:204|18:290,1,160,2|2,0:1|0:1,0:0:0:0:
103,275,89445,1,2,0:1:0:0:
30,122,89608,1,2,0:1:0:0:
154,39,89772,2,0,P|208:48|258:57,1,80,2|2,0:1|0:1,0:0:0:0:
321,113,90100,1,0,0:0:0:0:
321,113,90264,1,2,0:1:0:0:
225,228,90428,6,0,P|234:174|243:124,1,80,2|2,0:1|0:1,0:0:0:0:
362,31,90756,2,0,P|413:111|384:182,2,160,2|2|0,0:1|0:1|0:0,0:0:0:0:
360,34,91576,1,2,0:1:0:0:
254,173,91740,6,0,B|209:183|209:183|149:166,1,80,2|0,0:1|0:0,0:0:0:0:
176,173,92231,1,2,0:1:0:0:
50,146,92395,2,0,P|21:186|22:229,1,80,2|2,0:1|0:1,0:0:0:0:
18,215,92887,1,2,0:1:0:0:
72,342,93051,6,0,P|123:336|164:334,1,80,2|0,0:1|0:0,0:0:0:0:
274,237,93379,2,0,P|223:231|182:229,1,80,2|0,0:1|0:0,0:0:0:0:
93,174,93707,1,2,0:1:0:0:
203,135,93871,1,2,0:1:0:0:
123,21,94035,2,0,P|129:97|131:136,1,80,2|0,0:1|0:0,0:0:0:0:
206,42,94281,1,0,0:0:0:0:
206,42,94362,6,0,P|259:28|297:38,1,80,2|2,0:1|0:1,0:0:0:0:
375,108,94690,1,0,0:0:0:0:
279,159,94854,1,0,0:1:0:0:
436,44,95018,2,0,P|455:118|446:145,1,80,2|2,0:1|0:1,0:0:0:0:
279,159,95346,1,0,0:0:0:0:
375,108,95510,1,2,0:1:0:0:
371,228,95674,6,0,P|372:287|372:317,1,80,2|2,0:1|0:1,0:0:0:0:
292,265,96002,1,0,0:0:0:0:
447,205,96166,1,2,0:1:0:0:
375,108,96330,2,0,P|330:104|289:129,1,80,2|2,0:1|0:1,0:0:0:0:
238,231,96658,1,0,0:0:0:0:
155,140,96821,1,2,0:1:0:0:
96,248,96985,6,0,P|97:293|102:356,1,80,2|0,0:1|0:0,0:0:0:0:
99,327,97477,1,2,0:1:0:0:
200,233,97641,2,0,P|255:233|292:233,1,80,2|0,0:1|0:0,0:0:0:0:
375,328,97969,1,2,0:1:0:0:
375,328,98133,6,0,P|370:251|384:221,1,80,2|0,0:1|0:0,0:0:0:0:
278,218,98461,2,0,P|328:160|360:148,1,80,2|0,0:1|0:0,0:0:0:0:
337,61,98789,2,0,P|416:105|429:192,1,160,2|2,0:1|0:1,0:0:0:0:
370,249,99280,1,2,0:1:0:0:
329,159,99444,1,2,0:1:0:0:
240,288,99608,6,0,P|200:291|145:294,1,80,2|0,0:1|0:0,0:0:0:0:
160,293,100100,1,2,0:1:0:0:
297,239,100264,2,0,P|315:289|310:317,1,80,2|0,0:1|0:0,0:0:0:0:
413,379,100592,1,2,0:1:0:0:
413,379,100756,6,0,P|401:263|422:203,1,160,2|2,0:1|0:1,0:0:0:0:
475,123,101248,1,0,0:0:0:0:
475,123,101330,1,0,0:0:0:0:
475,123,101412,1,2,0:1:0:0:
361,77,101575,1,0,0:0:0:0:
284,191,101739,1,2,0:1:0:0:
176,116,101903,1,2,0:1:0:0:
296,208,102067,1,2,0:1:0:0:
280,31,102231,6,0,P|283:147|284:220,1,160,2|0,0:1|0:0,0:0:0:0:
236,370,102723,2,0,P|225:275|156:231,1,160,2|0,0:1|0:0,0:0:0:0:
149,329,103215,1,2,0:1:0:0:
319,270,103379,6,0,B|371:274|371:274|422:253|422:253|496:257,1,160,2|0,0:1|0:0,0:0:0:0:
362,159,103871,2,0,B|310:155|310:155|259:176|259:176|185:172,1,160,2|2,0:1|0:1,0:0:0:0:
106,89,104362,1,2,0:1:0:0:
9,181,104526,1,2,0:1:0:0:
108,285,104690,1,2,0:1:0:0:
220,220,104854,6,0,P|294:221|311:221,1,80,2|2,0:1|0:1,0:0:0:0:
373,85,105182,1,2,0:1:0:0:
292,141,105346,1,0,0:0:0:0:
453,256,105510,2,0,P|454:189|454:155,1,80,2|2,0:1|0:1,0:0:0:0:
373,85,105838,1,0,0:0:0:0:
292,141,106002,1,2,0:1:0:0:
212,21,106166,5,2,0:1:0:0:
212,21,106330,2,0,P|173:10|147:7,1,40,2|0,0:1|0:0,0:0:0:0:
44,92,106493,2,0,P|83:81|109:78,1,40,2|0,0:1|0:0,0:0:0:0:
230,141,106657,2,0,P|191:130|165:127,1,40,2|0,0:1|0:0,0:0:0:0:
64,248,106821,1,2,0:1:0:0:
225,255,106985,5,0,0:1:0:0:
144,253,107149,1,0,0:1:0:0:
64,248,107313,1,0,0:1:0:0:
137,173,107477,6,0,P|141:225|144:262,1,80,4|0,0:0|0:0,0:0:0:0:
233,348,107723,1,0,0:0:0:0:
233,348,107805,2,0,P|235:320|239:268,1,80,2|0,0:3|0:0,0:0:0:0:
251,161,108051,1,0,0:0:0:0:
251,161,108133,2,0,P|314:170|339:188,1,80,2|0,0:1|0:0,0:0:0:0:
387,271,108461,1,2,0:3:0:0:
432,97,108625,1,0,0:0:0:0:
432,97,108707,1,0,0:3:0:0:
432,97,108788,6,0,P|448:143|444:178,1,80,2|0,0:1|0:0,0:0:0:0:
387,271,109116,1,2,0:3:0:0:
275,160,109280,1,0,0:0:0:0:
275,160,109362,1,0,0:0:0:0:
275,160,109444,2,0,P|195:157|176:156,1,80,2|0,0:1|0:0,0:0:0:0:
99,156,109690,1,0,0:3:0:0:
99,156,109772,1,2,0:3:0:0:
196,23,109936,1,0,0:0:0:0:
196,23,110018,1,0,0:0:0:0:
196,23,110100,6,0,P|193:97|190:140,1,80,2|0,0:1|0:0,0:0:0:0:
248,192,110346,1,0,0:0:0:0:
248,192,110428,1,2,0:3:0:0:
311,66,110592,1,0,0:0:0:0:
311,66,110674,1,0,0:0:0:0:
311,66,110756,1,2,0:1:0:0:
379,196,110920,1,0,0:0:0:0:
159,195,111084,2,0,P|107:196|62:195,1,80,2|0,0:3|0:0,0:0:0:0:
130,299,111329,1,0,0:0:0:0:
130,299,111411,5,2,0:1:0:0:
79,195,111575,1,2,0:1:0:0:
247,229,111739,2,0,B|244:170|244:170|222:129|222:129|223:74,1,160,2|2,0:3|0:1,0:0:0:0:
320,21,112231,1,0,0:0:0:0:
334,162,112395,1,2,0:3:0:0:
438,83,112558,1,0,0:0:0:0:
438,83,112641,1,2,0:3:0:0:
438,83,112723,6,0,P|468:156|439:211,1,120,2|0,0:1|0:0,0:0:0:0:
401,261,113051,1,2,0:3:0:0:
324,151,113215,1,0,0:0:0:0:
324,151,113297,1,0,0:0:0:0:
324,151,113379,2,0,P|261:153|221:142,1,80,2|0,0:1|0:0,0:0:0:0:
156,22,113706,2,0,P|173:69|169:111,1,80,2|0,0:3|0:0,0:0:0:0:
106,162,113952,1,0,0:0:0:0:
106,162,114034,6,0,P|95:205|111:268,1,80,2|0,0:1|0:0,0:0:0:0:
137,356,114362,2,0,B|182:332|182:332|259:333,1,120,2|0,0:3|0:0,0:0:0:0:
331,326,114690,2,0,P|339:259|328:235,1,80,2|0,0:1|0:0,0:0:0:0:
307,164,114936,1,0,0:0:0:0:
307,164,115018,1,2,0:3:0:0:
171,230,115182,1,0,0:0:0:0:
171,230,115264,1,0,0:0:0:0:
171,230,115346,6,0,B|79:231,1,80,2|0,0:1|0:0,0:0:0:0:
130,34,115674,2,0,P|130:87|130:178,1,120,2|0,0:3|0:0,0:0:0:0:
206,107,116001,2,0,P|259:98|303:113,1,80,2|0,0:1|0:0,0:0:0:0:
329,270,116329,1,2,0:3:0:0:
248,178,116493,1,0,0:0:0:0:
398,221,116657,6,0,P|411:276|405:315,1,80,4|0,0:0|0:0,0:0:0:0:
495,201,116985,2,0,P|482:146|488:107,1,80,2|0,0:3|0:0,0:0:0:0:
427,47,117231,1,0,0:0:0:0:
427,47,117313,2,0,L|355:37,1,40,2|0,0:1|0:0,0:0:0:0:
239,108,117477,2,0,L|311:98,1,40
304,2,117641,2,0,P|305:89|311:104,1,80,2|0,0:3|0:0,0:0:0:0:
370,158,117887,1,0,0:0:0:0:
370,158,117969,6,0,P|316:162|278:194,1,80,2|0,0:1|0:0,0:0:0:0:
138,293,118297,1,2,0:3:0:0:
225,349,118460,2,0,P|234:299|181:192,1,160,2|0,0:1|0:0,0:0:0:0:
59,297,118952,2,0,P|103:295|140:293,1,80,2|0,0:3|0:0,0:0:0:0:
238,100,119280,5,2,0:1:0:0:
126,76,119444,1,0,0:0:0:0:
219,187,119608,1,2,0:3:0:0:
275,36,119772,1,0,0:0:0:0:
275,36,119854,1,0,0:0:0:0:
275,36,119936,2,0,B|319:33|366:32,1,80,2|0,0:1|0:0,0:0:0:0:
442,132,120182,1,0,0:0:0:0:
442,132,120264,2,0,B|398:129|351:128,1,80,2|0,0:3|0:0,0:0:0:0:
234,216,120592,6,0,B|288:218|288:218|326:238|326:238|394:239,1,160,2|2,0:1|0:3,0:0:0:0:
261,302,121083,1,0,0:0:0:0:
261,302,121165,1,0,0:0:0:0:
261,302,121247,2,0,P|191:298|166:296,1,80,2|0,0:1|0:0,0:0:0:0:
57,197,121575,1,2,0:3:0:0:
206,61,121739,2,0,L|210:21,2,26.6666666666667,2|0|0,0:1|0:0|0:0,0:0:0:0:
181,76,121903,6,0,L|177:175,1,80,2|0,0:1|0:0,0:0:0:0:
88,297,122231,1,2,0:3:0:0:
8,140,122395,1,0,0:0:0:0:
176,255,122559,2,0,B|244:234|225:295|309:258,2,120,2|2|2,0:1|0:1|0:1,0:0:0:0:
165,160,123133,1,0,0:0:0:0:
165,160,123214,6,0,P|230:167|267:158,1,80,4|0,0:0|0:0,0:0:0:0:
311,10,123542,2,0,P|304:66|311:102,1,80,2|0,0:3|0:0,0:0:0:0:
490,209,123870,1,2,0:1:0:0:
421,73,124034,1,0,0:0:0:0:
342,185,124198,2,0,L|352:276,1,80,2|0,0:3|0:0,0:0:0:0:
231,366,124526,6,0,B|235:321|235:321|214:269,1,80,2|0,0:1|0:0,0:0:0:0:
106,172,124854,1,2,0:3:0:0:
88,314,125018,1,0,0:0:0:0:
210,179,125182,2,0,P|229:86|218:63,2,120,2|2|2,0:1|0:1|0:1,0:0:0:0:
132,34,125837,5,2,0:1:0:0:
321,106,126001,1,0,0:0:0:0:
321,106,126083,1,0,0:0:0:0:
321,106,126165,2,0,L|314:202,1,80,2|0,0:3|0:0,0:0:0:0:
250,339,126493,1,2,0:1:0:0:
168,197,126657,1,0,0:0:0:0:
343,283,126821,2,0,P|401:276|433:272,1,80,2|0,0:3|0:0,0:0:0:0:
321,106,127149,6,0,P|263:99|231:95,1,80,2|0,0:1|0:0,0:0:0:0:
155,30,127395,1,0,0:0:0:0:
155,30,127477,2,0,L|138:85,1,40,2|0,0:3|0:0,0:0:0:0:
38,156,127641,1,0,0:0:0:0:
16,189,127722,1,0,0:0:0:0:
12,228,127804,1,2,0:1:0:0:
26,266,127886,1,0,0:0:0:0:
52,297,127968,2,0,L|99:294,1,40
269,287,128133,6,0,L|258:254,1,29.9999990844727,2|0,0:1|0:0,0:0:0:0:
285,230,128215,2,0,L|250:204,1,29.9999990844727,2|0,0:1|0:0,0:0:0:0:
261,176,128297,2,0,L|225:171,1,29.9999990844727,2|0,0:1|0:0,0:0:0:0:
208,151,128379,2,0,L|177:172,1,29.9999990844727,2|2,0:1|0:1,0:0:0:0:
143,189,128460,5,2,0:1:0:0:
346,294,128624,1,0,0:0:0:0:
346,294,128706,1,0,0:0:0:0:
346,294,128788,1,2,0:3:0:0:
300,67,128952,1,0,0:0:0:0:
300,67,129034,1,0,0:0:0:0:
300,67,129116,2,0,B|353:82|353:82|438:69,1,100,2|0,0:3|0:0,0:0:0:0:
508,199,129444,2,0,B|455:184|455:184|410:190,1,100,2|0,0:3|0:0,0:0:0:0:
286,309,129772,5,2,0:1:0:0:
240,127,129936,2,0,L|213:175,1,50
128,286,130100,1,2,0:3:0:0:
330,222,130264,5,0,0:0:0:0:
330,222,130346,1,0,0:0:0:0:
330,222,130427,1,2,0:3:0:0:
101,164,130591,1,0,0:0:0:0:
323,94,130755,1,2,0:3:0:0:
86,167,130919,1,0,0:0:0:0:
256,303,131083,6,0,L|257:194,1,100,2|0,0:1|0:0,0:0:0:0:
242,105,131329,1,0,0:0:0:0:
242,105,131411,2,0,P|173:94|139:109,1,100,2|0,0:3|0:0,0:0:0:0:
342,156,131739,2,0,P|353:100|336:50,1,100,2|0,0:3|0:0,0:0:0:0:
108,226,132067,1,2,0:3:0:0:
137,220,132148,1,0,0:0:0:0:
166,214,132231,2,0,L|214:203,1,50
308,311,132394,5,4,0:0:0:0:
308,311,132723,2,0,P|239:269|228:366,1,200,4|2,0:0|0:3,0:0:0:0:
100,169,133214,1,0,0:0:0:0:
100,169,133296,1,0,0:0:0:0:
100,169,133378,2,0,B|148:160|148:160|195:185|195:185|258:173,1,150,2|0,0:3|0:0,0:0:0:0:
258,81,133706,6,0,P|304:104|335:166,2,85.0000016212464,4|0|2,0:3|0:0|0:3,0:0:0:0:
195,184,134214,1,0,0:0:0:0:
279,235,134384,2,0,L|402:230,1,85.0000016212464,2|0,0:1|0:0,0:0:0:0:
431,176,134638,1,0,0:0:0:0:
431,176,134723,1,2,0:3:0:0:
426,317,134893,1,0,0:0:0:0:
348,116,135062,5,2,0:1:0:0:
273,296,135237,1,0,0:0:0:0:
273,296,135324,1,0,0:0:0:0:
273,296,135412,1,2,0:3:0:0:
251,97,135587,1,0,0:0:0:0:
376,204,135763,2,0,L|286:203,1,85.0000016212464,2|0,0:1|0:0,0:0:0:0:
207,205,136026,1,0,0:0:0:0:
207,205,136113,1,2,0:3:0:0:
251,97,136288,1,0,0:0:0:0:
221,308,136464,6,0,P|120:298|96:311,1,100,2|0,0:1|0:0,0:0:0:0:
46,358,136748,1,0,0:0:0:0:
46,358,136843,2,0,P|33:298|32:289,3,50,2|0|0|0,0:3|0:0|0:0|0:0,0:0:0:0:
94,231,137222,1,2,0:1:0:0:
99,206,137316,1,0,0:0:0:0:
100,181,137411,1,0,0:0:0:0:
96,156,137506,1,0,0:0:0:0:
89,132,137601,2,0,P|84:98|98:61,1,50,2|0,0:3|0:0,0:0:0:0:
168,16,137790,2,0,P|190:23|212:36,1,50
242,152,137980,5,2,0:1:0:0:
409,120,138183,1,0,0:0:0:0:
409,120,138285,1,0,0:0:0:0:
409,120,138387,1,2,0:3:0:0:
286,20,138591,1,0,0:0:0:0:
336,193,138795,2,0,L|341:235,5,33.3333333333333,2|0|0|0|0|0,0:3|0:3|0:3|0:3|0:3|0:3,0:0:0:0:
363,242,139203,2,0,L|359:286,5,33.3333333333333,2|0|0|0|0|0,0:3|0:3|0:3|0:3|0:3|0:3,0:3:0:0:
339,303,139611,5,4,0:3:0:0:
246,252,139832,1,2,0:1:0:0:
159,301,140053,2,0,P|147:245|164:195,1,100,2|2,0:1|0:1,0:0:0:0:
240,146,140496,2,0,B|294:162|294:162|351:148,1,100,2|2,0:1|0:1,0:0:0:0:
406,80,140939,1,2,0:1:0:0:
308,60,141160,1,2,0:1:0:0:
416,159,141382,6,0,B|416:262,1,100,2|0,0:1|0:0,0:0:0:0:
340,324,141828,2,0,B|340:221,1,100,2|0,0:1|0:0,0:0:0:0:
299,132,142274,1,2,0:1:0:0:
282,129,142720,1,2,0:1:0:0:
262,126,143166,5,2,0:1:0:0:
203,207,143387,1,0,0:0:0:0:
133,134,143609,2,0,P|124:63|139:27,1,100,2|2,0:1|0:1,0:0:0:0:
230,14,144053,5,2,0:1:0:0:
226,113,144274,1,0,0:0:0:0:
226,213,144496,2,0,L|347:215,1,100,2|2,0:1|0:1,0:0:0:0:
412,163,144940,5,2,0:1:0:0:
485,230,145162,1,0,0:0:0:0:
400,283,145385,2,0,P|384:362|411:406,1,100,2|2,0:1|0:1,0:0:0:0:
289,369,145831,2,0,P|305:290|278:246,1,100,2|2,0:1|0:1,0:0:0:0:
223,209,146277,1,2,0:1:0:0:
154,282,146500,1,2,0:1:0:0:
79,214,146723,6,0,P|66:143|83:99,1,100,2|0,0:1|0:0,0:0:0:0:
137,41,147166,2,0,P|208:28|252:45,1,100,2|2,0:1|0:1,0:0:0:0:
309,99,147609,1,2,0:1:0:0:
234,165,147831,1,0,0:0:0:0:
303,237,148053,2,0,P|317:318|304:345,1,100,2|2,0:1|0:1,0:0:0:0:
220,373,148496,5,2,0:1:0:0:
167,287,148718,1,0,0:0:0:0:
71,316,148940,1,2,0:1:0:0:
98,219,149162,1,2,0:1:0:0:
11,168,149384,1,2,0:1:0:0:
18,152,149828,1,2,0:1:0:0:
25,133,150272,6,0,P|91:108|122:119,1,100,2|0,0:1|0:0,0:0:0:0:
178,194,150733,2,0,P|244:219|275:208,1,100,2|0,0:1|0:0,0:0:0:0:
339,139,151194,1,2,0:1:0:0:
354,148,151655,1,2,0:1:0:0:
372,157,152116,6,0,P|381:203|367:241,2,59.9999981689454,2|0|2,0:1|0:0|0:1,0:0:0:0:
311,83,152807,2,0,B|255:99|235:152|235:152|213:73|111:70,1,239.999992675781,2|0,0:1|0:0,0:0:0:0:
94,157,153960,2,0,P|160:159|174:170,2,59.9999981689454,2|0|2,0:1|0:0|0:1,0:0:0:0:
32,231,154655,2,0,B|5:283|70:353|128:307|128:307|143:338|200:337,1,239.999992675781,2|0,0:1|0:0,0:0:0:0:
273,290,155815,6,0,P|304:285|339:291,2,59.9999981689454,2|0|2,0:1|0:0|0:1,0:0:0:0:
187,336,156506,2,0,P|122:248|207:162,1,239.999992675781,2|0,0:1|0:0,0:0:0:0:
275,109,157658,2,0,L|267:47,2,59.9999981689454,2|0|2,0:1|0:0|0:1,0:0:0:0:
363,146,158350,2,0,P|437:228|372:318,1,239.999992675781,2|0,0:1|0:0,0:0:0:0:
277,244,159504,6,0,L|196:240,1,75.0000028610231,2|2,0:1|0:1,0:0:0:0:
202,240,159849,1,0,0:0:0:0:
202,240,159964,1,2,0:1:0:0:
272,162,160195,1,2,0:1:0:0:
245,350,160425,1,2,0:1:0:0:
259,364,160655,5,2,0:1:0:0:
259,364,160732,1,0,0:0:0:0:
259,364,160809,1,2,0:1:0:0:
259,364,160886,1,2,0:1:0:0:
154,299,161116,1,0,0:0:0:0:
270,250,161347,5,2,0:1:0:0:
214,122,161577,2,0,L|212:181,1,50,2|0,0:1|0:0,0:0:0:0:
298,150,161807,5,2,0:1:0:0:
138,78,162037,2,0,L|136:137,1,50,2|0,0:1|0:0,0:0:0:0:
214,122,162268,5,2,0:1:0:0:
61,43,162498,2,0,L|59:102,1,50,2|0,0:1|0:0,0:0:0:0:
136,127,162728,1,2,0:1:0:0:
21,193,162959,1,2,0:1:0:0:
124,282,163189,6,0,P|165:273|215:293,2,75.0000028610231,2|0|2,0:1|0:0|0:1,0:0:0:0:
192,382,163883,2,0,P|158:312|323:248,1,300.000011444092,2|0,0:1|0:0,0:0:0:0:
393,310,165040,2,0,P|380:357|394:390,2,75.0000028610231,2|0|2,0:1|0:0|0:1,0:0:0:0:
492,275,165735,2,0,B|502:224|447:163|384:182|384:182|440:128|389:32,1,300.000011444092,2|0,0:1|0:0,0:0:0:0:
313,109,166893,6,0,L|212:100,1,75.0000028610231,2|2,0:1|0:1,0:0:0:0:
238,102,167238,1,0,0:0:0:0:
238,102,167353,1,2,0:1:0:0:
93,155,167583,1,2,0:1:0:0:
188,277,167813,1,2,0:1:0:0:
202,291,168043,5,2,0:1:0:0:
202,291,168120,1,0,0:0:0:0:
202,291,168197,1,0,0:0:0:0:
202,291,168273,1,2,0:1:0:0:
177,165,168504,1,0,0:0:0:0:
156,357,168734,6,0,P|202:371|259:345,1,94.9999974632264,2|2,0:1|0:1,0:0:0:0:
297,290,169080,1,0,0:0:0:0:
297,290,169196,6,0,P|360:276|394:295,1,94.9999974632264,2|2,0:1|0:1,0:0:0:0:
471,354,169543,1,0,0:0:0:0:
471,354,169658,6,0,P|457:291|476:257,1,94.9999974632264,2|2,0:1|0:1,0:0:0:0:
512,192,170005,1,0,0:0:0:0:
512,192,170121,2,0,P|525:147|509:103,1,94.9999974632264,2|2,0:1|0:1,0:0:0:0:
362,31,170583,5,2,0:1:0:0:
386,168,170812,1,0,0:0:0:0:
456,49,171042,1,2,0:1:0:0:
331,100,171272,2,0,B|284:135|292:213|335:239|335:239|263:249|246:309|260:352,1,300.000011444092,2|0,0:1|0:0,0:0:0:0:
418,329,172421,2,0,L|343:327,1,75.0000028610231,2|0,0:1|0:0,0:0:0:0:
196,207,172883,2,0,B|266:248|266:248|360:236,2,150.000005722046,2|2|2,0:1|0:1|0:1,0:0:0:0:
196,207,174270,6,0,P|178:255|190:300,2,75.0000028610231,2|0|2,0:1|0:0|0:1,0:0:0:0:
261,125,174958,1,0,0:0:0:0:
342,192,175188,2,0,L|434:195,1,75.0000028610231,2|2,0:1|0:1,0:0:0:0:
475,107,175647,2,0,L|383:104,1,75.0000028610231,2|2,0:1|0:1,0:0:0:0:
320,37,176107,2,0,P|244:52|230:138,1,150.000005722046,2|2,0:1|0:1,0:0:0:0:
353,277,177035,2,0,P|326:210|255:199,1,150.000005722046,2|2,0:1|0:1,0:0:0:0:
128,222,177964,6,0,B|171:218|202:243|202:243|219:205|272:194,1,150.000005722046,2|0,0:1|0:0,0:0:0:0:
357,177,178656,1,2,0:1:0:0:
357,177,178887,2,0,P|435:237|391:355,1,225.000008583069,2|0,0:1|0:0,0:0:0:0:
278,276,179811,2,0,L|360:272,1,75.0000028610231,2|0,0:1|0:0,0:0:0:0:
229,341,180272,2,0,P|241:256|220:178,2,150.000005722046,2|2|2,0:1|0:1|0:1,0:0:0:0:
168,151,181655,6,0,P|215:122|302:185,1,150.000005722046,2|2,0:1|0:1,0:0:0:0:
364,236,182348,2,0,P|402:172|497:166,1,150.000005722046,2|0,0:1|0:0,0:0:0:0:
388,51,183041,2,0,P|350:70|311:70,1,75.0000028610231,2|2,0:1|0:1,0:0:0:0:
246,47,183388,2,0,L|246:16,2,18.7500007152558,2|2|2,0:1|0:1|0:1,0:0:0:0:
287,151,183733,1,0,0:1:0:0:
209,212,183963,2,0,L|123:211,1,75.0000028610231,0|2,0:1|0:1,0:0:0:0:
81,296,184423,2,0,L|210:296,2,112.500004291535,2|2|2,0:1|0:1|0:1,0:0:0:0:
47,139,185343,6,0,L|216:136,1,150.000005722046,2|2,0:1|0:1,0:0:0:0:
291,86,186036,2,0,P|367:54|397:222,1,300.000011444092,2|0,0:1|0:0,0:0:0:0:
360,141,187193,1,2,0:1:0:0:
368,149,187931,5,2,0:1:0:0:
368,149,188178,2,0,P|371:111|380:53,2,89.9999972534181,2|2|2,0:1|0:1|0:1,0:0:0:0:
369,148,189380,6,0,B|327:122|327:122|258:140,1,100,4|0,0:0|0:0,0:0:0:0:
204,219,189661,1,8,0:0:0:0:
204,219,189755,2,0,P|193:145|192:97,1,100,8|0,0:0|0:0,0:0:0:0:
255,339,190131,1,2,0:0:0:0:
327,235,190318,1,2,0:0:0:0:
173,281,190506,2,0,P|107:269|73:265,1,100,8|0,0:0|0:0,0:0:0:0:
7,173,190788,1,2,0:0:0:0:
7,173,190882,6,0,P|56:166|105:157,1,100,2|0,0:1|0:0,0:0:0:0:
244,66,191254,1,8,0:0:0:0:
213,210,191440,2,0,L|214:155,1,50,2|2,0:0|0:0,0:0:0:0:
150,92,191627,1,8,0:0:0:0:
302,260,191813,2,0,L|303:205,1,50,0|2,0:0|0:0,0:0:0:0:
214,160,191999,1,8,0:0:0:0:
387,239,192185,1,0,0:0:0:0:
387,239,192279,1,2,0:0:0:0:
387,239,192372,5,8,0:0:0:0:
231,177,192554,2,0,P|282:170|306:168,1,50,0|2,0:0|0:0,0:0:0:0:
403,87,192737,2,0,P|333:61|293:52,1,100,8|0,0:0|0:0,0:0:0:0:
235,251,193103,1,2,0:0:0:0:
199,99,193286,1,2,0:0:0:0:
380,172,193469,2,0,P|320:171|278:170,1,100,8|0,0:0|0:0,0:0:0:0:
139,257,193744,1,2,0:0:0:0:
139,257,193835,6,0,P|199:256|241:255,1,100,2|0,0:1|0:0,0:0:0:0:
380,172,194197,1,8,0:0:0:0:
282,85,194378,1,0,0:0:0:0:
282,85,194468,1,2,0:0:0:0:
282,85,194559,1,8,0:0:0:0:
302,220,194740,1,2,0:0:0:0:
416,104,194921,1,8,0:0:0:0:
394,147,195011,1,8,0:0:0:0:
407,194,195102,1,8,0:0:0:0:
449,220,195192,1,8,0:0:0:0:
497,212,195283,6,0,P|434:212|401:256,1,100,2|0,0:0|0:0,0:0:0:0:
378,325,195547,1,2,0:0:0:0:
378,325,195635,2,0,L|266:316,1,100,8|0,0:0|0:0,0:0:0:0:
145,250,195987,1,2,0:0:0:0:
265,198,196163,1,2,0:0:0:0:
127,253,196339,2,0,P|100:171|92:134,1,100,8|0,0:0|0:0,0:0:0:0:
62,52,196604,1,0,0:0:0:0:
62,52,196692,6,0,P|128:76|185:61,1,100,2|0,0:1|0:0,0:0:0:0:
271,121,196958,1,2,0:0:0:0:
271,121,197047,2,0,P|204:142|168:189,1,100,8|0,0:0|0:0,0:0:0:0:
274,301,197403,2,0,P|267:238|261:192,1,100,2|2,0:0|0:0,0:0:0:0:
376,126,197669,1,0,0:0:0:0:
376,126,197758,2,0,P|369:175|365:216,1,50,8|0,0:0|0:0,0:0:0:0:
367,327,197936,2,0,P|361:300|360:277,1,50,8|8,0:0|0:0,0:0:0:0:
249,102,198114,6,0,P|255:151|265:228,1,100,2|0,0:1|0:0,0:0:0:0:
168,167,198373,1,0,0:0:0:0:
168,167,198460,1,8,0:0:0:0:
327,62,198633,2,0,L|335:119,1,50,0|8,0:0|0:0,0:0:0:0:
346,235,198806,2,0,P|267:199|241:212,1,100,2|0,0:0|0:0,0:0:0:0:
151,336,199152,1,8,0:0:0:0:
131,161,199325,1,0,0:0:0:0:
284,309,199499,5,2,0:1:0:0:
284,309,199673,2,0,L|340:297,1,50,2|0,0:1|0:0,0:0:0:0:
476,234,199847,2,0,L|420:222,1,50,8|0,0:0|0:0,0:0:0:0:
268,175,200021,2,0,L|324:163,1,50,2|0,0:1|0:0,0:0:0:0:
462,81,200195,2,0,L|456:136,1,50,8|0,0:0|0:0,0:0:0:0:
364,0,200369,2,0,L|358:55,1,50,2|0,0:1|0:0,0:0:0:0:
228,264,200543,6,0,L|218:229,1,25,2|0,0:1|0:0,0:0:0:0:
182,226,200630,2,0,L|196:183,1,25,2|0,0:1|0:0,0:0:0:0:
170,168,200717,2,0,L|196:142,1,25,2|0,0:1|0:0,0:0:0:0:
199,117,200804,2,0,L|236:115,1,25,2|0,0:1|0:0,0:0:0:0:
271,107,200892,5,8,0:0:0:0:
327,247,201063,1,0,0:0:0:0:
327,247,201149,1,0,0:0:0:0:
327,247,201235,1,8,0:0:0:0:
142,64,201407,1,0,0:0:0:0:
338,158,201579,1,8,0:0:0:0:
159,199,201751,1,0,0:0:0:0:
251,27,201923,2,0,P|250:105|252:143,1,100,10|0,0:0|0:0,0:0:0:0:
252,312,202267,5,8,0:0:0:0:
385,241,202435,1,0,0:0:0:0:
252,312,202604,2,0,P|177:288|157:286,1,100,8|0,0:0|0:0,0:0:0:0:
72,283,202856,1,2,0:0:0:0:
72,283,202941,1,8,0:0:0:0:
224,184,203109,1,0,0:0:0:0:
59,69,203278,1,8,0:0:0:0:
121,201,203446,2,0,L|121:143,1,50,2|2,0:3|0:0,0:0:0:0:
205,32,203615,6,0,P|288:41|319:74,1,100,8|0,0:0|0:0,0:0:0:0:
310,58,203865,1,2,0:0:0:0:
319,69,203949,1,8,0:0:0:0:
258,244,204116,1,0,0:0:0:0:
258,244,204199,1,0,0:0:0:0:
258,244,204283,2,0,P|247:172|243:129,1,100,8|0,0:0|0:0,0:0:0:0:
426,218,204617,1,8,0:0:0:0:
331,322,204784,1,0,0:0:0:0:
351,117,204952,6,0,P|420:117|478:118,1,100,8|0,0:0|0:0,0:0:0:0:
257,44,205284,2,0,P|251:94|244:144,1,100,8|0,0:0|0:0,0:0:0:0:
175,263,205616,1,8,0:0:0:0:
91,131,205783,1,0,0:0:0:0:
254,223,205949,1,8,0:0:0:0:
286,236,206032,1,0,0:0:0:0:
318,249,206115,1,8,0:0:0:0:
352,244,206198,1,0,0:0:0:0:
384,233,206281,6,0,P|357:306|380:351,1,100,8|0,0:0|0:0,0:0:0:0:
451,303,206528,1,0,0:0:0:0:
451,303,206610,1,8,0:0:0:0:
304,181,206775,1,0,0:0:0:0:
464,106,206940,2,0,L|457:219,1,100,8|0,0:0|0:0,0:0:0:0:
324,32,207270,1,8,0:0:0:0:
360,195,207435,1,0,0:0:0:0:
467,91,207600,5,8,0:0:0:0:
245,137,207763,1,0,0:0:0:0:
245,137,207845,1,0,0:0:0:0:
245,137,207926,1,8,0:0:0:0:
461,212,208090,1,0,0:0:0:0:
372,52,208253,2,0,P|358:143|356:172,1,100,8|0,0:0|0:0,0:0:0:0:
285,333,208580,2,0,P|279:283|270:234,1,100,8|2,0:0|0:0,0:0:0:0:
222,162,208826,1,0,0:0:0:0:
222,162,208907,6,0,P|191:197|194:272,1,100,10|0,0:0|0:0,0:0:0:0:
271,90,209153,1,2,0:0:0:0:
271,90,209235,2,0,P|226:75|158:107,1,100,8|0,0:0|0:0,0:0:0:0:
311,167,209482,1,0,0:0:0:0:
311,167,209564,1,8,0:0:0:0:
354,41,209728,1,0,0:0:0:0:
449,221,209893,2,0,P|439:293|436:335,1,100,8|0,0:0|0:0,0:0:0:0:
314,110,210222,6,0,P|324:182|327:224,1,100,8|0,0:0|0:0,0:0:0:0:
404,140,210467,1,2,0:0:0:0:
404,140,210549,1,8,0:0:0:0:
234,218,210713,1,0,0:0:0:0:
356,307,210877,1,8,0:0:0:0:
218,85,211041,1,0,0:0:0:0:
174,341,211205,1,2,0:3:0:0:
164,343,211286,1,2,0:3:0:0:
154,345,211368,1,2,0:3:0:0:
144,347,211450,1,2,0:3:0:0:
135,349,211532,6,0,P|123:288|104:251,1,80,2|0,0:0|0:0,0:0:0:0:
19,210,211777,1,0,0:0:0:0:
19,210,211859,2,0,P|32:172|37:132,1,80,8|0,0:0|0:0,0:0:0:0:
141,43,212105,1,0,0:0:0:0:
141,43,212187,1,2,0:0:0:0:
154,173,212351,1,2,0:0:0:0:
44,42,212515,1,8,0:0:0:0:
154,173,212679,6,0,P|199:164|255:152,1,80,2|2,0:1|0:0,0:0:0:0:
128,280,213007,2,0,P|173:271|229:259,1,80,2|8,0:1|0:0,0:0:0:0:
325,69,213334,2,0,L|317:32,2,20,2|0|0,0:3|0:0|0:0,0:0:0:0:
351,81,213498,2,0,P|332:136|347:178,1,80,2|2,0:0|0:0,0:0:0:0:
414,253,213744,1,0,0:0:0:0:
414,253,213826,2,0,P|465:262|517:277,1,80,8|0,0:0|0:0,0:0:0:0:
326,338,214072,1,0,0:0:0:0:
326,338,214154,6,0,P|275:347|223:362,1,80,2|0,0:0|0:0,0:0:0:0:
134,305,214482,1,8,0:0:0:0:
240,213,214645,1,0,0:0:0:0:
240,213,214727,1,0,0:0:0:0:
240,213,214809,2,0,P|245:150|248:111,1,80,2|2,0:0|0:0,0:0:0:0:
87,32,215137,1,8,0:0:0:0:
159,161,215301,1,0,0:0:0:0:
259,39,215465,6,0,P|299:45|369:55,1,80,2|0,0:0|0:0,0:0:0:0:
373,159,215793,1,8,0:0:0:0:
499,72,215957,2,0,L|504:42,2,20,2|0|0,0:3|0:0|0:0,0:0:0:0:
479,93,216121,2,0,P|492:159|488:186,1,80,2|2,0:0|0:0,0:0:0:0:
435,266,216366,1,0,0:0:0:0:
435,266,216448,2,0,P|389:246|341:240,1,80,8|0,0:0|0:0,0:0:0:0:
286,323,216694,1,0,0:0:0:0:
286,323,216776,5,2,0:0:0:0:
226,154,216940,1,0,0:0:0:0:
359,240,217104,1,8,0:0:0:0:
226,154,217268,2,0,P|159:161|109:161,1,80,0|2,0:0|0:0,0:0:0:0:
19,170,217596,1,2,0:0:0:0:
95,57,217759,1,8,0:0:0:0:
115,248,217923,1,0,0:0:0:0:
115,248,218005,1,0,0:0:0:0:
115,248,218087,6,0,P|170:254|203:266,1,80,2|0,0:0|0:0,0:0:0:0:
285,349,218415,1,8,0:0:0:0:
361,188,218579,2,0,L|352:155,2,20,2|0|0,0:3|0:0|0:0,0:0:0:0:
384,204,218743,2,0,P|370:251|370:298,1,80,2|2,0:0|0:0,0:0:0:0:
489,267,219071,1,8,0:0:0:0:
280,217,219235,1,0,0:0:0:0:
280,217,219316,1,0,0:0:0:0:
280,217,219398,6,0,L|192:203,1,80,2|0,0:0|0:0,0:0:0:0:
88,126,219726,2,0,P|137:119|204:103,1,80,8|0,0:0|0:0,0:0:0:0:
101,32,219972,1,0,0:0:0:0:
101,32,220054,1,2,0:0:0:0:
200,204,220218,1,2,0:0:0:0:
284,32,220382,2,0,P|270:86|262:128,1,80,8|0,0:0|0:0,0:0:0:0:
357,102,220628,1,0,0:0:0:0:
357,102,220710,6,0,P|409:107|448:112,1,80,2|0,0:0|0:0,0:0:0:0:
409,15,221037,1,8,0:0:0:0:
453,214,221201,2,0,L|487:217,2,20,2|0|0,0:3|0:0|0:0,0:0:0:0:
434,236,221365,2,0,P|382:231|343:226,1,80,2|2,0:0|0:0,0:0:0:0:
254,229,221611,1,0,0:0:0:0:
254,229,221693,2,0,P|241:295|253:332,1,80,8|0,0:0|0:0,0:0:0:0:
301,117,222021,5,2,0:0:0:0:
325,289,222185,1,0,0:0:0:0:
325,289,222267,1,0,0:0:0:0:
325,289,222349,1,8,0:0:0:0:
162,230,222512,1,0,0:0:0:0:
332,209,222676,2,0,L|322:318,1,80,2|2,0:0|0:0,0:0:0:0:
226,138,222922,1,0,0:0:0:0:
226,138,223004,2,0,L|236:247,1,80,8|0,0:0|0:0,0:0:0:0:
326,113,223250,1,0,0:0:0:0:
326,113,223332,5,2,0:0:0:0:
138,175,223496,1,0,0:0:0:0:
138,175,223578,1,0,0:0:0:0:
138,175,223660,1,8,0:0:0:0:
226,138,223824,1,0,0:0:0:0:
87,108,223987,2,0,P|57:173|65:209,1,80,2|2,0:0|0:0,0:0:0:0:
174,298,224233,1,2,0:0:0:0:
174,298,224315,2,0,P|118:252|82:250,1,80,8|0,0:0|0:0,0:0:0:0:
17,334,224561,1,0,0:0:0:0:
17,334,224643,6,0,L|97:334,1,80,2|0,0:0|0:0,0:0:0:0:
177,384,224889,1,2,0:0:0:0:
177,384,224971,1,8,0:0:0:0:
238,166,225135,2,0,B|273:244|273:244|230:348,1,160,2|2,0:0|0:0,0:0:0:0:
161,157,225626,2,0,P|191:105|244:94,1,80,8|0,0:0|0:0,0:0:0:0:
299,124,225872,1,2,0:0:0:0:
299,124,225954,6,0,B|339:136|339:136|396:123,1,80,2|0,0:0|0:0,0:0:0:0:
461,0,226200,1,0,0:0:0:0:
461,0,226282,2,0,P|441:41|443:79,1,80,8|0,0:0|0:0,0:0:0:0:
453,195,226610,2,0,L|321:228,2,120,2|2|2,0:1|0:1|0:1,0:0:0:0:
269,268,227265,6,0,P|258:212|283:165,1,80,2|0,0:0|0:0,0:0:0:0:
370,298,227511,1,0,0:0:0:0:
370,298,227593,2,0,L|360:385,1,80,8|0,0:0|0:0,0:0:0:0:
372,186,227921,1,2,0:0:0:0:
269,268,228085,1,2,0:0:0:0:
484,186,228249,1,8,0:0:0:0:
266,114,228413,1,0,0:0:0:0:
376,15,228576,6,0,L|376:102,1,80,2|2,0:0|0:1,0:0:0:0:
331,192,228822,1,0,0:0:0:0:
331,192,228904,2,0,P|300:166|282:152,1,40,8|0,0:0|0:0,0:0:0:0:
178,220,229068,2,0,P|193:182|200:161,1,40,2|0,0:1|0:0,0:0:0:0:
233,2,229232,2,0,L|241:128,2,120,2|2|2,0:1|0:1|0:1,0:0:0:0:
246,201,229888,6,0,L|238:88,1,80,2|0,0:0|0:0,0:0:0:0:
239,109,230133,1,8,0:0:0:0:
238,97,230215,1,10,0:0:0:0:
360,171,230379,1,0,0:0:0:0:
360,171,230461,1,0,0:0:0:0:
360,171,230543,2,0,L|367:242,1,40,8|0,0:0|0:0,0:0:0:0:
146,260,230707,1,0,0:0:0:0:
146,260,230789,1,2,0:0:0:0:
146,260,230871,2,0,L|141:197,1,40,8|0,0:0|0:0,0:0:0:0:
330,349,231035,1,0,0:0:0:0:
330,349,231117,1,2,0:0:0:0:
330,349,231199,6,0,P|384:354|402:356,3,50,8|0|8|0,0:0|0:0|0:0|0:0,0:0:0:0:
232,286,231553,2,0,P|178:291|160:293,3,50,8|0|8|0,0:0|0:0|0:0|0:0,0:0:0:0:
339,219,231907,6,0,L|331:262,1,33.3333333333333,8|0,0:0|0:0,0:0:0:0:
326,203,232025,2,0,L|318:246,1,33.3333333333333
313,190,232143,2,0,L|305:233,1,33.3333333333333,8|0,0:0|0:0,0:0:0:0:
289,178,232261,6,0,L|297:221,1,33.3333333333333,8|0,0:0|0:0,0:0:0:0:
297,158,232379,2,0,L|305:201,1,33.3333333333333
306,144,232497,2,0,L|314:187,1,33.3333333333333,8|0,0:0|0:0,0:0:0:0:
320,127,232615,6,0,P|272:105|240:77,2,63.3333316421509,2|0|0,0:1|0:0|0:0,0:0:0:0:
346,34,232990,2,0,P|394:12|426:-16,2,63.3333316421509,2|0|0,0:1|0:0|0:0,0:0:0:0:
439,114,233366,2,0,P|428:183|424:243,1,126.666663284302,2|2,0:1|0:1,0:0:0:0:
334,345,233742,1,0,0:1:0:0:
334,345,233868,2,0,P|314:277|297:243,1,63.3333316421509,2|0,0:1|0:1,0:0:0:0:
162,229,234118,6,0,P|230:209|264:192,2,63.3333316421509,2|0|0,0:1|0:0|0:0,0:0:0:0:
366,129,234494,2,0,P|298:109|264:92,2,63.3333316421509,2|0|0,0:1|0:0|0:0,0:0:0:0:
184,75,234870,1,2,0:1:0:0:
184,75,234996,1,2,0:1:0:0:
184,75,235121,1,2,0:1:0:0:
184,75,235246,2,0,L|177:31,4,31.6666658210755,2|2|2|2|2,0:1|0:1|0:1|0:1|0:1,0:0:0:0:
44,143,235622,6,0,P|64:179|68:243,1,63.3333316421509,2|0,0:1|0:0,0:0:0:0:
89,355,235871,1,0,0:0:0:0:
89,355,235996,2,0,P|125:335|189:331,1,63.3333316421509,2|0,0:1|0:0,0:0:0:0:
250,214,236245,1,2,0:1:0:0:
250,214,236370,2,0,P|214:194|150:190,1,63.3333316421509,2|0,0:1|0:0,0:0:0:0:
317,122,236620,2,0,P|308:81|269:30,1,63.3333316421509,2|0,0:1|0:0,0:0:0:0:
424,177,236869,2,0,P|449:144|463:81,1,63.3333316421509,2|0,0:1|0:0,0:0:0:0:
363,260,237119,6,0,P|377:308|386:364,2,63.3333316421509,2|0|0,0:1|0:0|0:0,0:0:0:0:
216,142,237493,2,0,P|263:182|325:182,1,126.666663284302,2|0,0:1|0:0,0:0:0:0:
375,34,237868,2,0,B|364:67,4,31.6666658210755,2|2|2|2|2,0:1|0:1|0:1|0:1|0:1,0:0:0:0:
279,82,238242,2,0,B|290:115,4,31.6666658210755,2|2|2|2|2,0:1|0:1|0:1|0:1|0:1,0:0:0:0:
386,181,238616,6,0,P|358:224|345:252,2,63.3333316421509,2|0|0,0:1|0:0|0:0,0:0:0:0:
288,331,238979,2,0,P|316:374|329:402,2,63.3333316421509,2|0|0,0:1|0:0|0:0,0:0:0:0:
237,264,239343,1,2,0:1:0:0:
155,255,239464,1,0,0:0:0:0:
81,292,239586,1,0,0:0:0:0:
91,210,239707,2,0,P|76:147|66:130,2,63.3333316421509,2|0|0,0:1|0:0|0:0,0:0:0:0:
171,34,240071,6,0,L|152:133,2,63.3333316421509,2|0|0,0:1|0:0|0:0,0:0:0:0:
233,151,240434,2,0,L|214:250,2,63.3333316421509,2|0|0,0:1|0:0|0:0,0:0:0:0:
345,59,240798,2,0,L|326:158,2,63.3333316421509,2|0|0,0:1|0:0|0:0,0:0:0:0:
430,161,241161,2,0,L|411:260,2,63.3333316421509,2|0|0,0:1|0:0|0:0,0:0:0:0:
464,298,241526,6,0,P|427:310|372:287,1,63.3333316421509,2|0,0:1|0:0,0:0:0:0:
268,362,241768,2,0,P|270:291|284:267,1,63.3333316421509,0|2,0:0|0:1,0:0:0:0:
311,230,242010,1,2,0:1:0:0:
267,159,242132,1,2,0:1:0:0:
219,225,242253,2,0,P|159:244|145:243,2,63.3333316421509,2|0|0,0:1|0:0|0:0,0:0:0:0:
119,101,242617,2,0,P|179:82|193:83,2,63.3333316421509,2|2|2,0:1|0:1|0:1,0:0:0:0:
73,260,242980,6,0,P|61:183|57:153,1,63.3333316421509,2|0,0:1|0:0,0:0:0:0:
133,364,243223,1,2,0:1:0:0:
133,364,243344,2,0,P|178:329|211:312,1,63.3333316421509,2|0,0:1|0:0,0:0:0:0:
321,287,243587,1,2,0:1:0:0:
321,287,243708,2,0,P|355:293|414:301,2,63.3333316421509,2|2|2,0:1|0:1|0:1,0:0:0:0:
173,201,244071,2,0,L|161:148,4,31.6666658210755,2|2|2|2|2,0:1|0:1|0:1|0:1|0:1,0:0:0:0:
282,65,244435,6,0,P|274:146|270:200,1,126.666663284302,12|0,0:0|0:0,0:0:0:0:
187,86,244801,2,0,L|106:89,2,63.3333316421509,8|0|2,0:0|0:0|0:0,0:0:0:0:
362,18,245168,2,0,P|383:70|378:92,1,63.3333316421509,12|0,0:0|0:0,0:0:0:0:
369,282,245412,2,0,P|348:230|353:208,1,63.3333316421509,8|0,0:0|0:0,0:0:0:0:
500,156,245656,2,0,L|425:156,1,63.3333316421509,8|0,0:0|0:0,0:0:0:0:
259,160,245901,6,0,P|223:267|231:301,1,126.666663284302,8|0,0:0|0:0,0:0:0:0:
117,208,246267,2,0,L|48:211,2,63.3333316421509,8|0|2,0:0|0:0|0:0,0:0:0:0:
224,42,246634,2,0,P|260:149|252:183,1,126.666663284302,12|0,0:0|0:0,0:0:0:0:
344,78,247000,2,0,L|412:82,2,63.3333316421509,8|0|2,0:0|0:0|0:0,0:0:0:0:
173,127,247367,6,0,B|40:127,1,126.666663284302,8|0,0:0|0:0,0:0:0:0:
147,216,247727,2,0,B|67:217,2,63.3333316421509,8|0|0,0:0|0:0|0:0,0:0:0:0:
281,127,248087,2,0,P|335:104|413:147,1,126.666663284302,12|0,0:0|0:0,0:0:0:0:
422,208,248447,2,0,L|417:307,2,63.3333316421509,8|0|2,0:0|0:0|0:0,0:0:0:0:
349,5,248808,6,0,L|341:149,1,126.666663284302,8|0,0:0|0:0,0:0:0:0:
290,195,249168,1,8,0:0:0:0:
208,183,249288,1,8,0:0:0:0:
183,104,249408,1,8,0:0:0:0:
126,44,249528,2,0,P|61:74|50:168,1,126.666663284302,12|0,0:0|0:0,0:0:0:0:
127,245,249889,2,0,L|128:172,2,63.3333316421509,2|8|8,0:1|0:0|0:0,0:0:0:0:
68,305,250249,6,0,P|109:330|161:327,1,100,8|2,0:0|0:0,0:0:0:0:
229,293,250719,1,2,0:0:0:0:
229,293,250836,1,2,0:0:0:0:
229,293,250954,2,0,P|279:267|325:284,1,100,8|2,0:0|0:0,0:0:0:0:
405,314,251424,1,2,0:0:0:0:
405,314,251541,1,2,0:0:0:0:
405,314,251659,6,0,P|388:260|412:217,1,100,8|2,0:0|0:0,0:0:0:0:
344,157,252129,1,2,0:0:0:0:
344,157,252246,1,2,0:0:0:0:
344,157,252364,2,0,P|307:199|258:201,1,100,8|2,0:0|0:0,0:0:0:0:
196,168,252834,1,2,0:0:0:0:
196,168,252951,1,2,0:0:0:0:
196,168,253069,6,0,L|75:169,1,100,8|2,0:0|0:0,0:0:0:0:
45,74,253539,1,2,0:0:0:0:
45,74,253656,1,2,0:0:0:0:
45,74,253774,2,0,L|166:73,1,100,8|2,0:0|0:0,0:0:0:0:
230,24,254245,1,2,0:0:0:0:
230,24,254362,1,2,0:0:0:0:
230,24,254480,6,0,P|268:66|266:122,1,100,8|2,0:0|0:0,0:0:0:0:
227,182,254951,1,2,0:0:0:0:
227,182,255068,1,2,0:0:0:0:
227,182,255186,2,0,P|189:224|191:280,1,100,8|2,0:0|0:0,0:0:0:0:
217,362,255656,1,2,0:0:0:0:
217,362,255774,1,2,0:0:0:0:
410,249,256066,5,2,0:1:0:0:
395,248,256153,1,2,0:1:0:0:
379,248,256240,2,0,L|317:247,1,50,2|2,0:1|0:1,0:0:0:0:
253,121,256415,2,0,L|315:120,1,50,2|2,0:1|0:1,0:0:0:0:
217,250,256589,1,2,0:1:0:0:
320,248,257331,6,0,P|313:176|328:154,1,100,2|2,0:1|0:1,0:0:0:0:
265,82,257944,1,0,0:0:0:0:
199,142,258116,2,0,L|132:143,1,50,2|2,0:1|0:1,0:0:0:0:
67,188,258508,2,0,P|59:118|70:92,1,100,2|2,0:1|0:1,0:0:0:0:
149,142,259292,1,2,0:1:0:0:
158,339,259683,5,2,0:1:0:0:
158,339,259782,2,0,L|209:338,1,50,2|0,0:1|0:0,0:0:0:0:
253,334,260080,2,0,P|263:278|247:233,1,100,2|0,0:1|0:0,0:0:0:0:
141,246,260875,2,0,P|131:190|147:145,1,100,2|2,0:1|0:1,0:0:0:0:
198,54,261679,1,2,0:1:0:0:
272,128,262082,5,2,0:1:0:0:
272,128,262187,2,0,L|351:128,1,75,2|2,0:1|0:1,0:0:0:0:
441,185,262950,1,2,0:1:0:0:
352,264,263345,2,0,L|252:263,1,100,2|2,0:1|0:1,0:0:0:0:
175,200,264141,1,2,0:1:0:0:
91,260,264340,1,0,0:0:0:0:
91,260,264439,1,2,0:1:0:0:
91,260,264539,6,0,P|79:187|71:148,1,100,2|0,0:1|0:0,0:0:0:0:
8,90,265332,1,0,0:0:0:0:
96,48,265729,2,0,P|135:59|169:59,1,75,2|0,0:1|0:0,0:0:0:0:
210,51,266119,2,0,P|233:30|301:31,1,100,2|2,0:1|0:1,0:0:0:0:
387,99,266902,6,0,L|383:217,1,100,2|2,0:1|0:1,0:0:0:0:
304,272,267718,2,0,L|304:218,1,50,2|0,0:1|0:0,0:0:0:0:
286,137,268126,2,0,P|236:134|202:167,1,100,2|2,0:1|0:1,0:0:0:0:
167,269,268962,2,0,L|114:269,1,50,2|0,0:1|0:0,0:0:0:0:
43,191,269381,6,0,L|148:192,1,100,2|2,0:1|0:1,0:0:0:0:
241,69,270317,1,2,0:1:0:0:
256,243,270781,2,0,L|256:275,1,25,2|2,0:1|0:1,0:0:0:0:
256,192,271027,12,0,272615,0:0:0:0:
203,180,272781,6,0,P|244:140|297:151,1,100,12|0,0:0|0:0,0:0:0:0:
388,263,273096,1,8,0:0:0:0:
435,136,273254,1,0,0:0:0:0:
435,136,273332,1,0,0:0:0:0:
435,136,273411,1,8,0:0:0:0:
335,212,273569,1,0,0:0:0:0:
506,176,273727,2,0,P|509:104|473:59,1,100,8|0,0:0|0:0,0:0:0:0:
326,28,274042,6,0,B|373:44|373:44|429:28,1,100,8|0,0:0|0:0,0:0:0:0:
271,160,274358,1,8,0:0:0:0:
202,53,274516,1,0,0:0:0:0:
354,132,274674,2,0,P|347:187|343:242,1,100,8|0,0:0|0:0,0:0:0:0:
246,384,274990,2,0,P|241:334|235:284,1,100,8|0,0:0|0:0,0:0:0:0:
132,175,275307,5,8,0:0:0:0:
124,295,275469,1,2,0:0:0:0:
242,169,275632,1,8,0:0:0:0:
320,300,275794,1,2,0:0:0:0:
403,227,275957,2,0,L|302:218,2,66.6666666666667,8|2|2,0:0|0:0|0:0,0:0:0:0:
495,131,276282,2,0,L|500:64,2,66.6666666666667,8|2|2,0:0|0:0|0:0,0:0:0:0:
376,0,276607,6,0,P|408:85|393:132,1,133.333333333333,12|0,0:0|0:0,0:0:0:0:
327,74,276915,1,0,0:0:0:0:
327,74,276977,2,0,L|271:68,4,33.3333333333333,8|2|2|0|0,0:0|0:0|0:0|0:0|0:0,0:0:0:0:
203,180,277347,2,0,L|292:169,2,66.6666666666667,8|2|2,0:0|0:0|0:0,0:0:0:0:
126,108,277717,2,0,L|114:27,2,66.6666666666667,8|2|2,0:0|0:0|0:0,0:0:0:0:
62,216,278088,6,0,P|36:276|70:351,1,106.666666666667,4|0,0:0|0:0,0:0:0:0:
180,282,278495,2,0,L|127:282,2,53.3333333333333,2|0|2,0:1|0:0|0:1,0:0:0:0:
250,208,278902,2,0,P|281:270|282:288,1,53.3333333333333,2|0,0:2|0:0,0:0:0:0:
269,380,279173,2,0,P|279:355|296:334,1,53.3333333333333,2|0,0:1|0:0,0:0:0:0:
361,272,279445,1,2,0:1:0:0:
361,272,279581,1,0,0:0:0:0:
361,272,279716,6,0,B|430:292|430:292|496:271,1,133.333333333333,2|0,0:1|0:0,0:0:0:0:
433,196,280115,2,0,B|364:176|364:176|298:197,1,133.333333333333,2|0,0:1|0:0,0:0:0:0:
237,383,280515,2,0,P|249:330|238:294,1,66.6666666666667,2|0,0:0|0:0,0:0:0:0:
108,364,280782,2,0,P|140:355|167:335,1,66.6666666666667,2|0,0:1|0:0,0:0:0:0:
43,264,281048,2,0,P|72:279|105:282,1,66.6666666666667,2|0,0:1|0:0,0:0:0:0:
98,190,281315,6,0,P|128:132|112:68,1,133.333333333333,2|0,0:1|0:0,0:0:0:0:
37,123,281714,2,0,B|91:142|91:142|196:129,1,133.333333333333,2|0,0:1|0:0,0:0:0:0:
295,28,282114,2,0,P|366:72|356:147,1,133.333333333333,2|2,0:2|0:1,0:0:0:0:
317,199,282514,1,0,0:0:0:0:
317,199,282647,1,2,0:1:0:0:
317,199,282780,1,0,0:0:0:0:
317,199,282914,6,0,P|269:267|279:319,1,133.333333333333,2|0,0:1|0:0,0:0:0:0:
468,250,283313,2,0,B|411:287|411:287|347:274,1,133.333333333333,2|0,0:1|0:0,0:0:0:0:
295,128,283713,2,0,P|362:140|379:162,1,66.6666666666667,2|0,0:0|0:0,0:0:0:0:
224,102,283980,2,0,P|276:58|304:59,1,66.6666666666667,2|0,0:1|0:0,0:0:0:0:
155,138,284246,2,0,P|155:69|173:49,1,66.6666666666667,2|0,0:1|0:0,0:0:0:0:
77,184,284513,6,0,P|58:106|85:23,1,133.333333333333,2|0,0:1|0:0,0:0:0:0:
160,79,284913,1,0,0:0:0:0:
160,79,285046,2,0,L|232:76,1,66.6666666666667,2|2,0:1|0:1,0:0:0:0:
372,161,285312,2,0,L|212:170,1,133.333333333333,2|0,0:2|0:0,0:0:0:0:
153,256,285712,2,0,L|263:247,2,66.6666666666667,0|2|2,0:0|0:1|0:1,0:0:0:0:
275,384,286112,6,0,L|283:311,1,66.6666666666667,2|0,0:1|0:0,0:0:0:0:
384,257,286378,2,0,L|376:323,1,66.6666666666667,2|0,0:1|0:0,0:0:0:0:
299,236,286645,2,0,L|307:163,1,66.6666666666667,2|0,0:1|0:0,0:0:0:0:
367,24,286911,2,0,P|408:126|387:163,1,133.333333333333,2|0,0:2|0:0,0:0:0:0:
327,100,287311,2,0,L|234:95,2,66.6666666666667,2|0|0,0:1|0:0|0:0,0:0:0:0:
192,151,287711,6,0,P|183:65|211:25,1,133.333333333333,2|0,0:1|0:0,0:0:0:0:
262,190,288111,2,0,L|122:186,1,133.333333333333,2|0,0:1|0:0,0:0:0:0:
62,337,288511,2,0,L|202:341,1,133.333333333333,2|2,0:0|0:1,0:0:0:0:
267,300,288910,2,0,P|278:345|266:387,2,66.6666666666667,0|2|0,0:0|0:1|0:0,0:0:0:0:
188,187,289310,6,0,P|250:225|331:186,1,133.333333333333,2|0,0:1|0:0,0:0:0:0:
375,158,289710,2,0,P|437:120|518:159,1,133.333333333333,2|0,0:1|0:0,0:0:0:0:
444,266,290110,2,0,L|444:200,1,66.6666666666667,2|0,0:0|0:0,0:0:0:0:
359,316,290376,2,0,L|358:382,1,66.6666666666667,2|0,0:1|0:0,0:0:0:0:
275,250,290643,2,0,L|274:154,1,66.6666666666667,2|0,0:1|0:0,0:0:0:0:
198,329,290909,6,0,P|132:356|55:317,1,133.333333333333,6|0,0:0|0:0,0:0:0:0:
137,198,291309,2,0,L|132:265,1,66.6666666666667,2|0,0:0|0:0,0:0:0:0:
30,135,291575,1,0,0:0:0:0:
30,135,291709,2,0,P|37:207|43:257,1,66.6666666666667,6|0,0:0|0:0,0:0:0:0:
159,40,291975,1,2,0:1:0:0:
159,40,292108,1,2,0:0:0:0:
159,40,292242,2,0,L|153:128,1,66.6666666666667,2|2,0:1|0:1,0:0:0:0:
183,271,292508,6,0,P|311:274|354:275,1,133.333333333333,2|0,0:0|0:0,0:0:0:0:
405,206,292908,2,0,P|426:253|411:315,2,66.6666666666667,2|0|0,0:0|0:0|0:0,0:0:0:0:
330,140,293308,2,0,P|389:110|424:115,1,66.6666666666667,6|0,0:0|0:0,0:0:0:0:
247,213,293574,2,0,L|168:210,1,66.6666666666667,2|2,0:1|0:0,0:0:0:0:
177,73,293841,2,0,L|256:70,1,66.6666666666667,2|0,0:1|0:0,0:0:0:0:
329,7,294107,6,0,P|331:115|330:177,1,133.333333333333,2|0,0:0|0:0,0:0:0:0:
334,294,294507,2,0,P|291:223|229:215,1,133.333333333333,2|0,0:0|0:0,0:0:0:0:
406,204,294907,2,0,P|457:208|509:212,1,66.6666666666667,6|0,0:0|0:0,0:0:0:0:
330,140,295173,2,0,L|326:70,1,66.6666666666667,2|2,0:1|0:0,0:0:0:0:
256,222,295440,1,2,0:1:0:0:
256,222,295573,1,2,0:1:0:0:
256,222,295706,6,0,P|219:233|170:212,1,66.6666666666667,2|0,0:0|0:0,0:0:0:0:
163,62,295973,2,0,L|162:135,1,66.6666666666667,2|2,0:1|0:0,0:0:0:0:
86,181,296239,2,0,P|49:170|0:191,1,66.6666666666667,2|0,0:1|0:2,0:0:0:0:
192,294,296506,2,0,L|192:208,1,66.6666666666667,6|0,0:0|0:0,0:0:0:0:
243,47,296773,2,0,L|244:113,1,66.6666666666667,2|2,0:1|0:0,0:0:0:0:
315,223,297039,2,0,P|358:243|395:236,1,66.6666666666667,2|0,0:1|0:0,0:0:0:0:
462,99,297306,6,0,L|459:197,2,66.6666666666667,6|0|0,0:0|0:0|0:0,0:0:0:0:
424,35,297705,1,2,0:0:0:0:
351,20,297839,1,0,0:0:0:0:
304,76,297972,1,0,0:0:0:0:
325,145,298105,2,0,P|281:144|231:65,1,133.333333333333,6|0,0:0|0:0,0:0:0:0:
404,155,298505,1,2,0:0:0:0:
420,226,298638,1,0,0:0:0:0:
392,294,298771,1,0,0:0:0:0:
330,334,298905,6,0,P|288:329|230:318,1,66.6666666666667,6|0,0:0|0:0,0:0:0:0:
106,256,299171,2,0,P|148:251|206:240,1,66.6666666666667,2|2,0:1|0:0,0:0:0:0:
359,156,299438,2,0,P|317:151|259:140,1,66.6666666666667,2|0,0:1|0:0,0:0:0:0:
115,40,299704,2,0,P|118:117|126:197,1,133.333333333333,6|0,0:0|0:0,0:0:0:0:
222,30,300104,2,0,P|216:97|212:118,2,66.6666666666667,2|0|0,0:0|0:0|0:0,0:0:0:0:
229,243,300504,6,0,P|263:163|355:156,1,133.333333333333,2|0,0:0|0:0,0:0:0:0:
397,266,300903,2,0,B|297:262,2,66.6666666666667,2|0|0,0:0|0:0|0:0,0:0:0:0:
484,313,301303,2,0,L|487:438,1,66.6666666666667,6|0,0:0|0:0,0:0:0:0:
479,57,301703,2,0,L|481:211,1,133.333333333333,2|0,0:0|0:0,0:0:0:0:
390,103,302103,6,0,P|311:62|258:81,1,133.333333333333,6|0,0:0|0:0,0:0:0:0:
180,133,302503,2,0,P|164:60|165:37,2,66.6666666666667,2|0|0,0:0|0:0|0:0,0:0:0:0:
311,277,302902,2,0,P|315:174|319:105,1,133.333333333333,6|0,0:0|0:0,0:0:0:0:
209,242,303302,2,0,P|212:308|214:375,1,133.333333333333,2|0,0:0|0:0,0:0:0:0:
427,246,303702,2,0,P|348:288|300:269,1,133.333333333333,2|0,0:0|0:0,0:0:0:0:
256,179,304102,1,2,0:0:0:0:
256,192,304235,12,4,305301,0:0:0:0:
201,158,305501,5,2,0:1:0:0:
215,158,305600,1,2,0:1:0:0:
230,159,305700,1,2,0:1:0:0:
245,160,305800,1,2,0:1:0:0:
260,161,305900,1,2,0:1:0:0:
275,161,306000,1,2,0:1:0:0:
290,162,306101,2,0,L|336:159,6,25,2|0|0|0|0|0|0,0:1|0:0|0:0|0:0|0:0|0:0|0:0,0:0:0:0:
337,139,306500,2,0,L|388:138,6,40,2|0|0|0|0|0|0,0:1|0:0|0:0|0:0|0:0|0:0|0:0,0:0:0:0:
401,109,306900,6,0,P|439:181|385:269,1,173.333325398763,4|0,0:0|0:0,0:0:0:0:
285,364,307290,2,0,P|296:319|309:277,1,86.6666626993817,8|0,0:0|0:0,0:0:0:0:
258,199,307550,1,2,0:0:0:0:
165,220,307680,2,0,P|119:184|105:138,1,86.6666626993817,12|0,0:0|0:0,0:0:0:0:
212,59,307941,2,0,L|191:158,1,86.6666626993817,8|2,0:0|0:0,0:0:0:0:
48,243,308201,2,0,L|30:158,1,86.6666626993817,8|0,0:0|0:0,0:0:0:0:
289,78,308461,6,0,L|244:275,1,173.333325398763,12|0,0:0|0:0,0:0:0:0:
199,384,308848,2,0,P|177:280|106:258,1,173.333325398763,8|0,0:0|0:0,0:0:0:0:
306,304,309236,2,0,L|414:331,1,86.6666626993817,12|0,0:0|0:0,0:0:0:0:
484,191,309495,2,0,L|465:314,1,86.6666626993817,8|2,0:2|0:0,0:0:0:0:
416,64,309753,2,0,L|396:172,1,86.6666626993817,8|0,0:0|0:0,0:0:0:0:
306,304,310012,6,0,P|320:202|240:147,1,173.333325398763,8|0,0:0|0:0,0:0:0:0:
59,112,310394,2,0,B|140:151|140:151|229:100,1,173.333325398763,8|0,0:0|0:0,0:0:0:0:
400,77,310777,2,0,L|306:75,1,86.6666626993817,12|0,0:0|0:0,0:0:0:0:
146,237,311033,2,0,L|246:235,1,86.6666626993817,8|2,0:0|0:0,0:0:0:0:
290,159,311288,1,8,0:0:0:0:
382,181,311416,1,2,0:0:0:0:
365,275,311543,6,0,P|357:329|370:397,2,86.6666626993817,8|0|0,0:0|0:0|0:0,0:0:0:0:
493,185,311921,2,0,P|501:239|488:307,2,86.6666626993817,8|0|0,0:0|0:0|0:0,0:0:0:0:
390,67,312299,2,0,P|343:62|290:37,1,86.6666626993817,12|0,0:0|0:0,0:0:0:0:
176,172,312551,2,0,P|223:167|276:142,1,86.6666626993817,8|2,0:0|0:0,0:0:0:0:
198,79,312803,1,8,0:0:0:0:
102,79,312929,1,0,0:0:0:0:
73,172,313056,6,0,P|44:256|94:345,1,173.333325398763,12|0,0:0|0:0,0:0:0:0:
210,282,313428,2,0,P|117:254|100:242,2,86.6666626993817,8|2|0,0:0|0:0|0:0,0:0:0:0:
288,147,313800,2,0,P|301:62|388:21,1,173.333325398763,12|0,0:0|0:0,0:0:0:0:
454,151,314173,2,0,P|415:117|344:102,2,97.4999955368044,8|2|0,0:0|0:0|0:0,0:0:0:0:
387,332,314545,6,0,P|401:263|412:224,1,86.6666626993817,8|0,0:0|0:0,0:0:0:0:
284,384,314790,2,0,P|298:315|309:276,1,86.6666626993817,2|8,0:1|0:0,0:0:0:0:
257,133,315035,2,0,P|243:202|232:241,1,86.6666626993817,0|8,0:1|0:0,0:0:0:0:
124,326,315280,2,0,P|69:214|131:137,1,173.333325398763,12|0,0:0|0:0,0:0:0:0:
119,64,315648,2,0,P|77:48|34:53,2,86.6666626993817
198,142,316015,6,0,B|262:167|262:167|344:129,1,146.666671142578,8|0,0:0|0:0,0:0:0:0:
470,234,316379,2,0,B|406:209|406:209|324:247,1,146.666671142578,8|0,0:0|0:0,0:0:0:0:
270,384,316743,2,0,P|267:321|283:292,1,73.3333355712891,12|0,0:0|0:0,0:0:0:0:
203,242,316986,2,0,P|265:216|300:226,1,73.3333355712891,8|2,0:0|0:0,0:0:0:0:
319,127,317229,2,0,P|364:174|368:202,1,73.3333355712891,8|0,0:0|0:0,0:0:0:0:
167,327,317472,6,0,P|147:196|142:139,1,146.666671142578,8|0,0:0|0:0,0:0:0:0:
290,71,317835,2,0,P|281:143|268:216,1,146.666671142578,8|0,0:0|0:0,0:0:0:0:
105,94,318198,2,0,P|165:87|197:101,1,73.3333355712891,12|0,0:0|0:0,0:0:0:0:
361,175,318440,2,0,P|352:222|342:267,1,73.3333355712891,2|8,0:0|0:0,0:0:0:0:
205,347,318682,2,0,P|198:310|190:275,1,73.3333355712891,8|0,0:0|0:0,0:0:0:0:
450,157,318924,6,0,P|419:290|404:367,1,159.999995117188,4|0,0:0|0:0,0:0:0:0:
336,99,319289,2,0,P|363:183|366:196,1,79.9999975585938,8|0,0:0|0:0,0:0:0:0:
308,245,319532,1,2,0:0:0:0:
237,192,319654,2,0,P|183:177|130:177,1,79.9999975585938,8|0,0:0|0:0,0:0:0:0:
24,67,319897,2,0,P|78:52|131:52,1,79.9999975585938,8|0,0:0|0:0,0:0:0:0:
58,274,320141,2,0,P|67:208|72:179,1,79.9999975585938,8|8,0:0|0:0,0:0:0:0:
251,38,320384,6,0,B|223:114|223:114|241:216,1,159.999995117188,4|0,0:0|0:0,0:0:0:0:
305,246,320747,1,8,0:0:0:0:
367,183,320868,2,0,P|442:212|489:243,1,79.9999975585938,2|0,0:0|0:0,0:0:0:0:
314,325,321110,2,0,P|306:260|301:205,1,79.9999975585938,8|0,0:0|0:0,0:0:0:0:
507,58,321352,2,0,P|502:97|497:137,1,79.9999975585938,8|2,0:0|0:0,0:0:0:0:
364,0,321594,2,0,P|359:39|354:79,1,79.9999975585938,8|0,0:0|0:0,0:0:0:0:
260,172,321836,6,0,P|181:182|125:117,1,159.999995117188,12|0,0:0|0:0,0:0:0:0:
135,40,322200,1,8,0:0:0:0:
221,28,322321,2,0,P|208:108|203:135,1,79.9999975585938,2|0,0:0|0:0,0:0:0:0:
135,246,322564,2,0,P|55:259|28:264,1,79.9999975585938,8|0,0:0|0:0,0:0:0:0:
179,364,322806,2,0,P|259:351|286:346,1,79.9999975585938,8|2,0:0|0:0,0:0:0:0:
314,277,323049,1,8,0:0:0:0:
396,305,323170,1,2,0:0:0:0:
458,241,323292,6,0,P|475:175|461:145,2,79.9999975585938,8|0|2,0:0|0:0|0:0,0:0:0:0:
377,32,323654,2,0,P|360:98|374:128,2,79.9999975585938,8|0|2,0:0|0:0|0:0,0:0:0:0:
331,248,324017,2,0,P|307:200|270:165,1,79.9999975585938,8|0,0:0|0:0,0:0:0:0:
225,9,324258,2,0,P|217:84|221:122,1,79.9999975585938,8|2,0:0|0:0,0:0:0:0:
105,248,324500,2,0,P|129:200|166:165,1,79.9999975585938,8|0,0:0|0:0,0:0:0:0:
276,328,324742,6,0,P|170:342|82:356,1,159.999995117188,12|0,0:0|0:0,0:0:0:0:
29,297,325106,2,0,P|15:235|-1:206,2,79.9999975585938,8|0|2,0:0|0:0|0:0,0:0:0:0:
149,66,325470,2,0,P|121:181|134:258,1,159.999995117188,8|0,0:0|0:0,0:0:0:0:
211,201,325835,1,8,0:0:0:0:
277,260,325956,1,2,0:0:0:0:
347,208,326077,1,2,0:0:0:0:
408,271,326199,6,0,P|455:301|505:304,1,79.9999975585938,12|0,0:0|0:0,0:0:0:0:
478,92,326441,2,0,P|439:102|407:126,1,79.9999975585938,8|2,0:0|0:0,0:0:0:0:
314,379,326683,2,0,L|317:275,1,79.9999975585938,8|0,0:0|0:0,0:0:0:0:
256,56,326925,2,0,P|283:172|207:241,1,159.999995117188,8|0,0:0|0:0,0:0:0:0:
120,139,327289,2,0,P|162:131|226:123,1,79.9999975585938,8|2,0:0|0:0,0:0:0:0:
170,221,327531,1,8,0:0:0:0:
66,214,327652,6,0,P|35:115|87:54,1,159.999995117188,12|0,0:0|0:0,0:0:0:0:
170,221,328016,2,0,B|200:307|200:307|166:388,1,159.999995117188,8|0,0:0|0:0,0:0:0:0:
111,296,328381,2,0,P|242:303|266:345,1,159.999995117188,8|0,0:0|0:0,0:0:0:0:
314,196,328746,2,0,P|261:195|221:166,2,79.9999975585938,8|0|2,0:0|0:0|0:0,0:0:0:0:
415,36,329111,6,0,B|382:106|382:106|415:216,1,159.999995117188,8|0,0:0|0:0,0:0:0:0:
499,244,329473,2,0,B|514:154,2,79.9999975585938,8|0|2,0:0|0:0|0:0,0:0:0:0:
432,348,329835,2,0,P|371:300|286:365,1,159.999995117188,8|0,0:0|0:0,0:0:0:0:
172,194,330198,2,0,P|233:242|318:177,1,159.999995117188,8|0,0:0|0:0,0:0:0:0:
404,60,330560,6,0,P|394:152|385:239,1,159.999995117188,4|0,0:0|0:0,0:0:0:0:
305,109,330946,1,2,0:1:0:0:
305,109,331590,2,0,P|220:89|179:118,1,133.333333333333,2|2,0:1|0:1,0:0:0:0:
138,211,332106,1,2,0:1:0:0:
256,192,332213,12,4,334060,0:0:0:0:
168,146,334460,6,0,P|127:130|85:120,2,66.6666666666667,2|0|0,0:1|0:0|0:0,0:0:0:0:
247,254,334860,2,0,P|254:145|287:106,2,133.333333333333,2|2|2,0:1|0:1|0:1,0:0:0:0:
291,337,335526,1,0,0:0:0:0:
291,337,335660,6,0,P|354:319|418:335,1,133.333333333333,2|0,0:1|0:0,0:0:0:0:
485,212,336060,2,0,P|421:229|357:213,1,133.333333333333,2|0,0:1|0:0,0:0:0:0:
278,164,336460,2,0,P|263:93|262:71,1,66.6666666666667,2|0,0:1|0:0,0:0:0:0:
215,255,336726,2,0,P|185:144|183:86,1,133.333333333333,2|2,0:1|0:1,0:0:0:0:
83,49,337126,1,0,0:0:0:0:
83,49,337260,6,0,P|54:109|81:200,1,133.333333333333,2|0,0:1|0:0,0:0:0:0:
316,130,337660,2,0,L|167:125,1,133.333333333333,2|0,0:1|0:0,0:0:0:0:
136,221,338060,2,0,P|154:291|163:326,2,66.6666666666667,2|0|2,0:1|0:0|0:1,0:0:0:0:
203,52,338460,2,0,L|281:54,2,66.6666666666667,2|0|2,0:1|0:0|0:1,0:0:0:0:
53,202,338860,6,0,B|35:277|35:277|96:415,1,159.999995117188,12|0,0:0|0:0,0:0:0:0:
152,285,339260,2,0,B|244:266|244:266|344:321,1,159.999995117188,8|0,0:0|0:0,0:0:0:0:
438,195,339660,2,0,B|346:214|346:214|246:159,1,159.999995117188,8|0,0:0|0:0,0:0:0:0:
250,31,340060,2,0,L|231:116,2,79.9999975585938,8|0|0,0:0|0:0|0:0,0:0:0:0:
129,126,340451,6,0,P|86:172|96:258,1,133.333333333333,12|0,0:0|0:0,0:0:0:0:
154,319,340856,2,0,L|141:408,2,66.6666666666667,0|2|2,0:0|0:1|0:1,0:0:0:0:
259,220,341262,2,0,L|234:384,1,133.333333333333,12|0,0:0|0:0,0:0:0:0:
196,183,341668,2,0,P|262:148|296:160,2,66.6666666666667,0|2|2,0:0|0:1|0:1,0:0:0:0:
365,286,342073,6,0,L|456:293,1,66.6666666666667,12|0,0:0|0:0,0:0:0:0:
450,128,342352,2,0,L|442:224,1,66.6666666666667,2|0,0:1|0:0,0:0:0:0:
324,32,342632,2,0,L|315:122,1,66.6666666666667,2|0,0:1|0:0,0:0:0:0:
145,189,342911,2,0,P|127:98|150:55,1,133.333333333333,12|0,0:0|0:0,0:0:0:0:
242,185,343331,2,0,L|230:343,1,133.333333333333,2|0,0:1|0:0,0:0:0:0:
139,363,343750,6,0,P|131:287|167:237,1,133.333333333333,4|2,0:1|0:1,0:0:0:0:
231,317,344167,1,2,0:1:0:0:
256,192,344306,12,4,345420,0:1:0:0:
256,192,345541,12,0,347438,0:0:0:0:
118,137,347587,6,0,P|74:110|57:99,2,59.9999981689454,4|2|2,0:0|0:1|0:1,0:0:0:0:
205,138,348778,2,0,P|248:111|265:100,2,59.9999981689454,2|2|2,0:1|0:1|0:1,0:0:0:0:
115,219,350000,2,0,P|71:245|54:256,2,59.9999981689454,2|2|2,0:1|0:1|0:1,0:0:0:0:
202,218,351213,2,0,L|227:236,17,16.6666666666667,2|2|2|2|2|2|2|2|2|2|2|2|2|2|2|2|2|0,0:1|0:1|0:1|0:1|0:1|0:1|0:1|0:1|0:1|0:1|0:1|0:1|0:1|0:1|0:1|0:1|0:1|0:0,0:0:0:0:
229,236,354914,6,0,B|235:204|235:204|287:172,2,66.6666666666667,2|2|2,0:1|0:1|0:1,0:0:0:0:
230,330,355313,2,0,B|262:347|262:347|288:394,2,66.6666666666667,2|2|2,0:1|0:1|0:1,0:0:0:0:
142,285,355712,2,0,B|111:302|111:302|87:296|57:303,2,66.6666666666667,2|2|2,0:1|0:1|0:1,0:0:0:0:
293,277,356111,6,0,L|379:285,1,80,4|0,0:2|0:0,0:0:0:0:
435,221,357308,1,2,0:1:0:0:
256,192,357440,12,4,358504,0:1:0:0:
256,192,358637,12,4,362040,0:1:0:0:
