osu file format v14

[General]
AudioFilename: audio.mp3
AudioLeadIn: 0
PreviewTime: 211532
Countdown: 0
SampleSet: Normal
StackLeniency: 0.7
Mode: 1
LetterboxInBreaks: 0
WidescreenStoryboard: 0

[Editor]
DistanceSpacing: 1.4
BeatDivisor: 4
GridSize: 8
TimelineZoom: 2.4

[Metadata]
Title:Bokutachi no Tabi to Epilogue. [Long ver.]
TitleUnicode:僕たちの旅とエピローグ。[Long ver.]
Artist:AAAA
ArtistUnicode:ああああ
Creator:Nifty
Version:Sayonara.
Source:BMS
Tags:Our Journey And Epilogue Groundbreaking G2R2014 Compilation Album 8 bit chiptune battle
BeatmapID:1879692
BeatmapSetID:899895

[Difficulty]
HPDrainRate:5
CircleSize:2
OverallDifficulty:6
ApproachRate:10
SliderMultiplier:1.4
SliderTickRate:3

[Events]
//Background and Video events
0,0,"bg.png",0,0
//Break Periods
2,43109,49795
2,152316,159054
2,256789,271669
//Storyboard Layer 0 (Background)
//Storyboard Layer 1 (Fail)
//Storyboard Layer 2 (Pass)
//Storyboard Layer 3 (Foreground)
//Storyboard Sound Samples

[TimingPoints]
324,387.0343492985,3,2,0,20,1,0
324,-149.793463294442,3,2,0,20,0,0
16579,-149.253731343284,3,2,0,30,0,0
16966,-144.57824357675,3,2,0,30,0,0
17353,-140.186981395786,3,2,0,30,0,0
17740,-136.054421768707,3,2,0,30,0,0
18127,-132.158532088752,3,2,0,30,0,0
18514,-128.479712411012,3,2,0,30,0,0
18901,-125,3,2,0,40,0,0
25674,-111.111111111111,3,2,0,40,0,0
25868,580.647034345272,4,1,0,40,1,0
25868,-68.9655172413793,4,1,0,40,0,0
26448,-74.7663551401869,4,1,0,40,0,0
27029,-81.6326530612245,4,1,0,40,0,0
27609,-89.8876404494382,4,1,0,40,0,0
28190,387.0343492985,3,1,0,40,1,0
28190,-142.857142857143,3,1,0,40,0,0
28577,-136.363698347136,3,1,0,40,0,0
28964,-130.434725897945,3,1,0,40,0,0
29351,-125,3,1,0,40,0,0
29738,-120.000048000019,3,1,0,40,0,0
30125,-115.384571005934,3,1,0,40,0,0
30512,-111.111111111111,3,1,0,40,0,0
30899,-107.142895408177,3,1,0,40,0,0
31286,-103.448240190262,3,1,0,40,0,0
31673,-100,3,1,0,40,0,0
32834,-105.263157894737,3,1,0,40,0,0
33221,-111.111111111111,3,1,0,40,0,0
35156,-105.263157894737,3,1,0,40,0,0
35543,-100,3,1,0,40,0,0
37478,410.958904109589,3,1,0,40,1,0
37478,-102.040816326531,3,1,0,40,0,0
37889,-107.828655834565,3,1,0,40,0,0
38710,-120.860927152319,3,1,0,40,0,0
39943,1019.50655737705,3,1,0,40,1,0
39943,-68.4931506849315,3,2,0,20,0,0
40963,789.473684210526,3,2,0,20,1,8
40963,-97.0873786407767,3,2,0,20,0,8
41226,-92.5925925925926,3,2,0,20,0,8
41489,-88.4955752212389,3,2,0,20,0,8
41752,-84.7457627118644,3,2,0,20,0,8
42008,1153.84615384615,3,2,0,20,1,8
42008,-55.5555555555556,3,2,0,20,0,8
42392,1552.39327296248,3,2,0,20,1,8
42392,-38.4615384615385,3,2,0,20,0,8
42909,917.090909090911,4,2,0,20,1,0
42909,-58.8235294117647,4,2,0,20,0,0
49787,-130.486666666667,3,1,0,50,0,0
50245,306.544729985184,3,1,0,50,1,0
50245,-130.486666666667,3,1,0,50,0,0
56911,-126.133625963346,3,1,0,60,0,0
56988,-122.606115593046,3,1,0,60,0,0
57141,-116.111652965492,3,1,0,60,0,0
57218,-113.115773994684,3,1,0,60,0,0
57294,-110.270604062369,3,1,0,60,0,0
57371,-107.56516566649,3,1,0,60,0,0
57448,-104.989191362749,3,1,0,60,0,0
57602,-100.190462068392,3,1,0,70,0,0
60922,-125.297738751709,3,1,0,60,0,0
61280,461.538461538462,4,1,0,40,1,0
61280,-86.6666666666666,4,1,0,40,0,0
62203,492.610837438424,4,1,0,40,1,8
62203,-81.1999999999999,4,1,0,40,0,8
63188,521.739130434783,4,1,0,40,1,0
63188,-76.6666666666666,4,1,0,40,0,0
64231,640,4,1,0,40,1,8
64231,-62.5,4,1,0,40,0,8
65511,327.863477647907,4,1,0,50,1,0
65511,-122.002,4,1,0,50,0,0
75674,-121.951219512195,4,1,0,60,0,0
75756,-119.105470276039,4,1,0,60,0,0
75838,-116.389504460046,4,1,0,60,0,0
75920,-113.794641637915,4,1,0,60,0,0
76002,-111.313082515275,4,1,0,60,0,0
81248,-111.111111111111,4,1,0,60,0,0
81412,-109.592884353205,4,1,0,60,0,0
81494,-108.849342713244,4,1,0,60,0,0
81576,-108.115705427949,4,1,0,60,0,0
81740,-106.677704253133,4,1,0,60,0,0
81904,-105.277564298272,4,1,0,60,0,0
82068,-103.91359376851,4,1,0,60,0,0
82232,-102.584619488,4,1,0,60,0,0
82395,-101.28910645789,4,1,0,60,0,0
82477,-100.653644769131,4,1,0,60,0,0
82559,-100.026006761758,4,1,0,60,0,0
82723,-98.7939237785119,4,1,0,60,0,0
82805,-98.1891948682399,4,1,0,60,0,0
82887,-97.5919193890746,4,1,0,60,0,0
82969,-97.0017722223785,4,1,0,60,0,0
83051,-96.4187195015538,4,1,0,60,0,0
83215,-95.273482531607,4,1,0,60,0,0
83379,-94.1550432265803,4,1,0,60,0,0
83461,-93.6056133414209,4,1,0,60,0,0
83543,-93.0626451195622,4,1,0,60,0,0
83707,-91.9952199283725,4,1,0,60,0,0
83871,-90.9090909090909,4,1,0,70,0,0
83953,-89.8203861737683,4,1,0,70,0,0
84035,-88.7573701901272,4,1,0,70,0,0
84117,-87.719298245614,4,1,0,70,0,0
84199,-86.705227371453,4,1,0,70,0,0
84281,-85.7142612244968,4,1,0,70,0,0
84363,-84.7457627118644,4,1,0,70,0,0
84445,-83.7989060890799,4,1,0,70,0,0
84527,-82.8729052837278,4,1,0,70,0,0
84609,-81.9672131147541,4,1,0,70,0,0
84691,-81.0811029948927,4,1,0,70,0,0
84772,-80.2138822957534,4,1,0,70,0,0
84854,-79.3650793650794,4,1,0,70,0,0
84936,-78.5340519722649,4,1,0,70,0,0
85018,-77.7201871191225,4,1,0,70,0,0
85100,-76.9230769230769,4,1,0,70,0,0
85264,-90.9090909090909,4,1,0,50,0,0
85592,-100,4,1,0,40,0,0
85920,-111.111111111111,4,1,0,30,0,0
86248,-125,4,1,0,20,0,0
86494,-125,4,1,0,40,0,0
106166,-125,4,2,0,30,0,0
107395,-111.111111111111,4,1,0,60,0,0
123378,-109.967086850906,4,1,0,60,0,0
123460,-109.403923662318,4,1,0,60,0,0
123542,-108.846380748994,4,1,0,60,0,0
123706,-107.748403168665,4,1,0,60,0,0
123870,-106.672242069185,4,1,0,60,0,0
124034,-105.617365184714,4,1,0,60,0,0
124198,-104.583147262484,4,1,0,60,0,0
124362,-103.568987302442,4,1,0,60,0,0
124526,-102.574412607626,4,1,0,60,0,0
124690,-101.59865483381,4,1,0,60,0,0
124854,-100.641286276152,4,1,0,60,0,0
124936,-100.169386432457,4,1,0,60,0,0
125018,-99.7017919403065,4,1,0,60,0,0
125182,-98.7796758841275,4,1,0,60,0,0
125346,-97.8744603446943,4,1,0,60,0,0
125428,-97.4280931958168,4,1,0,60,0,0
125510,-96.9857789752289,4,1,0,60,0,0
125673,-96.112998129641,4,1,0,60,0,0
125837,-95.2557855982778,4,1,0,60,0,0
125919,-94.832932822247,4,1,0,60,0,0
126001,-94.4137285114354,4,1,0,60,0,0
126165,-93.5864284704889,4,1,0,60,0,0
126329,-92.77358698869,4,1,0,60,0,0
126493,-91.9746591419132,4,1,0,60,0,0
126657,-91.18937388464,4,1,0,60,0,0
126821,-90.4173847313971,4,1,0,60,0,0
126985,-89.6583568312944,4,1,0,60,0,0
127149,-88.9120455371933,4,1,0,60,0,0
127313,-88.1779784316665,4,1,0,60,0,0
127477,-87.4559331416882,4,1,0,60,0,0
127641,-86.7456167439859,4,1,0,60,0,0
127805,-86.0467457550989,4,1,0,60,0,0
127968,-85.3591186158848,4,1,0,60,0,0
128132,-84.6823227344938,4,1,0,60,0,0
128214,-84.3478979660348,4,1,0,60,0,0
128296,-84.0161747939713,4,1,0,60,0,0
128378,-83.6870506005383,4,1,0,60,0,0
128460,-83.3604254716116,4,1,0,60,0,0
128624,-84.4312919254134,4,1,0,60,0,0
128788,-85.5584959158652,4,1,0,60,0,0
128952,-86.7162799409636,4,1,0,60,0,0
129280,-89.1283867672867,4,1,0,60,0,0
129444,-90.3855122870065,4,1,0,60,0,0
129608,-91.6786078053333,4,1,0,60,0,0
129936,-94.3789768941389,4,1,0,60,0,0
130100,-95.789752986964,4,1,0,60,0,0
130264,-97.2432510752673,4,1,0,60,0,0
130427,-98.7416365833814,4,1,0,60,0,0
130591,-100.28692088064,4,1,0,60,0,0
130755,-101.881340839951,4,1,0,60,0,0
130919,-103.527170705952,4,1,0,60,0,0
131083,-105.227159129771,4,1,0,60,0,0
131247,-106.983909619993,4,1,0,60,0,0
131411,-108.800194969949,4,1,0,60,0,0
131575,-110.679338713087,4,1,0,60,0,0
131903,-114.639196058246,4,1,0,60,0,0
132067,-116.727384361098,4,1,0,60,0,0
132149,-117.800199082336,4,1,0,60,0,0
132231,-118.893058072125,4,1,0,60,0,0
132395,-121.140464791735,4,1,0,60,0,0
132723,-125.900503350212,4,1,0,60,0,0
132804,-127.149461649179,4,1,0,60,0,0
133050,-131.04974779476,4,1,0,60,0,0
133378,-136.638154838357,4,1,0,60,0,0
133706,339.212000000003,4,1,0,55,1,0
133706,-142.857142857143,4,1,0,55,0,0
133875,-139.240471078362,4,1,0,55,0,0
134045,-135.802402072888,4,1,0,55,0,0
134214,-132.530200319398,4,1,0,55,0,0
134554,-126.43679614216,4,1,0,55,0,0
134723,-123.595491730844,4,1,0,55,0,0
134893,-120.879081028874,4,1,0,55,0,0
135062,350.558300000002,4,1,0,60,1,0
135062,-114.942528735632,4,1,0,60,0,0
135237,-112.04183588041,4,1,0,55,0,0
135412,-109.731671356691,4,1,0,55,0,0
135587,-107.514847747127,4,1,0,55,0,0
136464,379.070200000001,4,1,0,55,1,0
137980,407.884300000001,4,1,0,55,1,0
137980,-99.9999999999999,4,1,0,55,0,0
138183,-105.263157894737,4,1,0,55,0,0
138387,-111.111111111111,4,1,0,55,0,0
138591,-117.647058823529,4,1,0,55,0,0
138795,-125,4,1,0,55,0,0
138897,-119.458185454055,4,1,0,55,0,0
138999,-114.38676682372,4,1,0,55,0,0
139101,-109.72853161279,4,1,0,55,0,0
139203,-105.434739059564,4,1,0,55,0,0
139271,-102.754224226158,4,1,0,55,0,0
139339,-100.206626062942,4,1,0,55,0,0
139407,-97.7822974928619,4,1,0,55,0,0
139475,-95.47241181452,4,1,0,55,0,0
139543,-93.2692262851333,4,1,0,55,0,0
139611,442.8004,4,2,0,40,1,0
139611,-83.3333333333333,4,2,0,40,0,0
139832,-86.0215053763441,4,2,0,40,0,0
140053,-88.8888888888889,4,2,0,40,0,0
140275,-91.9540229885058,4,2,0,40,0,0
140496,-95.2380952380952,4,2,0,40,0,0
140718,-98.7654320987654,4,2,0,40,0,0
140939,-102.564102564103,4,2,0,40,0,0
141160,-106.666666666667,4,2,0,40,0,0
141382,446.0393,4,2,0,40,1,0
141382,-110.304281542441,4,2,0,40,0,0
143166,443.5344,4,2,0,40,1,0
143166,-111.111111111111,4,2,0,40,0,0
144940,445.7675,4,2,0,40,1,0
144940,-109.89010989011,4,2,0,40,0,0
146723,443.4074,4,2,0,40,1,0
146723,-111.111111111111,4,2,0,40,0,0
148496,444.183999999999,4,2,0,40,1,0
148496,-111.111111111111,4,2,0,40,0,0
150272,461.0999,4,2,0,40,1,0
150272,-106.382978723404,4,2,0,40,0,0
151655,-119.047619047619,4,2,0,40,0,0
152116,461.0341,4,2,0,40,1,0
152116,-132.875312132413,4,2,0,40,0,0
153960,463.7749,4,1,0,40,1,0
153960,-133.333333333333,4,1,0,40,0,0
155815,460.8153,4,1,0,40,1,0
155815,-133.333333333333,4,1,0,40,0,0
157658,461.5362,4,1,0,40,1,0
157658,-133.333333333333,4,1,0,40,0,0
159504,460.7658,4,1,0,40,1,0
159504,-133.333333333333,4,1,0,40,0,0
161347,460.5839,4,1,0,40,1,0
161347,-133.333333333333,4,1,0,40,0,0
163189,462.9486,4,1,0,40,1,0
163189,-133.333333333333,4,1,0,40,0,0
165040,463.338,4,1,0,40,1,0
165040,-133.333333333333,4,1,0,40,0,0
166893,460.325,4,1,0,40,1,0
166893,-133.333333333333,4,1,0,40,0,0
168734,462.4028,4,1,0,40,1,0
168734,-133.333333333333,4,1,0,40,0,0
170583,459.5447,4,1,0,40,1,0
170583,-133.333333333333,4,1,0,40,0,0
172421,462.3072,4,1,0,40,1,0
172421,-133.333333333333,4,1,0,40,0,0
174270,459.3071,4,1,0,40,1,0
174270,-133.333333333333,4,1,0,40,0,0
176107,464.3747,4,1,0,40,1,0
176107,-133.333333333333,4,1,0,40,0,0
177964,461.8207,4,1,0,40,1,0
177964,-133.333333333333,4,1,0,40,0,0
179811,461.2475,4,1,0,40,1,0
179811,-133.333333333333,4,1,0,40,0,0
181655,462.3072,4,1,0,40,1,0
181655,-133.333333333333,4,1,0,40,0,0
183504,459.7609,4,1,0,40,1,0
183504,-133.333333333333,4,1,0,40,0,0
185343,462.6524,4,1,0,40,1,0
185343,-133.333333333333,4,1,0,40,0,0
187193,492.610837438424,4,1,0,40,1,0
187193,-120.481927710843,4,1,0,40,0,0
188178,601.202404809619,4,1,0,40,1,8
188178,-99.7002997002995,4,1,0,40,0,0
189380,375.530200000001,4,1,0,60,1,0
189380,-125,4,1,0,60,0,0
189755,-124.031007751938,4,1,0,60,0,0
189943,-123.552123552124,4,1,0,60,0,0
190037,-123.31398947885,4,1,0,60,0,0
190131,-123.076923076923,4,1,0,60,0,0
190318,-122.605363984674,4,1,0,60,0,0
190506,-122.137404580153,4,1,0,60,0,0
190694,-121.673003802281,4,1,0,60,0,0
190788,-121.442051496288,4,1,0,60,0,0
190882,372.5506,4,1,0,60,1,0
190882,-122.181556046121,4,1,0,60,0,0
191068,-121.720493570475,4,1,0,60,0,0
191254,-121.262897729984,4,1,0,60,0,0
191440,-120.808729573692,4,1,0,60,0,0
191627,-120.357950732,4,1,0,60,0,0
191720,-120.133892058095,4,1,0,60,0,0
191813,-119.910523405858,4,1,0,60,0,0
191906,-119.687983844521,4,1,0,60,0,0
191999,-119.466410356207,4,1,0,60,0,0
192185,-119.025574893638,4,1,0,60,0,0
192279,-118.806304925109,4,1,0,60,0,0
192372,365.938200000001,4,1,0,60,1,0
192372,-120.730832768201,4,1,0,60,0,0
192554,-120.288595285534,4,1,0,60,0,0
192737,-119.849585813689,4,1,0,60,0,0
192920,-119.413769138003,4,1,0,60,0,0
193012,-119.196978008836,4,1,0,60,0,0
193103,-118.981110554169,4,1,0,60,0,0
193286,-118.551575859028,4,1,0,60,0,0
193469,-118.125131341549,4,1,0,60,0,0
193652,-117.701743774017,4,1,0,60,0,0
193744,-117.491118834961,4,1,0,60,0,0
193835,362.0984,4,1,0,60,1,0
193835,-118.52506704212,4,1,0,60,0,0
194016,-118.103269650511,4,1,0,60,0,0
194197,-117.684463729765,4,1,0,60,0,0
194378,-117.268617568176,4,1,0,60,0,0
194559,-116.855699900682,4,1,0,60,0,0
194649,-116.650263999126,4,1,0,60,0,0
194740,-116.44567990103,4,1,0,60,0,0
194830,-116.241681867337,4,1,0,60,0,0
194921,-116.038527174104,4,1,0,60,0,0
195011,-115.83595196524,4,1,0,60,0,0
195102,-115.63421174841,4,1,0,60,0,0
195192,-115.433044530458,4,1,0,60,0,0
195283,352.3141,4,1,0,60,1,0
195283,-118.432891763678,4,1,0,60,0,0
195459,-118.023089370032,4,1,0,60,0,0
195635,-117.61611319979,4,1,0,60,0,0
195811,-117.21193411663,4,1,0,60,0,0
195899,-117.010820261434,4,1,0,60,0,0
195987,-116.810523383353,4,1,0,60,0,0
196163,-116.411852655083,4,1,0,60,0,0
196339,-116.015893972582,4,1,0,60,0,0
196516,-115.622619755726,4,1,0,60,0,0
196604,-115.426918306708,4,1,0,60,0,0
196692,355.5833,4,1,0,60,1,0
196692,-114.172570529472,4,1,0,60,0,0
196869,-113.788151100079,4,1,0,60,0,0
197047,-113.406311666858,4,1,0,60,0,0
197136,-113.216412031322,4,1,0,60,0,0
197403,-112.650269589079,4,1,0,60,0,0
197492,-112.462891416926,4,1,0,60,0,0
197580,-112.27601620174,4,1,0,60,0,0
197669,-112.089761002859,4,1,0,60,0,0
197758,-111.904241313654,4,1,0,60,0,0
197936,-111.534920385226,4,1,0,60,0,0
198025,-111.351113873296,4,1,0,60,0,0
198114,346.253500000001,4,1,0,60,1,0
198114,-114.163451769473,4,1,0,60,0,0
198287,-113.789145370229,4,1,0,60,0,0
198460,-113.417285418038,4,1,0,60,0,0
198633,-113.047848006253,4,1,0,60,0,0
198719,-112.86397164125,4,1,0,60,0,0
198806,-112.680809538701,4,1,0,60,0,0
198979,-112.316146724659,4,1,0,60,0,0
199152,-111.953836573935,4,1,0,60,0,0
199325,-111.593856392025,4,1,0,60,0,0
199412,-111.414675799588,4,1,0,60,0,0
199499,348.2665,4,1,0,60,1,0
199499,-110.59323242161,4,1,0,60,0,0
199673,-110.239899410679,4,1,0,60,0,0
199760,-110.064022026472,4,1,0,60,0,0
199847,-109.888816928479,4,1,0,60,0,0
200021,-109.539963541404,4,1,0,60,0,0
200108,-109.366310671736,4,1,0,60,0,0
200282,-109.020761681581,4,1,0,60,0,0
200369,-108.848859670481,4,1,0,60,0,0
200543,-108.506567658938,4,1,0,60,0,0
200630,-108.336282101562,4,1,0,60,0,0
200717,-108.166421678816,4,1,0,60,0,0
200804,-107.997093070446,4,1,0,60,0,0
200892,343.839541547278,4,1,0,60,1,0
200892,-109.216699833334,4,1,0,70,0,0
201063,-108.876460893043,4,1,0,70,0,0
201149,-108.70708103743,4,1,0,70,0,0
201235,-108.538335238096,4,1,0,70,0,0
201407,-108.202303240454,4,1,0,70,0,0
201493,-108.035012862642,4,1,0,70,0,0
201579,-107.868345514404,4,1,0,70,0,0
201751,-107.536442912821,4,1,0,70,0,0
201923,-107.206576523518,4,1,0,70,0,0
202095,-106.878727665648,4,1,0,70,0,0
202181,-106.715501899806,4,1,0,70,0,0
202267,337.078651685393,4,1,0,70,1,0
202267,-108.690041626017,4,1,0,70,0,0
202435,-108.359676757852,4,1,0,70,0,0
202604,-108.03131410101,4,1,0,70,0,0
202772,-107.70493550856,4,1,0,70,0,0
202856,-107.54243271959,4,1,0,70,0,0
202941,-107.380523052209,4,1,0,70,0,0
203109,-107.058059019019,4,1,0,70,0,0
203193,-106.89750089875,4,1,0,70,0,0
203278,-106.737525908184,4,1,0,70,0,0
203446,-106.418906427861,4,1,0,70,0,0
203531,-106.26025827628,4,1,0,70,0,0
203615,334.261838440111,4,1,0,70,1,0
203615,-106.996303015873,4,1,0,70,0,0
203782,-106.678806567755,4,1,0,70,0,0
203865,-106.52071339265,4,1,0,70,0,0
203949,-106.363188796844,4,1,0,70,0,0
204116,-106.04943307768,4,1,0,70,0,0
204199,-105.893198440123,4,1,0,70,0,0
204283,-105.737522980392,4,1,0,70,0,0
204450,-105.42744226784,4,1,0,70,0,0
204617,-105.119174892788,4,1,0,70,0,0
204784,-104.812704995141,4,1,0,70,0,0
204868,-104.660090444597,4,1,0,70,0,0
204952,332.409972299169,4,1,0,70,1,0
204952,-105.090234263566,4,1,0,70,0,0
205118,-104.785624888889,4,1,0,70,0,0
205284,-104.482776262043,4,1,0,70,0,0
205450,-104.181673160423,4,1,0,70,0,0
205533,-104.031723572924,4,1,0,70,0,0
205616,-103.882300536399,4,1,0,70,0,0
205783,-103.584643514804,4,1,0,70,0,0
205866,-103.436406400119,4,1,0,70,0,0
205949,-103.288687390476,4,1,0,70,0,0
206032,-103.1413896984,4,1,0,70,0,0
206115,-102.994417625831,4,1,0,70,0,0
206198,-102.847863815103,4,1,0,70,0,0
206281,329.760923330585,4,1,0,70,1,0
206281,-103.526848318182,4,1,0,70,0,0
206445,-103.233571127479,4,1,0,70,0,0
206528,-103.087508101835,4,1,0,70,0,0
206610,-102.941950870057,4,1,0,70,0,0
206775,-102.651973543662,4,1,0,70,0,0
206858,-102.50755051137,4,1,0,70,0,0
206940,-102.363625303371,4,1,0,70,0,0
207105,-102.076892459384,4,1,0,70,0,0
207270,-101.791761474861,4,1,0,70,0,0
207435,-101.508218963789,4,1,0,70,0,0
207517,-101.366994128737,4,1,0,70,0,0
207600,326.975476839237,4,1,0,70,1,0
207600,-102.088580296297,4,1,0,70,0,0
207763,-101.80578644506,4,1,0,70,0,0
207926,-101.524554990792,4,1,0,70,0,0
208008,-101.384565870889,4,1,0,70,0,0
208172,-101.105564593608,4,1,0,70,0,0
208253,-100.966727765568,4,1,0,70,0,0
208335,-100.828271712456,4,1,0,70,0,0
208417,-100.690106593608,4,1,0,70,0,0
208499,-100.5523196123,4,1,0,70,0,0
208580,-100.414997012751,4,1,0,70,0,0
208744,-100.141386666667,4,1,0,70,0,0
208826,-100.005096342453,4,1,0,70,0,0
208907,328.767123287671,4,1,0,70,1,0
208907,-99.3250166666669,4,1,0,70,0,0
209071,-99.0558431797654,4,1,0,70,0,0
209153,-98.92175996171,4,1,0,70,0,0
209235,-98.7881246846849,4,1,0,70,0,0
209400,-98.5218494159931,4,1,0,70,0,0
209482,-98.3892069745904,4,1,0,70,0,0
209564,-98.2570057347673,4,1,0,70,0,0
209728,-97.9935821268993,4,1,0,70,0,0
209893,-97.7315672014263,4,1,0,70,0,0
210057,-97.4709496888891,4,1,0,70,0,0
210139,-97.3411199966824,4,1,0,70,0,0
210222,327.958458595245,4,1,0,70,1,0
210222,-97.4514185673761,4,1,0,70,0,0
210385,-97.1929267409375,4,1,0,70,0,0
210467,-97.0641532478647,4,1,0,70,0,0
210549,-96.9358025961202,4,1,0,70,0,0
210713,-96.6800353069484,4,1,0,70,0,0
210795,-96.5526164240179,4,1,0,70,0,0
210959,-96.2989455694211,4,1,0,70,0,0
211041,-96.1725285599302,4,1,0,70,0,0
211205,-95.9207680139619,4,1,0,70,0,0
211287,-95.7954214603944,4,1,0,70,0,0
211369,-95.6703221444737,4,1,0,70,0,0
211451,-95.5455491370158,4,1,0,70,0,0
211532,327.788248791281,4,1,0,70,1,0
211532,-95.4707298041669,4,1,0,70,0,0
230871,-94.3396226415094,4,1,0,70,0,0
230953,-93.4579439252336,4,1,0,70,0,0
231035,-92.5925925925926,4,1,0,70,0,0
231117,-91.743119266055,4,1,0,70,0,0
231199,354.0906,4,1,0,60,1,0
231199,-83.3333333333333,4,1,0,60,0,0
231287,-84.6560846560847,4,1,0,60,0,0
231376,-86.0215053763441,4,1,0,60,0,0
231464,-87.431693989071,4,1,0,60,0,0
231553,-88.8888888888889,4,1,0,60,0,0
231641,-90.3954802259887,4,1,0,60,0,0
231730,-91.9540229885058,4,1,0,60,0,0
231818,-93.5672514619883,4,1,0,60,0,0
231907,-95.2380952380952,4,1,0,60,0,0
231966,-96.3855421686747,4,1,0,60,0,0
232025,-97.5609756097561,4,1,0,60,0,0
232084,-98.7654320987654,4,1,0,60,0,0
232143,-100,4,1,0,60,0,0
232202,-101.26582278481,4,1,0,60,0,0
232261,-102.564102564103,4,1,0,60,0,0
232320,-103.896103896104,4,1,0,60,0,0
232379,-105.263157894737,4,1,0,60,0,0
232438,-106.666666666667,4,1,0,60,0,0
232497,-108.108108108108,4,1,0,60,0,0
232556,-109.58904109589,4,1,0,60,0,0
232615,375.953983232452,4,1,0,60,1,0
232615,-106.382978723404,4,1,0,60,0,0
232740,-109.090869421502,4,1,0,60,0,0
232865,-107.142895408177,4,1,0,60,0,0
232990,-105.263157894737,4,1,0,60,0,0
233116,-103.448240190262,4,1,0,60,0,0
233241,-101.694949727102,4,1,0,60,0,0
233366,-100,4,1,0,60,0,0
233492,-101.677164833936,4,1,0,60,0,0
233617,-103.411546933331,4,1,0,60,0,0
233742,-105.206125100603,4,1,0,60,0,0
233868,-107.063973936346,4,1,0,60,0,0
233993,-108.988737103908,4,1,0,60,0,0
234118,-111.111111111111,4,1,0,60,0,0
234244,-109.111342669627,4,1,0,60,0,0
234369,-107.18228491195,4,1,0,60,0,0
234494,-105.320252557966,4,1,0,60,0,0
234620,-103.521919213565,4,1,0,60,0,0
234745,-101.783864000472,4,1,0,60,0,0
234870,-100.103206405804,4,1,0,60,0,0
234996,-102.040816326531,4,1,0,60,0,0
235121,-104.166666666667,4,1,0,60,0,0
235246,-100,4,1,0,60,0,0
235309,-101.659799547207,4,1,0,60,0,0
235371,-103.375520883406,4,1,0,60,0,0
235434,-105.150259721142,4,1,0,60,0,0
235497,-106.98688554757,4,1,0,60,0,0
235559,-108.888930024707,4,1,0,60,0,0
235622,374.340225352816,4,1,0,60,1,0
235622,-111.111111111111,4,1,0,60,0,0
235746,-109.090869421502,4,1,0,60,0,0
235871,-107.142895408177,4,1,0,60,0,0
235996,-105.263157894737,4,1,0,60,0,0
236245,-101.694949727102,4,1,0,60,0,0
236370,-100,4,1,0,60,0,0
236495,-101.677164833936,4,1,0,60,0,0
236620,-103.411546933331,4,1,0,60,0,0
236745,-105.206125100603,4,1,0,60,0,0
236869,-107.063973936346,4,1,0,60,0,0
236994,-108.988737103908,4,1,0,60,0,0
237119,-111.111111111111,4,1,0,60,0,0
237244,-109.111342669627,4,1,0,60,0,0
237368,-107.18228491195,4,1,0,60,0,0
237493,-105.320252557966,4,1,0,60,0,0
237618,-103.521919213565,4,1,0,60,0,0
237743,-101.783864000472,4,1,0,60,0,0
237868,-100,4,1,0,60,0,0
237930,-100.840302238554,4,1,0,60,0,0
237992,-101.694949727102,4,1,0,60,0,0
238055,-102.564102564103,4,1,0,60,0,0
238117,-103.448240190262,4,1,0,60,0,0
238179,-104.347862381865,4,1,0,60,0,0
238242,-105.263157894737,4,1,0,60,0,0
238304,-106.194652674459,4,1,0,60,0,0
238367,-107.142895408177,4,1,0,60,0,0
238429,-108.108108108108,4,1,0,60,0,0
238491,-109.090869421502,4,1,0,60,0,0
238554,-110.091783519921,4,1,0,60,0,0
238616,363.764232275588,4,1,0,60,1,0
238616,-114.942528735632,4,1,0,60,0,0
238979,-114.441354527872,4,1,0,60,0,0
239101,-113.94466163563,4,1,0,60,0,0
239222,-113.452132843371,4,1,0,60,0,0
239343,-112.963971271003,4,1,0,60,0,0
239464,-112.479866103967,4,1,0,60,0,0
239586,-112.000017920003,4,1,0,60,0,0
239707,-111.524122109992,4,1,0,60,0,0
239828,-111.052376742967,4,1,0,60,0,0
239949,-110.584483227651,4,1,0,60,0,0
240071,-110.120637158007,4,1,0,60,0,0
240192,-109.660545780536,4,1,0,60,0,0
240313,-109.204402247863,4,1,0,60,0,0
240434,-108.751919471379,4,1,0,60,0,0
240556,-108.303288196133,4,1,0,60,0,0
240677,-107.858226832323,4,1,0,60,0,0
240798,-107.416923751171,4,1,0,60,0,0
240919,-106.979102702078,4,1,0,60,0,0
241041,-106.544949716111,4,1,0,60,0,0
241162,-106.114193728439,4,1,0,60,0,0
241283,-105.687018463522,4,1,0,60,0,0
241404,-105.263157894737,4,1,0,60,0,0
241526,363.636363636364,4,1,0,60,1,0
241526,-104.166666666667,4,1,0,60,0,0
241647,-103.806264292825,4,1,0,60,0,0
241768,-103.448240190262,4,1,0,60,0,0
241889,-103.092783505155,4,1,0,60,0,0
242010,-102.739761212247,4,1,0,60,0,0
242132,-102.389043553227,4,1,0,60,0,0
242253,-102.040816326531,4,1,0,60,0,0
242374,-101.694949727102,4,1,0,60,0,0
242495,-101.351317111042,4,1,0,60,0,0
242616,-101.010101010101,4,1,0,60,0,0
242738,-100.671174721871,4,1,0,60,0,0
242859,-100.334414603875,4,1,0,60,0,0
242980,-100,4,1,0,60,0,0
243950,-100.884454008291,4,1,0,60,0,0
244071,-102.701142755615,4,1,0,60,0,0
244132,-103.634245729233,4,1,0,60,0,0
244192,-104.584569174326,4,1,0,60,0,0
244253,-105.552371392352,4,1,0,60,0,0
244313,-106.538252559582,4,1,0,60,0,0
244374,-107.542724035691,4,1,0,60,0,0
244435,366.506218388839,4,1,0,60,1,0
244435,-109.138666666667,4,1,0,60,0,0
245412,-96.1538461538461,4,1,0,60,0,0
245534,-98.9646320198088,4,1,0,60,0,0
245656,-101.944800968068,4,1,0,60,0,0
245778,-105.109918697478,4,1,0,60,0,0
245901,-108.477988731307,4,1,0,60,0,0
246145,-108.695652173913,4,1,0,60,0,0
246206,-106.978301591088,4,1,0,60,0,0
246267,-105.314373937641,4,1,0,60,0,0
246389,-102.137012717079,4,1,0,60,0,0
246511,-99.1458584296287,4,1,0,60,0,0
246634,-96.3248227141638,4,1,0,60,0,0
247000,-96.1538461538461,4,1,0,60,0,0
247122,-99.9184665313105,4,1,0,60,0,0
247244,-103.989775725251,4,1,0,60,0,0
247367,360.308424010953,4,1,0,60,1,0
247367,-111.016,4,1,0,60,0,0
247607,-108.695652173913,4,1,0,60,0,0
247667,-106.951871657754,4,1,0,60,0,0
247727,-105.263157894737,4,1,0,60,0,0
247847,-102.040816326531,4,1,0,60,0,0
247967,-99.009900990099,4,1,0,60,0,0
248087,-96.1538461538461,4,1,0,60,0,0
248568,-99.9184665313105,4,1,0,60,0,0
248688,-103.989775725251,4,1,0,60,0,0
248808,-108.407077247631,4,1,0,60,0,0
249048,-108.695652173913,4,1,0,60,0,0
249108,-106.382978723404,4,1,0,60,0,0
249168,-104.166666666667,4,1,0,60,0,0
249288,-100,4,1,0,60,0,0
249408,-96.1538461538461,4,1,0,60,0,0
249528,-92.5925925925926,4,1,0,60,0,0
249889,-100,4,1,0,60,0,0
250009,-103.448240190262,4,1,0,60,0,0
250129,-107.142895408177,4,1,0,60,0,0
250249,352.526439482961,4,1,0,60,1,0
250249,-113.466666666667,4,1,0,60,0,0
250337,-142.857142857143,4,1,0,40,0,0
253069,352.941176470588,4,1,0,40,1,0
253069,-142.857142857143,4,1,0,40,0,0
255892,348.837209302326,4,1,0,40,1,0
255892,-142.857142857143,4,1,0,40,0,0
256589,371.287128712871,4,1,0,40,1,8
256589,-135.135135135135,4,1,0,40,0,8
257331,417.392782760232,3,1,0,20,1,0
257331,-95.8329938900206,3,1,0,20,0,0
257748,392.8,3,1,0,20,1,8
257748,-101.83299389002,3,1,0,20,0,0
257944,345.324752962689,3,1,0,20,1,8
257944,-115.832993890021,3,1,0,20,0,0
258116,392.799999999999,3,1,0,20,1,8
258116,-101.832993890021,3,1,0,20,0,0
258509,391.5,3,1,0,20,1,0
258509,-102.171136653895,3,1,0,20,0,0
259683,397.6,3,1,0,20,1,0
259683,-100.603621730382,3,1,0,20,0,0
260875,402.4,3,1,0,20,1,0
260875,-99.403578528827,3,1,0,20,0,0
262082,421,3,1,0,20,1,8
262082,-95.0118764845606,3,1,0,20,0,0
262187,386.100386100386,3,1,0,20,1,0
262187,-103.6,3,1,0,20,0,0
262476,474.683544303797,3,1,0,20,1,8
262476,-84.2666666666668,3,1,0,20,0,0
262950,394.736842105263,3,1,0,20,1,8
262950,-101.333333333333,3,1,0,20,0,0
263345,422.832980972516,3,1,0,20,1,0
263345,-94.6,3,1,0,20,0,0
263767,374.531835205993,3,1,0,20,1,8
263767,-106.8,3,1,0,20,0,0
264141,398.4,3,1,0,20,1,8
264141,-100.401606425703,3,1,0,20,0,0
264539,396.8,3,1,0,20,1,0
264539,-100.806451612903,3,1,0,20,0,0
265729,390.9,3,1,0,20,1,0
265729,-102.327961115375,3,1,0,20,0,0
266119,417.246175243394,3,1,0,20,1,8
266119,-95.8666666666666,3,1,0,20,0,0
266536,366.300366300366,3,1,0,20,1,8
266536,-109.2,3,1,0,20,0,0
266902,408,3,1,0,20,1,0
266902,-98.0392156862745,3,1,0,20,0,0
268126,392.156862745098,3,1,0,20,1,0
268126,-102,3,1,0,20,0,0
268518,443.786982248521,3,1,0,20,1,8
268518,-90.1333333333333,3,1,0,20,0,0
268961,475.435816164818,3,1,0,20,1,8
268961,-84.1333333333333,3,1,0,20,0,0
269198,367.647058823529,3,1,0,20,1,8
269198,-108.8,3,1,0,20,0,0
269381,427.960057061341,3,1,0,20,1,0
269381,-93.4666666666667,3,1,0,20,0,0
269809,508.474576271186,3,1,0,20,1,8
269809,-78.6666666666667,3,1,0,20,0,8
270317,464.2166344294,3,1,0,20,1,8
270317,-86.1666666666667,3,1,0,20,0,8
270781,625,4,1,0,20,1,0
270781,-64,4,1,0,20,0,0
270937,485.044462409054,3,1,0,20,1,8
270937,-82.4666666666667,3,1,0,20,0,0
272036,-120.833333333333,4,1,0,60,0,0
272119,331.034482758621,4,1,0,60,1,8
272119,-120.833333333333,4,1,0,60,0,0
272781,315.3471,4,1,0,60,1,0
272781,-126.844356583587,4,1,0,60,0,0
274042,316.2576,4,1,0,60,1,0
274042,-126.479173939219,4,1,0,60,0,0
275307,325.024,4,1,0,60,1,0
275307,-123.067834990647,4,1,0,60,0,0
275469,-119.932406095924,4,1,0,60,0,0
275632,-115.259691611169,4,1,0,60,0,0
275794,-110.937555468778,4,1,0,60,0,0
275957,-106.927741440167,4,1,0,60,0,0
276065,-104.411816911791,4,1,0,60,0,0
276173,-102.011462007871,4,1,0,60,0,0
276282,-99.7190913197523,4,1,0,60,0,0
276390,-97.5274832447784,4,1,0,60,0,0
276498,-95.4301370281338,4,1,0,60,0,0
276607,370.2587,4,1,0,60,1,0
276607,-82.0077177396475,4,1,0,60,0,0
276792,-79.4973372691495,4,1,0,60,0,0
276853,-78.6943057876891,4,1,0,60,0,0
276915,-77.9073354917562,4,1,0,60,0,0
276977,-77.1360170804467,4,1,0,60,0,0
277131,370.2587,4,1,0,60,1,8
277131,-82.6446280991736,4,1,0,60,0,0
277193,-81.1535164844148,4,1,0,60,0,0
277254,-80.3168532057285,4,1,0,60,0,0
277316,-79.4973372691495,4,1,0,60,0,0
277439,-86.9565217391304,4,1,0,60,0,0
277562,-90.9090909090909,4,1,0,60,0,0
277686,399.869750821715,4,1,0,60,1,8
277686,-88.1855483647989,4,1,0,60,0,0
277819,-92.5948257830388,4,1,0,60,0,0
277952,-97.4682376663567,4,1,0,60,0,0
278085,399.773461705034,4,1,0,60,1,8
278088,407.193756362402,4,2,0,30,1,0
278088,-102.907920350926,4,2,0,30,0,0
279716,399.773461705034,4,2,0,30,1,0
279716,-103.092783505155,4,2,0,30,0,0
290643,-100.056666666667,4,2,0,40,0,0
290743,-97.0873786407767,4,2,0,50,0,0
290909,-94.3396226415094,4,1,0,50,0,0
305234,-116.279069767442,4,1,0,50,0,0
306900,390.480999999999,4,1,0,70,1,0
306900,-83.3333333333333,4,1,0,70,0,0
308461,387.8318,4,1,0,70,1,0
308461,-83.3333333333333,4,1,0,70,0,0
310012,382.9109,4,1,0,70,1,0
310012,-83.3333333333333,4,1,0,70,0,0
311543,378.2685,4,1,0,70,1,0
311543,-83.3333333333333,4,1,0,70,0,0
313056,372.3664,4,1,0,70,1,0
313056,-83.3333333333333,4,1,0,70,0,0
314545,367.7202,4,1,0,70,1,0
314545,-83.3333333333333,4,1,0,70,0,0
316015,364.4207,4,1,0,70,1,0
316015,-83.3333333333333,4,1,0,70,0,0
317472,363.0741,4,1,0,70,1,0
317472,-83.3333333333333,4,1,0,70,0,0
317562,-82.4742268041237,4,1,0,70,0,0
317653,-81.6326530612245,4,1,0,70,0,0
317744,-80.8080808080808,4,1,0,70,0,0
317835,-80,4,1,0,70,0,0
317956,-78.9473476454348,4,1,0,70,0,0
318077,-77.9220981615839,4,1,0,70,0,0
318198,-76.9230769230769,4,1,0,70,0,0
318440,-75.0000187500047,4,1,0,70,0,0
318682,-73.1707138608015,4,1,0,70,0,0
318924,365.1356,4,1,0,70,1,1
318924,-71.0252967182875,4,1,0,70,0,1
320384,363.1703,4,1,0,70,1,1
320384,-71.4285714285714,4,1,0,70,0,1
321836,364.072,4,1,0,70,1,1
321836,-71.4285714285714,4,1,0,70,0,1
323292,362.5079,4,1,0,70,1,1
323292,-71.4285714285714,4,1,0,70,0,1
324742,364.344,4,1,0,70,1,1
324742,-71.4285714285714,4,1,0,70,0,1
326199,363.373699999999,4,1,0,70,1,1
326199,-71.4285714285714,4,1,0,70,0,1
327652,364.86,4,1,0,70,1,1
327652,-71.4285714285714,4,1,0,70,0,1
329111,362.3438,4,1,0,70,1,1
329111,-71.4285714285714,4,1,0,70,0,1
330560,386.5369,4,1,0,70,1,0
330560,-71.4285714285714,4,1,0,70,0,0
331848,-76.9230769230769,4,1,0,70,0,0
332106,428.571428571429,4,1,0,70,1,0
332106,-71.4285714285714,4,1,0,70,0,0
332963,548.947849954254,4,1,0,70,1,8
332963,-63.598277667869,4,1,0,70,0,8
334060,400,4,1,0,70,1,0
334060,-100,4,1,0,70,0,0
338860,-83.3333333333333,4,1,0,70,0,0
339126,-81.0695998728829,4,1,0,70,0,0
339193,-80.5227537171316,4,1,0,70,0,0
339260,-79.9832355138363,4,1,0,70,0,0
339393,-78.9256015709352,4,1,0,70,0,0
339526,-77.8955731945753,4,1,0,70,0,0
339660,-76.8920834986513,4,1,0,70,0,0
339793,-75.9141775040481,4,1,0,70,0,0
339926,-74.9607767735532,4,1,0,70,0,0
339993,-74.4930006376601,4,1,0,70,0,0
340060,-74.0310264031656,4,1,0,70,0,0
340193,-73.124057156688,4,1,0,70,0,0
340326,-72.2390418791397,4,1,0,70,0,0
340451,405.7183,4,1,0,70,1,1
340451,-70.4218385714286,4,1,0,70,0,1
342073,419.4708,4,1,0,70,1,1
342073,-68.9655172413793,4,1,0,70,0,1
343331,-81.9672131147541,4,1,0,70,0,1
343750,417.5244,4,1,0,60,1,0
343750,-95.802784220515,4,1,0,60,0,0
345420,487.80487804878,4,1,0,60,1,0
345420,-82.0000000000001,4,1,0,60,0,0
346395,596.421471172962,4,1,0,60,1,8
346395,-83.9592722416963,4,1,0,60,0,8
347587,397,3,1,0,60,1,0
347587,-142.857142857143,3,1,0,60,0,0
347984,-136.986301369863,3,1,0,60,0,0
348381,-131.578947368421,3,1,0,60,0,0
348778,407.4,3,1,0,60,1,0
348778,-125,3,1,0,60,0,0
349185,-120.481927710843,3,1,0,60,0,0
349592,-116.279069767442,3,1,0,60,0,0
350000,404.585300067431,3,1,0,60,1,0
350000,-111.111111111111,3,1,0,60,0,0
350404,-107.52688172043,3,1,0,60,0,0
350809,-104.166666666667,3,1,0,60,0,0
351213,413.793103448276,3,1,0,60,1,0
351213,-100,3,1,0,60,0,0
352450,410.7,3,2,0,40,1,0
352450,-103.092783505155,3,2,0,40,0,0
354914,399.0335,3,2,0,40,1,0
354914,-90.9090909090909,3,2,0,40,0,0
355047,-92.7834860240235,3,2,0,40,0,0
355180,-94.7368022160833,3,2,0,40,0,0
355313,-96.774224765879,3,2,0,40,0,0
355446,-98.9011097693527,3,2,0,40,0,0
355579,-101.123584143418,3,2,0,40,0,0
355712,-103.448240190262,3,2,0,40,0,0
355845,-105.88240276819,3,2,0,40,0,0
355978,-108.433761068376,3,2,0,40,0,0
356111,399.1335,3,1,0,40,1,0
356111,-111.08327308526,3,1,0,40,0,0
356909,-133.333333333333,3,1,0,40,0,0
357308,398.9335,3,1,0,40,1,0
357308,-143.403355997039,3,1,0,40,0,0
358504,-167.410597509349,3,1,0,40,0,0
360896,381.6335,3,1,0,40,1,0
360896,-200,3,1,0,40,0,0

[Colours]
Combo1 : 89,105,142
Combo2 : 162,146,117
Combo3 : 202,130,81
Combo4 : 140,176,206

[HitObjects]
310,140,324,5,8,0:0:0:0:
311,109,1485,1,8,0:0:0:0:
312,99,1872,1,8,0:0:0:0:
330,122,2259,1,0,0:0:0:0:
312,99,2646,1,8,0:0:0:0:
314,92,3807,1,8,0:0:0:0:
314,92,4194,1,0,0:0:0:0:
326,106,4581,1,8,0:0:0:0:
314,92,4968,1,8,0:0:0:0:
326,118,5355,1,0,0:0:0:0:
327,118,5742,1,0,0:0:0:0:
326,118,6129,1,8,0:0:0:0:
326,104,6516,1,0,0:0:0:0:
326,104,6903,1,8,0:0:0:0:
326,104,7290,1,8,0:0:0:0:
320,97,8451,1,0,0:0:0:0:
320,97,9612,1,8,0:0:0:0:
315,97,10773,1,8,0:0:0:0:
315,97,11160,1,8,0:0:0:0:
315,97,11547,1,0,0:0:0:0:
315,97,11935,1,8,0:0:0:0:
308,91,13096,1,8,0:0:0:0:
308,91,13483,1,0,0:0:0:0:
314,88,13870,1,8,0:0:0:0:
314,88,14257,1,8,0:0:0:0:
314,88,14644,1,0,0:0:0:0:
314,88,15031,1,0,0:0:0:0:
314,88,15418,1,8,0:0:0:0:
314,88,15805,1,0,0:0:0:0:
314,88,16192,1,8,0:0:0:0:
312,80,16579,1,0,0:0:0:0:
312,80,16966,1,0,0:0:0:0:
312,80,17353,1,8,0:0:0:0:
312,80,17740,1,0,0:0:0:0:
312,80,18127,1,0,0:0:0:0:
312,80,18514,1,8,0:0:0:0:
312,80,18901,1,0,0:0:0:0:
312,80,19288,1,8,0:0:0:0:
312,80,19675,1,8,0:0:0:0:
312,80,20062,1,0,0:0:0:0:
312,80,20449,1,8,0:0:0:0:
312,80,20836,1,0,0:0:0:0:
312,80,21030,1,0,0:0:0:0:
312,80,21223,1,8,0:0:0:0:
312,80,21610,1,8,0:0:0:0:
312,80,21997,1,8,0:0:0:0:
312,80,22384,1,0,0:0:0:0:
312,80,22771,1,8,0:0:0:0:
312,80,23159,1,0,0:0:0:0:
312,80,23546,1,0,0:0:0:0:
300,73,23933,1,8,0:0:0:0:
301,73,24320,1,8,0:0:0:0:
320,74,24707,1,0,0:0:0:0:
320,74,25094,1,8,0:0:0:0:
320,74,25481,1,0,0:0:0:0:
320,74,25674,1,8,0:0:0:0:
320,74,25868,1,8,0:0:0:0:
320,74,26448,1,0,0:0:0:0:
320,74,27029,1,8,0:0:0:0:
320,74,27609,1,8,0:0:0:0:
320,74,28190,1,0,0:0:0:0:
320,74,28577,1,8,0:0:0:0:
320,74,28964,1,8,0:0:0:0:
320,74,29351,1,0,0:0:0:0:
320,74,29738,1,8,0:0:0:0:
320,74,30125,1,8,0:0:0:0:
320,74,30512,1,0,0:0:0:0:
320,74,30899,1,8,0:0:0:0:
320,74,31286,1,8,0:0:0:0:
320,74,31673,1,8,0:0:0:0:
309,87,32447,1,8,0:0:0:0:
309,87,32834,1,0,0:0:0:0:
309,87,33221,1,0,0:0:0:0:
309,87,34769,1,8,0:0:0:0:
309,87,35156,1,0,0:0:0:0:
309,87,35543,1,8,0:0:0:0:
309,87,37091,1,8,0:0:0:0:
309,87,37478,1,8,0:0:0:0:
309,87,37889,1,0,0:0:0:0:
322,94,40963,1,0,0:0:0:0:
332,88,41226,1,0,0:0:0:0:
330,90,41489,1,8,0:0:0:0:
330,90,41752,1,8,0:0:0:0:
319,91,42008,1,8,0:0:0:0:
330,90,42392,1,8,0:0:0:0:
329,95,42909,1,8,0:0:0:0:
315,80,50245,5,8,0:0:0:0:
315,80,50704,1,0,0:0:0:0:
315,80,50858,1,0,0:0:0:0:
315,80,51011,1,8,0:0:0:0:
315,80,51164,1,0,0:0:0:0:
315,80,51471,1,8,0:0:0:0:
315,80,51777,1,0,0:0:0:0:
303,72,52084,1,0,0:0:0:0:
323,72,52160,1,8,0:0:0:0:
315,64,52390,1,0,0:0:0:0:
315,64,53310,1,8,0:0:0:0:
321,69,53616,1,8,0:0:0:0:
315,64,53923,1,0,0:0:0:0:
315,64,53999,1,8,0:0:0:0:
319,73,54229,1,0,0:0:0:0:
314,75,54382,1,0,0:0:0:0:
314,75,54536,1,8,0:0:0:0:
314,75,54842,1,0,0:0:0:0:
319,73,55149,1,0,0:0:0:0:
314,75,55302,1,8,0:0:0:0:
323,74,55455,1,8,0:0:0:0:
314,75,55608,1,0,0:0:0:0:
314,75,55685,1,8,0:0:0:0:
323,74,55762,1,0,0:0:0:0:
316,66,55915,1,8,0:0:0:0:
319,73,55992,1,8,0:0:0:0:
319,73,56068,1,0,0:0:0:0:
317,66,56222,1,8,0:0:0:0:
317,66,56375,1,0,0:0:0:0:
324,70,56528,1,0,0:0:0:0:
333,68,56681,1,8,0:0:0:0:
333,68,56835,1,0,0:0:0:0:
333,68,56911,1,0,0:0:0:0:
317,61,56988,1,8,0:0:0:0:
333,68,57141,1,0,0:0:0:0:
333,68,57218,1,0,0:0:0:0:
333,68,57294,1,8,0:0:0:0:
325,67,57371,1,8,0:0:0:0:
325,67,57448,1,8,0:0:0:0:
325,67,57602,1,4,0:0:0:0:
341,69,57908,1,8,0:0:0:0:
340,72,58010,1,8,0:0:0:0:
340,72,58112,1,8,0:0:0:0:
340,72,58215,1,8,0:0:0:0:
351,85,58368,1,0,0:0:0:0:
344,72,58521,1,12,0:0:0:0:
341,69,58828,1,8,0:0:0:0:
341,69,58930,1,0,0:0:0:0:
340,72,59032,1,0,0:0:0:0:
340,72,59134,1,8,0:0:0:0:
338,64,59211,1,0,0:0:0:0:
339,60,59287,1,0,0:0:0:0:
339,60,59364,1,0,0:0:0:0:
330,55,59441,1,12,0:0:0:0:
323,63,59747,1,0,0:0:0:0:
331,61,59849,1,0,0:0:0:0:
331,63,59952,1,0,0:0:0:0:
333,62,60054,1,8,0:0:0:0:
338,64,60207,1,0,0:0:0:0:
339,60,60360,1,12,0:0:0:0:
330,77,60974,1,8,0:0:0:0:
333,66,61280,1,12,0:0:0:0:
333,66,61587,1,0,0:0:0:0:
333,66,61741,1,0,0:0:0:0:
333,75,63188,1,8,0:0:0:0:
326,71,63231,1,8,0:0:0:0:
315,71,64231,1,8,0:0:0:0:
332,75,65511,1,12,0:0:0:0:
320,60,65838,1,0,0:0:0:0:
318,74,66002,1,8,0:0:0:0:
324,69,66330,1,0,0:0:0:0:
318,74,66494,1,8,0:0:0:0:
324,69,66822,1,0,0:0:0:0:
318,74,66986,1,8,0:0:0:0:
324,69,67314,1,0,0:0:0:0:
318,74,67478,1,8,0:0:0:0:
324,69,67642,1,0,0:0:0:0:
318,74,67806,1,8,0:0:0:0:
323,68,68133,1,0,0:0:0:0:
318,74,68461,1,8,0:0:0:0:
323,68,68625,1,0,0:0:0:0:
323,68,68953,1,8,0:0:0:0:
323,68,69117,1,0,0:0:0:0:
318,74,69445,1,8,0:0:0:0:
323,68,69609,1,0,0:0:0:0:
323,68,69937,1,8,0:0:0:0:
323,68,70101,1,0,0:0:0:0:
329,68,70265,1,8,0:0:0:0:
323,68,70428,1,0,0:0:0:0:
331,63,70510,1,0,0:0:0:0:
350,72,70592,1,0,0:0:0:0:
351,71,70674,1,0,0:0:0:0:
349,70,70756,1,8,0:0:0:0:
323,68,71084,1,0,0:0:0:0:
362,72,71248,1,8,0:0:0:0:
331,63,71576,1,0,0:0:0:0:
362,72,71740,1,8,0:0:0:0:
323,68,72068,1,0,0:0:0:0:
362,72,72232,1,8,0:0:0:0:
331,63,72396,1,0,0:0:0:0:
361,70,72478,1,8,0:0:0:0:
331,63,72560,1,0,0:0:0:0:
362,72,72723,1,8,0:0:0:0:
358,56,72887,1,0,0:0:0:0:
362,72,73051,1,8,0:0:0:0:
368,62,73215,1,0,0:0:0:0:
368,62,73379,1,8,0:0:0:0:
368,62,73707,1,0,0:0:0:0:
369,63,73871,1,8,0:0:0:0:
368,62,74199,1,0,0:0:0:0:
374,70,74363,1,8,0:0:0:0:
357,63,74691,1,0,0:0:0:0:
374,70,74855,1,8,0:0:0:0:
360,65,75182,1,0,0:0:0:0:
374,70,75346,1,8,0:0:0:0:
357,63,75510,1,0,0:0:0:0:
374,70,75674,1,8,0:0:0:0:
366,68,75756,1,8,0:0:0:0:
374,70,75838,1,0,0:0:0:0:
374,70,75920,1,0,0:0:0:0:
381,67,76002,1,12,0:0:0:0:
375,69,76166,1,0,0:0:0:0:
374,70,76248,1,0,0:0:0:0:
374,70,76330,1,8,0:0:0:0:
360,56,76494,1,0,0:0:0:0:
360,56,76658,1,8,0:0:0:0:
360,56,76822,1,8,0:0:0:0:
360,56,76986,1,0,0:0:0:0:
360,56,77150,1,8,0:0:0:0:
364,59,77232,1,8,0:0:0:0:
360,56,77314,1,0,0:0:0:0:
360,56,77478,1,0,0:0:0:0:
360,56,77559,1,0,0:0:0:0:
360,56,77641,1,8,0:0:0:0:
360,56,77805,1,0,0:0:0:0:
360,56,77969,1,8,0:0:0:0:
348,68,78133,1,0,0:0:0:0:
367,65,78297,1,8,0:0:0:0:
367,65,78461,1,8,0:0:0:0:
367,65,78543,1,8,0:0:0:0:
367,65,78625,1,0,0:0:0:0:
367,65,78789,1,0,0:0:0:0:
367,65,78871,1,0,0:0:0:0:
367,65,78953,1,8,0:0:0:0:
393,68,79117,1,0,0:0:0:0:
393,68,79281,1,8,0:0:0:0:
393,68,79445,1,8,0:0:0:0:
376,58,79609,1,0,0:0:0:0:
377,58,79773,1,8,0:0:0:0:
348,71,79855,1,8,0:0:0:0:
382,61,79936,1,0,0:0:0:0:
348,71,80100,1,0,0:0:0:0:
382,63,80182,1,0,0:0:0:0:
383,63,80264,1,8,0:0:0:0:
383,63,80428,1,0,0:0:0:0:
383,62,80592,1,8,0:0:0:0:
364,62,80756,1,0,0:0:0:0:
364,62,80920,1,8,0:0:0:0:
364,62,81002,1,0,0:0:0:0:
364,62,81084,1,0,0:0:0:0:
364,62,81166,1,0,0:0:0:0:
364,62,81248,1,8,0:0:0:0:
364,62,81412,1,0,0:0:0:0:
364,62,81494,1,0,0:0:0:0:
364,62,81576,1,8,0:0:0:0:
367,73,81740,1,0,0:0:0:0:
367,73,81904,1,8,0:0:0:0:
367,73,82068,1,8,0:0:0:0:
368,74,82232,1,0,0:0:0:0:
365,73,82395,1,8,0:0:0:0:
365,73,82477,1,8,0:0:0:0:
368,73,82559,1,0,0:0:0:0:
367,73,82723,1,0,0:0:0:0:
367,73,82805,1,0,0:0:0:0:
367,73,82887,1,8,0:0:0:0:
367,73,82969,1,8,0:0:0:0:
367,73,83051,1,0,0:0:0:0:
368,74,83215,1,8,0:0:0:0:
376,69,83379,1,0,0:0:0:0:
376,69,83461,1,0,0:0:0:0:
368,73,83543,1,8,0:0:0:0:
355,68,83707,1,0,0:0:0:0:
367,73,83871,1,8,0:0:0:0:
362,87,83953,1,8,0:0:0:0:
362,87,84035,1,0,0:0:0:0:
361,81,84117,1,0,0:0:0:0:
361,81,84199,1,8,0:0:0:0:
361,81,84281,1,0,0:0:0:0:
353,84,84363,1,8,0:0:0:0:
359,80,84445,1,0,0:0:0:0:
356,78,84527,1,0,0:0:0:0:
353,84,84609,1,8,0:0:0:0:
356,78,84691,1,0,0:0:0:0:
354,90,84772,1,8,0:0:0:0:
354,90,84854,1,0,0:0:0:0:
354,90,84936,1,8,0:0:0:0:
354,90,85018,1,8,0:0:0:0:
361,81,85100,1,0,0:0:0:0:
352,93,85346,1,8,0:0:0:0:
352,93,85428,1,8,0:0:0:0:
352,93,85510,1,8,0:0:0:0:
351,88,85674,1,8,0:0:0:0:
354,90,85756,1,8,0:0:0:0:
347,82,85838,1,0,0:0:0:0:
354,90,86002,1,8,0:0:0:0:
353,85,86084,1,0,0:0:0:0:
348,83,86166,1,0,0:0:0:0:
362,80,86330,1,8,0:0:0:0:
360,79,86412,1,8,0:0:0:0:
360,79,86494,1,0,0:0:0:0:
354,90,86986,1,0,0:0:0:0:
344,73,87149,1,0,0:0:0:0:
362,80,87313,1,0,0:0:0:0:
344,75,87477,1,8,0:0:0:0:
362,72,87641,1,8,0:0:0:0:
342,74,87969,1,8,0:0:0:0:
343,72,88297,1,8,0:0:0:0:
352,68,88625,1,0,0:0:0:0:
352,68,88789,1,8,0:0:0:0:
352,68,88953,1,0,0:0:0:0:
327,76,89035,1,8,0:0:0:0:
368,76,89281,1,0,0:0:0:0:
352,68,89445,1,0,0:0:0:0:
314,127,90756,1,0,0:0:0:0:
336,126,90838,1,8,0:0:0:0:
336,126,91084,1,0,0:0:0:0:
333,119,91412,1,0,0:0:0:0:
314,127,91740,1,8,0:0:0:0:
312,126,92231,1,0,0:0:0:0:
312,126,92395,1,0,0:0:0:0:
314,127,92559,1,8,0:0:0:0:
312,126,92887,1,0,0:0:0:0:
312,126,92969,1,8,0:0:0:0:
312,126,93379,1,0,0:0:0:0:
312,126,93707,1,0,0:0:0:0:
312,126,93871,1,0,0:0:0:0:
312,126,94035,1,8,0:0:0:0:
312,126,94199,1,8,0:0:0:0:
296,113,94281,1,8,0:0:0:0:
309,117,94362,1,0,0:0:0:0:
326,72,97477,1,0,0:0:0:0:
326,72,97641,1,0,0:0:0:0:
326,72,97805,1,0,0:0:0:0:
326,72,97969,1,8,0:0:0:0:
326,72,98133,1,8,0:0:0:0:
326,72,98461,1,8,0:0:0:0:
326,72,98789,1,8,0:0:0:0:
328,61,99117,1,0,0:0:0:0:
330,65,99280,1,0,0:0:0:0:
332,61,99444,1,8,0:0:0:0:
348,70,100100,1,0,0:0:0:0:
344,59,100264,1,0,0:0:0:0:
338,62,100428,1,0,0:0:0:0:
344,59,100592,1,8,0:0:0:0:
324,60,100756,1,8,0:0:0:0:
338,62,101084,1,0,0:0:0:0:
338,51,101248,1,8,0:0:0:0:
339,53,101330,1,8,0:0:0:0:
338,53,101412,1,0,0:0:0:0:
334,50,101739,1,8,0:0:0:0:
334,50,101903,1,0,0:0:0:0:
334,50,102067,1,0,0:0:0:0:
338,51,102231,1,0,0:0:0:0:
334,50,102559,1,8,0:0:0:0:
334,50,102723,1,8,0:0:0:0:
345,51,103051,1,0,0:0:0:0:
368,45,103215,1,0,0:0:0:0:
348,50,103379,1,8,0:0:0:0:
361,49,103707,1,8,0:0:0:0:
361,49,103871,1,8,0:0:0:0:
358,50,104198,1,0,0:0:0:0:
358,50,104362,1,0,0:0:0:0:
361,49,104526,1,8,0:0:0:0:
361,49,104690,1,8,0:0:0:0:
358,50,105018,1,8,0:0:0:0:
358,50,105182,1,0,0:0:0:0:
358,61,106330,1,0,0:0:0:0:
358,61,106411,1,0,0:0:0:0:
358,61,106493,1,8,0:0:0:0:
358,61,106575,1,8,0:0:0:0:
358,61,106657,1,0,0:0:0:0:
358,61,106739,1,8,0:0:0:0:
358,61,106821,1,0,0:0:0:0:
358,61,107477,1,8,0:0:0:0:
358,61,107641,1,8,0:0:0:0:
365,58,107969,1,0,0:0:0:0:
358,61,108051,1,0,0:0:0:0:
358,61,108133,1,8,0:0:0:0:
375,54,108297,1,0,0:0:0:0:
370,55,108461,1,8,0:0:0:0:
370,55,108625,1,8,0:0:0:0:
352,53,108707,1,8,0:0:0:0:
357,52,108788,1,0,0:0:0:0:
345,47,108952,1,8,0:0:0:0:
347,46,109280,1,0,0:0:0:0:
348,46,109444,1,8,0:0:0:0:
348,46,109526,1,8,0:0:0:0:
348,46,109608,1,0,0:0:0:0:
348,46,109690,1,0,0:0:0:0:
348,46,109772,1,8,0:0:0:0:
345,47,109936,1,0,0:0:0:0:
347,46,110018,1,8,0:0:0:0:
347,46,110100,1,8,0:0:0:0:
347,46,110264,1,0,0:0:0:0:
336,35,110428,1,0,0:0:0:0:
348,46,110756,1,0,0:0:0:0:
345,47,110920,1,0,0:0:0:0:
323,47,111084,1,8,0:0:0:0:
334,39,111247,1,0,0:0:0:0:
332,50,111329,1,0,0:0:0:0:
332,50,111411,1,8,0:0:0:0:
337,40,111575,1,8,0:0:0:0:
339,72,111739,1,0,0:0:0:0:
339,72,111821,1,8,0:0:0:0:
337,40,112067,1,0,0:0:0:0:
339,43,112231,1,0,0:0:0:0:
339,43,112313,1,0,0:0:0:0:
339,43,112395,1,8,0:0:0:0:
337,46,112559,1,0,0:0:0:0:
337,46,112723,1,8,0:0:0:0:
337,40,113051,1,0,0:0:0:0:
339,43,113215,1,8,0:0:0:0:
338,51,113297,1,8,0:0:0:0:
338,51,113379,1,0,0:0:0:0:
337,46,113542,1,0,0:0:0:0:
337,46,113706,1,8,0:0:0:0:
341,46,113870,1,8,0:0:0:0:
341,46,113952,1,8,0:0:0:0:
341,46,114034,1,0,0:0:0:0:
337,54,114198,1,8,0:0:0:0:
338,51,114362,1,8,0:0:0:0:
337,46,114526,1,0,0:0:0:0:
337,46,114608,1,0,0:0:0:0:
346,49,114690,1,8,0:0:0:0:
333,45,114854,1,0,0:0:0:0:
333,45,115018,1,8,0:0:0:0:
333,45,115182,1,8,0:0:0:0:
337,39,115264,1,8,0:0:0:0:
333,45,115346,1,0,0:0:0:0:
365,34,115510,1,8,0:0:0:0:
365,34,115674,1,8,0:0:0:0:
357,36,116001,1,0,0:0:0:0:
357,36,116165,1,0,0:0:0:0:
357,36,116329,1,8,0:0:0:0:
357,36,116493,1,0,0:0:0:0:
357,36,116575,1,0,0:0:0:0:
357,36,116657,1,8,0:0:0:0:
357,36,116821,1,8,0:0:0:0:
357,36,117149,1,8,0:0:0:0:
357,36,117231,1,8,0:0:0:0:
357,36,117313,1,0,0:0:0:0:
357,36,117477,1,0,0:0:0:0:
357,36,117641,1,8,0:0:0:0:
357,36,117805,1,0,0:0:0:0:
357,36,117887,1,8,0:0:0:0:
357,36,117969,1,8,0:0:0:0:
346,57,118133,1,8,0:0:0:0:
333,64,118297,1,0,0:0:0:0:
267,49,118460,1,8,0:0:0:0:
309,60,118788,1,0,0:0:0:0:
299,67,118952,1,8,0:0:0:0:
269,58,119116,1,8,0:0:0:0:
310,71,119198,1,8,0:0:0:0:
310,71,119280,1,0,0:0:0:0:
310,71,119608,1,8,0:0:0:0:
310,71,119772,1,0,0:0:0:0:
310,71,119936,1,8,0:0:0:0:
310,71,120018,1,8,0:0:0:0:
323,66,120100,1,0,0:0:0:0:
310,71,120182,1,0,0:0:0:0:
310,71,120264,1,8,0:0:0:0:
310,71,120428,1,8,0:0:0:0:
310,71,120510,1,8,0:0:0:0:
310,71,120592,1,0,0:0:0:0:
310,71,120755,1,0,0:0:0:0:
301,68,121083,1,8,0:0:0:0:
301,68,121165,1,8,0:0:0:0:
301,68,121247,1,0,0:0:0:0:
301,68,121411,1,0,0:0:0:0:
301,68,121575,1,8,0:0:0:0:
305,57,121739,1,0,0:0:0:0:
283,55,121794,1,8,0:0:0:0:
292,56,121848,1,8,0:0:0:0:
293,56,121903,1,0,0:0:0:0:
301,68,122067,1,8,0:0:0:0:
301,68,122395,1,0,0:0:0:0:
301,68,122559,1,8,0:0:0:0:
300,69,122641,1,8,0:0:0:0:
304,69,122723,1,0,0:0:0:0:
300,69,122805,1,8,0:0:0:0:
300,69,122887,1,0,0:0:0:0:
301,68,122969,1,0,0:0:0:0:
301,68,123051,1,8,0:0:0:0:
301,68,123133,1,0,0:0:0:0:
301,68,123214,1,8,0:0:0:0:
312,67,123378,1,0,0:0:0:0:
305,62,123460,1,0,0:0:0:0:
301,68,123542,1,8,0:0:0:0:
304,69,123706,1,0,0:0:0:0:
300,69,123870,1,8,0:0:0:0:
294,64,124034,1,0,0:0:0:0:
294,64,124198,1,8,0:0:0:0:
294,64,124362,1,8,0:0:0:0:
294,64,124526,1,0,0:0:0:0:
285,74,124690,1,8,0:0:0:0:
300,69,124854,1,0,0:0:0:0:
300,69,124936,1,8,0:0:0:0:
294,64,125018,1,0,0:0:0:0:
281,59,125182,1,8,0:0:0:0:
281,59,125346,1,0,0:0:0:0:
281,59,125428,1,8,0:0:0:0:
281,59,125510,1,0,0:0:0:0:
281,59,125673,1,8,0:0:0:0:
281,59,125837,1,8,0:0:0:0:
281,59,125919,1,8,0:0:0:0:
281,59,126001,1,0,0:0:0:0:
281,59,126165,1,8,0:0:0:0:
281,59,126329,1,0,0:0:0:0:
281,59,126493,1,8,0:0:0:0:
281,59,126657,1,8,0:0:0:0:
281,59,126821,1,0,0:0:0:0:
281,59,126985,1,8,0:0:0:0:
281,59,127149,1,0,0:0:0:0:
281,59,127313,1,8,0:0:0:0:
281,59,127477,1,0,0:0:0:0:
280,70,127641,1,0,0:0:0:0:
281,73,127805,1,8,0:0:0:0:
282,70,127968,1,0,0:0:0:0:
282,70,128132,1,8,0:0:0:0:
282,70,128214,1,8,0:0:0:0:
282,70,128296,1,0,0:0:0:0:
282,70,128378,1,0,0:0:0:0:
281,59,128460,1,0,0:0:0:0:
272,59,128624,1,0,0:0:0:0:
269,61,128788,1,8,0:0:0:0:
282,70,128952,1,8,0:0:0:0:
291,62,129280,1,8,0:0:0:0:
271,63,129444,1,0,0:0:0:0:
272,59,129608,1,0,0:0:0:0:
271,59,129936,1,0,0:0:0:0:
273,55,130100,1,8,0:0:0:0:
282,62,130264,1,0,0:0:0:0:
282,62,130427,1,8,0:0:0:0:
282,62,130591,1,8,0:0:0:0:
282,62,130755,1,0,0:0:0:0:
282,62,130919,1,0,0:0:0:0:
282,62,131083,1,8,0:0:0:0:
282,62,131247,1,0,0:0:0:0:
282,62,131411,1,8,0:0:0:0:
282,62,131575,1,8,0:0:0:0:
282,62,131903,1,0,0:0:0:0:
282,62,132067,1,8,0:0:0:0:
282,62,132149,1,0,0:0:0:0:
282,62,132231,1,0,0:0:0:0:
282,62,132395,1,8,0:0:0:0:
282,62,132723,1,0,0:0:0:0:
282,62,132804,1,8,0:0:0:0:
282,62,133050,1,0,0:0:0:0:
282,62,133378,1,8,0:0:0:0:
282,62,133706,1,0,0:0:0:0:
282,62,133875,1,0,0:0:0:0:
282,62,134045,1,8,0:0:0:0:
282,62,134214,1,8,0:0:0:0:
282,62,134554,1,0,0:0:0:0:
282,62,134723,1,8,0:0:0:0:
282,62,134893,1,8,0:0:0:0:
282,62,135237,1,8,0:0:0:0:
282,62,135412,1,8,0:0:0:0:
282,62,135587,1,8,0:0:0:0:
282,62,135938,1,8,0:0:0:0:
282,62,136113,1,8,0:0:0:0:
282,62,136288,1,0,0:0:0:0:
282,62,136464,1,8,0:0:0:0:
268,70,136653,1,0,0:0:0:0:
268,70,136748,1,8,0:0:0:0:
268,70,136843,1,0,0:0:0:0:
268,70,136937,1,0,0:0:0:0:
268,70,137032,1,8,0:0:0:0:
268,70,137127,1,0,0:0:0:0:
268,70,137222,1,8,0:0:0:0:
282,62,137411,1,0,0:0:0:0:
277,60,137506,1,8,0:0:0:0:
277,60,137695,1,8,0:0:0:0:
277,60,137790,1,0,0:0:0:0:
278,63,137980,1,8,0:0:0:0:
282,72,138183,1,8,0:0:0:0:
282,72,138387,1,0,0:0:0:0:
282,72,138591,1,0,0:0:0:0:
282,72,138795,1,8,0:0:0:0:
285,72,138897,1,8,0:0:0:0:
285,72,138999,1,0,0:0:0:0:
282,72,139101,1,0,0:0:0:0:
282,72,139203,1,8,0:0:0:0:
288,66,139271,1,0,0:0:0:0:
288,66,139339,1,0,0:0:0:0:
288,66,139407,1,8,0:0:0:0:
288,66,139475,1,0,0:0:0:0:
288,66,139543,1,0,0:0:0:0:
288,66,139611,1,8,0:0:0:0:
289,71,139832,1,0,0:0:0:0:
292,72,140053,1,0,0:0:0:0:
289,91,140275,1,8,0:0:0:0:
289,91,140496,1,0,0:0:0:0:
289,91,140718,1,8,0:0:0:0:
289,91,140939,1,8,0:0:0:0:
289,91,141160,1,0,0:0:0:0:
289,91,141382,1,8,0:0:0:0:
289,91,141605,1,0,0:0:0:0:
289,91,142274,1,8,0:0:0:0:
289,91,142720,1,8,0:0:0:0:
289,91,143166,1,0,0:0:0:0:
298,95,144053,1,8,0:0:0:0:
298,95,144274,1,0,0:0:0:0:
298,95,144496,1,8,0:0:0:0:
298,95,144718,1,8,0:0:0:0:
294,104,144940,1,0,0:0:0:0:
306,87,145831,1,0,0:0:0:0:
306,87,146054,1,8,0:0:0:0:
306,87,146277,1,8,0:0:0:0:
305,87,146500,1,0,0:0:0:0:
306,87,146723,1,8,0:0:0:0:
306,87,146944,1,0,0:0:0:0:
308,94,147166,1,8,0:0:0:0:
307,93,147388,1,8,0:0:0:0:
307,93,147609,1,8,0:0:0:0:
310,94,147831,1,0,0:0:0:0:
308,94,148053,1,8,0:0:0:0:
307,93,148274,1,8,0:0:0:0:
307,93,148496,1,8,0:0:0:0:
310,94,148718,1,0,0:0:0:0:
308,94,148940,1,8,0:0:0:0:
307,93,149162,1,8,0:0:0:0:
307,93,149384,1,8,0:0:0:0:
308,94,149828,1,8,0:0:0:0:
307,93,150272,1,8,0:0:0:0:
308,94,150502,1,0,0:0:0:0:
308,94,150733,1,8,0:0:0:0:
307,93,150963,1,8,0:0:0:0:
307,93,151194,1,0,0:0:0:0:
308,94,151655,1,0,0:0:0:0:
307,93,152116,1,8,0:0:0:0:
280,94,159504,5,0,0:0:0:0:
292,94,159734,1,0,0:0:0:0:
280,94,159849,1,8,0:0:0:0:
280,94,159964,1,0,0:0:0:0:
280,94,160195,1,8,0:0:0:0:
280,94,160425,1,0,0:0:0:0:
283,99,160655,1,0,0:0:0:0:
303,99,160732,1,8,0:0:0:0:
302,98,160809,1,8,0:0:0:0:
301,98,160886,1,0,0:0:0:0:
302,97,161116,1,0,0:0:0:0:
302,97,161347,1,8,0:0:0:0:
302,97,161577,1,0,0:0:0:0:
302,97,161692,1,0,0:0:0:0:
303,99,161807,1,8,0:0:0:0:
302,97,162037,1,0,0:0:0:0:
302,97,162153,1,8,0:0:0:0:
302,97,162268,1,8,0:0:0:0:
302,97,162498,1,0,0:0:0:0:
302,97,162613,1,8,0:0:0:0:
302,97,162728,1,0,0:0:0:0:
302,97,162959,1,8,0:0:0:0:
302,97,163189,1,0,0:0:0:0:
283,99,166893,1,0,0:0:0:0:
283,99,167123,1,0,0:0:0:0:
273,100,167238,1,8,0:0:0:0:
283,99,167353,1,0,0:0:0:0:
283,99,167583,1,8,0:0:0:0:
283,99,167813,1,0,0:0:0:0:
283,99,168043,1,0,0:0:0:0:
292,105,168120,1,8,0:0:0:0:
294,104,168197,1,8,0:0:0:0:
298,87,168273,1,0,0:0:0:0:
283,99,168504,1,0,0:0:0:0:
283,99,168734,1,8,0:0:0:0:
283,99,168965,1,0,0:0:0:0:
279,92,169080,1,0,0:0:0:0:
286,97,169196,1,8,0:0:0:0:
283,99,169427,1,0,0:0:0:0:
283,99,169543,1,8,0:0:0:0:
283,99,169658,1,8,0:0:0:0:
290,99,169890,1,0,0:0:0:0:
291,100,170005,1,8,0:0:0:0:
291,103,170121,1,0,0:0:0:0:
293,103,170352,1,8,0:0:0:0:
293,103,170583,1,0,0:0:0:0:
260,97,172883,1,0,0:0:0:0:
239,97,172960,1,8,0:0:0:0:
270,84,173345,1,8,0:0:0:0:
262,86,173807,1,0,0:0:0:0:
261,86,174270,1,0,0:0:0:0:
263,76,174958,1,0,0:0:0:0:
263,76,175188,1,0,0:0:0:0:
263,76,175418,1,0,0:0:0:0:
263,76,175647,1,0,0:0:0:0:
285,31,175877,1,8,0:0:0:0:
266,82,176107,1,8,0:0:0:0:
263,76,176571,1,0,0:0:0:0:
266,82,177035,1,0,0:0:0:0:
273,82,177500,1,8,0:0:0:0:
300,101,177964,1,8,0:0:0:0:
285,81,178040,1,8,0:0:0:0:
302,84,178656,1,0,0:0:0:0:
302,84,178887,1,8,0:0:0:0:
294,80,180272,1,0,0:0:0:0:
294,80,180733,1,8,0:0:0:0:
303,76,180810,1,8,0:0:0:0:
294,80,181194,1,8,0:0:0:0:
294,80,181655,1,0,0:0:0:0:
294,80,182117,1,8,0:0:0:0:
294,80,182348,1,8,0:0:0:0:
294,80,182810,1,0,0:0:0:0:
294,80,183041,1,8,0:0:0:0:
294,80,183388,1,8,0:0:0:0:
294,80,183446,1,8,0:0:0:0:
294,80,183504,1,0,0:0:0:0:
295,88,184423,1,8,0:0:0:0:
295,88,184768,1,0,0:0:0:0:
295,88,185113,1,0,0:0:0:0:
300,79,185343,1,8,0:0:0:0:
293,77,185805,1,0,0:0:0:0:
293,77,186036,1,8,0:0:0:0:
305,87,187931,1,0,0:0:0:0:
269,82,188178,1,8,0:0:0:0:
299,82,188628,1,0,0:0:0:0:
280,76,189079,1,8,0:0:0:0:
280,76,189380,1,12,0:0:0:0:
279,68,189755,1,0,0:0:0:0:
293,68,189943,1,0,0:0:0:0:
279,68,190037,1,8,0:0:0:0:
279,68,190131,1,8,0:0:0:0:
279,68,190318,1,8,0:0:0:0:
279,68,190506,1,0,0:0:0:0:
278,77,190694,1,0,0:0:0:0:
287,71,190788,1,8,0:0:0:0:
284,63,190882,1,8,0:0:0:0:
287,71,191068,1,8,0:0:0:0:
287,71,191254,1,0,0:0:0:0:
291,71,191440,1,0,0:0:0:0:
291,71,191627,1,8,0:0:0:0:
291,71,191720,1,8,0:0:0:0:
287,71,191813,1,0,0:0:0:0:
291,71,191906,1,0,0:0:0:0:
287,71,191999,1,8,0:0:0:0:
272,77,192185,1,8,0:0:0:0:
295,76,192279,1,0,0:0:0:0:
295,76,192372,1,8,0:0:0:0:
295,76,192554,1,8,0:0:0:0:
277,78,192737,1,0,0:0:0:0:
256,67,192920,1,0,0:0:0:0:
291,84,193012,1,8,0:0:0:0:
291,84,193103,1,8,0:0:0:0:
270,68,193286,1,8,0:0:0:0:
271,69,193469,1,0,0:0:0:0:
271,69,193652,1,0,0:0:0:0:
271,69,193744,1,8,0:0:0:0:
267,65,193835,1,8,0:0:0:0:
291,75,194016,1,8,0:0:0:0:
267,78,194197,1,0,0:0:0:0:
271,69,194378,1,0,0:0:0:0:
271,69,194559,1,8,0:0:0:0:
271,69,194649,1,8,0:0:0:0:
271,69,194740,1,0,0:0:0:0:
275,69,194830,1,0,0:0:0:0:
275,69,194921,1,8,0:0:0:0:
275,69,195011,1,0,0:0:0:0:
275,69,195102,1,0,0:0:0:0:
275,69,195192,1,0,0:0:0:0:
271,69,195283,1,8,0:0:0:0:
271,69,195459,1,8,0:0:0:0:
284,63,195635,1,0,0:0:0:0:
284,63,195811,1,0,0:0:0:0:
284,63,195899,1,8,0:0:0:0:
284,63,195987,1,8,0:0:0:0:
284,63,196163,1,8,0:0:0:0:
284,63,196339,1,0,0:0:0:0:
284,63,196516,1,0,0:0:0:0:
284,63,196604,1,8,0:0:0:0:
284,63,196692,1,8,0:0:0:0:
284,63,196869,1,8,0:0:0:0:
284,63,197047,1,0,0:0:0:0:
284,63,197136,1,8,0:0:0:0:
284,63,197403,1,8,0:0:0:0:
284,63,197492,1,8,0:0:0:0:
284,63,197580,1,0,0:0:0:0:
284,63,197669,1,0,0:0:0:0:
284,63,197758,1,8,0:0:0:0:
266,53,197936,1,8,0:0:0:0:
270,50,198025,1,0,0:0:0:0:
269,51,198114,1,8,0:0:0:0:
274,53,198287,1,8,0:0:0:0:
293,67,198460,1,0,0:0:0:0:
293,67,198633,1,0,0:0:0:0:
292,67,198719,1,8,0:0:0:0:
291,66,198806,1,8,0:0:0:0:
291,66,198979,1,8,0:0:0:0:
291,66,199152,1,0,0:0:0:0:
293,67,199325,1,0,0:0:0:0:
293,67,199412,1,8,0:0:0:0:
293,67,199499,1,8,0:0:0:0:
293,67,199673,1,8,0:0:0:0:
291,66,199760,1,8,0:0:0:0:
291,66,199847,1,8,0:0:0:0:
291,66,200021,1,0,0:0:0:0:
291,66,200108,1,8,0:0:0:0:
293,67,200282,1,0,0:0:0:0:
293,67,200369,1,8,0:0:0:0:
293,67,200543,1,8,0:0:0:0:
293,67,200630,1,8,0:0:0:0:
291,66,200717,1,0,0:0:0:0:
291,66,200804,1,0,0:0:0:0:
291,66,200892,1,12,0:0:0:0:
283,81,201063,1,0,0:0:0:0:
299,73,201149,1,0,0:0:0:0:
299,73,201235,1,8,0:0:0:0:
299,73,201407,1,0,0:0:0:0:
299,73,201493,1,8,0:0:0:0:
299,73,201579,1,8,0:0:0:0:
299,73,201751,1,8,0:0:0:0:
299,73,201923,1,0,0:0:0:0:
299,73,202095,1,0,0:0:0:0:
299,73,202181,1,8,0:0:0:0:
299,73,202267,1,8,0:0:0:0:
299,73,202435,1,8,0:0:0:0:
299,73,202604,1,0,0:0:0:0:
299,73,202772,1,0,0:0:0:0:
299,73,202856,1,8,0:0:0:0:
299,73,202941,1,8,0:0:0:0:
299,73,203109,1,0,0:0:0:0:
299,73,203193,1,0,0:0:0:0:
299,73,203278,1,8,0:0:0:0:
299,73,203446,1,0,0:0:0:0:
299,73,203531,1,8,0:0:0:0:
299,73,203615,1,0,0:0:0:0:
299,73,203782,1,0,0:0:0:0:
299,73,203865,1,0,0:0:0:0:
299,73,203949,1,8,0:0:0:0:
299,73,204116,1,0,0:0:0:0:
299,73,204199,1,8,0:0:0:0:
299,73,204283,1,8,0:0:0:0:
299,73,204450,1,8,0:0:0:0:
299,73,204617,1,0,0:0:0:0:
299,73,204784,1,0,0:0:0:0:
299,73,204868,1,8,0:0:0:0:
299,73,204952,1,8,0:0:0:0:
299,73,205118,1,8,0:0:0:0:
299,73,205284,1,0,0:0:0:0:
299,73,205450,1,0,0:0:0:0:
299,73,205533,1,8,0:0:0:0:
299,73,205616,1,8,0:0:0:0:
299,73,205783,1,0,0:0:0:0:
299,73,205866,1,0,0:0:0:0:
299,73,205949,1,8,0:0:0:0:
299,73,206032,1,8,0:0:0:0:
299,73,206115,1,0,0:0:0:0:
299,73,206198,1,0,0:0:0:0:
299,73,206281,1,8,0:0:0:0:
299,73,206445,1,0,0:0:0:0:
293,67,206528,1,0,0:0:0:0:
281,72,206610,1,8,0:0:0:0:
285,72,206775,1,0,0:0:0:0:
299,73,206858,1,8,0:0:0:0:
286,71,206940,1,8,0:0:0:0:
299,73,207105,1,8,0:0:0:0:
299,73,207270,1,0,0:0:0:0:
299,73,207435,1,0,0:0:0:0:
304,70,207517,1,8,0:0:0:0:
304,70,207600,1,8,0:0:0:0:
303,70,207763,1,8,0:0:0:0:
303,70,207926,1,0,0:0:0:0:
303,70,208008,1,8,0:0:0:0:
299,73,208172,1,8,0:0:0:0:
299,73,208253,1,0,0:0:0:0:
299,73,208335,1,0,0:0:0:0:
299,73,208417,1,8,0:0:0:0:
304,70,208499,1,0,0:0:0:0:
304,70,208580,1,8,0:0:0:0:
303,70,208744,1,0,0:0:0:0:
303,70,208826,1,8,0:0:0:0:
303,70,208907,1,8,0:0:0:0:
298,82,209071,1,0,0:0:0:0:
295,81,209153,1,0,0:0:0:0:
298,82,209235,1,8,0:0:0:0:
299,73,209400,1,0,0:0:0:0:
304,70,209482,1,8,0:0:0:0:
304,70,209564,1,8,0:0:0:0:
303,70,209728,1,8,0:0:0:0:
303,70,209893,1,0,0:0:0:0:
301,73,210057,1,0,0:0:0:0:
301,73,210139,1,8,0:0:0:0:
301,73,210222,1,8,0:0:0:0:
299,73,210385,1,8,0:0:0:0:
304,70,210467,1,8,0:0:0:0:
304,70,210549,1,8,0:0:0:0:
303,70,210713,1,0,0:0:0:0:
303,70,210795,1,8,0:0:0:0:
301,73,210959,1,0,0:0:0:0:
301,73,211041,1,8,0:0:0:0:
301,73,211205,1,8,0:0:0:0:
299,73,211287,1,8,0:0:0:0:
299,73,211369,1,0,0:0:0:0:
304,70,211451,1,0,0:0:0:0:
304,70,211532,1,0,0:0:0:0:
303,70,211695,1,8,0:0:0:0:
320,63,211859,1,0,0:0:0:0:
312,76,212023,1,0,0:0:0:0:
312,77,212105,1,0,0:0:0:0:
312,77,212187,1,8,0:0:0:0:
307,70,212351,1,8,0:0:0:0:
304,70,212515,1,0,0:0:0:0:
303,70,212679,1,8,0:0:0:0:
302,72,212761,1,8,0:0:0:0:
302,72,212843,1,0,0:0:0:0:
302,68,213007,1,8,0:0:0:0:
302,68,213170,1,0,0:0:0:0:
307,70,213334,1,8,0:0:0:0:
317,66,213389,1,0,0:0:0:0:
318,64,213444,1,0,0:0:0:0:
318,64,213498,1,8,0:0:0:0:
294,76,213580,1,8,0:0:0:0:
285,80,213662,1,0,0:0:0:0:
279,80,213744,1,0,0:0:0:0:
278,72,213826,1,8,0:0:0:0:
302,68,213990,1,0,0:0:0:0:
302,68,214072,1,8,0:0:0:0:
302,68,214154,1,0,0:0:0:0:
296,71,214318,1,8,0:0:0:0:
296,71,214482,1,0,0:0:0:0:
296,71,214645,1,0,0:0:0:0:
296,71,214727,1,0,0:0:0:0:
296,71,214809,1,8,0:0:0:0:
302,68,214973,1,0,0:0:0:0:
302,68,215137,1,8,0:0:0:0:
296,71,215301,1,8,0:0:0:0:
296,71,215383,1,8,0:0:0:0:
303,64,215465,1,0,0:0:0:0:
296,71,215629,1,8,0:0:0:0:
296,71,215793,1,0,0:0:0:0:
294,73,215875,1,8,0:0:0:0:
294,73,215957,1,0,0:0:0:0:
280,68,216011,1,0,0:0:0:0:
289,61,216066,1,0,0:0:0:0:
297,55,216121,1,8,0:0:0:0:
305,66,216202,1,8,0:0:0:0:
290,76,216284,1,0,0:0:0:0:
296,71,216366,1,0,0:0:0:0:
291,73,216448,1,8,0:0:0:0:
297,54,216612,1,0,0:0:0:0:
293,57,216694,1,0,0:0:0:0:
291,56,216776,1,8,0:0:0:0:
292,56,216940,1,8,0:0:0:0:
291,56,217022,1,8,0:0:0:0:
296,54,217104,1,0,0:0:0:0:
283,53,217268,1,0,0:0:0:0:
289,54,217350,1,0,0:0:0:0:
289,54,217432,1,8,0:0:0:0:
289,54,217596,1,0,0:0:0:0:
291,56,217759,1,8,0:0:0:0:
292,56,217923,1,8,0:0:0:0:
291,56,218005,1,8,0:0:0:0:
296,54,218087,1,0,0:0:0:0:
283,53,218251,1,8,0:0:0:0:
289,54,218415,1,0,0:0:0:0:
294,42,218579,1,8,0:0:0:0:
294,42,218634,1,0,0:0:0:0:
294,42,218688,1,0,0:0:0:0:
294,42,218743,1,8,0:0:0:0:
294,42,218825,1,8,0:0:0:0:
292,48,218907,1,0,0:0:0:0:
291,56,218989,1,0,0:0:0:0:
292,48,219071,1,8,0:0:0:0:
311,60,219235,1,8,0:0:0:0:
306,60,219316,1,8,0:0:0:0:
299,59,219398,1,0,0:0:0:0:
299,59,219562,1,8,0:0:0:0:
300,59,219726,1,0,0:0:0:0:
303,57,219890,1,0,0:0:0:0:
303,57,219972,1,0,0:0:0:0:
303,57,220054,1,8,0:0:0:0:
303,57,220218,1,0,0:0:0:0:
299,59,220382,1,8,0:0:0:0:
299,59,220546,1,8,0:0:0:0:
300,59,220628,1,8,0:0:0:0:
300,59,220710,1,0,0:0:0:0:
303,57,220873,1,8,0:0:0:0:
303,57,221037,1,0,0:0:0:0:
303,57,221201,1,8,0:0:0:0:
303,57,221256,1,0,0:0:0:0:
305,61,221311,1,0,0:0:0:0:
299,59,221365,1,8,0:0:0:0:
311,66,221447,1,8,0:0:0:0:
299,59,221529,1,0,0:0:0:0:
300,59,221611,1,0,0:0:0:0:
300,59,221693,1,8,0:0:0:0:
299,64,221857,1,8,0:0:0:0:
299,64,221939,1,8,0:0:0:0:
299,64,222021,1,0,0:0:0:0:
299,64,222103,1,8,0:0:0:0:
303,57,222185,1,0,0:0:0:0:
303,57,222267,1,0,0:0:0:0:
305,61,222349,1,8,0:0:0:0:
307,61,222512,1,0,0:0:0:0:
307,61,222594,1,0,0:0:0:0:
307,61,222676,1,8,0:0:0:0:
307,61,222840,1,0,0:0:0:0:
307,61,223004,1,8,0:0:0:0:
303,57,223168,1,8,0:0:0:0:
303,57,223250,1,8,0:0:0:0:
305,61,223332,1,0,0:0:0:0:
307,61,223496,1,8,0:0:0:0:
307,61,223660,1,0,0:0:0:0:
307,61,223824,1,8,0:0:0:0:
307,61,223906,1,0,0:0:0:0:
307,61,223987,1,8,0:0:0:0:
303,57,224151,1,0,0:0:0:0:
303,57,224233,1,0,0:0:0:0:
305,61,224315,1,8,0:0:0:0:
307,61,224479,1,8,0:0:0:0:
307,61,224561,1,8,0:0:0:0:
307,61,224643,1,0,0:0:0:0:
307,61,224807,1,0,0:0:0:0:
307,61,224971,1,8,0:0:0:0:
303,57,225135,1,0,0:0:0:0:
303,57,225217,1,0,0:0:0:0:
303,57,225299,1,8,0:0:0:0:
321,70,225463,1,0,0:0:0:0:
321,70,225626,1,8,0:0:0:0:
321,70,225790,1,8,0:0:0:0:
321,70,225845,1,8,0:0:0:0:
322,70,225900,1,0,0:0:0:0:
321,70,225954,1,0,0:0:0:0:
333,62,226118,1,8,0:0:0:0:
335,63,226282,1,0,0:0:0:0:
336,64,226446,1,0,0:0:0:0:
336,64,226528,1,0,0:0:0:0:
337,63,226610,1,8,0:0:0:0:
337,63,226774,1,0,0:0:0:0:
337,63,226856,1,8,0:0:0:0:
337,63,226938,1,8,0:0:0:0:
333,62,227019,1,8,0:0:0:0:
333,62,227101,1,0,0:0:0:0:
357,67,227265,1,8,0:0:0:0:
336,64,227429,1,0,0:0:0:0:
336,64,227511,1,0,0:0:0:0:
336,64,227593,1,8,0:0:0:0:
337,63,227757,1,0,0:0:0:0:
337,63,227921,1,8,0:0:0:0:
333,62,228085,1,0,0:0:0:0:
335,64,228167,1,8,0:0:0:0:
335,64,228249,1,0,0:0:0:0:
336,64,228413,1,8,0:0:0:0:
336,64,228576,1,0,0:0:0:0:
337,63,228740,1,0,0:0:0:0:
337,63,228822,1,0,0:0:0:0:
337,63,228904,1,8,0:0:0:0:
333,62,229068,1,0,0:0:0:0:
335,64,229232,1,8,0:0:0:0:
336,64,229396,1,0,0:0:0:0:
336,64,229478,1,8,0:0:0:0:
336,64,229560,1,0,0:0:0:0:
337,63,229724,1,8,0:0:0:0:
341,54,229888,1,8,0:0:0:0:
336,54,230052,1,0,0:0:0:0:
326,73,230133,1,0,0:0:0:0:
326,73,230215,1,8,0:0:0:0:
326,73,230297,1,8,0:0:0:0:
326,73,230379,1,0,0:0:0:0:
326,73,230461,1,8,0:0:0:0:
326,73,230625,1,0,0:0:0:0:
326,73,230707,1,8,0:0:0:0:
326,73,230871,1,8,0:0:0:0:
326,73,230953,1,8,0:0:0:0:
326,73,231035,1,0,0:0:0:0:
326,73,231117,1,0,0:0:0:0:
326,73,231199,1,8,0:0:0:0:
326,73,231287,1,0,0:0:0:0:
326,73,231376,1,0,0:0:0:0:
326,73,231464,1,0,0:0:0:0:
326,73,231553,1,8,0:0:0:0:
326,73,231641,1,8,0:0:0:0:
326,73,231730,1,0,0:0:0:0:
326,73,231818,1,0,0:0:0:0:
326,73,231907,1,8,0:0:0:0:
349,55,231966,1,8,0:0:0:0:
340,63,232025,1,0,0:0:0:0:
339,63,232084,1,0,0:0:0:0:
335,61,232143,1,8,0:0:0:0:
333,60,232202,1,8,0:0:0:0:
328,57,232261,1,0,0:0:0:0:
328,57,232320,1,0,0:0:0:0:
328,57,232379,1,0,0:0:0:0:
328,57,232438,1,0,0:0:0:0:
328,57,232497,1,0,0:0:0:0:
330,65,232556,1,0,0:0:0:0:
325,57,232615,1,8,0:0:0:0:
332,54,232740,1,0,0:0:0:0:
338,67,232865,1,0,0:0:0:0:
335,68,232990,1,8,0:0:0:0:
330,65,233116,1,8,0:0:0:0:
333,60,233241,1,0,0:0:0:0:
345,71,233366,1,8,0:0:0:0:
339,61,233492,1,8,0:0:0:0:
339,61,233617,1,0,0:0:0:0:
339,61,233742,1,8,0:0:0:0:
338,67,233868,1,0,0:0:0:0:
339,61,233993,1,0,0:0:0:0:
339,62,234118,1,8,0:0:0:0:
339,62,234244,1,0,0:0:0:0:
341,64,234369,1,0,0:0:0:0:
339,61,234494,1,8,0:0:0:0:
339,61,234620,1,8,0:0:0:0:
339,61,234745,1,0,0:0:0:0:
338,67,234870,1,8,0:0:0:0:
339,61,234996,1,8,0:0:0:0:
339,62,235121,1,0,0:0:0:0:
339,62,235246,1,8,0:0:0:0:
341,64,235309,1,8,0:0:0:0:
341,64,235371,1,8,0:0:0:0:
339,61,235434,1,0,0:0:0:0:
339,61,235497,1,0,0:0:0:0:
346,63,235559,1,0,0:0:0:0:
346,63,235622,1,8,0:0:0:0:
340,71,235746,1,0,0:0:0:0:
338,67,235871,1,0,0:0:0:0:
340,71,235996,1,8,0:0:0:0:
339,71,236245,1,8,0:0:0:0:
337,72,236370,1,0,0:0:0:0:
337,72,236495,1,8,0:0:0:0:
343,72,236620,1,8,0:0:0:0:
340,71,236745,1,0,0:0:0:0:
345,71,236869,1,8,0:0:0:0:
340,71,236994,1,8,0:0:0:0:
339,71,237119,1,0,0:0:0:0:
339,71,237244,1,0,0:0:0:0:
339,91,237368,1,0,0:0:0:0:
336,88,237493,1,8,0:0:0:0:
336,88,237618,1,8,0:0:0:0:
340,77,237743,1,0,0:0:0:0:
336,88,237868,1,8,0:0:0:0:
349,78,237930,1,8,0:0:0:0:
341,78,237992,1,0,0:0:0:0:
341,78,238055,1,0,0:0:0:0:
339,71,238117,1,8,0:0:0:0:
339,71,238179,1,8,0:0:0:0:
339,71,238242,1,0,0:0:0:0:
335,77,238304,1,0,0:0:0:0:
331,76,238367,1,8,0:0:0:0:
331,77,238429,1,8,0:0:0:0:
333,77,238491,1,0,0:0:0:0:
333,77,238554,1,0,0:0:0:0:
330,82,238616,1,8,0:0:0:0:
318,84,238858,1,0,0:0:0:0:
328,69,238979,1,0,0:0:0:0:
341,64,239101,1,8,0:0:0:0:
341,64,239222,1,8,0:0:0:0:
341,64,239343,1,0,0:0:0:0:
336,71,239464,1,0,0:0:0:0:
336,71,239586,1,8,0:0:0:0:
336,71,239707,1,0,0:0:0:0:
336,71,239828,1,8,0:0:0:0:
336,71,239949,1,8,0:0:0:0:
336,71,240071,1,0,0:0:0:0:
337,70,240192,1,0,0:0:0:0:
337,70,240313,1,0,0:0:0:0:
336,71,240434,1,8,0:0:0:0:
336,71,240556,1,8,0:0:0:0:
336,71,240677,1,8,0:0:0:0:
336,71,240798,1,0,0:0:0:0:
336,71,240919,1,0,0:0:0:0:
336,71,241041,1,8,0:0:0:0:
337,70,241162,1,0,0:0:0:0:
337,70,241283,1,8,0:0:0:0:
336,71,241404,1,8,0:0:0:0:
331,77,241526,1,0,0:0:0:0:
336,71,241647,1,0,0:0:0:0:
336,71,241768,1,8,0:0:0:0:
336,71,241889,1,0,0:0:0:0:
336,71,242010,1,8,0:0:0:0:
337,70,242132,1,8,0:0:0:0:
337,70,242253,1,0,0:0:0:0:
336,71,242374,1,8,0:0:0:0:
335,70,242495,1,0,0:0:0:0:
336,71,242616,1,8,0:0:0:0:
336,71,242738,1,8,0:0:0:0:
336,71,242859,1,8,0:0:0:0:
336,71,242980,1,0,0:0:0:0:
336,71,243041,1,8,0:0:0:0:
351,83,243222,1,0,0:0:0:0:
346,82,243344,1,8,0:0:0:0:
336,71,243586,1,8,0:0:0:0:
334,59,243889,1,8,0:0:0:0:
346,75,243950,1,0,0:0:0:0:
308,77,244071,1,8,0:0:0:0:
324,81,244132,1,8,0:0:0:0:
325,78,244192,1,8,0:0:0:0:
324,81,244253,1,0,0:0:0:0:
324,81,244313,1,0,0:0:0:0:
322,82,244374,1,0,0:0:0:0:
336,71,244435,1,12,0:0:0:0:
314,79,244801,1,0,0:0:0:0:
322,75,244923,1,0,0:0:0:0:
322,75,245045,1,0,0:0:0:0:
314,59,245168,1,12,0:0:0:0:
321,64,245412,1,0,0:0:0:0:
337,81,245534,1,8,0:0:0:0:
338,81,245656,1,0,0:0:0:0:
339,81,245778,1,0,0:0:0:0:
339,82,245901,1,8,0:0:0:0:
318,86,246145,1,0,0:0:0:0:
332,77,246206,1,0,0:0:0:0:
332,77,246267,1,8,0:0:0:0:
332,77,246389,1,8,0:0:0:0:
337,81,246511,1,0,0:0:0:0:
307,109,246634,1,12,0:0:0:0:
332,69,247000,1,8,0:0:0:0:
331,78,247122,1,8,0:0:0:0:
332,77,247244,1,0,0:0:0:0:
332,77,247367,1,0,0:0:0:0:
331,78,247607,1,0,0:0:0:0:
329,79,247667,1,0,0:0:0:0:
329,79,247727,1,8,0:0:0:0:
330,80,247847,1,8,0:0:0:0:
330,80,247967,1,0,0:0:0:0:
305,103,248087,1,12,0:0:0:0:
323,90,248447,1,8,0:0:0:0:
323,90,248568,1,8,0:0:0:0:
323,90,248688,1,8,0:0:0:0:
320,89,248808,1,0,0:0:0:0:
328,87,249048,1,0,0:0:0:0:
333,88,249108,1,0,0:0:0:0:
330,87,249168,1,8,0:0:0:0:
333,88,249288,1,8,0:0:0:0:
333,88,249408,1,0,0:0:0:0:
305,103,249528,1,12,0:0:0:0:
327,73,249889,1,8,0:0:0:0:
314,77,250009,1,0,0:0:0:0:
320,75,250129,1,8,0:0:0:0:
323,92,250249,1,8,0:0:0:0:
325,92,251659,1,0,0:0:0:0:
325,92,252364,1,8,0:0:0:0:
325,92,253069,1,0,0:0:0:0:
305,92,254480,1,8,0:0:0:0:
336,100,256066,1,0,0:0:0:0:
343,101,256153,1,0,0:0:0:0:
349,100,256240,1,8,0:0:0:0:
349,100,256328,1,8,0:0:0:0:
349,100,256415,1,0,0:0:0:0:
349,100,256502,1,8,0:0:0:0:
347,99,256589,1,0,0:0:0:0:
290,77,272119,5,8,0:0:0:0:
299,71,272781,1,12,0:0:0:0:
315,70,273096,1,0,0:0:0:0:
315,70,273254,1,0,0:0:0:0:
299,85,273411,1,8,0:0:0:0:
299,82,273727,1,0,0:0:0:0:
299,82,274042,1,8,0:0:0:0:
299,85,274358,1,0,0:0:0:0:
299,82,274516,1,0,0:0:0:0:
299,82,274674,1,8,0:0:0:0:
299,82,274990,1,0,0:0:0:0:
343,48,275307,1,8,0:0:0:0:
299,82,275469,1,0,0:0:0:0:
289,80,275632,1,0,0:0:0:0:
289,80,275794,1,0,0:0:0:0:
289,82,275957,1,8,0:0:0:0:
288,80,276065,1,0,0:0:0:0:
299,82,276173,1,0,0:0:0:0:
299,82,276282,1,0,0:0:0:0:
299,82,276390,1,0,0:0:0:0:
299,82,276498,1,0,0:0:0:0:
306,78,276607,1,8,0:0:0:0:
311,67,276792,1,0,0:0:0:0:
309,79,276853,1,0,0:0:0:0:
289,82,276915,1,0,0:0:0:0:
316,77,276977,1,8,0:0:0:0:
325,66,277131,1,0,0:0:0:0:
311,74,277193,1,0,0:0:0:0:
299,70,277254,1,0,0:0:0:0:
292,99,277316,1,8,0:0:0:0:
356,160,277439,1,8,0:0:0:0:
352,141,277562,1,0,0:0:0:0:
352,141,277686,1,0,0:0:0:0:
352,141,277819,1,8,0:0:0:0:
352,141,277952,1,8,0:0:0:0:
309,76,278088,1,0,0:0:0:0:
309,76,278902,1,8,0:0:0:0:
309,76,279173,1,0,0:0:0:0:
312,82,279241,1,0,0:0:0:0:
315,82,279309,1,0,0:0:0:0:
306,85,279445,1,0,0:0:0:0:
306,85,279581,1,0,0:0:0:0:
320,86,279716,1,8,0:0:0:0:
308,90,279982,1,0,0:0:0:0:
307,91,280049,1,0,0:0:0:0:
307,91,280115,1,8,0:0:0:0:
306,85,280382,1,0,0:0:0:0:
306,85,280448,1,0,0:0:0:0:
306,85,280515,1,8,0:0:0:0:
306,76,280782,1,0,0:0:0:0:
309,88,280848,1,0,0:0:0:0:
308,90,280915,1,0,0:0:0:0:
306,76,281048,1,0,0:0:0:0:
325,88,281181,1,0,0:0:0:0:
321,84,281315,1,8,0:0:0:0:
317,86,281581,1,0,0:0:0:0:
317,86,281648,1,0,0:0:0:0:
317,86,281714,1,8,0:0:0:0:
317,86,281981,1,0,0:0:0:0:
317,86,282048,1,0,0:0:0:0:
317,86,282114,1,8,0:0:0:0:
317,86,282381,1,0,0:0:0:0:
317,86,282447,1,0,0:0:0:0:
317,86,282514,1,0,0:0:0:0:
329,95,282647,1,0,0:0:0:0:
329,95,282780,1,0,0:0:0:0:
322,94,282914,1,8,0:0:0:0:
328,89,283180,1,0,0:0:0:0:
328,89,283247,1,0,0:0:0:0:
323,90,283313,1,8,0:0:0:0:
329,95,283580,1,0,0:0:0:0:
329,95,283647,1,0,0:0:0:0:
329,95,283713,1,8,0:0:0:0:
328,89,283980,1,0,0:0:0:0:
328,89,284046,1,0,0:0:0:0:
328,89,284113,1,0,0:0:0:0:
328,89,284246,1,0,0:0:0:0:
329,95,284380,1,0,0:0:0:0:
329,95,284513,1,8,0:0:0:0:
318,103,284779,1,0,0:0:0:0:
322,104,284846,1,0,0:0:0:0:
328,99,284913,1,8,0:0:0:0:
322,104,285179,1,0,0:0:0:0:
322,104,285246,1,0,0:0:0:0:
329,95,285312,1,8,0:0:0:0:
318,103,285579,1,0,0:0:0:0:
318,103,285645,1,0,0:0:0:0:
318,103,285712,1,0,0:0:0:0:
318,103,285845,1,0,0:0:0:0:
322,104,285979,1,0,0:0:0:0:
339,104,286112,1,8,0:0:0:0:
357,97,286378,1,0,0:0:0:0:
339,98,286445,1,0,0:0:0:0:
334,93,286512,1,8,0:0:0:0:
339,98,286778,1,0,0:0:0:0:
339,98,286845,1,0,0:0:0:0:
334,93,286911,1,8,0:0:0:0:
339,98,287178,1,0,0:0:0:0:
339,98,287245,1,0,0:0:0:0:
339,98,287311,1,0,0:0:0:0:
339,98,287444,1,0,0:0:0:0:
339,98,287578,1,0,0:0:0:0:
321,93,287711,1,8,0:0:0:0:
320,97,287977,1,0,0:0:0:0:
320,97,288044,1,0,0:0:0:0:
309,98,288111,1,8,0:0:0:0:
328,98,288377,1,0,0:0:0:0:
329,98,288444,1,0,0:0:0:0:
309,98,288511,1,8,0:0:0:0:
329,98,288777,1,0,0:0:0:0:
320,97,288844,1,0,0:0:0:0:
320,97,288910,1,0,0:0:0:0:
320,97,289044,1,0,0:0:0:0:
323,95,289177,1,0,0:0:0:0:
309,98,289310,1,8,0:0:0:0:
329,98,289577,1,0,0:0:0:0:
329,98,289643,1,0,0:0:0:0:
309,98,289710,1,8,0:0:0:0:
320,97,289976,1,0,0:0:0:0:
320,97,290043,1,0,0:0:0:0:
309,98,290110,1,8,0:0:0:0:
329,98,290376,1,0,0:0:0:0:
337,87,290443,1,0,0:0:0:0:
329,98,290509,1,0,0:0:0:0:
320,95,290643,1,0,0:0:0:0:
320,97,290776,1,0,0:0:0:0:
302,101,290909,1,12,0:0:0:0:
276,107,291309,1,0,0:0:0:0:
323,88,291709,1,12,0:0:0:0:
298,88,292108,1,0,0:0:0:0:
302,91,292508,1,8,0:0:0:0:
305,96,292908,1,8,0:0:0:0:
292,97,293041,1,8,0:0:0:0:
292,97,293175,1,0,0:0:0:0:
292,97,293308,1,12,0:0:0:0:
284,86,293708,1,8,0:0:0:0:
280,82,294107,1,0,0:0:0:0:
272,81,294907,1,12,0:0:0:0:
272,81,295706,1,0,0:0:0:0:
260,88,295840,1,0,0:0:0:0:
260,88,295973,1,8,0:0:0:0:
260,88,296239,1,8,0:0:0:0:
260,88,296506,1,4,0:0:0:0:
256,85,296773,1,8,0:0:0:0:
260,88,297039,1,8,0:0:0:0:
263,96,297306,1,4,0:0:0:0:
251,91,297572,1,0,0:0:0:0:
251,91,297705,1,8,0:0:0:0:
251,91,297839,1,0,0:0:0:0:
251,91,297972,1,0,0:0:0:0:
251,91,298105,1,12,0:0:0:0:
251,91,298505,1,0,0:0:0:0:
251,91,298638,1,0,0:0:0:0:
251,91,298771,1,0,0:0:0:0:
251,91,298905,1,8,0:0:0:0:
251,91,299171,1,0,0:0:0:0:
251,91,299304,1,0,0:0:0:0:
251,91,299438,1,8,0:0:0:0:
262,92,299571,1,0,0:0:0:0:
264,91,299704,1,12,0:0:0:0:
251,91,299971,1,0,0:0:0:0:
251,91,300104,1,8,0:0:0:0:
251,91,300237,1,8,0:0:0:0:
266,98,300370,1,0,0:0:0:0:
262,92,300504,1,0,0:0:0:0:
251,91,300770,1,0,0:0:0:0:
262,95,300903,1,0,0:0:0:0:
240,87,301037,1,0,0:0:0:0:
251,91,301170,1,0,0:0:0:0:
244,94,301303,1,12,0:0:0:0:
246,93,301703,1,8,0:0:0:0:
251,91,302103,1,0,0:0:0:0:
246,93,302369,1,8,0:0:0:0:
240,110,302503,1,8,0:0:0:0:
246,93,302636,1,0,0:0:0:0:
239,86,302769,1,0,0:0:0:0:
237,86,302902,1,12,0:0:0:0:
225,82,303302,1,8,0:0:0:0:
231,84,303702,1,0,0:0:0:0:
278,122,305301,1,0,0:0:0:0:
252,116,305501,1,0,0:0:0:0:
278,122,305601,1,0,0:0:0:0:
270,125,305701,1,8,0:0:0:0:
278,122,305801,1,8,0:0:0:0:
278,122,305901,1,0,0:0:0:0:
277,113,306001,1,8,0:0:0:0:
278,122,306101,1,0,0:0:0:0:
259,121,306900,1,12,0:0:0:0:
283,106,307290,1,0,0:0:0:0:
273,122,307420,1,0,0:0:0:0:
259,121,307550,1,0,0:0:0:0:
283,147,307680,1,12,0:0:0:0:
270,125,307941,1,8,0:0:0:0:
284,129,308201,1,0,0:0:0:0:
284,129,308461,1,8,0:0:0:0:
288,127,308719,1,0,0:0:0:0:
288,127,308848,1,0,0:0:0:0:
279,141,309236,1,12,0:0:0:0:
284,129,309495,1,8,0:0:0:0:
288,127,309753,1,8,0:0:0:0:
288,127,310012,1,0,0:0:0:0:
284,129,310394,1,0,0:0:0:0:
277,141,310777,1,12,0:0:0:0:
288,127,311033,1,0,0:0:0:0:
284,129,311288,1,0,0:0:0:0:
288,127,311543,1,8,0:0:0:0:
288,127,311795,1,0,0:0:0:0:
288,127,312047,1,8,0:0:0:0:
255,137,312299,1,12,0:0:0:0:
288,127,312551,1,8,0:0:0:0:
288,127,312803,1,0,0:0:0:0:
262,136,313056,1,12,0:0:0:0:
272,129,313552,1,0,0:0:0:0:
271,129,313676,1,0,0:0:0:0:
262,136,313800,1,12,0:0:0:0:
263,117,314297,1,0,0:0:0:0:
259,128,314421,1,0,0:0:0:0:
246,126,314545,1,8,0:0:0:0:
242,135,314790,1,8,0:0:0:0:
242,135,315035,1,0,0:0:0:0:
262,132,315280,1,12,0:0:0:0:
242,135,315648,1,8,0:0:0:0:
242,135,316015,1,0,0:0:0:0:
243,134,316257,1,0,0:0:0:0:
242,135,316379,1,0,0:0:0:0:
262,132,316743,1,12,0:0:0:0:
242,135,316986,1,0,0:0:0:0:
243,134,317229,1,8,0:0:0:0:
245,132,317472,1,8,0:0:0:0:
252,124,317562,1,8,0:0:0:0:
255,125,317653,1,0,0:0:0:0:
254,125,317744,1,0,0:0:0:0:
250,126,317835,1,8,0:0:0:0:
254,134,317956,1,0,0:0:0:0:
256,132,318077,1,0,0:0:0:0:
262,132,318198,1,12,0:0:0:0:
256,135,318440,1,8,0:0:0:0:
257,136,318682,1,0,0:0:0:0:
268,123,318924,1,12,0:0:0:0:
265,119,319167,1,0,0:0:0:0:
266,110,319289,1,8,0:0:0:0:
265,116,319410,1,8,0:0:0:0:
262,120,319532,1,0,0:0:0:0:
268,118,319654,1,8,0:0:0:0:
268,123,319715,1,8,0:0:0:0:
268,123,319775,1,0,0:0:0:0:
261,125,319836,1,0,0:0:0:0:
261,124,319897,1,8,0:0:0:0:
261,124,320019,1,0,0:0:0:0:
268,114,320141,1,8,0:0:0:0:
268,118,320262,1,0,0:0:0:0:
270,109,320384,1,8,0:0:0:0:
267,110,320505,1,0,0:0:0:0:
261,111,320565,1,0,0:0:0:0:
261,111,320626,1,8,0:0:0:0:
261,111,320686,1,8,0:0:0:0:
261,109,320747,1,0,0:0:0:0:
259,109,320868,1,8,0:0:0:0:
256,101,320989,1,0,0:0:0:0:
256,101,321049,1,0,0:0:0:0:
256,101,321110,1,8,0:0:0:0:
255,101,321231,1,0,0:0:0:0:
255,101,321352,1,8,0:0:0:0:
255,101,321473,1,0,0:0:0:0:
251,109,321594,1,8,0:0:0:0:
241,98,321655,1,8,0:0:0:0:
251,109,321715,1,8,0:0:0:0:
236,96,321776,1,8,0:0:0:0:
251,103,321836,1,0,0:0:0:0:
244,97,321957,1,8,0:0:0:0:
256,101,322078,1,0,0:0:0:0:
255,101,322200,1,8,0:0:0:0:
264,100,322260,1,8,0:0:0:0:
261,104,322321,1,0,0:0:0:0:
263,98,322442,1,0,0:0:0:0:
251,109,322564,1,8,0:0:0:0:
264,100,322624,1,8,0:0:0:0:
264,100,322685,1,0,0:0:0:0:
251,109,322746,1,0,0:0:0:0:
253,108,322806,1,8,0:0:0:0:
253,108,322928,1,0,0:0:0:0:
256,101,323049,1,8,0:0:0:0:
255,101,323170,1,8,0:0:0:0:
255,101,323231,1,8,0:0:0:0:
255,104,323292,1,0,0:0:0:0:
253,106,323412,1,8,0:0:0:0:
251,109,323533,1,0,0:0:0:0:
251,109,323594,1,0,0:0:0:0:
251,105,323654,1,8,0:0:0:0:
261,110,323775,1,0,0:0:0:0:
258,102,323835,1,8,0:0:0:0:
261,103,323896,1,0,0:0:0:0:
261,103,323956,1,0,0:0:0:0:
256,101,324017,1,8,0:0:0:0:
252,120,324137,1,0,0:0:0:0:
252,107,324258,1,8,0:0:0:0:
255,104,324319,1,8,0:0:0:0:
260,107,324379,1,0,0:0:0:0:
260,107,324500,1,8,0:0:0:0:
251,109,324621,1,0,0:0:0:0:
249,98,324742,1,12,0:0:0:0:
254,106,324984,1,0,0:0:0:0:
250,111,325106,1,8,0:0:0:0:
252,107,325227,1,0,0:0:0:0:
260,107,325349,1,0,0:0:0:0:
260,107,325470,1,12,0:0:0:0:
259,110,325835,1,8,0:0:0:0:
264,101,325956,1,0,0:0:0:0:
264,101,326077,1,0,0:0:0:0:
260,100,326199,1,8,0:0:0:0:
252,105,326441,1,8,0:0:0:0:
252,105,326683,1,0,0:0:0:0:
271,105,326925,1,12,0:0:0:0:
252,105,327289,1,8,0:0:0:0:
280,82,327652,1,8,0:0:0:0:
261,99,327712,1,8,0:0:0:0:
262,98,327895,1,0,0:0:0:0:
262,98,328016,1,0,0:0:0:0:
258,99,328138,1,8,0:0:0:0:
266,99,328260,1,0,0:0:0:0:
271,101,328381,1,12,0:0:0:0:
288,95,328746,1,8,0:0:0:0:
258,99,329111,1,0,0:0:0:0:
253,100,329352,1,8,0:0:0:0:
253,100,329473,1,8,0:0:0:0:
253,100,329594,1,0,0:0:0:0:
253,100,329714,1,8,0:0:0:0:
258,99,329835,1,4,0:0:0:0:
253,100,330198,1,8,0:0:0:0:
253,100,330560,1,12,0:0:0:0:
258,99,330817,1,0,0:0:0:0:
257,94,330946,1,0,0:0:0:0:
267,103,331590,1,0,0:0:0:0:
266,105,331848,1,8,0:0:0:0:
267,103,332106,1,8,0:0:0:0:
242,110,332963,1,8,0:0:0:0:
234,102,334060,1,8,0:0:0:0:
259,98,334460,1,0,0:0:0:0:
260,92,334593,1,0,0:0:0:0:
260,92,334726,1,8,0:0:0:0:
264,92,334860,1,0,0:0:0:0:
264,92,335126,1,8,0:0:0:0:
264,92,335393,1,0,0:0:0:0:
260,92,335660,1,8,0:0:0:0:
264,92,335926,1,0,0:0:0:0:
264,92,336060,1,0,0:0:0:0:
272,91,336726,1,8,0:0:0:0:
264,92,336993,1,8,0:0:0:0:
271,90,337260,1,0,0:0:0:0:
272,91,337660,1,0,0:0:0:0:
271,90,338060,1,8,0:0:0:0:
271,90,338326,1,8,0:0:0:0:
288,91,338593,1,0,0:0:0:0:
289,89,338860,1,12,0:0:0:0:
279,88,339126,1,0,0:0:0:0:
279,88,339193,1,0,0:0:0:0:
279,88,339260,1,8,0:0:0:0:
267,93,339393,1,0,0:0:0:0:
267,93,339526,1,0,0:0:0:0:
265,94,339660,1,8,0:0:0:0:
271,94,339793,1,8,0:0:0:0:
265,94,339926,1,0,0:0:0:0:
265,94,339993,1,0,0:0:0:0:
239,67,340060,1,8,0:0:0:0:
266,90,340193,1,8,0:0:0:0:
253,91,340326,1,0,0:0:0:0:
253,91,340451,1,12,0:0:0:0:
266,85,340721,1,0,0:0:0:0:
230,73,340789,1,0,0:0:0:0:
278,91,340856,1,8,0:0:0:0:
278,91,340991,1,8,0:0:0:0:
275,89,341059,1,8,0:0:0:0:
278,91,341127,1,0,0:0:0:0:
266,90,341194,1,0,0:0:0:0:
270,88,341262,1,8,0:0:0:0:
270,83,341397,1,0,0:0:0:0:
266,85,341532,1,0,0:0:0:0:
266,85,341668,1,8,0:0:0:0:
266,85,341735,1,0,0:0:0:0:
270,81,341803,1,0,0:0:0:0:
270,81,341871,1,0,0:0:0:0:
270,81,341938,1,8,0:0:0:0:
270,81,342073,1,0,0:0:0:0:
268,72,342212,1,0,0:0:0:0:
276,74,342352,1,8,0:0:0:0:
276,74,342422,1,8,0:0:0:0:
276,74,342492,1,0,0:0:0:0:
266,85,342632,1,8,0:0:0:0:
266,85,342772,1,0,0:0:0:0:
280,84,342911,1,12,0:0:0:0:
282,79,343331,1,8,0:0:0:0:
285,77,343750,1,4,0:0:0:0:
282,79,344028,1,0,0:0:0:0:
282,79,344167,1,0,0:0:0:0:
282,79,344863,1,0,0:0:0:0:
268,76,345141,1,8,0:0:0:0:
268,76,345420,1,8,0:0:0:0:
268,76,346395,1,8,0:0:0:0:
267,76,347587,1,12,0:0:0:0:
259,92,347984,1,0,0:0:0:0:
259,92,348381,1,0,0:0:0:0:
259,92,348778,1,8,0:0:0:0:
259,92,349185,1,0,0:0:0:0:
259,92,349592,1,0,0:0:0:0:
259,92,350000,1,8,0:0:0:0:
259,92,350404,1,8,0:0:0:0:
259,92,350809,1,0,0:0:0:0:
224,243,351213,2,0,L|285:219,11,35
346,103,354914,1,8,0:0:0:0:
330,108,355047,1,8,0:0:0:0:
325,105,355180,1,0,0:0:0:0:
325,105,355313,1,0,0:0:0:0:
325,105,355446,1,8,0:0:0:0:
325,105,355579,1,8,0:0:0:0:
328,111,355712,1,0,0:0:0:0:
328,111,355845,1,0,0:0:0:0:
330,108,355978,1,8,0:0:0:0:
313,101,356111,1,0,0:0:0:0:
313,96,356909,1,8,0:0:0:0:
313,96,357308,1,0,0:0:0:0:
310,104,358504,1,0,0:0:0:0:
196,201,360896,2,0,L|220:200,12,17.5
