osu file format v14

[General]
AudioFilename: audio.mp3
AudioLeadIn: 0
PreviewTime: 91659
Countdown: 0
SampleSet: Normal
StackLeniency: 0.7
Mode: 1
LetterboxInBreaks: 0
WidescreenStoryboard: 0

[Editor]
Bookmarks: 8750,17477,21840,24022,25113,26204,34931,42568,43659,52386,58931,60022,61113,65477,74204,82931,87295,89477,91659,106931,109113,110204,118931,123295,124386,125477,127659,145113,158204,162568,166931,175659,180022,182204,184386,184659,193113,201840,210568,219295
DistanceSpacing: 1.8
BeatDivisor: 4
GridSize: 4
TimelineZoom: 1

[Metadata]
Title:8bit Shooting Star
TitleUnicode:8bit Shooting Star☆
Artist:AAAA
ArtistUnicode:ああああ
Creator:404 AccNotFound
Version:8bit Oni
Source:
Tags:
BeatmapID:1479089
BeatmapSetID:698351

[Difficulty]
HPDrainRate:4
CircleSize:5
OverallDifficulty:7
ApproachRate:5
SliderMultiplier:1.4
SliderTickRate:1

[Events]
//Background and Video events
0,0,"qcYIHYl.png",0,0
//Break Periods
//Storyboard Layer 0 (Background)
//Storyboard Layer 1 (Fail)
//Storyboard Layer 2 (Pass)
//Storyboard Layer 3 (Foreground)
//Storyboard Sound Samples

[TimingPoints]
8750,272.727272727273,4,1,0,100,1,0
91659,-100,4,1,0,100,0,1
109113,-100,4,1,0,100,0,0
110204,-100,4,1,0,100,0,1
127659,-100,4,1,0,100,0,0
184659,-100,4,1,0,100,0,1
201840,-100,4,1,0,100,0,0

[HitObjects]
268,216,8750,5,8,2:2:0:0:
272,216,9840,1,0,2:2:0:0:
272,216,10386,1,8,2:2:0:0:
272,216,10931,1,0,2:2:0:0:
192,144,12022,1,8,2:2:0:0:
200,136,13113,1,0,2:2:0:0:
204,136,14204,1,8,2:2:0:0:
204,136,14750,1,8,2:2:0:0:
204,136,15295,1,0,2:2:0:0:
204,136,16386,1,8,2:2:0:0:
204,136,17477,1,8,2:2:0:0:
296,209,17681,1,8,2:2:0:0:
296,209,17886,1,0,2:2:0:0:
296,209,18090,1,0,2:2:0:0:
274,194,18295,1,8,2:2:0:0:
124,88,18363,1,8,2:0:0:0:
192,140,18431,1,8,2:0:0:0:
165,140,18568,1,0,2:0:0:0:
394,246,18772,1,0,2:2:0:0:
394,246,18977,1,8,2:2:0:0:
394,246,19181,1,8,2:2:0:0:
394,246,19386,1,0,2:2:0:0:
117,147,19454,1,0,2:0:0:0:
394,246,19522,1,0,2:2:0:0:
388,250,19659,1,8,2:2:0:0:
391,253,19863,1,8,2:2:0:0:
391,253,20068,1,0,2:2:0:0:
391,253,20272,1,0,2:2:0:0:
391,253,20477,1,8,2:2:0:0:
213,122,20545,1,8,2:0:0:0:
395,257,20613,1,8,2:2:0:0:
232,138,20750,1,0,2:0:0:0:
395,257,20954,1,0,2:2:0:0:
395,257,21159,1,8,2:2:0:0:
395,257,21363,1,0,2:2:0:0:
395,257,21568,1,8,2:2:0:0:
227,110,21636,1,8,2:0:0:0:
400,258,21704,1,8,2:2:0:0:
395,257,21840,1,0,2:2:0:0:
258,163,21909,1,0,2:0:0:0:
234,215,21977,1,8,2:0:0:0:
258,163,22045,1,0,2:0:0:0:
234,215,22113,1,8,2:0:0:0:
234,215,22250,1,0,2:0:0:0:
268,164,22318,1,8,2:0:0:0:
234,215,22386,1,0,2:0:0:0:
234,215,22522,1,8,2:0:0:0:
234,215,22659,1,0,2:0:0:0:
234,215,22795,1,8,2:0:0:0:
128,192,22863,1,8,0:0:0:0:
268,163,22931,1,0,2:0:0:0:
192,136,23000,1,0,0:0:0:0:
234,215,23068,1,8,2:0:0:0:
104,144,23136,1,0,0:0:0:0:
234,215,23204,1,8,2:0:0:0:
234,215,23340,1,8,2:0:0:0:
268,164,23409,1,8,2:0:0:0:
234,215,23477,1,0,2:0:0:0:
234,215,23613,1,0,2:0:0:0:
234,215,23750,1,8,2:0:0:0:
268,163,23886,1,8,2:0:0:0:
268,163,23954,1,8,2:0:0:0:
234,215,24022,1,0,2:0:0:0:
64,164,24090,1,0,2:0:0:0:
234,215,24159,1,8,2:0:0:0:
189,149,24227,1,0,2:0:0:0:
234,215,24295,1,8,2:0:0:0:
124,132,24363,1,8,0:0:0:0:
234,215,24431,1,0,2:0:0:0:
234,215,24500,1,8,2:0:0:0:
234,215,24568,1,0,2:0:0:0:
234,215,24636,1,0,2:0:0:0:
234,215,24704,1,8,2:0:0:0:
194,103,24772,1,0,2:0:0:0:
234,215,24840,1,8,2:0:0:0:
192,96,24909,1,8,0:0:0:0:
234,215,24977,1,8,2:0:0:0:
254,173,25045,1,8,2:0:0:0:
234,215,25113,1,0,2:0:0:0:
239,214,25181,1,0,2:0:0:0:
234,215,25250,1,8,2:0:0:0:
234,215,25318,1,0,2:0:0:0:
234,215,25386,1,8,2:0:0:0:
234,215,25454,1,8,2:0:0:0:
234,215,25522,1,8,2:0:0:0:
234,215,25590,1,8,2:0:0:0:
234,215,25659,1,0,2:0:0:0:
234,215,25727,1,0,2:0:0:0:
234,215,25795,1,0,2:0:0:0:
234,215,25863,1,0,2:0:0:0:
234,215,25931,1,8,2:0:0:0:
342,237,25977,1,8,2:0:0:0:
342,237,26022,1,8,2:0:0:0:
342,237,26068,1,8,2:0:0:0:
234,215,26204,1,4,2:0:0:0:
283,236,26477,1,8,2:0:0:0:
200,148,26750,1,0,0:0:0:0:
283,236,26886,1,0,2:0:0:0:
283,236,27022,1,8,2:0:0:0:
222,219,27295,1,0,2:0:0:0:
156,156,27431,1,0,0:0:0:0:
219,181,27568,1,8,2:0:0:0:
208,132,27704,1,0,0:0:0:0:
212,140,27772,1,0,0:0:0:0:
219,181,27840,1,8,2:0:0:0:
219,181,27977,1,0,2:0:0:0:
219,181,28113,1,8,2:0:0:0:
165,158,28250,1,8,2:0:0:0:
174,165,28318,1,8,2:0:0:0:
219,181,28386,1,0,2:0:0:0:
219,181,28659,1,8,2:0:0:0:
173,116,28795,1,0,2:0:0:0:
219,181,29068,1,0,2:0:0:0:
219,181,29204,1,8,2:0:0:0:
173,116,29340,1,0,2:0:0:0:
219,181,29613,1,0,2:0:0:0:
219,181,29750,1,8,2:0:0:0:
276,125,29886,1,0,2:0:0:0:
219,181,30159,1,0,2:0:0:0:
219,181,30295,1,8,2:0:0:0:
133,182,30363,1,8,2:0:0:0:
133,182,30431,1,8,2:0:0:0:
219,181,30568,1,0,2:0:0:0:
162,144,30704,1,0,2:0:0:0:
219,181,30840,1,8,2:0:0:0:
171,150,30977,1,0,2:0:0:0:
171,152,31045,1,8,2:0:0:0:
195,145,31113,1,0,2:0:0:0:
219,181,31250,1,0,2:0:0:0:
219,181,31386,1,8,2:0:0:0:
251,142,31522,1,0,2:0:0:0:
219,181,31795,1,0,2:0:0:0:
219,181,31931,1,8,2:0:0:0:
268,123,32068,1,0,2:0:0:0:
219,181,32340,1,0,2:0:0:0:
219,181,32477,1,8,2:0:0:0:
164,212,32613,1,8,0:0:0:0:
219,181,32750,1,0,2:0:0:0:
219,181,33022,1,8,2:0:0:0:
219,181,33431,1,0,2:0:0:0:
219,181,33568,1,8,2:0:0:0:
219,181,33840,1,0,2:0:0:0:
219,181,33977,1,0,2:0:0:0:
219,181,34045,1,0,2:0:0:0:
219,181,34113,1,8,2:0:0:0:
219,181,34181,1,8,2:0:0:0:
219,181,34250,1,0,2:0:0:0:
219,181,34318,1,8,2:0:0:0:
219,181,34386,1,0,2:0:0:0:
219,181,34454,1,0,2:0:0:0:
219,181,34522,1,0,2:0:0:0:
219,181,34590,1,0,2:0:0:0:
219,181,34659,1,8,2:0:0:0:
219,181,34727,1,8,2:0:0:0:
219,181,34795,1,8,2:0:0:0:
219,181,34931,1,4,2:0:0:0:
239,264,35204,1,8,2:0:0:0:
264,200,35477,1,8,0:0:0:0:
272,195,35613,1,0,2:0:0:0:
270,200,35750,1,8,2:0:0:0:
270,203,36022,1,0,2:0:0:0:
267,206,36159,1,0,2:0:0:0:
270,203,36295,1,8,2:0:0:0:
143,208,36431,1,0,2:0:0:0:
139,193,36500,1,0,2:0:0:0:
267,206,36568,1,8,2:0:0:0:
165,205,36704,1,0,2:0:0:0:
232,103,36840,1,8,2:0:0:0:
228,111,37113,1,0,2:0:0:0:
294,158,37386,1,8,2:0:0:0:
294,158,37522,1,0,2:0:0:0:
294,158,37795,1,0,2:0:0:0:
294,158,37931,1,8,2:0:0:0:
263,175,38068,1,0,2:0:0:0:
263,175,38340,1,0,2:0:0:0:
263,175,38477,1,8,2:0:0:0:
263,175,38613,1,0,2:0:0:0:
263,175,38886,1,0,2:0:0:0:
263,175,39022,1,8,2:0:0:0:
192,136,39090,1,8,0:0:0:0:
184,112,39159,1,8,0:0:0:0:
241,197,39295,1,0,2:0:0:0:
241,197,39431,1,0,2:0:0:0:
241,197,39568,1,8,2:0:0:0:
241,197,39704,1,8,2:0:0:0:
241,197,39772,1,0,2:0:0:0:
241,197,39840,1,8,2:0:0:0:
241,197,39977,1,0,2:0:0:0:
241,197,40113,1,8,2:0:0:0:
241,197,40250,1,0,2:0:0:0:
241,197,40522,1,0,2:0:0:0:
241,197,40659,1,8,2:0:0:0:
224,116,40795,1,0,0:0:0:0:
241,197,41068,1,0,2:0:0:0:
241,197,41204,1,8,2:0:0:0:
232,185,41340,1,8,2:0:0:0:
241,197,41477,1,0,2:0:0:0:
235,198,41613,1,0,2:0:0:0:
235,198,41750,1,8,2:0:0:0:
235,198,41886,1,8,2:0:0:0:
235,198,41954,1,8,2:0:0:0:
235,197,42022,1,0,2:0:0:0:
235,198,42090,1,8,2:0:0:0:
235,198,42159,1,0,2:0:0:0:
235,197,42295,1,8,2:0:0:0:
235,197,42431,1,8,2:0:0:0:
235,197,42500,1,8,2:0:0:0:
235,198,42568,1,0,2:0:0:0:
235,198,42636,1,0,2:0:0:0:
235,198,42704,1,8,2:0:0:0:
235,198,42772,1,0,2:0:0:0:
235,198,42840,1,8,2:0:0:0:
235,198,42909,1,8,2:0:0:0:
235,198,42977,1,8,2:0:0:0:
235,197,43045,1,8,2:0:0:0:
235,198,43113,1,0,2:0:0:0:
428,162,43159,1,0,2:0:0:0:
428,162,43204,1,0,2:0:0:0:
428,162,43250,1,8,2:0:0:0:
420,102,43318,1,0,2:0:0:0:
480,70,43386,1,8,2:0:0:0:
263,145,43431,1,8,2:0:0:0:
263,145,43477,1,8,2:0:0:0:
263,145,43522,1,8,2:0:0:0:
249,227,43590,1,8,2:0:0:0:
249,227,43659,1,4,2:0:0:0:
312,199,45840,1,0,2:0:0:0:
308,223,46659,1,8,2:0:0:0:
308,223,46931,1,8,2:0:0:0:
308,223,47204,1,0,2:0:0:0:
308,223,47477,1,8,2:0:0:0:
308,223,47750,1,0,2:0:0:0:
308,223,48022,1,8,2:0:0:0:
308,223,48431,1,8,2:0:0:0:
308,223,49113,1,8,2:0:0:0:
308,223,49386,1,0,2:0:0:0:
308,223,49659,1,8,2:0:0:0:
308,223,49931,1,8,2:0:0:0:
308,223,50204,1,0,2:0:0:0:
308,223,50613,1,8,2:0:0:0:
308,223,51295,1,0,2:0:0:0:
215,206,51431,1,0,2:0:0:0:
215,206,51500,1,0,2:0:0:0:
215,206,51568,1,8,2:0:0:0:
215,206,51636,1,8,2:0:0:0:
215,206,51704,1,0,2:0:0:0:
215,206,51772,1,0,2:0:0:0:
215,206,51840,1,8,2:0:0:0:
215,206,51909,1,8,2:0:0:0:
215,206,51977,1,0,2:0:0:0:
215,206,52045,1,0,2:0:0:0:
223,206,52113,1,8,2:0:0:0:
223,206,52181,1,8,2:0:0:0:
223,206,52250,1,8,2:0:0:0:
224,213,52318,1,8,2:0:0:0:
187,195,52386,1,0,2:0:0:0:
259,177,54568,1,8,2:0:0:0:
259,127,55386,1,8,2:0:0:0:
259,177,55659,1,8,2:0:0:0:
259,177,55931,1,0,2:0:0:0:
259,177,56204,1,8,2:0:0:0:
259,177,56477,1,0,2:0:0:0:
259,177,56750,1,8,2:0:0:0:
177,87,58522,1,0,2:0:0:0:
228,136,58659,1,8,2:0:0:0:
267,196,58931,1,8,2:0:0:0:
244,194,60022,1,0,2:0:0:0:
241,103,60159,1,0,2:0:0:0:
246,62,60227,1,0,2:0:0:0:
320,204,60295,1,8,2:0:0:0:
320,204,60363,1,8,2:0:0:0:
175,113,60431,1,0,2:0:0:0:
175,113,60500,1,8,2:0:0:0:
176,129,60568,1,0,2:0:0:0:
176,129,60636,1,0,2:0:0:0:
177,137,60704,1,8,2:0:0:0:
177,137,60772,1,0,2:0:0:0:
177,137,60840,1,8,2:0:0:0:
59,187,60909,1,8,2:0:0:0:
132,189,60977,1,8,2:0:0:0:
132,189,61045,1,8,2:0:0:0:
287,171,65477,1,8,2:0:0:0:
294,199,66568,1,0,2:0:0:0:
294,199,67113,1,8,2:0:0:0:
294,199,67659,1,0,2:0:0:0:
294,199,68750,1,8,2:0:0:0:
294,199,69840,1,0,2:0:0:0:
294,199,70931,1,8,2:0:0:0:
294,199,71477,1,8,2:0:0:0:
294,199,72022,1,0,2:0:0:0:
294,199,73113,5,8,2:0:0:0:
268,203,74204,5,8,2:0:0:0:
268,203,74409,1,8,2:0:0:0:
264,207,74613,1,0,2:0:0:0:
268,203,74818,1,0,2:0:0:0:
139,167,75022,1,8,2:0:0:0:
139,167,75090,1,0,2:0:0:0:
139,167,75159,1,8,2:0:0:0:
143,164,75295,1,0,2:0:0:0:
146,162,75500,1,0,2:0:0:0:
146,162,75704,1,8,2:0:0:0:
146,162,75909,1,0,2:0:0:0:
146,162,76113,1,8,2:0:0:0:
146,162,76181,1,8,2:0:0:0:
143,164,76250,1,8,2:0:0:0:
146,162,76386,1,0,2:0:0:0:
146,162,76590,1,0,2:0:0:0:
146,162,76795,1,8,2:0:0:0:
146,162,77000,1,0,2:0:0:0:
146,162,77204,1,8,2:0:0:0:
143,164,77272,1,0,2:0:0:0:
146,162,77340,1,8,2:0:0:0:
146,162,77477,1,0,2:0:0:0:
146,162,77681,1,0,2:0:0:0:
146,162,77886,1,8,2:0:0:0:
146,162,78090,1,0,2:0:0:0:
143,164,78295,1,8,2:0:0:0:
146,162,78363,1,8,2:0:0:0:
146,162,78431,1,8,2:0:0:0:
146,162,78568,1,0,2:0:0:0:
146,162,78636,1,0,2:0:0:0:
146,162,78704,1,0,2:0:0:0:
146,162,78772,1,0,2:0:0:0:
146,162,78840,1,8,2:0:0:0:
176,177,78977,1,0,2:0:0:0:
146,162,79045,1,8,2:0:0:0:
143,164,79250,1,0,2:0:0:0:
146,162,79386,1,8,2:0:0:0:
143,169,79454,1,8,2:0:0:0:
143,169,79522,1,8,2:0:0:0:
143,169,79659,1,0,2:0:0:0:
148,169,79863,1,8,2:0:0:0:
148,169,80068,1,0,2:0:0:0:
194,152,80272,1,8,2:0:0:0:
148,169,80477,1,8,2:0:0:0:
168,89,80545,1,8,2:0:0:0:
168,89,80613,1,0,2:0:0:0:
168,89,80750,1,8,2:0:0:0:
169,106,81022,1,0,2:0:0:0:
155,133,81159,1,8,2:0:0:0:
161,142,81227,1,0,2:0:0:0:
169,106,81295,1,8,2:0:0:0:
169,106,81431,1,8,2:0:0:0:
195,89,81568,1,0,2:0:0:0:
169,106,81704,1,8,2:0:0:0:
178,111,81977,1,0,2:0:0:0:
155,120,82113,1,8,2:0:0:0:
179,113,82250,1,0,2:0:0:0:
179,113,82318,1,0,2:0:0:0:
179,113,82386,1,8,2:0:0:0:
177,116,82454,1,8,2:0:0:0:
177,116,82522,1,0,2:0:0:0:
177,116,82590,1,0,2:0:0:0:
173,116,82659,1,8,2:0:0:0:
177,116,82727,1,8,2:0:0:0:
177,116,82795,1,0,2:0:0:0:
321,221,82931,5,8,2:0:0:0:
378,270,83068,1,0,2:0:0:0:
378,270,83204,1,8,2:0:0:0:
357,258,83340,1,0,2:0:0:0:
357,258,83409,1,8,2:0:0:0:
357,258,83545,1,8,2:0:0:0:
357,258,83613,1,0,2:0:0:0:
357,258,83750,1,8,2:0:0:0:
357,258,83818,1,8,2:0:0:0:
357,258,83886,1,8,2:0:0:0:
357,258,84022,1,0,2:0:0:0:
357,258,84159,1,0,2:0:0:0:
357,258,84295,1,8,2:0:0:0:
357,258,84431,1,0,2:0:0:0:
357,258,84500,1,8,2:0:0:0:
357,258,84636,1,8,2:0:0:0:
357,258,84704,1,0,2:0:0:0:
357,258,84772,1,0,2:0:0:0:
357,258,84840,1,8,2:0:0:0:
357,258,84909,1,8,2:0:0:0:
357,258,84977,1,0,2:0:0:0:
269,160,85113,1,8,2:0:0:0:
269,160,85250,1,0,2:0:0:0:
269,160,85386,1,8,2:0:0:0:
269,160,85522,1,0,2:0:0:0:
269,160,85590,1,8,2:0:0:0:
269,160,85727,1,8,2:0:0:0:
269,160,85795,1,0,2:0:0:0:
269,160,85931,1,8,2:0:0:0:
269,160,86000,1,8,2:0:0:0:
269,160,86068,1,8,2:0:0:0:
269,160,86204,5,0,2:0:0:0:
269,160,86340,1,0,2:0:0:0:
269,160,86477,1,8,2:0:0:0:
269,160,86613,1,0,2:0:0:0:
269,160,86681,1,8,2:0:0:0:
269,160,86818,1,8,2:0:0:0:
269,160,86886,1,0,2:0:0:0:
269,160,87022,1,8,2:0:0:0:
308,224,87295,5,0,2:0:0:0:
308,224,87363,1,0,2:0:0:0:
308,224,87431,1,0,2:0:0:0:
308,224,87500,1,0,2:0:0:0:
308,224,87568,1,8,2:0:0:0:
308,224,87704,1,0,2:0:0:0:
308,224,87772,1,8,2:0:0:0:
308,224,87840,1,0,2:0:0:0:
308,224,87977,1,8,2:0:0:0:
308,224,88113,1,0,2:0:0:0:
308,224,88181,1,0,2:0:0:0:
308,224,88250,1,8,2:0:0:0:
308,224,88386,1,0,2:0:0:0:
308,224,88522,1,8,2:0:0:0:
308,224,88590,1,8,2:0:0:0:
308,224,88659,1,0,2:0:0:0:
308,224,88727,1,0,2:0:0:0:
308,224,88795,1,8,2:0:0:0:
308,224,88863,1,0,2:0:0:0:
308,224,88931,1,8,2:0:0:0:
308,224,89000,1,8,2:0:0:0:
308,224,89068,1,8,2:0:0:0:
308,224,89136,1,8,2:0:0:0:
308,224,89204,1,0,2:0:0:0:
308,224,89272,1,0,2:0:0:0:
308,224,89340,1,8,2:0:0:0:
308,224,89409,1,8,2:0:0:0:
308,224,89477,1,0,2:0:0:0:
308,224,89545,1,0,2:0:0:0:
288,164,89613,1,8,2:2:0:0:
308,224,89681,1,0,2:0:0:0:
288,164,89750,1,8,2:2:0:0:
288,164,89886,1,8,2:2:0:0:
464,72,89954,1,8,2:2:0:0:
288,164,90022,1,0,2:2:0:0:
288,164,90090,1,0,2:2:0:0:
288,164,90159,1,8,2:2:0:0:
308,224,90227,1,0,2:0:0:0:
288,164,90295,1,8,2:2:0:0:
288,164,90431,1,8,2:2:0:0:
248,116,90500,1,8,2:2:0:0:
288,164,90568,1,0,2:2:0:0:
280,176,90636,1,0,2:2:0:0:
280,176,90704,1,8,2:2:0:0:
280,176,90772,1,0,2:2:0:0:
280,176,90840,1,8,2:2:0:0:
280,176,90909,1,8,2:2:0:0:
280,176,90977,1,8,2:2:0:0:
280,176,91045,1,8,2:2:0:0:
280,176,91113,1,0,2:2:0:0:
280,176,91181,1,0,2:2:0:0:
280,176,91250,1,8,2:2:0:0:
280,176,91318,1,0,2:2:0:0:
280,176,91386,1,8,2:2:0:0:
372,188,91431,1,8,2:2:0:0:
372,188,91477,1,8,2:2:0:0:
372,188,91522,1,8,2:2:0:0:
372,176,91659,1,0,2:2:0:0:
180,160,91727,1,0,2:2:0:0:
180,160,91795,1,8,2:2:0:0:
180,160,91863,1,0,2:2:0:0:
180,160,91931,1,8,2:2:0:0:
180,160,92000,1,8,2:2:0:0:
180,160,92068,1,0,2:2:0:0:
180,160,92136,1,0,2:2:0:0:
180,160,92204,1,8,2:2:0:0:
180,160,92272,1,8,2:2:0:0:
180,160,92340,1,0,2:2:0:0:
180,160,92409,1,8,2:2:0:0:
180,160,92477,1,8,2:2:0:0:
180,160,92545,1,0,2:2:0:0:
180,160,92613,1,0,2:2:0:0:
180,160,92681,1,8,2:2:0:0:
180,160,92750,1,0,2:2:0:0:
180,160,92818,1,0,2:2:0:0:
180,160,92886,1,8,2:2:0:0:
180,160,92954,1,8,2:2:0:0:
180,160,93022,1,0,2:2:0:0:
180,160,93090,1,0,2:2:0:0:
180,160,93159,1,8,2:2:0:0:
180,160,93227,1,8,2:2:0:0:
180,160,93295,1,0,2:2:0:0:
180,160,93363,1,8,2:2:0:0:
180,160,93431,1,0,2:2:0:0:
180,160,93500,1,0,2:2:0:0:
180,160,93568,1,8,2:2:0:0:
180,160,93636,1,8,2:2:0:0:
180,160,93704,1,0,2:2:0:0:
180,160,93772,1,8,2:2:0:0:
180,160,93840,1,0,2:2:0:0:
180,160,93909,1,0,2:2:0:0:
180,160,93977,1,8,2:2:0:0:
168,116,94045,1,0,2:2:0:0:
180,160,94113,1,8,2:2:0:0:
180,160,94250,1,0,2:2:0:0:
180,160,94318,1,0,2:2:0:0:
180,160,94386,1,8,2:2:0:0:
180,160,94454,1,8,2:2:0:0:
180,160,94522,1,0,2:2:0:0:
224,112,94590,1,8,2:2:0:0:
180,160,94659,1,0,2:2:0:0:
180,160,94795,1,0,2:2:0:0:
180,160,94863,1,0,2:2:0:0:
224,184,94931,1,8,2:2:0:0:
224,184,95000,1,8,2:2:0:0:
224,176,95068,1,8,2:2:0:0:
224,176,95136,1,8,2:2:0:0:
224,176,95204,1,0,2:2:0:0:
224,176,95272,1,0,2:2:0:0:
224,176,95340,1,0,2:2:0:0:
224,176,95409,1,0,2:2:0:0:
224,176,95477,1,8,2:2:0:0:
224,176,95545,1,8,2:2:0:0:
224,176,95613,1,0,2:2:0:0:
224,176,95681,1,0,2:2:0:0:
224,176,95750,1,8,2:2:0:0:
224,176,95818,1,8,2:2:0:0:
224,176,95886,1,0,2:2:0:0:
224,176,95954,1,8,2:2:0:0:
224,176,96022,1,0,2:2:0:0:
224,176,96090,1,0,2:2:0:0:
224,176,96159,1,8,2:2:0:0:
224,176,96227,1,0,2:2:0:0:
224,176,96295,1,0,2:2:0:0:
224,176,96363,1,8,2:2:0:0:
224,176,96431,1,8,2:2:0:0:
224,176,96500,1,0,2:2:0:0:
224,176,96568,1,8,2:2:0:0:
224,176,96636,1,8,2:2:0:0:
224,176,96704,1,0,2:2:0:0:
224,176,96772,1,8,2:2:0:0:
224,176,96840,1,0,2:2:0:0:
224,176,96909,1,0,2:2:0:0:
224,176,96977,1,8,2:2:0:0:
224,176,97045,1,0,2:2:0:0:
224,176,97113,1,8,2:2:0:0:
224,176,97181,1,8,2:2:0:0:
224,176,97250,1,8,2:2:0:0:
224,176,97318,1,8,2:2:0:0:
224,176,97386,1,0,2:2:0:0:
224,176,97454,1,0,2:2:0:0:
224,176,97522,1,0,2:2:0:0:
224,176,97590,1,0,2:2:0:0:
224,176,97659,1,8,2:2:0:0:
224,176,97727,1,8,2:2:0:0:
224,176,97795,1,0,2:2:0:0:
224,176,97863,1,0,2:2:0:0:
224,176,97931,1,8,2:2:0:0:
224,176,98000,1,8,2:2:0:0:
224,176,98068,1,8,2:2:0:0:
224,176,98136,1,8,2:2:0:0:
224,160,98204,1,0,2:2:0:0:
180,172,98272,1,0,2:2:0:0:
180,172,98340,1,8,2:2:0:0:
161,117,98409,1,8,2:2:0:0:
68,132,98477,1,0,2:2:0:0:
228,148,98545,1,0,0:0:0:0:
88,120,98613,1,8,2:2:0:0:
224,104,98681,1,0,2:2:0:0:
180,172,98750,1,0,2:2:0:0:
180,172,98818,1,8,2:2:0:0:
120,156,98886,1,8,0:0:0:0:
180,172,98954,1,0,2:2:0:0:
180,172,99022,1,8,2:2:0:0:
180,172,99090,1,8,2:2:0:0:
180,172,99159,1,0,2:2:0:0:
196,112,99227,1,0,2:2:0:0:
180,172,99295,1,8,2:2:0:0:
168,168,99431,1,0,2:2:0:0:
180,172,99500,1,8,2:2:0:0:
180,172,99568,1,0,2:2:0:0:
180,172,99704,1,8,2:2:0:0:
168,168,99772,1,0,2:2:0:0:
168,168,99909,1,8,2:2:0:0:
168,168,99977,1,0,2:2:0:0:
168,180,100045,1,0,2:2:0:0:
168,180,100113,1,8,2:2:0:0:
168,180,100181,1,8,2:2:0:0:
168,180,100250,1,0,2:2:0:0:
196,112,100318,1,0,2:2:0:0:
168,180,100386,1,8,2:2:0:0:
324,188,100522,1,0,2:2:0:0:
324,188,100590,1,8,2:2:0:0:
224,104,100727,1,0,0:0:0:0:
60,160,100795,1,8,0:0:0:0:
204,68,100863,1,0,0:0:0:0:
324,188,100931,1,8,2:2:0:0:
296,200,101000,1,8,2:2:0:0:
296,200,101068,1,0,2:2:0:0:
296,200,101136,1,0,2:2:0:0:
296,200,101204,1,8,2:2:0:0:
296,200,101272,1,8,2:2:0:0:
296,200,101340,1,8,2:2:0:0:
296,192,101409,1,8,2:2:0:0:
296,192,101477,1,0,2:2:0:0:
296,192,101613,1,8,2:2:0:0:
296,192,101681,1,0,2:2:0:0:
296,192,101818,1,8,2:2:0:0:
296,192,101886,1,0,2:2:0:0:
132,188,101954,1,8,0:0:0:0:
160,132,102022,1,0,0:0:0:0:
160,132,102090,1,8,0:0:0:0:
296,192,102159,1,0,2:2:0:0:
296,192,102227,1,0,2:2:0:0:
296,192,102295,1,8,2:2:0:0:
296,192,102363,1,8,2:2:0:0:
296,192,102431,1,0,2:2:0:0:
296,192,102500,1,0,2:2:0:0:
296,192,102568,1,8,2:2:0:0:
312,224,102704,1,0,2:2:0:0:
312,224,102772,1,8,2:2:0:0:
88,136,102909,1,8,0:0:0:0:
312,224,102977,1,0,2:2:0:0:
312,224,103045,1,0,2:2:0:0:
312,224,103113,1,8,2:2:0:0:
88,144,103181,1,8,0:0:0:0:
312,224,103250,1,0,2:2:0:0:
312,224,103318,1,8,2:2:0:0:
312,224,103386,1,0,2:2:0:0:
312,224,103522,1,0,2:2:0:0:
408,152,103590,1,0,0:0:0:0:
312,224,103659,1,8,2:2:0:0:
312,236,103727,1,8,2:2:0:0:
312,236,103795,1,8,2:2:0:0:
312,236,103863,1,8,2:2:0:0:
312,236,103931,1,0,2:2:0:0:
312,236,104000,1,0,2:2:0:0:
312,236,104068,1,0,2:2:0:0:
312,236,104136,1,0,2:2:0:0:
312,236,104204,1,8,2:2:0:0:
312,236,104272,1,8,2:2:0:0:
312,236,104340,1,0,2:2:0:0:
312,236,104409,1,0,2:2:0:0:
312,232,104477,1,8,2:2:0:0:
312,232,104545,1,8,2:2:0:0:
312,232,104613,1,0,2:2:0:0:
312,232,104681,1,8,2:2:0:0:
312,236,104750,1,0,2:2:0:0:
256,124,104818,1,0,2:2:0:0:
312,236,104886,1,8,2:2:0:0:
312,236,104954,1,0,2:2:0:0:
236,140,105022,1,8,2:2:0:0:
236,140,105090,1,8,2:2:0:0:
312,236,105159,1,0,2:2:0:0:
220,144,105227,1,8,2:2:0:0:
312,236,105295,1,0,2:2:0:0:
208,80,105363,1,0,2:2:0:0:
208,80,105431,1,0,2:2:0:0:
312,232,105500,1,0,2:2:0:0:
312,232,105568,1,8,2:2:0:0:
160,100,105636,1,8,2:2:0:0:
160,108,105704,1,8,2:2:0:0:
160,108,105772,1,8,2:2:0:0:
316,192,105840,1,0,2:2:0:0:
316,192,105909,1,0,2:2:0:0:
316,192,105977,1,8,2:2:0:0:
316,192,106045,1,0,2:2:0:0:
316,192,106113,1,8,2:2:0:0:
316,192,106181,1,8,2:2:0:0:
316,192,106250,1,0,2:2:0:0:
316,192,106318,1,8,2:2:0:0:
316,192,106386,1,0,2:2:0:0:
316,192,106454,1,0,2:2:0:0:
316,192,106522,1,8,2:2:0:0:
316,192,106590,1,0,2:2:0:0:
316,192,106659,1,8,2:2:0:0:
316,192,106727,1,8,2:2:0:0:
316,192,106795,1,8,2:2:0:0:
316,192,106863,1,8,2:2:0:0:
316,192,106931,1,0,2:2:0:0:
256,148,107000,1,0,2:2:0:0:
192,156,107068,1,8,2:2:0:0:
256,148,107136,1,8,2:2:0:0:
240,140,107204,1,0,2:2:0:0:
240,140,107272,1,0,2:2:0:0:
192,156,107340,1,8,2:2:0:0:
192,156,107409,1,0,2:2:0:0:
184,68,107477,1,0,2:2:0:0:
208,164,107545,1,8,2:2:0:0:
208,156,107613,1,8,2:2:0:0:
144,148,107681,1,0,2:2:0:0:
208,156,107750,1,8,2:2:0:0:
200,156,107818,1,8,2:2:0:0:
124,148,107886,1,0,2:2:0:0:
196,156,107954,1,8,2:2:0:0:
144,148,108022,1,0,2:2:0:0:
144,148,108090,1,0,2:2:0:0:
144,148,108159,1,8,2:2:0:0:
144,148,108227,1,0,2:2:0:0:
144,148,108295,1,8,2:2:0:0:
144,148,108363,1,8,2:2:0:0:
144,148,108431,1,0,2:2:0:0:
144,148,108500,1,8,2:2:0:0:
144,148,108568,1,0,2:2:0:0:
144,148,108636,1,0,2:2:0:0:
144,148,108704,1,0,2:2:0:0:
136,140,108772,1,0,2:2:0:0:
140,148,108840,1,8,2:2:0:0:
140,148,108909,1,8,2:2:0:0:
136,148,108977,1,8,2:2:0:0:
136,148,109045,1,8,2:2:0:0:
136,140,109113,1,0,2:2:0:0:
232,136,109659,1,0,2:2:0:0:
232,136,109727,1,0,2:2:0:0:
232,136,109795,1,0,2:2:0:0:
232,136,109863,1,0,2:2:0:0:
232,136,109931,1,8,2:2:0:0:
144,208,110204,1,4,2:2:0:0:
264,172,110340,1,8,2:2:0:0:
264,172,110409,1,0,2:2:0:0:
264,172,110477,1,8,2:2:0:0:
264,172,110613,1,0,2:2:0:0:
264,172,110681,1,8,2:2:0:0:
264,172,110750,1,0,2:2:0:0:
264,172,110818,1,0,2:2:0:0:
264,172,110886,1,8,2:2:0:0:
264,172,110954,1,0,2:2:0:0:
264,172,111022,1,8,2:2:0:0:
264,172,111159,1,0,2:2:0:0:
116,188,111431,1,0,2:2:0:0:
444,136,111465,1,0,2:2:0:0:
172,160,111568,1,8,2:2:0:0:
420,128,111602,1,8,2:2:0:0:
152,184,111704,1,0,2:2:0:0:
440,136,111738,1,0,2:2:0:0:
172,160,111840,1,8,2:2:0:0:
420,128,111875,1,8,2:2:0:0:
172,160,111977,1,8,2:2:0:0:
420,128,112011,1,8,2:2:0:0:
152,184,112113,1,0,2:2:0:0:
440,136,112147,1,0,2:2:0:0:
172,160,112250,1,8,2:2:0:0:
420,128,112284,1,8,2:2:0:0:
368,144,112386,1,0,2:2:0:0:
344,144,112454,1,0,2:2:0:0:
344,144,112522,1,8,2:2:0:0:
344,144,112590,1,0,2:2:0:0:
236,136,112659,1,8,2:2:0:0:
236,136,112727,1,8,2:2:0:0:
344,144,112795,1,0,2:2:0:0:
236,136,112863,1,8,2:2:0:0:
344,144,112931,1,0,2:2:0:0:
344,144,113000,1,0,2:2:0:0:
236,136,113068,1,8,2:2:0:0:
236,136,113136,1,8,2:2:0:0:
344,144,113204,1,0,2:2:0:0:
344,144,113272,1,0,2:2:0:0:
236,136,113340,1,8,2:2:0:0:
344,144,113409,1,0,2:2:0:0:
224,120,113477,1,8,2:2:0:0:
268,108,113545,1,8,2:2:0:0:
268,108,113613,1,0,2:2:0:0:
268,108,113681,1,8,2:2:0:0:
256,104,113750,1,0,2:2:0:0:
256,112,113818,1,0,2:2:0:0:
256,108,113886,1,8,2:2:0:0:
84,224,113931,1,8,2:2:0:0:
84,224,113977,1,8,2:2:0:0:
184,188,114022,1,0,2:2:0:0:
184,188,114090,1,0,2:2:0:0:
184,188,114159,1,8,2:2:0:0:
208,104,114204,1,8,2:2:0:0:
208,104,114250,1,8,2:2:0:0:
216,96,114295,1,0,2:2:0:0:
176,176,114363,1,0,2:2:0:0:
176,168,114431,1,8,2:2:0:0:
208,104,114477,1,8,2:2:0:0:
208,104,114522,1,8,2:2:0:0:
172,168,114568,1,0,2:2:0:0:
168,140,114704,1,0,2:2:0:0:
168,140,114772,1,0,2:2:0:0:
168,140,114840,1,8,2:2:0:0:
168,140,114977,1,8,2:2:0:0:
152,68,115113,1,0,2:2:0:0:
196,144,115250,1,8,2:2:0:0:
180,128,115318,1,0,2:2:0:0:
180,128,115386,1,8,2:2:0:0:
180,128,115454,1,8,2:2:0:0:
180,128,115522,1,0,2:2:0:0:
180,128,115659,1,8,2:2:0:0:
228,140,115795,1,0,2:2:0:0:
228,140,115863,1,8,2:2:0:0:
228,140,115931,1,0,2:2:0:0:
228,140,116068,1,8,2:2:0:0:
228,140,116136,1,8,2:2:0:0:
228,140,116204,1,0,2:2:0:0:
228,140,116272,1,0,2:2:0:0:
232,136,116340,1,8,2:2:0:0:
232,136,116409,1,0,2:2:0:0:
228,140,116477,1,8,2:2:0:0:
224,132,116613,1,8,2:2:0:0:
188,124,116750,1,0,2:2:0:0:
192,112,116886,1,8,2:2:0:0:
192,112,116954,1,8,2:2:0:0:
192,112,117022,1,0,2:2:0:0:
192,112,117159,1,8,2:2:0:0:
192,112,117295,1,0,2:2:0:0:
196,108,117431,1,0,2:2:0:0:
192,116,117500,1,0,2:2:0:0:
192,116,117568,1,8,2:2:0:0:
192,116,117636,1,8,2:2:0:0:
192,116,117704,1,0,2:2:0:0:
192,124,117772,1,8,2:2:0:0:
192,112,117840,1,0,2:2:0:0:
328,240,117977,1,8,2:2:0:0:
328,240,118022,1,8,2:2:0:0:
328,240,118068,1,8,2:2:0:0:
328,240,118113,1,8,2:2:0:0:
328,168,118181,1,0,2:2:0:0:
392,168,118250,1,8,2:2:0:0:
392,168,118295,1,0,2:2:0:0:
392,168,118340,1,0,2:2:0:0:
392,168,118386,1,8,2:2:0:0:
352,100,118454,1,8,2:2:0:0:
336,108,118522,1,0,2:2:0:0:
336,108,118590,1,0,2:2:0:0:
336,104,118659,1,8,2:2:0:0:
336,104,118727,1,8,2:2:0:0:
328,116,118795,1,8,2:2:0:0:
328,116,118931,1,0,2:2:0:0:
168,124,119000,1,0,2:2:0:0:
168,124,119068,1,8,2:2:0:0:
180,68,119136,1,0,2:2:0:0:
180,68,119204,1,0,2:2:0:0:
184,84,119272,1,8,2:2:0:0:
180,68,119340,1,0,2:2:0:0:
180,68,119409,1,0,2:2:0:0:
184,84,119477,1,8,2:2:0:0:
180,68,119545,1,0,2:2:0:0:
180,68,119613,1,0,2:2:0:0:
184,84,119681,1,8,2:2:0:0:
176,88,119750,1,0,2:2:0:0:
176,88,119818,1,0,2:2:0:0:
176,88,119886,1,8,2:2:0:0:
176,88,119954,1,0,2:2:0:0:
176,88,120022,1,8,2:2:0:0:
176,88,120090,1,8,2:2:0:0:
176,88,120159,1,0,2:2:0:0:
176,88,120227,1,0,2:2:0:0:
176,88,120295,1,8,2:2:0:0:
176,88,120363,1,0,2:2:0:0:
176,88,120431,1,0,2:2:0:0:
176,88,120500,1,8,2:2:0:0:
260,264,120568,1,0,2:2:0:0:
260,264,120636,1,0,2:2:0:0:
216,136,120704,1,8,2:2:0:0:
228,256,120772,1,0,2:2:0:0:
216,136,120840,1,8,2:2:0:0:
216,136,120909,1,8,2:2:0:0:
256,260,120977,1,0,2:2:0:0:
208,132,121045,1,8,2:2:0:0:
208,132,121113,1,0,2:2:0:0:
208,176,121181,1,0,2:2:0:0:
212,184,121250,1,8,2:2:0:0:
212,180,121318,1,8,2:2:0:0:
212,180,121386,1,0,2:2:0:0:
212,180,121454,1,8,2:2:0:0:
212,180,121522,1,8,2:2:0:0:
212,192,121590,1,0,2:2:0:0:
212,192,121659,1,8,2:2:0:0:
212,192,121727,1,8,2:2:0:0:
208,188,121795,1,0,2:2:0:0:
212,192,121863,1,8,2:2:0:0:
212,192,121931,1,8,2:2:0:0:
212,188,122000,1,0,2:2:0:0:
216,188,122068,1,8,2:2:0:0:
216,188,122136,1,0,2:2:0:0:
216,188,122204,1,8,2:2:0:0:
212,188,122272,1,8,2:2:0:0:
212,188,122340,1,8,2:2:0:0:
212,188,122409,1,8,2:2:0:0:
128,192,122477,1,0,2:2:0:0:
176,200,122545,1,8,2:2:0:0:
176,200,122613,1,0,2:2:0:0:
76,144,122681,1,0,2:2:0:0:
168,168,122750,1,8,2:2:0:0:
168,168,122818,1,8,2:2:0:0:
196,80,122886,1,0,2:2:0:0:
196,80,122954,1,0,2:2:0:0:
164,172,123022,1,8,2:2:0:0:
164,172,123090,1,8,2:2:0:0:
192,88,123159,1,0,2:2:0:0:
164,172,123227,1,8,2:2:0:0:
192,88,123295,1,0,2:2:0:0:
300,184,123363,1,0,2:2:0:0:
300,200,123431,1,8,2:2:0:0:
300,184,123500,1,0,2:2:0:0:
300,200,123568,1,8,2:2:0:0:
272,184,123704,1,8,2:2:0:0:
260,168,123772,1,8,2:2:0:0:
296,188,123840,1,0,2:2:0:0:
300,184,123909,1,0,2:2:0:0:
304,192,123977,1,8,2:2:0:0:
300,184,124045,1,0,2:2:0:0:
304,192,124113,1,8,2:2:0:0:
304,196,124181,1,8,2:2:0:0:
304,196,124250,1,8,2:2:0:0:
304,196,124318,1,8,2:2:0:0:
304,228,124386,1,0,2:2:0:0:
304,228,124454,1,0,2:2:0:0:
304,228,124522,1,8,2:2:0:0:
304,228,124590,1,0,2:2:0:0:
304,228,124659,1,8,2:2:0:0:
304,228,124795,1,0,2:2:0:0:
304,228,124863,1,0,2:2:0:0:
324,196,124931,1,8,2:2:0:0:
316,96,124977,1,0,2:2:0:0:
316,96,125022,1,0,2:2:0:0:
316,96,125068,1,8,2:2:0:0:
240,124,125136,1,0,2:2:0:0:
352,96,125204,1,8,2:2:0:0:
352,96,125250,1,8,2:2:0:0:
352,96,125295,1,8,2:2:0:0:
360,92,125340,1,8,2:2:0:0:
248,104,125409,1,0,2:2:0:0:
248,96,125477,1,8,2:2:0:0:
144,64,125545,1,0,2:2:0:0:
252,144,125613,1,8,2:2:0:0:
76,124,125681,1,8,2:2:0:0:
180,116,125750,1,0,2:2:0:0:
180,116,125818,1,0,2:2:0:0:
240,148,125886,1,8,2:2:0:0:
248,148,125954,1,0,2:2:0:0:
208,108,126022,1,8,2:2:0:0:
336,76,126090,1,8,2:2:0:0:
208,108,126159,1,8,2:2:0:0:
144,120,126227,1,8,2:2:0:0:
200,116,126295,1,0,2:2:0:0:
296,88,126363,1,0,2:2:0:0:
200,108,126431,1,0,2:2:0:0:
200,116,126500,1,0,2:2:0:0:
200,116,126568,1,8,2:2:0:0:
200,116,126636,1,8,2:2:0:0:
200,116,126704,1,0,2:2:0:0:
200,116,126772,1,0,2:2:0:0:
192,104,126840,1,8,2:2:0:0:
184,104,126909,1,8,2:2:0:0:
200,116,126977,1,0,2:2:0:0:
192,104,127045,1,0,2:2:0:0:
200,104,127113,1,8,2:2:0:0:
200,104,127181,1,8,2:2:0:0:
200,104,127250,1,8,2:2:0:0:
200,104,127318,1,8,2:2:0:0:
200,108,127386,1,8,2:2:0:0:
204,112,127454,1,8,2:2:0:0:
200,104,127522,1,8,2:2:0:0:
200,104,127590,1,8,2:2:0:0:
204,108,127659,1,0,2:2:0:0:
239,253,129840,1,0,2:0:0:0:
239,253,130659,1,8,2:0:0:0:
184,164,130931,1,0,2:2:0:0:
184,164,131204,1,0,2:2:0:0:
216,160,131477,1,8,2:2:0:0:
216,160,131750,1,0,2:2:0:0:
208,168,132022,1,8,2:2:0:0:
211,209,132431,1,8,2:0:0:0:
211,209,133386,1,0,2:0:0:0:
211,209,133659,1,8,2:0:0:0:
211,209,133931,1,8,2:0:0:0:
110,137,134204,1,0,2:0:0:0:
110,137,134613,1,8,2:0:0:0:
198,145,135295,1,0,2:0:0:0:
176,137,135568,1,0,2:0:0:0:
177,138,135840,1,8,2:0:0:0:
201,157,136113,1,0,2:0:0:0:
176,137,136386,1,8,2:0:0:0:
212,160,136659,1,0,2:0:0:0:
213,160,136795,1,8,2:0:0:0:
223,145,137750,1,0,2:0:0:0:
223,145,138022,1,8,2:0:0:0:
223,145,138295,1,8,2:0:0:0:
217,151,138568,1,8,2:0:0:0:
217,151,138977,1,0,2:0:0:0:
217,151,139386,1,8,2:0:0:0:
214,144,139931,1,8,2:0:0:0:
214,144,140204,1,0,2:0:0:0:
214,144,140477,1,8,2:0:0:0:
214,144,140750,1,8,2:0:0:0:
217,124,141159,1,0,2:0:0:0:
217,121,141295,1,0,2:0:0:0:
272,176,142931,1,0,0:0:0:0:
212,133,143477,5,0,2:0:0:0:
212,133,144022,1,8,2:0:0:0:
212,133,144568,1,8,2:0:0:0:
288,236,145113,5,0,2:2:0:0:
292,260,145386,1,0,2:2:0:0:
292,260,145659,1,8,2:2:0:0:
288,260,145931,1,0,2:2:0:0:
288,260,146068,1,8,2:2:0:0:
292,260,146340,1,8,2:2:0:0:
292,260,146477,1,0,2:2:0:0:
288,260,146750,1,8,2:2:0:0:
316,264,147022,1,0,2:2:0:0:
316,268,147159,1,8,2:2:0:0:
312,264,147295,1,0,2:2:0:0:
179,129,147568,1,0,2:0:0:0:
179,129,147840,1,8,2:0:0:0:
179,129,148113,1,0,2:0:0:0:
179,129,148250,1,8,2:0:0:0:
179,129,148522,1,8,2:0:0:0:
179,129,148659,1,0,2:0:0:0:
179,129,148931,1,8,2:0:0:0:
179,129,149204,1,0,2:0:0:0:
208,186,149340,1,8,0:0:0:0:
163,177,149477,1,0,2:0:0:0:
163,177,149750,1,0,2:0:0:0:
163,177,150022,1,8,2:0:0:0:
163,177,150295,1,0,2:0:0:0:
163,177,150431,1,8,2:0:0:0:
163,177,150704,1,8,2:0:0:0:
163,177,150840,1,0,2:0:0:0:
188,173,151113,1,8,2:0:0:0:
188,173,151386,1,0,2:0:0:0:
220,155,151522,1,8,0:0:0:0:
188,173,151659,1,0,2:0:0:0:
188,173,151931,1,0,2:0:0:0:
276,133,152068,1,0,0:0:0:0:
188,173,152204,1,8,2:0:0:0:
188,173,152477,1,0,2:0:0:0:
188,173,152613,1,0,2:0:0:0:
188,173,152886,1,8,2:0:0:0:
188,173,153022,1,0,2:0:0:0:
188,173,153295,1,8,2:0:0:0:
188,173,153568,1,0,2:0:0:0:
188,173,153840,1,0,2:0:0:0:
188,173,154113,1,0,2:0:0:0:
188,173,154386,1,8,2:0:0:0:
188,173,154659,1,0,2:0:0:0:
188,173,154795,1,8,2:0:0:0:
188,173,155068,1,8,2:0:0:0:
188,173,155204,1,0,2:0:0:0:
188,173,155477,1,8,2:0:0:0:
188,173,155750,1,0,2:0:0:0:
261,137,155886,1,8,0:0:0:0:
188,173,156022,1,0,2:0:0:0:
188,173,156295,1,0,2:0:0:0:
188,173,156568,1,8,2:0:0:0:
188,173,156840,1,0,2:0:0:0:
188,173,156977,1,8,2:0:0:0:
188,173,157250,1,8,2:0:0:0:
188,173,157386,1,0,2:0:0:0:
188,173,157659,1,8,2:0:0:0:
188,173,157931,1,0,2:0:0:0:
188,173,158204,1,8,2:0:0:0:
268,217,158613,1,8,0:0:0:0:
268,217,158750,1,8,0:0:0:0:
268,217,159159,1,8,0:0:0:0:
268,217,159295,1,8,0:0:0:0:
268,217,159704,1,8,0:0:0:0:
268,217,159840,1,8,0:0:0:0:
268,217,160113,1,8,0:0:0:0:
268,217,160386,1,0,0:0:0:0:
184,219,161477,1,0,0:0:0:0:
305,143,161613,1,0,0:0:0:0:
305,143,161681,1,0,0:0:0:0:
305,143,161750,1,8,0:0:0:0:
305,143,161818,1,8,0:0:0:0:
305,143,161886,1,0,0:0:0:0:
305,143,161954,1,8,0:0:0:0:
305,143,162022,1,0,0:0:0:0:
305,143,162090,1,0,0:0:0:0:
305,143,162159,1,8,0:0:0:0:
305,143,162227,1,0,0:0:0:0:
305,143,162295,1,8,0:0:0:0:
305,143,162363,1,8,0:0:0:0:
305,143,162431,1,8,0:0:0:0:
305,143,162500,1,8,0:0:0:0:
331,194,166931,1,0,0:0:0:0:
330,197,168022,1,0,0:0:0:0:
325,199,168568,1,8,0:0:0:0:
330,198,169113,1,0,0:0:0:0:
325,199,170204,1,8,0:0:0:0:
325,199,171295,1,0,0:0:0:0:
325,199,172386,1,8,0:0:0:0:
325,199,172931,1,8,0:0:0:0:
325,199,173477,1,0,0:0:0:0:
325,199,174568,1,8,0:0:0:0:
325,199,175659,1,0,0:0:0:0:
316,208,175863,1,0,0:0:0:0:
316,208,176068,1,8,0:0:0:0:
176,204,176272,1,0,0:0:0:0:
96,128,176477,1,8,0:0:0:0:
267,171,176750,1,0,0:0:0:0:
96,128,176954,1,0,0:0:0:0:
112,132,177159,1,8,0:0:0:0:
267,171,177363,1,8,0:0:0:0:
224,160,177568,1,0,0:0:0:0:
267,171,177840,1,8,0:0:0:0:
200,176,178045,1,8,0:0:0:0:
200,176,178250,1,8,0:0:0:0:
200,176,178454,1,8,0:0:0:0:
272,160,178659,1,0,0:0:0:0:
267,171,178931,5,8,0:0:0:0:
272,160,179136,1,0,0:0:0:0:
272,168,179340,1,8,0:0:0:0:
272,168,179545,1,8,0:0:0:0:
267,171,179750,1,8,0:0:0:0:
250,180,180022,5,0,2:0:0:0:
251,199,180090,1,0,2:0:0:0:
251,199,180159,1,0,2:0:0:0:
251,199,180227,1,0,2:0:0:0:
251,199,180295,1,8,2:0:0:0:
203,122,180431,1,8,2:0:0:0:
209,124,180500,1,0,2:0:0:0:
209,124,180636,1,0,2:0:0:0:
209,124,180704,1,8,2:0:0:0:
227,111,180840,1,0,2:0:0:0:
227,111,180909,1,0,2:0:0:0:
227,111,180977,1,8,2:0:0:0:
232,111,181113,1,0,2:0:0:0:
232,112,181181,1,0,2:0:0:0:
232,112,181250,1,8,2:0:0:0:
232,112,181318,1,0,2:0:0:0:
232,112,181386,1,8,2:0:0:0:
231,108,181454,1,8,2:0:0:0:
231,108,181522,1,0,2:0:0:0:
231,108,181590,1,8,2:0:0:0:
231,108,181659,1,0,2:0:0:0:
230,103,181727,1,0,2:0:0:0:
230,103,181795,1,8,2:0:0:0:
230,103,181863,1,0,2:0:0:0:
230,100,181931,1,8,2:0:0:0:
230,100,182000,1,8,2:0:0:0:
229,100,182068,1,8,2:0:0:0:
229,100,182136,1,8,2:0:0:0:
248,202,182204,1,0,2:0:0:0:
259,89,182272,1,0,2:0:0:0:
259,89,182340,1,8,2:0:0:0:
259,89,182409,1,0,2:0:0:0:
259,89,182477,1,8,2:0:0:0:
259,89,182545,1,8,2:0:0:0:
259,89,182613,1,0,2:0:0:0:
259,89,182681,1,8,2:0:0:0:
259,89,182750,1,0,2:0:0:0:
259,89,182818,1,0,2:0:0:0:
259,89,182886,1,8,2:0:0:0:
259,89,182954,1,0,2:0:0:0:
259,89,183022,1,8,2:0:0:0:
259,89,183090,1,8,2:0:0:0:
259,89,183159,1,0,2:0:0:0:
259,89,183227,1,8,2:0:0:0:
259,89,183295,1,0,2:0:0:0:
259,89,183363,1,0,2:0:0:0:
259,89,183431,1,0,2:0:0:0:
259,89,183568,1,8,2:0:0:0:
259,89,183704,1,8,2:0:0:0:
259,89,183772,1,8,2:0:0:0:
259,89,183840,1,0,2:0:0:0:
209,200,183886,1,0,2:0:0:0:
209,200,183931,1,0,2:0:0:0:
209,200,183977,1,8,2:0:0:0:
396,177,184045,1,0,2:0:0:0:
472,116,184113,1,8,2:0:0:0:
321,138,184159,1,0,2:0:0:0:
321,138,184204,1,0,2:0:0:0:
321,138,184250,1,8,2:0:0:0:
295,193,184318,1,8,2:0:0:0:
295,215,184386,1,0,2:0:0:0:
239,155,184659,1,12,2:0:0:0:
183,138,184863,1,8,2:0:0:0:
225,211,184931,1,0,2:0:0:0:
229,205,185000,1,8,2:0:0:0:
186,198,185068,1,0,2:0:0:0:
217,180,185136,1,0,2:0:0:0:
237,197,185204,1,8,2:0:0:0:
210,179,185272,1,8,2:0:0:0:
233,199,185340,1,0,2:0:0:0:
230,196,185409,1,0,2:0:0:0:
233,205,185477,1,8,2:0:0:0:
187,95,185545,1,8,2:0:0:0:
219,146,185613,1,0,2:0:0:0:
219,146,185681,1,8,2:0:0:0:
221,147,185750,1,0,2:0:0:0:
51,155,185818,1,0,2:0:0:0:
183,79,185886,1,8,2:0:0:0:
221,147,185954,1,8,2:0:0:0:
221,147,186022,1,0,2:0:0:0:
175,68,186090,1,8,2:0:0:0:
221,147,186159,1,0,2:0:0:0:
92,153,186227,1,0,2:0:0:0:
188,160,186295,1,8,2:0:0:0:
188,160,186363,1,8,2:0:0:0:
188,160,186431,1,0,2:0:0:0:
188,160,186500,1,0,2:0:0:0:
188,160,186568,1,8,2:0:0:0:
219,151,186704,1,0,2:0:0:0:
219,151,186772,1,0,2:0:0:0:
219,151,186840,1,8,2:0:0:0:
148,159,186909,1,8,2:0:0:0:
219,151,186977,1,0,2:0:0:0:
95,135,187045,1,8,2:0:0:0:
219,151,187113,1,8,2:0:0:0:
219,151,187250,1,0,2:0:0:0:
219,151,187318,1,8,2:0:0:0:
219,151,187386,1,0,2:0:0:0:
219,151,187522,1,0,2:0:0:0:
134,159,187590,1,0,2:0:0:0:
134,159,187659,1,8,2:0:0:0:
166,164,187727,1,8,2:0:0:0:
166,164,187795,1,8,2:0:0:0:
166,164,187863,1,8,2:0:0:0:
166,164,187931,1,0,2:0:0:0:
166,164,188000,1,0,2:0:0:0:
166,164,188068,1,0,2:0:0:0:
166,164,188136,1,0,2:0:0:0:
166,164,188204,1,8,2:0:0:0:
166,164,188272,1,8,2:0:0:0:
166,164,188340,1,0,2:0:0:0:
166,164,188409,1,0,2:0:0:0:
166,164,188477,1,8,2:0:0:0:
166,164,188545,1,8,2:0:0:0:
166,164,188613,1,0,2:0:0:0:
166,164,188681,1,8,2:0:0:0:
166,164,188750,1,0,2:0:0:0:
190,140,188818,1,0,2:0:0:0:
194,154,188886,1,0,2:0:0:0:
194,154,188954,1,0,2:0:0:0:
194,154,189022,1,8,2:0:0:0:
195,113,189090,1,8,2:0:0:0:
195,113,189159,1,0,2:0:0:0:
195,113,189227,1,0,2:0:0:0:
166,126,189295,1,8,2:0:0:0:
166,126,189363,1,8,2:0:0:0:
166,126,189431,1,0,2:0:0:0:
166,126,189500,1,0,2:0:0:0:
166,126,189568,1,8,2:0:0:0:
166,126,189636,1,8,2:0:0:0:
166,126,189704,1,0,2:0:0:0:
166,126,189772,1,8,2:0:0:0:
166,126,189840,1,0,2:0:0:0:
172,123,189909,1,0,2:0:0:0:
173,130,189977,1,8,2:0:0:0:
173,130,190045,1,0,2:0:0:0:
173,130,190113,1,8,2:0:0:0:
172,133,190181,1,8,2:0:0:0:
172,133,190250,1,8,2:0:0:0:
172,133,190318,1,8,2:0:0:0:
172,133,190386,1,0,2:0:0:0:
172,133,190454,1,0,2:0:0:0:
172,133,190522,1,0,2:0:0:0:
172,133,190590,1,0,2:0:0:0:
172,135,190659,1,8,2:0:0:0:
172,135,190727,1,8,2:0:0:0:
172,135,190795,1,8,2:0:0:0:
172,135,190863,1,8,2:0:0:0:
172,135,190931,1,0,2:0:0:0:
220,200,191000,1,0,2:0:0:0:
220,200,191068,1,8,2:0:0:0:
224,120,191136,1,8,0:0:0:0:
220,200,191204,1,0,2:0:0:0:
220,200,191272,1,0,2:0:0:0:
172,152,191340,1,8,0:0:0:0:
220,200,191409,1,0,2:0:0:0:
220,200,191477,1,0,2:0:0:0:
220,200,191545,1,8,2:0:0:0:
208,116,191613,1,8,0:0:0:0:
220,200,191681,1,0,2:0:0:0:
220,200,191750,1,8,2:0:0:0:
142,112,191818,1,8,2:0:0:0:
220,200,191886,1,0,2:0:0:0:
264,132,191954,1,8,0:0:0:0:
220,200,192022,1,0,2:0:0:0:
220,200,192159,1,0,2:0:0:0:
212,142,192227,1,0,2:0:0:0:
220,200,192295,1,8,2:0:0:0:
211,151,192363,1,8,2:0:0:0:
211,151,192431,1,0,2:0:0:0:
211,151,192500,1,8,2:0:0:0:
211,151,192568,1,0,2:0:0:0:
211,151,192636,1,0,2:0:0:0:
211,151,192704,1,8,2:0:0:0:
211,151,192772,1,0,2:0:0:0:
211,151,192840,1,8,2:0:0:0:
211,151,192909,1,8,2:0:0:0:
211,151,192977,1,8,2:0:0:0:
211,151,193045,1,8,2:0:0:0:
211,151,193113,1,0,2:0:0:0:
292,164,193250,1,8,2:0:0:0:
223,189,193318,1,0,2:0:0:0:
227,119,193454,1,8,2:0:0:0:
220,111,193522,1,0,2:0:0:0:
220,111,193590,1,8,2:0:0:0:
227,119,193659,1,0,2:0:0:0:
227,119,193727,1,0,2:0:0:0:
227,119,193795,1,8,2:0:0:0:
227,119,193863,1,0,2:0:0:0:
227,119,193931,1,8,2:0:0:0:
227,119,194000,1,8,2:0:0:0:
212,111,194068,1,0,2:0:0:0:
212,111,194136,1,0,2:0:0:0:
212,111,194204,1,8,2:0:0:0:
212,111,194340,1,0,2:0:0:0:
212,111,194409,1,8,2:0:0:0:
212,111,194545,1,0,2:0:0:0:
212,111,194613,1,8,2:0:0:0:
212,111,194681,1,0,2:0:0:0:
208,112,194750,1,8,2:0:0:0:
212,111,194818,1,8,2:0:0:0:
208,112,194886,1,0,2:0:0:0:
208,112,194954,1,0,2:0:0:0:
208,113,195022,1,8,2:0:0:0:
212,111,195090,1,8,2:0:0:0:
212,111,195159,1,0,2:0:0:0:
212,111,195227,1,8,2:0:0:0:
212,111,195295,1,0,2:0:0:0:
183,83,195431,1,8,2:0:0:0:
183,83,195500,1,0,2:0:0:0:
183,83,195636,1,8,2:0:0:0:
199,137,195704,1,0,2:0:0:0:
199,137,195772,1,8,2:0:0:0:
199,137,195840,1,8,2:0:0:0:
106,211,195909,1,0,2:0:0:0:
190,142,195977,1,0,2:0:0:0:
181,146,196045,1,8,2:0:0:0:
181,146,196113,1,0,2:0:0:0:
179,146,196250,1,0,2:0:0:0:
179,146,196318,1,0,2:0:0:0:
179,146,196386,1,8,2:0:0:0:
250,131,196454,1,8,2:0:0:0:
250,131,196522,1,8,2:0:0:0:
250,131,196590,1,8,2:0:0:0:
250,131,196659,1,0,2:0:0:0:
250,131,196727,1,0,2:0:0:0:
250,131,196795,1,0,2:0:0:0:
250,131,196863,1,0,2:0:0:0:
250,131,196931,1,8,2:0:0:0:
250,131,197000,1,8,2:0:0:0:
250,131,197068,1,0,2:0:0:0:
250,131,197136,1,0,2:0:0:0:
250,131,197204,1,8,2:0:0:0:
250,131,197272,1,8,2:0:0:0:
250,131,197340,1,0,2:0:0:0:
250,131,197409,1,8,2:0:0:0:
250,131,197477,1,0,2:0:0:0:
310,132,197545,1,0,2:0:0:0:
307,137,197613,1,8,2:0:0:0:
307,137,197681,1,8,2:0:0:0:
306,137,197750,1,0,2:0:0:0:
306,137,197818,1,0,2:0:0:0:
306,137,197886,1,8,2:0:0:0:
306,137,197954,1,0,2:0:0:0:
293,147,198022,1,8,2:0:0:0:
293,147,198090,1,8,2:0:0:0:
191,95,198159,1,0,2:0:0:0:
191,95,198227,1,0,2:0:0:0:
293,147,198295,1,8,2:0:0:0:
176,144,198363,1,8,2:0:0:0:
186,98,198431,1,8,2:0:0:0:
186,98,198500,1,8,2:0:0:0:
186,98,198568,1,0,2:0:0:0:
185,115,198636,1,0,2:0:0:0:
185,115,198704,1,8,2:0:0:0:
190,105,198772,1,0,2:0:0:0:
185,115,198840,1,8,2:0:0:0:
185,115,198909,1,8,2:0:0:0:
185,115,198977,1,8,2:0:0:0:
185,115,199045,1,8,2:0:0:0:
185,115,199113,1,0,2:0:0:0:
185,115,199181,1,0,2:0:0:0:
185,115,199250,1,0,2:0:0:0:
185,115,199318,1,0,2:0:0:0:
185,115,199386,1,8,2:0:0:0:
185,115,199454,1,8,2:0:0:0:
185,115,199522,1,8,2:0:0:0:
185,115,199590,1,8,2:0:0:0:
210,126,199659,1,0,2:0:0:0:
211,131,199727,1,0,2:0:0:0:
211,131,199795,1,8,2:0:0:0:
211,131,199863,1,8,2:0:0:0:
211,131,199931,1,0,2:0:0:0:
211,131,200000,1,0,2:0:0:0:
211,131,200068,1,8,2:0:0:0:
211,131,200136,1,0,2:0:0:0:
181,144,200204,1,0,2:0:0:0:
205,158,200272,1,8,2:0:0:0:
227,76,200340,1,8,2:0:0:0:
230,83,200409,1,0,2:0:0:0:
106,135,200477,1,8,2:0:0:0:
106,135,200545,1,8,2:0:0:0:
110,140,200613,1,0,2:0:0:0:
174,102,200681,1,8,2:0:0:0:
110,140,200750,1,0,2:0:0:0:
179,138,200818,1,0,2:0:0:0:
181,138,200886,1,8,2:0:0:0:
179,138,200954,1,0,2:0:0:0:
181,138,201022,1,8,2:0:0:0:
181,138,201090,1,8,2:0:0:0:
181,138,201159,1,0,2:0:0:0:
181,138,201227,1,8,2:0:0:0:
179,138,201295,1,0,2:0:0:0:
180,128,201363,1,0,2:0:0:0:
180,128,201431,1,0,2:0:0:0:
180,128,201500,1,0,2:0:0:0:
183,89,201568,1,8,2:0:0:0:
183,89,201636,1,8,2:0:0:0:
183,89,201704,1,8,2:0:0:0:
183,89,201772,1,8,2:0:0:0:
184,97,201840,1,0,2:0:0:0:
290,168,202931,1,0,2:0:0:0:
290,168,203477,1,8,2:0:0:0:
290,168,204022,1,0,2:0:0:0:
290,168,205113,1,8,2:0:0:0:
290,168,206204,1,0,2:0:0:0:
289,169,207295,1,8,2:0:0:0:
289,169,207840,1,8,2:0:0:0:
289,169,208386,1,0,2:0:0:0:
289,169,209477,5,8,2:0:0:0:
280,92,210568,5,8,2:2:0:0:
256,120,211659,1,8,2:2:0:0:
256,120,212204,1,8,2:2:0:0:
256,120,212750,1,8,2:2:0:0:
252,120,213840,1,8,2:2:0:0:
252,120,214931,1,8,2:2:0:0:
252,120,216022,1,8,2:2:0:0:
252,120,216568,1,8,2:2:0:0:
252,120,217113,1,8,2:2:0:0:
252,120,218204,1,8,2:2:0:0:
