osu file format v14

[General]
AudioFilename: audio.mp3
AudioLeadIn: 0
PreviewTime: 103852
Countdown: 1
SampleSet: Soft
StackLeniency: 0.7
Mode: 0
LetterboxInBreaks: 0
WidescreenStoryboard: 1

[Editor]
DistanceSpacing: 1.1
BeatDivisor: 4
GridSize: 16
TimelineZoom: 1.7

[Metadata]
Title:Sakase Natsuzora, Koi no Hana.
TitleUnicode:咲かせ夏空、恋の花。
Artist:AAAA + yadrigg
ArtistUnicode:ああああ + やどりぎ
Creator:Battle
Version:Normal
Source:
Tags:leader chiptune featured artist FA bakugo- electronic instrumental
BeatmapID:2675706
BeatmapSetID:536572

[Difficulty]
HPDrainRate:4
CircleSize:3.5
OverallDifficulty:5
ApproachRate:6
SliderMultiplier:1
SliderTickRate:1

[Events]
//Background and Video events
0,0,"tr.jpg",0,0
//Break Periods
//Storyboard Layer 0 (Background)
//Storyboard Layer 1 (Fail)
//Storyboard Layer 2 (Pass)
//Storyboard Layer 3 (Foreground)
//Storyboard Layer 4 (Overlay)
//Storyboard Sound Samples

[TimingPoints]
0,352.941176470588,4,2,1,80,1,0
0,-125,4,2,1,80,0,0
12705,-100,4,2,1,80,0,0
18353,-100,4,2,1,80,0,0
29470,-100,4,2,1,5,0,0
29647,-100,4,2,1,80,0,0
37941,-100,4,2,1,80,0,0
38470,-100,4,2,1,80,0,0
39353,-100,4,2,1,80,0,0
42000,-100,4,2,1,80,0,0
52059,-100,4,2,1,80,0,0
55411,-100,4,2,1,80,0,0
77294,-100,4,2,1,80,0,0
88411,-100,4,2,1,80,0,0
95294,-100,4,2,1,80,0,0
96176,-100,4,2,1,80,0,0
98647,-100,4,2,1,80,0,0
99353,-100,4,2,1,80,0,0
104470,-100,4,2,1,80,0,1
119294,-100,4,2,1,80,0,1
120176,-100,4,2,1,80,0,1
126353,-100,4,2,1,80,0,1
127058,-100,4,2,1,80,0,0
135353,-100,4,2,1,80,0,0

[Colours]
Combo1 : 149,107,106
Combo2 : 90,134,89
Combo3 : 140,119,153
Combo4 : 145,169,181

[HitObjects]
35,383,705,6,0,P|37:340|70:312,1,80,2|2,0:0|0:0,0:0:0:0:
156,334,1411,2,0,B|169:366|203:371|203:371|313:338,1,160,2|2,0:0|0:0,0:0:0:0:
254,256,2470,1,0,0:0:0:0:
340,213,2823,2,0,B|371:234|371:234|426:221,1,80,2|0,0:0|0:0,0:0:0:0:
484,138,3529,2,0,B|453:117|453:117|412:127,1,80,2|0,0:0|0:0,0:0:0:0:
320,155,4235,6,0,B|332:108|311:81|311:81|328:61|328:61|318:37|329:-2,2,160,2|2|2,0:0|0:0|0:0,0:0:0:0:
127,154,6352,2,0,L|211:140,1,80,2|0,0:0|0:0,0:0:0:0:
241,174,6882,1,0,0:0:0:0:
262,216,7058,6,0,P|276:268|258:298,1,80,2|0,0:0|0:0,0:0:0:0:
189,348,7764,1,2,0:0:0:0:
108,295,8117,1,0,0:0:0:0:
17,327,8470,2,0,P|0:251|61:197,2,160,0|2|2,0:0|0:0|0:0,0:0:0:0:
205,364,10588,5,2,0:0:0:0:
111,343,10941,1,0,0:0:0:0:
122,296,11117,1,0,0:0:0:0:
168,284,11294,2,0,P|232:263|235:178,1,160,2|0,0:0|0:0,0:0:0:0:
161,120,12352,2,0,P|155:80|163:72,1,40
195,40,12705,6,0,B|243:58|243:58|296:35,1,100,4|4,0:3|0:3,0:0:0:0:
345,21,13235,1,8,0:3:0:0:
345,21,13411,2,0,P|405:16|435:53,1,100,2|4,1:3|0:3,0:0:0:0:
386,153,14117,2,0,L|394:209,1,50,4|8,0:3|0:3,0:0:0:0:
444,233,14470,2,0,L|436:289,1,50,4|8,0:3|0:3,0:0:0:0:
433,342,14823,2,0,P|382:310|338:323,1,100,2|4,1:3|0:3,0:0:0:0:
233,361,15529,6,0,P|223:303|245:260,1,100,4|4,0:3|0:3,0:0:0:0:
277,220,16058,1,8,0:3:0:0:
277,220,16235,2,0,P|305:177|297:114,1,100,2|4,1:3|0:3,0:0:0:0:
213,49,16941,2,0,L|226:-3,2,50,4|8|4,0:3|0:3|0:3,0:0:0:0:
169,90,17470,1,8,0:3:0:0:
169,90,17647,2,0,P|130:83|108:81,1,50,2|2,0:3|0:3,0:0:0:0:
82,35,17999,2,0,P|57:38|32:43,1,50,10|6,0:3|0:3,0:0:0:0:
2,95,18352,5,4,1:0:0:0:
14,214,18705,1,2,0:3:0:0:
14,214,18882,2,0,B|-5:258|-5:258|14:322,1,100,6|2,1:2|0:3,0:0:0:0:
52,350,19411,1,2,0:3:0:0:
112,346,19588,1,4,1:2:0:0:
197,261,19941,1,4,1:2:0:0:
256,252,20117,1,4,1:3:0:0:
362,308,20470,2,0,P|357:339|366:367,2,50,2|2|2,0:1|0:1|1:0,0:0:0:0:
457,234,21176,6,0,P|468:188|446:137,1,100,4|4,1:2|0:3,0:0:0:0:
409,95,21705,1,4,1:2:0:0:
307,159,22058,1,2,0:3:0:0:
256,126,22235,1,2,0:3:0:0:
201,150,22411,2,0,B|153:174|153:174|92:153,1,100,4|4,1:0|0:1,0:0:0:0:
57,127,22941,1,4,1:3:0:0:
133,34,23294,6,0,L|190:34,1,50,0|0,1:0|1:0,0:0:0:0:
228,65,23647,2,0,L|285:65,1,50,0|0,1:0|1:0,3:0:0:0:
323,33,23999,1,4,1:2:0:0:
256,192,24705,12,4,26823,1:0:0:0:
256,192,26911,12,2,29647,0:0:0:0:
24,352,30529,6,0,L|87:345,2,50,2|2|2,0:0|0:0|0:0,0:0:0:0:
256,292,31588,2,0,P|269:253|227:196,1,100,2|2,0:0|0:0,0:0:0:0:
186,182,32117,2,0,L|129:190,1,50,2|2,0:0|0:0,0:0:0:0:
47,108,32647,5,2,0:0:0:0:
47,108,32823,2,0,L|104:100,1,50,0|0,0:3|0:0,0:0:0:0:
133,53,33176,2,0,P|159:12|202:11,2,75,2|2|2,0:0|0:0|0:0,0:0:0:0:
181,88,33882,2,0,B|162:133|162:133|183:195,1,100,2|2,0:0|0:0,0:0:0:0:
281,242,34588,2,0,B|264:193|264:193|283:148,1,100,2|2,0:0|0:3,0:0:0:0:
330,111,35117,1,2,0:3:0:0:
390,112,35294,5,2,0:3:0:0:
500,324,35999,2,0,B|490:283|490:283|508:255,2,75,4|4|4,0:0|0:0|0:0,0:0:0:0:
398,384,36882,2,0,L|338:380,1,50,2|2,0:0|0:0,0:0:0:0:
303,340,37235,2,0,B|261:366|261:366|206:355,1,100,4|4,0:0|0:0,0:0:0:0:
162,320,37764,1,4,0:0:0:0:
106,343,37941,1,4,0:2:0:0:
256,192,38029,12,4,39352,0:0:0:0:
256,192,39441,12,0,40941,0:0:0:0:
49,354,41999,6,0,P|65:320|91:312,1,50,4|4,0:3|0:3,0:0:0:0:
134,307,42352,2,0,L|125:205,1,100,4|8,0:1|0:1,0:0:0:0:
47,115,43058,2,0,P|15:121|-16:109,2,50,8|4|8,1:3|0:3|0:1,0:0:0:0:
89,72,43588,2,0,P|133:52|192:76,1,100,2|2,0:0|0:0,0:0:0:0:
277,136,44294,2,0,P|270:61|350:38,1,150,2|10,0:0|0:0,0:0:0:0:
430,96,45176,6,0,L|499:96,2,50,4|8|8,0:3|0:3|1:0,0:0:0:0:
381,131,45705,2,0,B|360:178|360:178|376:243,1,100,2|0,0:0|0:0,0:0:0:0:
400,342,46411,2,0,P|330:281|275:318,1,150,0|8,1:0|0:0,0:0:0:0:
167,307,47294,2,0,P|154:339|162:371,2,50,0|8|12,1:0|0:3|0:1,0:0:0:0:
198,255,47823,1,10,0:0:0:0:
198,255,47999,6,0,P|223:200|208:152,1,100,12|8,1:2|1:1,0:0:0:0:
97,189,48705,2,0,B|58:199|58:199|16:181,2,75,0|0|0,1:0|1:0|1:0,0:0:0:0:
132,140,49411,2,0,P|121:83|159:39,1,100,4|8,1:0|0:1,0:0:0:0:
198,27,49941,1,4,0:0:0:0:
296,95,50294,1,4,0:0:0:0:
234,199,50647,1,4,0:0:0:0:
234,199,50823,6,0,L|239:265,2,50,0|0|4,1:0|1:0|1:3,0:0:0:0:
328,273,51529,2,0,L|333:339,2,50,0|8|8,1:0|0:1|0:1,0:0:0:0:
378,240,52058,1,4,0:1:0:0:
256,192,52147,12,4,55058,0:0:0:0:
297,246,55764,5,2,0:0:0:0:
209,293,56117,1,2,0:0:0:0:
146,214,56470,2,0,B|162:134|109:163|138:50,2,150,2|2|2,0:0|0:0|0:0,0:0:0:0:
47,194,57882,6,0,B|14:234|14:234|45:388,1,200,2|0,0:0|0:0,0:0:0:0:
116,310,58941,1,2,0:0:0:0:
194,372,59294,2,0,B|237:369|237:369|252:358|252:358|297:350,1,100,2|0,0:0|0:0,0:0:0:0:
287,251,59999,2,0,B|249:244|249:244|234:233|234:233|191:230,1,100,2|0,0:0|0:0,0:0:0:0:
106,177,60705,6,0,P|90:110|109:81,1,100,2|2,0:0|0:0,0:0:0:0:
142,54,61235,2,0,B|221:30|221:30|255:35|303:68,1,150,2|0,0:0|0:0,0:0:0:0:
228,139,62117,1,2,0:0:0:0:
301,206,62470,2,0,P|283:251|301:306,2,100,2|2|2,0:0|0:0|0:0,0:0:0:0:
367,131,63529,6,0,P|415:146|465:128,1,100,2|0,0:0|0:0,0:0:0:0:
499,98,64058,2,0,L|482:263,1,150,2|2,0:0|0:0,0:0:0:0:
402,305,64941,2,0,L|410:368,2,50,2|0|8,0:0|0:0|0:3,0:0:0:0:
356,283,65470,1,8,0:3:0:0:
307,269,65647,2,0,L|315:206,2,50,6|2|2,0:3|0:3|0:3,0:0:0:0:
234,337,66352,6,0,B|188:321|188:321|133:337,1,100,4|2,0:1|0:0,0:0:0:0:
110,239,67058,2,0,B|60:253|60:253|14:237,1,100,2|4,0:0|1:3,0:0:0:0:
69,153,67764,1,8,1:3:0:0:
166,130,68117,1,2,0:0:0:0:
92,61,68470,1,2,0:0:0:0:
188,34,68823,1,8,1:3:0:0:
258,105,69176,6,0,L|241:216,1,100,4|0,1:3|0:0,0:0:0:0:
196,222,69705,1,4,1:3:0:0:
130,297,70058,2,0,L|63:294,2,50,0|4|2,0:0|1:3|0:3,0:0:0:0:
167,330,70588,2,0,P|199:358|241:358,2,75,4|2|2,0:0|0:0|0:0,0:0:0:0:
191,233,71470,2,0,L|189:181,1,50,8|4,0:3|0:3,0:0:0:0:
167,137,71823,1,0,1:0:0:0:
167,137,71999,6,0,P|157:58|182:32,1,100,4|0,1:0|0:0,0:0:0:0:
207,17,72529,2,0,P|288:12|317:80,1,150,2|4,0:0|1:3,0:0:0:0:
259,145,73411,1,8,1:3:0:0:
311,230,73764,1,2,0:0:0:0:
404,193,74117,2,0,P|394:135|428:100,1,100,2|8,0:0|0:3,0:0:0:0:
508,63,74823,6,0,L|496:276,2,200,4|2|4,0:3|0:0|1:2,0:0:0:0:
368,207,76941,1,4,0:0:0:0:
409,115,77294,1,4,0:3:0:0:
340,41,77647,6,0,P|267:20|239:37,1,100,4|10,1:0|0:0,0:0:0:0:
209,67,78176,1,0,0:0:0:0:
150,160,78529,2,0,L|170:215,2,50,2|8|2,0:3|0:1|0:3,0:0:0:0:
101,133,79058,2,0,P|40:137|5:186,1,100,2|8,1:3|0:1,0:0:0:0:
12,219,79588,1,2,0:3:0:0:
26,328,79941,2,0,L|30:386,2,50,2|10|2,0:3|0:2|0:3,0:0:0:0:
69,294,80470,6,0,P|129:278|165:298,1,100,4|12,1:3|0:2,0:0:0:0:
203,192,81176,2,0,P|248:209|294:192,1,100,2|8,1:2|0:0,0:0:0:0:
366,108,81882,2,0,P|358:78|378:48,1,50,8|4,1:3|0:3,0:0:0:0:
407,26,82235,2,0,L|478:27,1,50,8|4,1:3|0:3,0:0:0:0:
512,127,82764,1,6,0:3:0:0:
512,127,82941,2,0,L|459:126,1,50,8|2,0:2|0:3,0:0:0:0:
407,132,83294,6,0,P|382:183|402:239,1,100,4|8,0:1|1:1,0:0:0:0:
422,328,83999,2,0,L|487:327,2,50,2|2|10,1:3|0:0|1:2,0:0:0:0:
371,319,84529,1,2,1:3:0:0:
371,319,84705,2,0,P|310:303|274:342,1,100,10|8,1:3|0:1,0:0:0:0:
257,371,85235,1,4,0:1:0:0:
152,335,85588,2,0,L|95:335,2,50,2|8|10,0:3|1:1|0:3,0:0:0:0:
186,292,86117,6,0,P|205:223|189:187,1,100,2|8,1:3|1:0,0:0:0:0:
88,173,86823,2,0,L|32:178,1,50,8|10,1:0|0:3,0:0:0:0:
6,132,87176,1,6,0:3:0:0:
6,132,87352,2,0,P|17:42|63:27,1,150,4|6,1:1|1:3,0:0:0:0:
148,97,88235,1,4,0:3:0:0:
257,82,88588,2,0,P|245:116|249:137,1,50,2|2,0:3|0:3,0:0:0:0:
297,149,88941,6,0,P|312:207|295:255,1,100,4|8,0:1|1:1,0:0:0:0:
220,319,89647,2,0,L|163:320,2,50,8|6|8,3:0|0:3|1:1,0:0:0:0:
263,352,90176,1,2,0:3:0:0:
263,352,90352,2,0,B|309:371|309:371|373:353,1,100,2|8,1:2|1:1,0:0:0:0:
403,325,90882,1,2,0:3:0:0:
352,227,91235,2,0,P|348:191|358:170,2,50,2|8|0,0:2|1:1|1:0,0:0:0:0:
463,229,91941,5,2,0:3:0:0:
463,229,92117,2,0,P|466:189|462:169,1,50,8|2,1:1|0:2,0:0:0:0:
461,123,92470,2,0,P|446:77|385:72,1,100,2|0,1:3|0:0,0:0:0:0:
294,99,93176,2,0,L|232:98,1,50,6|10,0:3|1:3,0:0:0:0:
200,64,93529,2,0,L|138:65,1,50,8|8,1:1|1:3,0:0:0:0:
40,78,94058,2,0,P|36:38|42:28,2,50,2|8|2,0:2|1:1|0:3,0:0:0:0:
63,128,94588,6,0,P|83:180|65:231,1,100,2|8,1:2|1:1,0:0:0:0:
5,309,95294,2,0,P|-6:342|5:383,2,75,4|4|4,0:1|0:1|0:1,0:0:0:0:
114,320,96176,1,2,0:3:0:0:
168,319,96352,1,8,1:1:0:0:
222,323,96529,1,2,0:3:0:0:
297,242,96882,2,0,L|354:243,2,50,2|8|2,0:3|1:1|3:2,0:0:0:0:
254,206,97411,6,0,P|241:156|265:99,1,100,4|0,1:2|1:0,0:0:0:0:
160,55,98117,2,0,P|165:90|151:117,1,50,0|8,1:0|1:2,0:0:0:0:
123,143,98470,1,8,1:2:0:0:
67,141,98647,1,4,1:1:0:0:
256,192,98735,12,2,101647,0:3:0:0:
74,223,103941,5,0,0:0:0:0:
74,223,104117,2,0,P|68:187|79:168,1,50
110,135,104470,2,0,B|158:156|158:156|224:137,1,100,2|8,1:1|1:0,0:0:0:0:
250,114,104999,1,2,0:1:0:0:
338,47,105352,2,0,P|331:18|341:-3,2,50,2|10|2,0:1|1:1|0:1,0:0:0:0:
383,79,105882,2,0,P|397:132|383:169,1,75,2|2,1:1|0:1,0:0:0:0:
345,216,106411,2,0,P|318:256|339:320,1,100,2|2,0:1|0:1,0:0:0:0:
411,384,107117,1,2,0:3:0:0:
411,384,107294,6,0,P|355:384|309:384,1,100,2|10,0:1|0:1,0:0:0:0:
217,326,107999,1,2,1:1:0:0:
161,325,108176,1,2,1:1:0:0:
55,360,108529,2,0,P|24:278|64:228,1,150,6|8,0:1|0:1,0:1:0:0:
164,202,109412,1,2,0:3:0:0:
164,202,109588,2,0,B|156:169|156:169|164:151|164:151|154:134|154:134|164:85,1,100,2|2,0:1|0:1,0:0:0:0:
150,53,110117,6,0,P|105:39|67:52,2,75,6|2|2,0:1|0:1|0:1,0:0:0:0:
248,101,110999,2,0,P|294:114|308:107,1,50,2|8,0:1|1:1,0:0:0:0:
335,78,111352,2,0,P|366:42|436:46,1,100,2|2,0:1|0:1,0:0:0:0:
464,64,111882,1,10,1:1:0:0:
469,173,112235,2,0,P|501:161|526:173,2,50,2|2|10,1:1|0:1|1:1,0:0:0:0:
431,212,112764,1,2,0:1:0:0:
375,214,112941,5,4,1:0:0:0:
289,144,113294,2,0,L|288:95,2,50,8|0|0,1:1|0:0|1:0,0:0:0:0:
207,217,113999,1,10,1:0:0:0:
207,217,114176,2,0,P|159:197|104:229,1,100,2|2,0:1|0:1,0:0:0:0:
78,253,114705,1,10,1:0:0:0:
78,253,114882,1,2,0:1:0:0:
1,184,115235,2,0,B|-4:157|-4:157|5:140|5:140|-2:122|-2:122|5:89,1,100,6|0,1:1|0:1,0:1:0:0:
31,41,115764,6,0,P|95:23|129:41,1,100,2|8,1:0|1:0,0:0:0:0:
157,79,116294,1,2,0:1:0:0:
257,36,116647,1,2,0:1:0:0:
257,36,116823,2,0,P|289:53|311:47,1,50,10|2,0:1|0:1,0:0:0:0:
352,31,117176,2,0,B|392:22|392:22|436:36,1,75,2|2,1:1|0:1,0:0:0:0:
478,94,117705,2,0,P|460:136|467:200,1,100,2|2,0:1|0:1,0:0:0:0:
363,231,118411,1,2,0:3:0:0:
363,231,118588,6,0,P|381:305|367:332,1,100,2|10,1:0|0:1,0:0:0:0:
333,362,119117,1,2,0:1:0:0:
279,347,119294,2,0,L|196:342,1,75,2|2,1:1|1:1,0:0:0:0:
162,280,119823,2,0,B|180:259|180:259|118:222|55:281,1,150,6|2,1:1|1:3,0:0:0:0:
14,287,120529,2,0,P|-14:220|35:163,1,150,6|0,1:1|1:0,0:0:0:0:
84,173,121235,1,0,1:0:0:0:
84,173,121411,6,0,P|131:142|127:90,1,100,2|10,1:0|1:0,0:0:0:0:
58,20,122117,2,0,L|-2:17,2,50,2|2|10,1:0|1:0|1:0,0:0:0:0:
113,16,122647,2,0,B|155:32|155:32|224:14,1,100,2|2,1:1|1:0,0:0:0:0:
318,12,123352,2,0,P|335:74|324:105,1,100,2|2,1:0|1:1,0:0:0:0:
215,117,124058,1,2,0:1:0:0:
215,117,124235,6,0,P|184:170|201:211,1,100,6|10,1:0|1:0,0:0:0:0:
239,235,124764,2,0,P|258:281|239:346,1,100,2|2,1:0|1:1,0:0:0:0:
201,357,125294,1,8,1:1:0:0:
146,360,125470,1,2,1:0:0:0:
48,227,125999,5,2,0:0:0:0:
130,153,126352,2,0,P|155:212|148:240,2,75,2|2|2,0:0|0:0|0:0,0:0:0:0:
96,109,127058,6,0,P|154:115|208:120,1,100,2|2,0:2|0:0,0:0:0:0:
274,41,127764,2,0,P|331:7|377:27,1,100,2|2,0:0|0:3,0:0:0:0:
433,96,128470,1,2,0:0:0:0:
355,174,128823,1,2,0:3:0:0:
442,240,129176,2,0,P|466:302|441:345,1,100,2|2,0:3|0:0,0:0:0:0:
357,382,129882,5,2,0:0:0:0:
284,299,130235,1,2,0:0:0:0:
174,311,130588,2,0,B|166:343|166:343|167:361|167:361|160:401,2,75,2|2|2,0:0|0:0|0:0,0:0:0:0:
166,256,131294,2,0,P|149:197|113:185,1,100,2|2,0:0|0:0,0:0:0:0:
40,106,131999,2,0,P|82:83|147:100,1,100,2|2,0:0|0:0,0:0:0:0:
237,121,132705,6,0,P|230:49|253:27,1,100,2|2,0:0|0:0,0:0:0:0:
290,10,133235,1,2,0:0:0:0:
290,10,133411,2,0,B|329:21|329:21|372:8,2,75,2|2|2,0:0|0:0|0:0,0:0:0:0:
161,113,134470,1,2,0:0:0:0:
161,113,134647,2,0,P|134:153|154:217,1,100,2|0,0:0|0:0,0:0:0:0:
178,242,135176,1,2,0:0:0:0:
232,242,135352,5,4,1:1:0:0:
294,88,135882,1,10,0:2:0:0:
311,35,136058,2,0,P|346:8|413:21,1,100,0|0,1:1|1:1,0:0:0:0:
450,32,136588,1,0,1:0:0:0:
468,83,136764,1,4,1:1:0:0:
456,192,137117,2,0,L|516:191,2,50,0|0|0,1:0|1:0|1:0,0:0:0:0:
406,216,137647,2,0,P|433:256|424:296,2,75,2|2|2,1:3|0:3|1:3,0:0:0:0:
361,184,138352,6,0,P|295:175|266:211,1,100,6|8,1:2|1:0,0:1:0:0:
189,265,139058,2,0,P|210:306|187:355,1,100,10|8,1:3|1:1,0:0:0:0:
136,368,139588,2,0,P|95:310|110:276,1,100,2|2,0:2|0:2,0:0:0:0:
33,201,140294,2,0,B|77:155|134:181|134:181|164:141,1,150,2|10,0:2|1:2,0:0:0:0:
232,68,141176,6,0,P|219:32|229:8,2,50,10|10|8,1:3|0:3|1:1,0:0:0:0:
283,90,141705,2,0,B|326:108|326:108|384:86,1,100,2|2,0:2|0:2,0:0:0:0:
460,18,142411,2,0,B|491:6|491:6|530:36|502:123,1,150,2|8,0:2|1:1,0:0:0:0:
452,212,143294,2,0,L|393:205,1,50,0|2,1:0|1:2,0:0:0:0:
362,167,143647,2,0,L|303:174,1,50,8|2,1:1|1:3,0:0:0:0:
265,201,143999,6,0,P|208:220|163:197,1,100,4|8,1:1|1:0,0:0:0:0:
84,140,144705,2,0,B|75:105|75:105|94:59,2,75,4|4|4,0:1|0:1|0:1,0:0:0:0:
38,171,145411,2,0,P|58:222|46:285,1,100,4|8,1:0|1:1,0:0:0:0:
37,319,145941,2,0,P|84:311|131:335,1,100,4|2,1:1|0:0,0:1:0:0:
234,368,146647,1,4,1:3:0:0:
234,368,146823,6,0,P|239:321|243:301,1,50,4|2,1:2|0:0,0:0:0:0:
214,269,147176,2,0,P|209:222|205:202,1,50,4|0,1:2|0:0,0:0:0:0:
163,187,147529,2,0,P|161:162|157:137,2,50,2|0|0,1:3|0:0|0:0,0:0:0:0:
114,212,148058,1,4,0:1:0:0:
256,192,148147,12,6,150882,0:0:0:0:
256,192,150970,12,2,155294,0:3:0:0:
