osu file format v14

[General]
AudioFilename: audio_1.2.mp3
AudioLeadIn: 0
PreviewTime: 63836
Countdown: 0
SampleSet: None
StackLeniency: 0.7
Mode: 3
LetterboxInBreaks: 0
SpecialStyle: 0
WidescreenStoryboard: 1

[Editor]
Bookmarks: 10117,26117,46117,64117,83117,101117,120117
DistanceSpacing: 0.4
BeatDivisor: 8
GridSize: 8
TimelineZoom: 2.3

[Metadata]
Title:Sayonara Cosmonaut
TitleUnicode:Sayonara Cosmonaut
Artist:AAAA + Umeboshi Chazuke
ArtistUnicode:AAAA + Umeboshi Chazuke
Creator:Toaph Daddy
Version:Farewell x1.2
Source:
Tags:See Ya Space Cowboy
BeatmapID:3123296
BeatmapSetID:1033243

[Difficulty]
HPDrainRate:8
CircleSize:4
OverallDifficulty:8
ApproachRate:5
SliderMultiplier:1.4
SliderTickRate:1

[Events]
//Background and Video events
0,0,"wallhaven-nrqel7.jpg",0,0
//Break Periods
//Storyboard Layer 0 (Background)
//Storyboard Layer 1 (Fail)
//Storyboard Layer 2 (Pass)
//Storyboard Layer 3 (Foreground)
//Storyboard Layer 4 (Overlay)
//Storyboard Sound Samples

[TimingPoints]
1118,250,4,1,0,100,1,0

[HitObjects]
64,192,867,5,0,0:0:0:0:
192,192,930,1,0,0:0:0:0:
320,192,992,1,0,0:0:0:0:
448,192,1055,1,0,0:0:0:0:
64,192,1117,1,0,0:0:0:0:
320,192,1117,1,0,0:0:0:0:
192,192,1242,1,0,0:0:0:0:
448,192,1367,1,0,0:0:0:0:
192,192,1492,1,0,0:0:0:0:
64,192,1555,1,0,0:0:0:0:
192,192,1617,1,0,0:0:0:0:
320,192,1742,1,0,0:0:0:0:
64,192,1742,1,0,0:0:0:0:
448,192,1867,1,0,0:0:0:0:
320,192,1992,1,0,0:0:0:0:
192,192,1992,1,0,0:0:0:0:
320,192,2242,1,0,0:0:0:0:
64,192,2242,1,0,0:0:0:0:
448,192,2305,1,0,0:0:0:0:
320,192,2367,1,0,0:0:0:0:
192,192,2492,1,0,0:0:0:0:
64,192,2492,1,0,0:0:0:0:
448,192,2617,1,0,0:0:0:0:
192,192,2742,1,0,0:0:0:0:
320,192,2742,1,0,0:0:0:0:
64,192,2867,1,0,0:0:0:0:
192,192,2992,1,0,0:0:0:0:
320,192,3055,1,0,0:0:0:0:
64,192,3117,1,0,0:0:0:0:
448,192,3117,1,0,0:0:0:0:
192,192,3242,1,0,0:0:0:0:
64,192,3367,1,0,0:0:0:0:
320,192,3367,1,0,0:0:0:0:
448,192,3492,1,0,0:0:0:0:
192,192,3492,1,0,0:0:0:0:
320,192,3742,1,0,0:0:0:0:
192,192,3742,1,0,0:0:0:0:
448,192,3867,1,0,0:0:0:0:
192,192,3992,1,0,0:0:0:0:
64,192,3992,1,0,0:0:0:0:
320,192,4024,1,0,0:0:0:0:
192,192,4242,1,0,0:0:0:0:
448,192,4367,1,0,0:0:0:0:
192,192,4492,1,0,0:0:0:0:
64,192,4492,1,0,0:0:0:0:
448,192,4617,1,0,0:0:0:0:
64,192,4742,1,0,0:0:0:0:
320,192,4742,1,0,0:0:0:0:
192,192,4867,1,0,0:0:0:0:
320,192,4992,1,0,0:0:0:0:
64,192,5117,1,0,0:0:0:0:
448,192,5117,1,0,0:0:0:0:
192,192,5117,1,0,0:0:0:0:
64,192,5367,1,0,0:0:0:0:
320,192,5492,1,0,0:0:0:0:
448,192,5492,1,0,0:0:0:0:
64,192,5555,1,0,0:0:0:0:
192,192,5617,1,0,0:0:0:0:
320,192,5617,1,0,0:0:0:0:
64,192,5742,1,0,0:0:0:0:
448,192,5805,1,0,0:0:0:0:
320,192,5867,1,0,0:0:0:0:
64,192,5867,1,0,0:0:0:0:
448,192,5992,1,0,0:0:0:0:
320,192,5992,1,0,0:0:0:0:
448,192,6117,1,0,0:0:0:0:
64,192,6117,1,0,0:0:0:0:
448,192,6305,1,0,0:0:0:0:
64,192,6367,1,0,0:0:0:0:
320,192,6399,1,0,0:0:0:0:
448,192,6492,1,0,0:0:0:0:
448,192,6617,1,0,0:0:0:0:
320,192,6617,1,0,0:0:0:0:
64,192,6659,1,0,0:0:0:0:
192,192,6700,1,0,0:0:0:0:
448,192,6742,1,0,0:0:0:0:
320,192,6805,1,0,0:0:0:0:
448,192,6867,1,0,0:0:0:0:
64,192,6867,1,0,0:0:0:0:
192,192,6992,1,0,0:0:0:0:
320,192,6992,1,0,0:0:0:0:
64,192,7117,1,0,0:0:0:0:
448,192,7117,1,0,0:0:0:0:
320,192,7117,1,0,0:0:0:0:
320,192,7242,1,0,0:0:0:0:
448,192,7242,1,0,0:0:0:0:
192,192,7305,1,0,0:0:0:0:
64,192,7367,1,0,0:0:0:0:
448,192,7367,1,0,0:0:0:0:
192,192,7492,1,0,0:0:0:0:
320,192,7492,1,0,0:0:0:0:
64,192,7555,1,0,0:0:0:0:
448,192,7617,1,0,0:0:0:0:
320,192,7617,1,0,0:0:0:0:
320,192,7742,1,0,0:0:0:0:
64,192,7742,1,0,0:0:0:0:
448,192,7805,1,0,0:0:0:0:
64,192,7867,1,0,0:0:0:0:
192,192,7867,1,0,0:0:0:0:
448,192,7992,1,0,0:0:0:0:
320,192,7992,1,0,0:0:0:0:
192,192,7992,1,0,0:0:0:0:
64,192,8055,1,0,0:0:0:0:
448,192,8117,1,0,0:0:0:0:
192,192,8180,1,0,0:0:0:0:
320,192,8242,1,0,0:0:0:0:
64,192,8305,1,0,0:0:0:0:
448,192,8367,1,0,0:0:0:0:
192,192,8430,1,0,0:0:0:0:
320,192,8492,1,0,0:0:0:0:
64,192,8555,1,0,0:0:0:0:
320,192,8617,1,0,0:0:0:0:
448,192,8617,1,0,0:0:0:0:
192,192,8680,1,0,0:0:0:0:
64,192,8680,1,0,0:0:0:0:
320,192,8742,1,0,0:0:0:0:
448,192,8742,1,0,0:0:0:0:
192,192,8805,1,0,0:0:0:0:
64,192,8805,1,0,0:0:0:0:
320,192,8867,1,0,0:0:0:0:
448,192,8867,1,0,0:0:0:0:
192,192,8930,1,0,0:0:0:0:
64,192,8930,1,0,0:0:0:0:
448,192,8992,1,0,0:0:0:0:
320,192,8992,1,0,0:0:0:0:
192,192,9055,1,0,0:0:0:0:
64,192,9055,1,0,0:0:0:0:
448,192,9117,1,0,0:0:0:0:
320,192,9117,1,0,0:0:0:0:
64,192,9180,1,0,0:0:0:0:
192,192,9180,1,0,0:0:0:0:
320,192,9242,1,0,0:0:0:0:
448,192,9242,1,0,0:0:0:0:
64,192,9305,1,0,0:0:0:0:
192,192,9305,1,0,0:0:0:0:
320,192,9367,1,0,0:0:0:0:
448,192,9367,1,0,0:0:0:0:
192,192,9430,1,0,0:0:0:0:
64,192,9430,1,0,0:0:0:0:
448,192,9492,1,0,0:0:0:0:
320,192,9492,1,0,0:0:0:0:
192,192,9555,1,0,0:0:0:0:
64,192,9555,1,0,0:0:0:0:
448,192,9617,1,0,0:0:0:0:
320,192,9617,1,0,0:0:0:0:
192,192,9659,1,0,0:0:0:0:
64,192,9700,1,0,0:0:0:0:
448,192,9742,1,0,0:0:0:0:
320,192,9784,1,0,0:0:0:0:
192,192,9825,1,0,0:0:0:0:
320,192,9867,1,0,0:0:0:0:
192,192,9909,1,0,0:0:0:0:
64,192,9950,1,0,0:0:0:0:
448,192,9992,1,0,0:0:0:0:
320,192,10034,1,0,0:0:0:0:
192,192,10075,1,0,0:0:0:0:
64,192,10117,1,0,0:0:0:0:
448,192,10117,1,0,0:0:0:0:
320,192,10242,1,0,0:0:0:0:
320,192,10367,1,0,0:0:0:0:
448,192,10367,1,0,0:0:0:0:
64,192,10367,1,0,0:0:0:0:
320,192,10492,1,0,0:0:0:0:
320,192,10617,1,0,0:0:0:0:
192,192,10617,1,0,0:0:0:0:
320,192,10742,1,0,0:0:0:0:
64,192,10742,1,0,0:0:0:0:
320,192,10867,1,0,0:0:0:0:
448,192,10867,1,0,0:0:0:0:
64,192,10867,1,0,0:0:0:0:
192,192,10992,1,0,0:0:0:0:
64,192,10992,1,0,0:0:0:0:
320,192,11117,1,0,0:0:0:0:
448,192,11117,1,0,0:0:0:0:
192,192,11242,1,0,0:0:0:0:
320,192,11242,1,0,0:0:0:0:
192,192,11367,1,0,0:0:0:0:
64,192,11367,1,0,0:0:0:0:
448,192,11492,1,0,0:0:0:0:
64,192,11492,1,0,0:0:0:0:
320,192,11617,1,0,0:0:0:0:
448,192,11742,1,0,0:0:0:0:
192,192,11742,1,0,0:0:0:0:
448,192,11867,1,0,0:0:0:0:
64,192,11867,1,0,0:0:0:0:
320,192,11992,1,0,0:0:0:0:
448,192,11992,1,0,0:0:0:0:
64,192,12117,1,0,0:0:0:0:
320,192,12117,1,0,0:0:0:0:
64,192,12242,1,0,0:0:0:0:
64,192,12367,1,0,0:0:0:0:
192,192,12367,1,0,0:0:0:0:
64,192,12492,1,0,0:0:0:0:
320,192,12492,1,0,0:0:0:0:
64,192,12617,1,0,0:0:0:0:
320,192,12617,1,0,0:0:0:0:
64,192,12742,1,0,0:0:0:0:
64,192,12867,1,0,0:0:0:0:
448,192,12867,1,0,0:0:0:0:
320,192,12992,1,0,0:0:0:0:
64,192,13117,1,0,0:0:0:0:
320,192,13242,1,0,0:0:0:0:
320,192,13367,1,0,0:0:0:0:
448,192,13367,1,0,0:0:0:0:
448,192,13492,1,0,0:0:0:0:
64,192,13492,1,0,0:0:0:0:
192,192,13492,1,0,0:0:0:0:
192,192,13617,1,0,0:0:0:0:
448,192,13742,1,0,0:0:0:0:
320,192,13742,1,0,0:0:0:0:
64,192,13742,1,0,0:0:0:0:
192,192,13867,1,0,0:0:0:0:
320,192,13992,1,0,0:0:0:0:
192,192,14055,1,0,0:0:0:0:
64,192,14117,1,0,0:0:0:0:
448,192,14117,1,0,0:0:0:0:
448,192,14242,1,0,0:0:0:0:
448,192,14367,1,0,0:0:0:0:
320,192,14367,1,0,0:0:0:0:
448,192,14492,1,0,0:0:0:0:
64,192,14492,1,0,0:0:0:0:
320,192,14555,1,0,0:0:0:0:
448,192,14617,1,0,0:0:0:0:
192,192,14617,1,0,0:0:0:0:
448,192,14742,1,0,0:0:0:0:
64,192,14742,1,0,0:0:0:0:
448,192,14867,1,0,0:0:0:0:
320,192,14867,1,0,0:0:0:0:
320,192,14992,1,0,0:0:0:0:
192,192,14992,1,0,0:0:0:0:
448,192,15117,1,0,0:0:0:0:
320,192,15242,1,0,0:0:0:0:
64,192,15242,1,0,0:0:0:0:
320,192,15367,1,0,0:0:0:0:
448,192,15367,1,0,0:0:0:0:
64,192,15492,1,0,0:0:0:0:
192,192,15492,1,0,0:0:0:0:
320,192,15617,1,0,0:0:0:0:
192,192,15742,1,0,0:0:0:0:
448,192,15742,1,0,0:0:0:0:
64,192,15867,1,0,0:0:0:0:
64,192,15992,1,0,0:0:0:0:
192,192,15992,1,0,0:0:0:0:
320,192,16055,1,0,0:0:0:0:
192,192,16117,1,0,0:0:0:0:
448,192,16117,1,0,0:0:0:0:
192,192,16242,1,0,0:0:0:0:
192,192,16367,1,0,0:0:0:0:
64,192,16367,1,0,0:0:0:0:
448,192,16430,1,0,0:0:0:0:
192,192,16492,1,0,0:0:0:0:
448,192,16555,1,0,0:0:0:0:
320,192,16555,1,0,0:0:0:0:
192,192,16617,1,0,0:0:0:0:
64,192,16617,1,0,0:0:0:0:
320,192,16742,1,0,0:0:0:0:
448,192,16742,1,0,0:0:0:0:
192,192,16867,1,0,0:0:0:0:
64,192,16992,1,0,0:0:0:0:
448,192,16992,1,0,0:0:0:0:
192,192,17242,1,0,0:0:0:0:
320,192,17305,1,0,0:0:0:0:
192,192,17367,1,0,0:0:0:0:
448,192,17430,1,0,0:0:0:0:
64,192,17492,1,0,0:0:0:0:
448,192,17555,1,0,0:0:0:0:
192,192,17617,1,0,0:0:0:0:
64,192,17680,1,0,0:0:0:0:
448,192,17742,1,0,0:0:0:0:
320,192,17805,1,0,0:0:0:0:
64,192,17867,1,0,0:0:0:0:
192,192,17867,1,0,0:0:0:0:
320,192,17930,1,0,0:0:0:0:
448,192,17930,1,0,0:0:0:0:
192,192,17992,1,0,0:0:0:0:
64,192,17992,1,0,0:0:0:0:
320,192,18055,1,0,0:0:0:0:
64,192,18117,1,0,0:0:0:0:
192,192,18117,1,0,0:0:0:0:
448,192,18117,1,0,0:0:0:0:
64,192,18367,1,0,0:0:0:0:
192,192,18367,1,0,0:0:0:0:
64,192,18492,1,0,0:0:0:0:
320,192,18492,1,0,0:0:0:0:
192,192,18555,1,0,0:0:0:0:
320,192,18617,1,0,0:0:0:0:
448,192,18617,1,0,0:0:0:0:
192,192,18742,1,0,0:0:0:0:
448,192,18742,1,0,0:0:0:0:
320,192,18867,1,0,0:0:0:0:
192,192,18867,1,0,0:0:0:0:
320,192,18992,1,0,0:0:0:0:
64,192,18992,1,0,0:0:0:0:
448,192,18992,1,0,0:0:0:0:
64,192,19242,1,0,0:0:0:0:
192,192,19242,1,0,0:0:0:0:
320,192,19367,1,0,0:0:0:0:
64,192,19367,1,0,0:0:0:0:
448,192,19492,1,0,0:0:0:0:
320,192,19492,1,0,0:0:0:0:
192,192,19555,1,0,0:0:0:0:
64,192,19617,1,0,0:0:0:0:
192,192,19742,1,0,0:0:0:0:
320,192,19742,1,0,0:0:0:0:
448,192,19867,1,0,0:0:0:0:
64,192,19867,1,0,0:0:0:0:
192,192,19992,1,0,0:0:0:0:
320,192,20055,1,0,0:0:0:0:
448,192,20117,1,0,0:0:0:0:
192,192,20117,1,0,0:0:0:0:
64,192,20117,1,0,0:0:0:0:
320,192,20242,1,0,0:0:0:0:
64,192,20305,1,0,0:0:0:0:
320,192,20367,1,0,0:0:0:0:
64,192,20492,1,0,0:0:0:0:
320,192,20492,1,0,0:0:0:0:
448,192,20492,1,0,0:0:0:0:
192,192,20617,1,0,0:0:0:0:
448,192,20680,1,0,0:0:0:0:
192,192,20742,1,0,0:0:0:0:
64,192,20867,1,0,0:0:0:0:
320,192,20867,1,0,0:0:0:0:
192,192,20992,1,0,0:0:0:0:
320,192,20992,1,0,0:0:0:0:
448,192,20992,1,0,0:0:0:0:
64,192,21367,1,0,0:0:0:0:
192,192,21461,1,0,0:0:0:0:
320,192,21492,1,0,0:0:0:0:
448,192,21492,1,0,0:0:0:0:
320,192,21742,1,0,0:0:0:0:
192,192,21742,1,0,0:0:0:0:
64,192,21867,1,0,0:0:0:0:
448,192,21867,1,0,0:0:0:0:
320,192,21992,1,0,0:0:0:0:
448,192,21992,1,0,0:0:0:0:
192,192,22055,1,0,0:0:0:0:
64,192,22117,1,0,0:0:0:0:
320,192,22117,1,0,0:0:0:0:
448,192,22117,1,0,0:0:0:0:
192,192,22242,1,0,0:0:0:0:
320,192,22367,1,0,0:0:0:0:
448,192,22367,1,0,0:0:0:0:
64,192,22492,1,0,0:0:0:0:
320,192,22555,1,0,0:0:0:0:
64,192,22617,1,0,0:0:0:0:
448,192,22617,1,0,0:0:0:0:
192,192,22742,1,0,0:0:0:0:
320,192,22867,1,0,0:0:0:0:
448,192,22867,1,0,0:0:0:0:
64,192,22992,1,0,0:0:0:0:
192,192,23117,1,0,0:0:0:0:
320,192,23117,1,0,0:0:0:0:
448,192,23117,1,0,0:0:0:0:
448,192,23242,1,0,0:0:0:0:
320,192,23242,1,0,0:0:0:0:
64,192,23367,1,0,0:0:0:0:
448,192,23367,1,0,0:0:0:0:
192,192,23492,1,0,0:0:0:0:
320,192,23617,1,0,0:0:0:0:
448,192,23617,1,0,0:0:0:0:
64,192,23617,1,0,0:0:0:0:
192,192,23742,1,0,0:0:0:0:
64,192,23805,1,0,0:0:0:0:
192,192,23867,1,0,0:0:0:0:
320,192,23867,1,0,0:0:0:0:
320,192,23992,1,0,0:0:0:0:
64,192,24117,1,0,0:0:0:0:
192,192,24117,1,0,0:0:0:0:
448,192,24117,1,0,0:0:0:0:
320,192,24367,5,0,0:0:0:0:
192,192,24492,1,0,0:0:0:0:
320,192,24555,1,0,0:0:0:0:
192,192,24617,1,0,0:0:0:0:
448,192,24680,1,0,0:0:0:0:
64,192,24742,1,0,0:0:0:0:
320,192,24805,1,0,0:0:0:0:
192,192,24867,1,0,0:0:0:0:
64,192,24930,1,0,0:0:0:0:
448,192,24992,1,0,0:0:0:0:
320,192,25055,1,0,0:0:0:0:
64,192,25117,5,0,0:0:0:0:
192,192,25117,1,0,0:0:0:0:
320,192,25159,1,0,0:0:0:0:
448,192,25200,1,0,0:0:0:0:
192,192,25242,1,0,0:0:0:0:
64,192,25284,1,0,0:0:0:0:
448,192,25325,1,0,0:0:0:0:
64,192,25367,1,0,0:0:0:0:
192,192,25409,1,0,0:0:0:0:
320,192,25450,1,0,0:0:0:0:
64,192,25492,1,0,0:0:0:0:
448,192,25534,1,0,0:0:0:0:
320,192,25575,1,0,0:0:0:0:
192,192,25617,1,0,0:0:0:0:
448,192,25659,1,0,0:0:0:0:
320,192,25700,1,0,0:0:0:0:
64,192,25742,1,0,0:0:0:0:
192,192,25784,1,0,0:0:0:0:
320,192,25825,1,0,0:0:0:0:
64,192,25867,1,0,0:0:0:0:
448,192,25909,1,0,0:0:0:0:
320,192,25950,1,0,0:0:0:0:
64,192,25992,1,0,0:0:0:0:
192,192,26034,1,0,0:0:0:0:
320,192,26075,1,0,0:0:0:0:
64,192,26117,1,0,0:0:0:0:
448,192,26117,1,0,0:0:0:0:
320,192,26200,1,0,0:0:0:0:
192,192,26284,1,0,0:0:0:0:
64,192,26284,1,0,0:0:0:0:
448,192,26367,1,0,0:0:0:0:
64,192,26367,1,0,0:0:0:0:
320,192,26450,1,0,0:0:0:0:
64,192,26534,1,0,0:0:0:0:
320,192,26617,1,0,0:0:0:0:
64,192,26617,1,0,0:0:0:0:
448,192,26617,1,0,0:0:0:0:
192,192,26700,1,0,0:0:0:0:
448,192,26784,1,0,0:0:0:0:
320,192,26784,1,0,0:0:0:0:
64,192,26867,1,0,0:0:0:0:
448,192,26867,1,0,0:0:0:0:
192,192,26950,1,0,0:0:0:0:
320,192,27034,1,0,0:0:0:0:
320,192,27117,1,0,0:0:0:0:
192,192,27117,1,0,0:0:0:0:
64,192,27117,1,0,0:0:0:0:
448,192,27200,1,0,0:0:0:0:
64,192,27284,1,0,0:0:0:0:
192,192,27284,1,0,0:0:0:0:
448,192,27367,1,0,0:0:0:0:
64,192,27367,1,0,0:0:0:0:
320,192,27450,1,0,0:0:0:0:
64,192,27534,1,0,0:0:0:0:
64,192,27617,1,0,0:0:0:0:
448,192,27617,1,0,0:0:0:0:
320,192,27617,1,0,0:0:0:0:
192,192,27700,1,0,0:0:0:0:
448,192,27784,1,0,0:0:0:0:
320,192,27784,1,0,0:0:0:0:
448,192,27867,1,0,0:0:0:0:
64,192,27867,1,0,0:0:0:0:
192,192,27950,1,0,0:0:0:0:
448,192,28034,1,0,0:0:0:0:
448,192,28117,1,0,0:0:0:0:
192,192,28117,1,0,0:0:0:0:
320,192,28117,1,0,0:0:0:0:
64,192,28200,1,0,0:0:0:0:
320,192,28284,1,0,0:0:0:0:
448,192,28284,1,0,0:0:0:0:
64,192,28367,1,0,0:0:0:0:
448,192,28367,1,0,0:0:0:0:
64,192,28450,1,0,0:0:0:0:
320,192,28450,1,0,0:0:0:0:
320,192,28534,1,0,0:0:0:0:
448,192,28534,1,0,0:0:0:0:
192,192,28617,1,0,0:0:0:0:
448,192,28617,1,0,0:0:0:0:
64,192,28617,1,0,0:0:0:0:
64,192,28700,1,0,0:0:0:0:
448,192,28784,1,0,0:0:0:0:
320,192,28784,1,0,0:0:0:0:
448,192,28867,1,0,0:0:0:0:
64,192,28867,1,0,0:0:0:0:
320,192,28950,1,0,0:0:0:0:
192,192,28950,1,0,0:0:0:0:
64,192,29034,1,0,0:0:0:0:
64,192,29117,1,0,0:0:0:0:
448,192,29117,1,0,0:0:0:0:
192,192,29117,1,0,0:0:0:0:
320,192,29200,1,0,0:0:0:0:
64,192,29284,1,0,0:0:0:0:
192,192,29284,1,0,0:0:0:0:
64,192,29367,1,0,0:0:0:0:
448,192,29367,1,0,0:0:0:0:
320,192,29450,1,0,0:0:0:0:
64,192,29534,1,0,0:0:0:0:
192,192,29575,1,0,0:0:0:0:
320,192,29617,1,0,0:0:0:0:
448,192,29617,1,0,0:0:0:0:
192,192,29700,1,0,0:0:0:0:
448,192,29784,1,0,0:0:0:0:
320,192,29784,1,0,0:0:0:0:
448,192,29867,1,0,0:0:0:0:
64,192,29867,1,0,0:0:0:0:
320,192,29950,1,0,0:0:0:0:
192,192,29950,1,0,0:0:0:0:
192,192,30034,1,0,0:0:0:0:
64,192,30034,1,0,0:0:0:0:
320,192,30117,1,0,0:0:0:0:
448,192,30117,1,0,0:0:0:0:
192,192,30200,1,0,0:0:0:0:
320,192,30284,1,0,0:0:0:0:
64,192,30284,1,0,0:0:0:0:
192,192,30367,1,0,0:0:0:0:
64,192,30367,1,0,0:0:0:0:
448,192,30367,1,0,0:0:0:0:
320,192,30450,1,0,0:0:0:0:
192,192,30534,1,0,0:0:0:0:
448,192,30617,1,0,0:0:0:0:
192,192,30617,1,0,0:0:0:0:
320,192,30617,1,0,0:0:0:0:
64,192,30700,1,0,0:0:0:0:
448,192,30784,1,0,0:0:0:0:
192,192,30784,1,0,0:0:0:0:
320,192,30867,1,0,0:0:0:0:
192,192,30867,1,0,0:0:0:0:
64,192,30867,1,0,0:0:0:0:
448,192,30950,1,0,0:0:0:0:
64,192,31034,1,0,0:0:0:0:
64,192,31117,1,0,0:0:0:0:
448,192,31117,1,0,0:0:0:0:
320,192,31117,1,0,0:0:0:0:
192,192,31200,1,0,0:0:0:0:
64,192,31284,1,0,0:0:0:0:
320,192,31284,1,0,0:0:0:0:
192,192,31367,1,0,0:0:0:0:
320,192,31367,1,0,0:0:0:0:
448,192,31450,1,0,0:0:0:0:
192,192,31534,1,0,0:0:0:0:
64,192,31534,1,0,0:0:0:0:
320,192,31617,1,0,0:0:0:0:
192,192,31617,1,0,0:0:0:0:
64,192,31700,1,0,0:0:0:0:
320,192,31700,1,0,0:0:0:0:
448,192,31784,1,0,0:0:0:0:
192,192,31784,1,0,0:0:0:0:
64,192,31867,1,0,0:0:0:0:
192,192,31867,1,0,0:0:0:0:
448,192,31950,1,0,0:0:0:0:
320,192,31950,1,0,0:0:0:0:
64,192,32034,1,0,0:0:0:0:
448,192,32034,1,0,0:0:0:0:
320,192,32117,1,0,0:0:0:0:
64,192,32117,1,0,0:0:0:0:
192,192,32117,1,0,0:0:0:0:
448,192,32200,1,0,0:0:0:0:
64,192,32284,1,0,0:0:0:0:
320,192,32284,1,0,0:0:0:0:
320,192,32367,1,0,0:0:0:0:
192,192,32367,1,0,0:0:0:0:
448,192,32450,1,0,0:0:0:0:
64,192,32534,1,0,0:0:0:0:
64,192,32617,1,0,0:0:0:0:
192,192,32617,1,0,0:0:0:0:
320,192,32700,1,0,0:0:0:0:
448,192,32784,1,0,0:0:0:0:
192,192,32784,1,0,0:0:0:0:
320,192,32867,1,0,0:0:0:0:
192,192,32867,1,0,0:0:0:0:
64,192,32950,1,0,0:0:0:0:
192,192,33034,1,0,0:0:0:0:
192,192,33117,1,0,0:0:0:0:
320,192,33117,1,0,0:0:0:0:
448,192,33200,1,0,0:0:0:0:
64,192,33284,1,0,0:0:0:0:
320,192,33284,1,0,0:0:0:0:
192,192,33367,1,0,0:0:0:0:
320,192,33367,1,0,0:0:0:0:
448,192,33367,1,0,0:0:0:0:
64,192,33450,1,0,0:0:0:0:
320,192,33534,1,0,0:0:0:0:
64,192,33617,1,0,0:0:0:0:
448,192,33617,1,0,0:0:0:0:
448,192,33700,1,0,0:0:0:0:
192,192,33700,1,0,0:0:0:0:
320,192,33784,1,0,0:0:0:0:
64,192,33784,1,0,0:0:0:0:
192,192,33867,1,0,0:0:0:0:
448,192,33867,1,0,0:0:0:0:
320,192,33867,1,0,0:0:0:0:
64,192,33950,1,0,0:0:0:0:
320,192,34034,1,0,0:0:0:0:
192,192,34117,1,0,0:0:0:0:
448,192,34117,1,0,0:0:0:0:
320,192,34159,1,0,0:0:0:0:
192,192,34200,1,0,0:0:0:0:
64,192,34284,1,0,0:0:0:0:
448,192,34284,1,0,0:0:0:0:
64,192,34367,1,0,0:0:0:0:
320,192,34367,1,0,0:0:0:0:
192,192,34450,1,0,0:0:0:0:
448,192,34534,1,0,0:0:0:0:
320,192,34534,1,0,0:0:0:0:
192,192,34617,1,0,0:0:0:0:
320,192,34617,1,0,0:0:0:0:
64,192,34617,1,0,0:0:0:0:
64,192,34700,1,0,0:0:0:0:
448,192,34784,1,0,0:0:0:0:
320,192,34784,1,0,0:0:0:0:
192,192,34867,1,0,0:0:0:0:
448,192,34867,1,0,0:0:0:0:
64,192,34950,1,0,0:0:0:0:
192,192,35034,1,0,0:0:0:0:
192,192,35117,1,0,0:0:0:0:
320,192,35117,1,0,0:0:0:0:
448,192,35200,1,0,0:0:0:0:
64,192,35284,1,0,0:0:0:0:
192,192,35284,1,0,0:0:0:0:
64,192,35367,1,0,0:0:0:0:
320,192,35367,1,0,0:0:0:0:
448,192,35367,1,0,0:0:0:0:
192,192,35450,1,0,0:0:0:0:
64,192,35534,1,0,0:0:0:0:
64,192,35617,1,0,0:0:0:0:
448,192,35617,1,0,0:0:0:0:
320,192,35617,1,0,0:0:0:0:
192,192,35700,1,0,0:0:0:0:
448,192,35784,1,0,0:0:0:0:
320,192,35784,1,0,0:0:0:0:
192,192,35867,1,0,0:0:0:0:
448,192,35867,1,0,0:0:0:0:
64,192,35867,1,0,0:0:0:0:
320,192,35950,1,0,0:0:0:0:
448,192,36034,1,0,0:0:0:0:
320,192,36117,1,0,0:0:0:0:
448,192,36117,1,0,0:0:0:0:
64,192,36159,1,0,0:0:0:0:
192,192,36200,1,0,0:0:0:0:
64,192,36284,1,0,0:0:0:0:
448,192,36284,1,0,0:0:0:0:
64,192,36367,1,0,0:0:0:0:
320,192,36367,1,0,0:0:0:0:
192,192,36450,1,0,0:0:0:0:
448,192,36534,1,0,0:0:0:0:
320,192,36534,1,0,0:0:0:0:
448,192,36617,1,0,0:0:0:0:
64,192,36617,1,0,0:0:0:0:
192,192,36617,1,0,0:0:0:0:
64,192,36700,1,0,0:0:0:0:
320,192,36784,1,0,0:0:0:0:
192,192,36784,1,0,0:0:0:0:
448,192,36867,1,0,0:0:0:0:
64,192,36867,1,0,0:0:0:0:
192,192,36950,1,0,0:0:0:0:
448,192,36950,1,0,0:0:0:0:
192,192,37034,1,0,0:0:0:0:
448,192,37117,1,0,0:0:0:0:
320,192,37117,1,0,0:0:0:0:
64,192,37117,1,0,0:0:0:0:
320,192,37617,1,0,0:0:0:0:
448,192,37617,1,0,0:0:0:0:
64,192,37742,1,0,0:0:0:0:
192,192,37774,1,0,0:0:0:0:
320,192,37805,1,0,0:0:0:0:
448,192,37836,1,0,0:0:0:0:
192,192,37867,1,0,0:0:0:0:
64,192,37867,1,0,0:0:0:0:
448,192,37992,1,0,0:0:0:0:
320,192,38024,1,0,0:0:0:0:
192,192,38055,1,0,0:0:0:0:
64,192,38086,1,0,0:0:0:0:
320,192,38117,1,0,0:0:0:0:
448,192,38117,1,0,0:0:0:0:
192,192,38117,1,0,0:0:0:0:
64,192,38242,1,0,0:0:0:0:
192,192,38367,1,0,0:0:0:0:
320,192,38367,1,0,0:0:0:0:
64,192,38492,1,0,0:0:0:0:
192,192,38555,1,0,0:0:0:0:
448,192,38617,1,0,0:0:0:0:
320,192,38617,1,0,0:0:0:0:
64,192,38742,1,0,0:0:0:0:
448,192,38867,1,0,0:0:0:0:
192,192,38867,1,0,0:0:0:0:
64,192,38992,1,0,0:0:0:0:
448,192,38992,1,0,0:0:0:0:
320,192,38992,1,0,0:0:0:0:
320,192,39242,1,0,0:0:0:0:
320,192,39367,1,0,0:0:0:0:
192,192,39367,1,0,0:0:0:0:
320,192,39492,1,0,0:0:0:0:
448,192,39617,1,0,0:0:0:0:
64,192,39617,1,0,0:0:0:0:
320,192,39742,1,0,0:0:0:0:
192,192,39867,1,0,0:0:0:0:
448,192,39867,1,0,0:0:0:0:
320,192,39992,1,0,0:0:0:0:
192,192,40117,1,0,0:0:0:0:
448,192,40117,1,0,0:0:0:0:
64,192,40117,1,0,0:0:0:0:
448,192,40242,1,0,0:0:0:0:
64,192,40242,1,0,0:0:0:0:
64,192,40367,1,0,0:0:0:0:
448,192,40367,1,0,0:0:0:0:
192,192,40492,1,0,0:0:0:0:
64,192,40555,1,0,0:0:0:0:
192,192,40617,1,0,0:0:0:0:
320,192,40617,1,0,0:0:0:0:
320,192,40742,1,0,0:0:0:0:
448,192,40867,1,0,0:0:0:0:
192,192,40867,1,0,0:0:0:0:
64,192,40992,1,0,0:0:0:0:
320,192,40992,1,0,0:0:0:0:
448,192,40992,1,0,0:0:0:0:
64,192,41242,1,0,0:0:0:0:
192,192,41242,1,0,0:0:0:0:
64,192,41367,1,0,0:0:0:0:
192,192,41367,1,0,0:0:0:0:
320,192,41492,1,0,0:0:0:0:
448,192,41617,1,0,0:0:0:0:
64,192,41617,1,0,0:0:0:0:
320,192,41742,1,0,0:0:0:0:
64,192,41805,1,0,0:0:0:0:
192,192,41867,1,0,0:0:0:0:
448,192,41867,1,0,0:0:0:0:
320,192,41867,1,0,0:0:0:0:
192,192,41992,1,0,0:0:0:0:
448,192,42117,1,0,0:0:0:0:
64,192,42117,1,0,0:0:0:0:
320,192,42180,1,0,0:0:0:0:
64,192,42242,1,0,0:0:0:0:
448,192,42305,1,0,0:0:0:0:
192,192,42367,1,0,0:0:0:0:
64,192,42367,1,0,0:0:0:0:
320,192,42430,1,0,0:0:0:0:
64,192,42492,1,0,0:0:0:0:
448,192,42555,1,0,0:0:0:0:
320,192,42617,1,0,0:0:0:0:
192,192,42617,1,0,0:0:0:0:
64,192,42680,1,0,0:0:0:0:
320,192,42742,1,0,0:0:0:0:
192,192,42805,1,0,0:0:0:0:
448,192,42867,1,0,0:0:0:0:
320,192,42867,1,0,0:0:0:0:
64,192,42930,1,0,0:0:0:0:
448,192,42992,1,0,0:0:0:0:
192,192,43055,1,0,0:0:0:0:
64,192,43117,1,0,0:0:0:0:
320,192,43117,1,0,0:0:0:0:
448,192,43117,1,0,0:0:0:0:
192,192,43180,1,0,0:0:0:0:
320,192,43242,1,0,0:0:0:0:
64,192,43305,1,0,0:0:0:0:
448,192,43367,1,0,0:0:0:0:
320,192,43367,1,0,0:0:0:0:
64,192,43430,1,0,0:0:0:0:
448,192,43492,1,0,0:0:0:0:
320,192,43492,1,0,0:0:0:0:
192,192,43555,1,0,0:0:0:0:
64,192,43555,1,0,0:0:0:0:
448,192,43617,1,0,0:0:0:0:
320,192,43617,1,0,0:0:0:0:
64,192,43680,1,0,0:0:0:0:
320,192,43742,1,0,0:0:0:0:
448,192,43805,1,0,0:0:0:0:
192,192,43805,1,0,0:0:0:0:
64,192,43867,1,0,0:0:0:0:
320,192,43867,1,0,0:0:0:0:
448,192,43930,1,0,0:0:0:0:
192,192,43992,1,0,0:0:0:0:
64,192,43992,1,0,0:0:0:0:
320,192,44055,1,0,0:0:0:0:
448,192,44117,1,0,0:0:0:0:
64,192,44117,1,0,0:0:0:0:
192,192,44180,1,0,0:0:0:0:
448,192,44242,1,0,0:0:0:0:
64,192,44305,1,0,0:0:0:0:
320,192,44367,1,0,0:0:0:0:
448,192,44367,1,0,0:0:0:0:
192,192,44430,1,0,0:0:0:0:
448,192,44492,1,0,0:0:0:0:
64,192,44555,1,0,0:0:0:0:
320,192,44617,1,0,0:0:0:0:
448,192,44617,1,0,0:0:0:0:
192,192,44617,1,0,0:0:0:0:
64,192,44680,1,0,0:0:0:0:
448,192,44742,1,0,0:0:0:0:
192,192,44805,1,0,0:0:0:0:
320,192,44867,1,0,0:0:0:0:
64,192,44867,1,0,0:0:0:0:
192,192,44930,1,0,0:0:0:0:
448,192,44992,1,0,0:0:0:0:
64,192,45055,1,0,0:0:0:0:
192,192,45117,1,0,0:0:0:0:
320,192,45117,1,0,0:0:0:0:
448,192,45117,1,0,0:0:0:0:
64,192,45180,1,0,0:0:0:0:
448,192,45242,1,0,0:0:0:0:
192,192,45305,1,0,0:0:0:0:
320,192,45367,1,0,0:0:0:0:
64,192,45367,1,0,0:0:0:0:
448,192,45430,1,0,0:0:0:0:
192,192,45492,1,0,0:0:0:0:
64,192,45492,1,0,0:0:0:0:
448,192,45742,1,0,0:0:0:0:
320,192,45742,1,0,0:0:0:0:
64,192,45742,1,0,0:0:0:0:
448,192,46117,1,0,0:0:0:0:
320,192,46117,1,0,0:0:0:0:
64,192,46117,1,0,0:0:0:0:
192,192,46242,1,0,0:0:0:0:
320,192,46367,1,0,0:0:0:0:
64,192,46492,1,0,0:0:0:0:
192,192,46617,1,0,0:0:0:0:
320,192,46680,1,0,0:0:0:0:
192,192,46742,1,0,0:0:0:0:
448,192,46867,1,0,0:0:0:0:
192,192,46992,1,0,0:0:0:0:
320,192,47117,1,0,0:0:0:0:
64,192,47242,1,0,0:0:0:0:
192,192,47367,1,0,0:0:0:0:
320,192,47430,1,0,0:0:0:0:
192,192,47492,1,0,0:0:0:0:
64,192,47617,1,0,0:0:0:0:
192,192,47680,1,0,0:0:0:0:
64,192,47742,1,0,0:0:0:0:
320,192,47805,1,0,0:0:0:0:
64,192,47867,1,0,0:0:0:0:
192,192,47930,1,0,0:0:0:0:
320,192,47992,1,0,0:0:0:0:
448,192,47992,1,0,0:0:0:0:
192,192,48055,1,0,0:0:0:0:
448,192,48117,1,0,0:0:0:0:
320,192,48117,1,0,0:0:0:0:
64,192,48117,1,0,0:0:0:0:
192,192,48242,1,0,0:0:0:0:
320,192,48367,1,0,0:0:0:0:
64,192,48492,1,0,0:0:0:0:
192,192,48617,1,0,0:0:0:0:
320,192,48680,1,0,0:0:0:0:
192,192,48742,1,0,0:0:0:0:
448,192,48867,1,0,0:0:0:0:
192,192,48992,1,0,0:0:0:0:
320,192,49117,1,0,0:0:0:0:
64,192,49242,1,0,0:0:0:0:
192,192,49242,1,0,0:0:0:0:
192,192,49367,1,0,0:0:0:0:
320,192,49430,1,0,0:0:0:0:
192,192,49492,1,0,0:0:0:0:
64,192,49492,1,0,0:0:0:0:
64,192,49617,1,0,0:0:0:0:
192,192,49638,1,0,0:0:0:0:
320,192,49680,1,0,0:0:0:0:
64,192,49742,1,0,0:0:0:0:
320,192,49805,1,0,0:0:0:0:
448,192,49825,1,0,0:0:0:0:
64,192,49867,1,0,0:0:0:0:
192,192,49930,1,0,0:0:0:0:
448,192,49992,1,0,0:0:0:0:
64,192,49992,1,0,0:0:0:0:
320,192,50055,1,0,0:0:0:0:
192,192,50117,1,0,0:0:0:0:
64,192,50117,1,0,0:0:0:0:
448,192,50117,1,0,0:0:0:0:
192,192,50242,1,0,0:0:0:0:
320,192,50367,1,0,0:0:0:0:
64,192,50492,1,0,0:0:0:0:
192,192,50492,1,0,0:0:0:0:
192,192,50617,1,0,0:0:0:0:
448,192,50617,1,0,0:0:0:0:
320,192,50680,1,0,0:0:0:0:
192,192,50742,1,0,0:0:0:0:
448,192,50867,1,0,0:0:0:0:
64,192,50992,1,0,0:0:0:0:
192,192,50992,1,0,0:0:0:0:
320,192,51117,1,0,0:0:0:0:
448,192,51117,1,0,0:0:0:0:
192,192,51117,1,0,0:0:0:0:
64,192,51242,1,0,0:0:0:0:
448,192,51305,1,0,0:0:0:0:
320,192,51305,1,0,0:0:0:0:
192,192,51367,1,0,0:0:0:0:
320,192,51430,1,0,0:0:0:0:
192,192,51492,1,0,0:0:0:0:
64,192,51492,1,0,0:0:0:0:
64,192,51617,1,0,0:0:0:0:
448,192,51617,1,0,0:0:0:0:
192,192,51680,1,0,0:0:0:0:
64,192,51742,1,0,0:0:0:0:
320,192,51805,1,0,0:0:0:0:
64,192,51867,1,0,0:0:0:0:
192,192,51930,1,0,0:0:0:0:
320,192,51992,1,0,0:0:0:0:
448,192,51992,1,0,0:0:0:0:
192,192,52055,1,0,0:0:0:0:
64,192,52117,1,0,0:0:0:0:
320,192,52117,1,0,0:0:0:0:
448,192,52117,1,0,0:0:0:0:
192,192,52242,1,0,0:0:0:0:
320,192,52367,1,0,0:0:0:0:
64,192,52492,1,0,0:0:0:0:
192,192,52492,1,0,0:0:0:0:
448,192,52617,1,0,0:0:0:0:
192,192,52617,1,0,0:0:0:0:
64,192,52617,1,0,0:0:0:0:
320,192,52680,1,0,0:0:0:0:
192,192,52742,1,0,0:0:0:0:
448,192,52867,1,0,0:0:0:0:
64,192,52992,1,0,0:0:0:0:
192,192,52992,1,0,0:0:0:0:
64,192,53117,1,0,0:0:0:0:
320,192,53117,1,0,0:0:0:0:
448,192,53117,1,0,0:0:0:0:
192,192,53242,1,0,0:0:0:0:
64,192,53367,1,0,0:0:0:0:
192,192,53367,1,0,0:0:0:0:
448,192,53367,1,0,0:0:0:0:
320,192,53430,1,0,0:0:0:0:
192,192,53492,1,0,0:0:0:0:
448,192,53617,1,0,0:0:0:0:
64,192,53617,1,0,0:0:0:0:
320,192,53617,1,0,0:0:0:0:
192,192,53680,1,0,0:0:0:0:
64,192,53742,1,0,0:0:0:0:
320,192,53805,1,0,0:0:0:0:
192,192,53867,1,0,0:0:0:0:
64,192,53867,1,0,0:0:0:0:
448,192,53867,1,0,0:0:0:0:
320,192,53930,1,0,0:0:0:0:
448,192,53992,1,0,0:0:0:0:
64,192,54055,1,0,0:0:0:0:
192,192,54117,1,0,0:0:0:0:
448,192,54117,1,0,0:0:0:0:
320,192,54117,1,0,0:0:0:0:
64,192,54242,1,0,0:0:0:0:
448,192,54367,1,0,0:0:0:0:
192,192,54367,1,0,0:0:0:0:
64,192,54492,1,0,0:0:0:0:
192,192,54617,1,0,0:0:0:0:
448,192,54680,1,0,0:0:0:0:
192,192,54742,1,0,0:0:0:0:
448,192,54867,1,0,0:0:0:0:
320,192,54867,1,0,0:0:0:0:
64,192,54992,1,0,0:0:0:0:
192,192,54992,1,0,0:0:0:0:
320,192,54992,1,0,0:0:0:0:
64,192,55117,1,0,0:0:0:0:
192,192,55117,1,0,0:0:0:0:
448,192,55117,1,0,0:0:0:0:
320,192,55242,1,0,0:0:0:0:
192,192,55367,1,0,0:0:0:0:
64,192,55367,1,0,0:0:0:0:
448,192,55430,1,0,0:0:0:0:
192,192,55492,1,0,0:0:0:0:
64,192,55617,1,0,0:0:0:0:
320,192,55680,1,0,0:0:0:0:
64,192,55742,1,0,0:0:0:0:
448,192,55742,1,0,0:0:0:0:
192,192,55742,1,0,0:0:0:0:
320,192,55805,1,0,0:0:0:0:
192,192,55867,1,0,0:0:0:0:
64,192,55930,1,0,0:0:0:0:
448,192,55992,1,0,0:0:0:0:
320,192,55992,1,0,0:0:0:0:
192,192,56055,1,0,0:0:0:0:
448,192,56117,1,0,0:0:0:0:
320,192,56117,1,0,0:0:0:0:
64,192,56117,1,0,0:0:0:0:
192,192,56242,1,0,0:0:0:0:
320,192,56367,1,0,0:0:0:0:
64,192,56367,1,0,0:0:0:0:
192,192,56492,1,0,0:0:0:0:
64,192,56617,1,0,0:0:0:0:
320,192,56680,1,0,0:0:0:0:
64,192,56742,1,0,0:0:0:0:
448,192,56867,1,0,0:0:0:0:
320,192,56867,1,0,0:0:0:0:
64,192,56992,1,0,0:0:0:0:
192,192,56992,1,0,0:0:0:0:
64,192,57117,1,0,0:0:0:0:
192,192,57117,1,0,0:0:0:0:
448,192,57117,1,0,0:0:0:0:
320,192,57242,1,0,0:0:0:0:
64,192,57367,1,0,0:0:0:0:
448,192,57367,1,0,0:0:0:0:
192,192,57430,1,0,0:0:0:0:
64,192,57492,1,0,0:0:0:0:
64,192,57617,1,0,0:0:0:0:
192,192,57680,1,0,0:0:0:0:
64,192,57742,1,0,0:0:0:0:
448,192,57742,1,0,0:0:0:0:
320,192,57742,1,0,0:0:0:0:
192,192,57805,1,0,0:0:0:0:
320,192,57867,1,0,0:0:0:0:
64,192,57930,1,0,0:0:0:0:
192,192,57992,1,0,0:0:0:0:
448,192,57992,1,0,0:0:0:0:
320,192,58055,1,0,0:0:0:0:
192,192,58117,1,0,0:0:0:0:
64,192,58117,1,0,0:0:0:0:
448,192,58117,1,0,0:0:0:0:
192,192,58242,1,0,0:0:0:0:
320,192,58367,1,0,0:0:0:0:
448,192,58367,1,0,0:0:0:0:
64,192,58492,1,0,0:0:0:0:
192,192,58617,1,0,0:0:0:0:
448,192,58617,1,0,0:0:0:0:
320,192,58680,1,0,0:0:0:0:
192,192,58742,1,0,0:0:0:0:
448,192,58867,1,0,0:0:0:0:
320,192,58867,1,0,0:0:0:0:
64,192,58992,1,0,0:0:0:0:
64,192,59117,1,0,0:0:0:0:
192,192,59117,1,0,0:0:0:0:
448,192,59117,1,0,0:0:0:0:
192,192,59242,1,0,0:0:0:0:
448,192,59367,1,0,0:0:0:0:
64,192,59367,1,0,0:0:0:0:
320,192,59430,1,0,0:0:0:0:
64,192,59492,1,0,0:0:0:0:
320,192,59617,1,0,0:0:0:0:
448,192,59617,1,0,0:0:0:0:
64,192,59680,1,0,0:0:0:0:
192,192,59742,1,0,0:0:0:0:
64,192,59805,1,0,0:0:0:0:
320,192,59867,1,0,0:0:0:0:
448,192,59867,1,0,0:0:0:0:
192,192,59930,1,0,0:0:0:0:
448,192,59992,1,0,0:0:0:0:
320,192,60055,1,0,0:0:0:0:
448,192,60117,1,0,0:0:0:0:
192,192,60117,1,0,0:0:0:0:
64,192,60117,1,0,0:0:0:0:
64,192,60242,5,0,0:0:0:0:
320,192,60242,1,0,0:0:0:0:
192,192,60367,1,0,0:0:0:0:
448,192,60367,1,0,0:0:0:0:
192,192,60492,1,0,0:0:0:0:
64,192,60492,1,0,0:0:0:0:
192,192,60617,1,0,0:0:0:0:
320,192,60617,1,0,0:0:0:0:
448,192,60680,1,0,0:0:0:0:
192,192,60742,1,0,0:0:0:0:
64,192,60742,1,0,0:0:0:0:
448,192,60867,1,0,0:0:0:0:
320,192,60867,1,0,0:0:0:0:
320,192,60992,1,0,0:0:0:0:
64,192,60992,1,0,0:0:0:0:
448,192,61117,5,0,0:0:0:0:
64,192,61117,1,0,0:0:0:0:
192,192,61180,1,0,0:0:0:0:
320,192,61242,1,0,0:0:0:0:
448,192,61242,1,0,0:0:0:0:
64,192,61305,1,0,0:0:0:0:
192,192,61367,1,0,0:0:0:0:
448,192,61367,1,0,0:0:0:0:
320,192,61430,1,0,0:0:0:0:
192,192,61492,1,0,0:0:0:0:
64,192,61492,1,0,0:0:0:0:
320,192,61555,1,0,0:0:0:0:
64,192,61617,1,0,0:0:0:0:
448,192,61617,1,0,0:0:0:0:
320,192,61680,1,0,0:0:0:0:
192,192,61742,1,0,0:0:0:0:
64,192,61742,1,0,0:0:0:0:
448,192,61805,1,0,0:0:0:0:
320,192,61867,1,0,0:0:0:0:
192,192,61867,1,0,0:0:0:0:
64,192,61930,1,0,0:0:0:0:
448,192,61992,1,0,0:0:0:0:
320,192,61992,1,0,0:0:0:0:
192,192,62055,1,0,0:0:0:0:
64,192,62117,1,0,0:0:0:0:
448,192,62117,1,0,0:0:0:0:
320,192,62180,1,0,0:0:0:0:
192,192,62242,1,0,0:0:0:0:
448,192,62305,1,0,0:0:0:0:
64,192,62367,1,0,0:0:0:0:
320,192,62430,1,0,0:0:0:0:
192,192,62492,1,0,0:0:0:0:
448,192,62555,1,0,0:0:0:0:
64,192,62617,1,0,0:0:0:0:
320,192,62680,1,0,0:0:0:0:
192,192,62742,1,0,0:0:0:0:
448,192,62805,1,0,0:0:0:0:
64,192,62867,1,0,0:0:0:0:
320,192,62930,1,0,0:0:0:0:
192,192,62992,1,0,0:0:0:0:
448,192,63055,1,0,0:0:0:0:
64,192,63117,1,0,0:0:0:0:
320,192,63180,1,0,0:0:0:0:
192,192,63242,1,0,0:0:0:0:
448,192,63305,1,0,0:0:0:0:
64,192,63367,1,0,0:0:0:0:
320,192,63430,1,0,0:0:0:0:
192,192,63492,1,0,0:0:0:0:
448,192,63555,1,0,0:0:0:0:
64,192,63617,1,0,0:0:0:0:
320,192,63680,1,0,0:0:0:0:
192,192,63742,1,0,0:0:0:0:
448,192,63805,1,0,0:0:0:0:
64,192,63867,1,0,0:0:0:0:
192,192,63867,1,0,0:0:0:0:
320,192,63930,1,0,0:0:0:0:
448,192,63992,1,0,0:0:0:0:
64,192,64055,1,0,0:0:0:0:
192,192,64117,1,0,0:0:0:0:
448,192,64117,1,0,0:0:0:0:
320,192,64117,1,0,0:0:0:0:
64,192,64180,1,0,0:0:0:0:
448,192,64242,1,0,0:0:0:0:
64,192,64305,1,0,0:0:0:0:
192,192,64367,1,0,0:0:0:0:
320,192,64367,1,0,0:0:0:0:
320,192,64492,1,0,0:0:0:0:
192,192,64555,1,0,0:0:0:0:
64,192,64617,1,0,0:0:0:0:
320,192,64617,1,0,0:0:0:0:
448,192,64680,1,0,0:0:0:0:
192,192,64742,1,0,0:0:0:0:
320,192,64742,1,0,0:0:0:0:
64,192,64805,1,0,0:0:0:0:
448,192,64867,1,0,0:0:0:0:
192,192,64867,1,0,0:0:0:0:
320,192,64992,1,0,0:0:0:0:
192,192,64992,1,0,0:0:0:0:
64,192,65055,1,0,0:0:0:0:
448,192,65117,1,0,0:0:0:0:
320,192,65242,1,0,0:0:0:0:
64,192,65242,1,0,0:0:0:0:
192,192,65305,1,0,0:0:0:0:
448,192,65367,1,0,0:0:0:0:
320,192,65367,1,0,0:0:0:0:
192,192,65492,1,0,0:0:0:0:
64,192,65492,1,0,0:0:0:0:
448,192,65555,1,0,0:0:0:0:
320,192,65617,1,0,0:0:0:0:
192,192,65742,1,0,0:0:0:0:
320,192,65742,1,0,0:0:0:0:
64,192,65805,1,0,0:0:0:0:
448,192,65867,1,0,0:0:0:0:
192,192,65867,1,0,0:0:0:0:
64,192,65992,1,0,0:0:0:0:
192,192,66055,1,0,0:0:0:0:
320,192,66117,1,0,0:0:0:0:
448,192,66117,1,0,0:0:0:0:
192,192,66180,1,0,0:0:0:0:
448,192,66242,1,0,0:0:0:0:
192,192,66305,1,0,0:0:0:0:
64,192,66367,1,0,0:0:0:0:
320,192,66367,1,0,0:0:0:0:
448,192,66492,1,0,0:0:0:0:
320,192,66492,1,0,0:0:0:0:
192,192,66555,1,0,0:0:0:0:
64,192,66617,1,0,0:0:0:0:
320,192,66680,1,0,0:0:0:0:
448,192,66742,1,0,0:0:0:0:
64,192,66742,1,0,0:0:0:0:
448,192,66867,1,0,0:0:0:0:
192,192,66867,1,0,0:0:0:0:
320,192,66992,1,0,0:0:0:0:
192,192,66992,1,0,0:0:0:0:
64,192,66992,1,0,0:0:0:0:
448,192,67055,1,0,0:0:0:0:
192,192,67117,1,0,0:0:0:0:
448,192,67180,1,0,0:0:0:0:
192,192,67242,1,0,0:0:0:0:
64,192,67242,1,0,0:0:0:0:
448,192,67305,1,0,0:0:0:0:
64,192,67367,1,0,0:0:0:0:
320,192,67367,1,0,0:0:0:0:
320,192,67492,1,0,0:0:0:0:
64,192,67617,1,0,0:0:0:0:
192,192,67617,1,0,0:0:0:0:
448,192,67680,1,0,0:0:0:0:
320,192,67742,1,0,0:0:0:0:
64,192,67742,1,0,0:0:0:0:
448,192,67805,1,0,0:0:0:0:
320,192,67867,1,0,0:0:0:0:
192,192,67867,1,0,0:0:0:0:
64,192,67930,1,0,0:0:0:0:
448,192,67992,1,0,0:0:0:0:
192,192,67992,1,0,0:0:0:0:
448,192,68117,1,0,0:0:0:0:
320,192,68117,1,0,0:0:0:0:
64,192,68117,1,0,0:0:0:0:
192,192,68180,1,0,0:0:0:0:
64,192,68242,1,0,0:0:0:0:
320,192,68305,1,0,0:0:0:0:
192,192,68367,1,0,0:0:0:0:
448,192,68367,1,0,0:0:0:0:
64,192,68430,1,0,0:0:0:0:
320,192,68492,1,0,0:0:0:0:
192,192,68492,1,0,0:0:0:0:
448,192,68555,1,0,0:0:0:0:
64,192,68617,1,0,0:0:0:0:
192,192,68742,1,0,0:0:0:0:
448,192,68742,1,0,0:0:0:0:
320,192,68805,1,0,0:0:0:0:
64,192,68867,1,0,0:0:0:0:
192,192,68867,1,0,0:0:0:0:
64,192,68992,1,0,0:0:0:0:
320,192,69024,1,0,0:0:0:0:
448,192,69024,1,0,0:0:0:0:
192,192,69117,1,0,0:0:0:0:
64,192,69117,1,0,0:0:0:0:
320,192,69180,1,0,0:0:0:0:
64,192,69242,1,0,0:0:0:0:
192,192,69242,1,0,0:0:0:0:
320,192,69305,1,0,0:0:0:0:
448,192,69367,1,0,0:0:0:0:
64,192,69367,1,0,0:0:0:0:
192,192,69430,1,0,0:0:0:0:
320,192,69492,1,0,0:0:0:0:
192,192,69617,1,0,0:0:0:0:
320,192,69617,1,0,0:0:0:0:
448,192,69680,1,0,0:0:0:0:
64,192,69742,1,0,0:0:0:0:
320,192,69867,1,0,0:0:0:0:
64,192,69867,1,0,0:0:0:0:
448,192,69930,1,0,0:0:0:0:
192,192,69992,1,0,0:0:0:0:
320,192,70117,1,0,0:0:0:0:
448,192,70117,1,0,0:0:0:0:
64,192,70180,1,0,0:0:0:0:
192,192,70242,1,0,0:0:0:0:
448,192,70305,1,0,0:0:0:0:
64,192,70367,1,0,0:0:0:0:
320,192,70367,1,0,0:0:0:0:
448,192,70430,1,0,0:0:0:0:
192,192,70492,1,0,0:0:0:0:
320,192,70492,1,0,0:0:0:0:
64,192,70617,1,0,0:0:0:0:
192,192,70742,1,0,0:0:0:0:
320,192,70742,1,0,0:0:0:0:
64,192,70805,1,0,0:0:0:0:
448,192,70867,1,0,0:0:0:0:
320,192,70867,1,0,0:0:0:0:
192,192,70930,1,0,0:0:0:0:
64,192,70992,1,0,0:0:0:0:
448,192,70992,1,0,0:0:0:0:
320,192,70992,1,0,0:0:0:0:
192,192,71055,1,0,0:0:0:0:
320,192,71117,1,0,0:0:0:0:
192,192,71180,1,0,0:0:0:0:
448,192,71242,1,0,0:0:0:0:
320,192,71242,1,0,0:0:0:0:
192,192,71305,1,0,0:0:0:0:
64,192,71367,1,0,0:0:0:0:
448,192,71367,1,0,0:0:0:0:
64,192,71492,1,0,0:0:0:0:
192,192,71492,1,0,0:0:0:0:
64,192,71617,1,0,0:0:0:0:
192,192,71617,1,0,0:0:0:0:
448,192,71680,1,0,0:0:0:0:
192,192,71742,1,0,0:0:0:0:
320,192,71742,1,0,0:0:0:0:
64,192,71805,1,0,0:0:0:0:
448,192,71867,1,0,0:0:0:0:
192,192,71867,1,0,0:0:0:0:
320,192,71930,1,0,0:0:0:0:
64,192,71992,1,0,0:0:0:0:
448,192,71992,1,0,0:0:0:0:
448,192,72117,1,0,0:0:0:0:
192,192,72117,1,0,0:0:0:0:
320,192,72117,1,0,0:0:0:0:
64,192,72180,1,0,0:0:0:0:
320,192,72242,1,0,0:0:0:0:
64,192,72305,1,0,0:0:0:0:
448,192,72367,1,0,0:0:0:0:
192,192,72367,1,0,0:0:0:0:
192,192,72492,1,0,0:0:0:0:
64,192,72492,1,0,0:0:0:0:
320,192,72555,1,0,0:0:0:0:
64,192,72617,1,0,0:0:0:0:
192,192,72617,1,0,0:0:0:0:
448,192,72680,1,0,0:0:0:0:
320,192,72742,1,0,0:0:0:0:
192,192,72742,1,0,0:0:0:0:
64,192,72805,1,0,0:0:0:0:
448,192,72867,1,0,0:0:0:0:
192,192,72867,1,0,0:0:0:0:
64,192,72992,1,0,0:0:0:0:
192,192,72992,1,0,0:0:0:0:
320,192,73024,1,0,0:0:0:0:
448,192,73055,1,0,0:0:0:0:
64,192,73117,1,0,0:0:0:0:
192,192,73117,1,0,0:0:0:0:
448,192,73180,1,0,0:0:0:0:
192,192,73242,1,0,0:0:0:0:
448,192,73305,1,0,0:0:0:0:
320,192,73367,1,0,0:0:0:0:
192,192,73367,1,0,0:0:0:0:
64,192,73430,1,0,0:0:0:0:
448,192,73492,1,0,0:0:0:0:
64,192,73555,1,0,0:0:0:0:
192,192,73617,1,0,0:0:0:0:
448,192,73617,1,0,0:0:0:0:
320,192,73680,1,0,0:0:0:0:
64,192,73742,1,0,0:0:0:0:
320,192,73805,1,0,0:0:0:0:
448,192,73867,1,0,0:0:0:0:
64,192,73867,1,0,0:0:0:0:
192,192,73930,1,0,0:0:0:0:
448,192,73992,1,0,0:0:0:0:
192,192,74055,1,0,0:0:0:0:
64,192,74117,1,0,0:0:0:0:
320,192,74117,1,0,0:0:0:0:
448,192,74149,1,0,0:0:0:0:
192,192,74180,1,0,0:0:0:0:
320,192,74242,1,0,0:0:0:0:
448,192,74242,1,0,0:0:0:0:
192,192,74305,1,0,0:0:0:0:
320,192,74367,1,0,0:0:0:0:
448,192,74367,1,0,0:0:0:0:
320,192,74492,1,0,0:0:0:0:
192,192,74492,1,0,0:0:0:0:
64,192,74555,1,0,0:0:0:0:
448,192,74617,1,0,0:0:0:0:
192,192,74617,1,0,0:0:0:0:
320,192,74742,1,0,0:0:0:0:
64,192,74742,1,0,0:0:0:0:
448,192,74805,1,0,0:0:0:0:
192,192,74867,1,0,0:0:0:0:
320,192,74867,1,0,0:0:0:0:
64,192,74992,1,0,0:0:0:0:
448,192,74992,1,0,0:0:0:0:
320,192,75024,1,0,0:0:0:0:
192,192,75055,1,0,0:0:0:0:
64,192,75117,1,0,0:0:0:0:
320,192,75117,1,0,0:0:0:0:
192,192,75180,1,0,0:0:0:0:
448,192,75242,1,0,0:0:0:0:
320,192,75242,1,0,0:0:0:0:
192,192,75305,1,0,0:0:0:0:
64,192,75367,1,0,0:0:0:0:
320,192,75367,1,0,0:0:0:0:
448,192,75430,1,0,0:0:0:0:
192,192,75492,1,0,0:0:0:0:
64,192,75492,1,0,0:0:0:0:
320,192,75555,1,0,0:0:0:0:
448,192,75555,1,0,0:0:0:0:
192,192,75617,1,0,0:0:0:0:
64,192,75617,1,0,0:0:0:0:
448,192,75742,1,0,0:0:0:0:
320,192,75774,1,0,0:0:0:0:
192,192,75805,1,0,0:0:0:0:
64,192,75836,1,0,0:0:0:0:
320,192,75867,1,0,0:0:0:0:
448,192,75867,1,0,0:0:0:0:
192,192,75930,1,0,0:0:0:0:
64,192,75992,1,0,0:0:0:0:
192,192,76024,1,0,0:0:0:0:
320,192,76055,1,0,0:0:0:0:
448,192,76086,1,0,0:0:0:0:
320,192,76117,1,0,0:0:0:0:
192,192,76117,1,0,0:0:0:0:
64,192,76117,1,0,0:0:0:0:
64,192,76242,1,0,0:0:0:0:
320,192,76242,1,0,0:0:0:0:
448,192,76305,1,0,0:0:0:0:
64,192,76367,1,0,0:0:0:0:
320,192,76367,1,0,0:0:0:0:
64,192,76492,1,0,0:0:0:0:
192,192,76492,1,0,0:0:0:0:
448,192,76492,1,0,0:0:0:0:
320,192,76617,1,0,0:0:0:0:
192,192,76617,1,0,0:0:0:0:
64,192,76659,1,0,0:0:0:0:
448,192,76700,1,0,0:0:0:0:
192,192,76742,1,0,0:0:0:0:
320,192,76742,1,0,0:0:0:0:
320,192,76867,1,0,0:0:0:0:
448,192,76867,1,0,0:0:0:0:
64,192,76867,1,0,0:0:0:0:
192,192,76992,1,0,0:0:0:0:
448,192,76992,1,0,0:0:0:0:
64,192,77055,1,0,0:0:0:0:
192,192,77117,1,0,0:0:0:0:
448,192,77117,1,0,0:0:0:0:
64,192,77242,1,0,0:0:0:0:
320,192,77242,1,0,0:0:0:0:
192,192,77242,1,0,0:0:0:0:
64,192,77367,1,0,0:0:0:0:
192,192,77492,1,0,0:0:0:0:
320,192,77555,1,0,0:0:0:0:
448,192,77617,1,0,0:0:0:0:
192,192,77680,1,0,0:0:0:0:
64,192,77742,1,0,0:0:0:0:
448,192,77805,1,0,0:0:0:0:
320,192,77867,1,0,0:0:0:0:
64,192,77930,1,0,0:0:0:0:
448,192,77992,1,0,0:0:0:0:
320,192,78055,1,0,0:0:0:0:
64,192,78117,1,0,0:0:0:0:
448,192,78117,1,0,0:0:0:0:
192,192,78117,1,0,0:0:0:0:
320,192,78242,1,0,0:0:0:0:
192,192,78242,1,0,0:0:0:0:
64,192,78305,1,0,0:0:0:0:
192,192,78367,1,0,0:0:0:0:
320,192,78367,1,0,0:0:0:0:
64,192,78492,1,0,0:0:0:0:
448,192,78492,1,0,0:0:0:0:
320,192,78492,1,0,0:0:0:0:
64,192,78617,1,0,0:0:0:0:
192,192,78617,1,0,0:0:0:0:
320,192,78659,1,0,0:0:0:0:
448,192,78700,1,0,0:0:0:0:
192,192,78742,1,0,0:0:0:0:
64,192,78742,1,0,0:0:0:0:
192,192,78867,1,0,0:0:0:0:
320,192,78867,1,0,0:0:0:0:
448,192,78867,1,0,0:0:0:0:
448,192,78992,1,0,0:0:0:0:
64,192,78992,1,0,0:0:0:0:
320,192,79055,1,0,0:0:0:0:
448,192,79117,1,0,0:0:0:0:
64,192,79117,1,0,0:0:0:0:
64,192,79242,1,0,0:0:0:0:
192,192,79242,1,0,0:0:0:0:
320,192,79242,1,0,0:0:0:0:
192,192,79492,1,0,0:0:0:0:
192,192,79555,1,0,0:0:0:0:
448,192,79617,1,0,0:0:0:0:
64,192,79742,1,0,0:0:0:0:
192,192,79742,1,0,0:0:0:0:
320,192,79805,1,0,0:0:0:0:
448,192,79867,1,0,0:0:0:0:
64,192,79867,1,0,0:0:0:0:
192,192,79867,1,0,0:0:0:0:
192,192,79992,1,0,0:0:0:0:
320,192,79992,1,0,0:0:0:0:
320,192,80117,1,0,0:0:0:0:
448,192,80117,1,0,0:0:0:0:
64,192,80117,1,0,0:0:0:0:
192,192,80242,1,0,0:0:0:0:
320,192,80305,1,0,0:0:0:0:
64,192,80367,1,0,0:0:0:0:
192,192,80367,1,0,0:0:0:0:
448,192,80367,1,0,0:0:0:0:
448,192,80492,1,0,0:0:0:0:
320,192,80492,1,0,0:0:0:0:
192,192,80555,1,0,0:0:0:0:
320,192,80617,1,0,0:0:0:0:
64,192,80617,1,0,0:0:0:0:
448,192,80617,1,0,0:0:0:0:
192,192,80742,5,0,0:0:0:0:
320,192,80805,1,0,0:0:0:0:
64,192,80867,1,0,0:0:0:0:
192,192,80867,1,0,0:0:0:0:
448,192,80867,1,0,0:0:0:0:
64,192,80992,1,0,0:0:0:0:
192,192,80992,1,0,0:0:0:0:
448,192,80992,1,0,0:0:0:0:
192,192,81617,5,0,0:0:0:0:
64,192,81617,1,0,0:0:0:0:
320,192,81680,1,0,0:0:0:0:
448,192,81680,1,0,0:0:0:0:
192,192,81742,1,0,0:0:0:0:
64,192,81742,1,0,0:0:0:0:
448,192,81805,1,0,0:0:0:0:
320,192,81805,1,0,0:0:0:0:
192,192,81867,1,0,0:0:0:0:
64,192,81867,1,0,0:0:0:0:
320,192,81930,1,0,0:0:0:0:
448,192,81930,1,0,0:0:0:0:
64,192,81992,1,0,0:0:0:0:
192,192,81992,1,0,0:0:0:0:
448,192,82055,1,0,0:0:0:0:
320,192,82055,1,0,0:0:0:0:
64,192,82117,1,0,0:0:0:0:
192,192,82117,1,0,0:0:0:0:
448,192,82180,1,0,0:0:0:0:
320,192,82180,1,0,0:0:0:0:
192,192,82242,1,0,0:0:0:0:
64,192,82242,1,0,0:0:0:0:
320,192,82305,1,0,0:0:0:0:
448,192,82305,1,0,0:0:0:0:
192,192,82367,1,0,0:0:0:0:
64,192,82367,1,0,0:0:0:0:
320,192,82430,1,0,0:0:0:0:
448,192,82430,1,0,0:0:0:0:
64,192,82492,1,0,0:0:0:0:
192,192,82492,1,0,0:0:0:0:
448,192,82555,1,0,0:0:0:0:
320,192,82555,1,0,0:0:0:0:
192,192,82617,1,0,0:0:0:0:
64,192,82617,1,0,0:0:0:0:
448,192,82659,1,0,0:0:0:0:
320,192,82700,1,0,0:0:0:0:
192,192,82742,1,0,0:0:0:0:
448,192,82784,1,0,0:0:0:0:
64,192,82825,1,0,0:0:0:0:
320,192,82867,1,0,0:0:0:0:
192,192,82909,1,0,0:0:0:0:
64,192,82950,1,0,0:0:0:0:
448,192,82992,1,0,0:0:0:0:
320,192,83034,1,0,0:0:0:0:
192,192,83075,1,0,0:0:0:0:
64,192,83117,1,0,0:0:0:0:
448,192,83117,1,0,0:0:0:0:
320,192,83117,1,0,0:0:0:0:
64,192,83242,1,0,0:0:0:0:
320,192,83367,1,0,0:0:0:0:
192,192,83367,1,0,0:0:0:0:
448,192,83399,1,0,0:0:0:0:
64,192,83492,1,0,0:0:0:0:
64,192,83617,1,0,0:0:0:0:
192,192,83617,1,0,0:0:0:0:
320,192,83680,1,0,0:0:0:0:
448,192,83742,1,0,0:0:0:0:
192,192,83805,1,0,0:0:0:0:
320,192,83867,1,0,0:0:0:0:
448,192,83867,1,0,0:0:0:0:
64,192,83930,1,0,0:0:0:0:
320,192,83992,1,0,0:0:0:0:
64,192,84055,1,0,0:0:0:0:
320,192,84117,1,0,0:0:0:0:
448,192,84117,1,0,0:0:0:0:
192,192,84180,1,0,0:0:0:0:
64,192,84242,1,0,0:0:0:0:
448,192,84305,1,0,0:0:0:0:
192,192,84367,1,0,0:0:0:0:
320,192,84367,1,0,0:0:0:0:
64,192,84430,1,0,0:0:0:0:
320,192,84492,1,0,0:0:0:0:
192,192,84555,1,0,0:0:0:0:
64,192,84617,1,0,0:0:0:0:
320,192,84617,1,0,0:0:0:0:
448,192,84680,1,0,0:0:0:0:
192,192,84742,1,0,0:0:0:0:
64,192,84805,1,0,0:0:0:0:
320,192,84867,1,0,0:0:0:0:
448,192,84867,1,0,0:0:0:0:
192,192,84930,1,0,0:0:0:0:
64,192,84992,1,0,0:0:0:0:
320,192,85055,1,0,0:0:0:0:
64,192,85117,1,0,0:0:0:0:
192,192,85117,1,0,0:0:0:0:
448,192,85149,1,0,0:0:0:0:
64,192,85242,1,0,0:0:0:0:
192,192,85305,1,0,0:0:0:0:
320,192,85305,1,0,0:0:0:0:
448,192,85367,1,0,0:0:0:0:
64,192,85367,1,0,0:0:0:0:
320,192,85492,1,0,0:0:0:0:
64,192,85492,1,0,0:0:0:0:
192,192,85534,1,0,0:0:0:0:
448,192,85617,1,0,0:0:0:0:
320,192,85617,1,0,0:0:0:0:
192,192,85638,1,0,0:0:0:0:
448,192,85742,1,0,0:0:0:0:
320,192,85742,1,0,0:0:0:0:
192,192,85763,1,0,0:0:0:0:
448,192,85867,1,0,0:0:0:0:
64,192,85867,1,0,0:0:0:0:
320,192,85930,1,0,0:0:0:0:
64,192,85992,1,0,0:0:0:0:
192,192,86055,1,0,0:0:0:0:
448,192,86117,1,0,0:0:0:0:
320,192,86117,1,0,0:0:0:0:
448,192,86242,1,0,0:0:0:0:
320,192,86242,1,0,0:0:0:0:
192,192,86305,1,0,0:0:0:0:
448,192,86367,1,0,0:0:0:0:
320,192,86367,1,0,0:0:0:0:
64,192,86430,1,0,0:0:0:0:
448,192,86492,1,0,0:0:0:0:
320,192,86492,1,0,0:0:0:0:
192,192,86555,1,0,0:0:0:0:
64,192,86617,1,0,0:0:0:0:
448,192,86617,1,0,0:0:0:0:
320,192,86680,1,0,0:0:0:0:
64,192,86742,1,0,0:0:0:0:
448,192,86805,1,0,0:0:0:0:
192,192,86867,1,0,0:0:0:0:
320,192,86867,1,0,0:0:0:0:
64,192,86930,1,0,0:0:0:0:
192,192,86992,1,0,0:0:0:0:
320,192,87055,1,0,0:0:0:0:
448,192,87117,1,0,0:0:0:0:
64,192,87117,1,0,0:0:0:0:
192,192,87159,1,0,0:0:0:0:
448,192,87200,1,0,0:0:0:0:
192,192,87242,1,0,0:0:0:0:
320,192,87305,1,0,0:0:0:0:
192,192,87367,1,0,0:0:0:0:
64,192,87367,1,0,0:0:0:0:
320,192,87430,1,0,0:0:0:0:
448,192,87492,1,0,0:0:0:0:
192,192,87534,1,0,0:0:0:0:
448,192,87575,1,0,0:0:0:0:
64,192,87617,1,0,0:0:0:0:
192,192,87617,1,0,0:0:0:0:
320,192,87638,1,0,0:0:0:0:
448,192,87742,1,0,0:0:0:0:
64,192,87742,1,0,0:0:0:0:
192,192,87763,1,0,0:0:0:0:
448,192,87867,1,0,0:0:0:0:
320,192,87867,1,0,0:0:0:0:
192,192,87909,1,0,0:0:0:0:
64,192,87950,1,0,0:0:0:0:
320,192,87992,1,0,0:0:0:0:
64,192,88055,1,0,0:0:0:0:
320,192,88117,1,0,0:0:0:0:
448,192,88117,1,0,0:0:0:0:
192,192,88180,1,0,0:0:0:0:
64,192,88242,1,0,0:0:0:0:
448,192,88284,1,0,0:0:0:0:
320,192,88325,1,0,0:0:0:0:
192,192,88367,1,0,0:0:0:0:
64,192,88367,1,0,0:0:0:0:
448,192,88430,1,0,0:0:0:0:
320,192,88492,1,0,0:0:0:0:
192,192,88555,1,0,0:0:0:0:
448,192,88617,1,0,0:0:0:0:
320,192,88617,1,0,0:0:0:0:
192,192,88680,1,0,0:0:0:0:
64,192,88742,1,0,0:0:0:0:
320,192,88805,1,0,0:0:0:0:
448,192,88867,1,0,0:0:0:0:
64,192,88867,1,0,0:0:0:0:
320,192,88930,1,0,0:0:0:0:
448,192,88992,1,0,0:0:0:0:
64,192,88992,1,0,0:0:0:0:
192,192,89055,1,0,0:0:0:0:
64,192,89117,1,0,0:0:0:0:
448,192,89117,1,0,0:0:0:0:
192,192,89149,1,0,0:0:0:0:
320,192,89180,1,0,0:0:0:0:
64,192,89242,1,0,0:0:0:0:
448,192,89367,1,0,0:0:0:0:
192,192,89367,1,0,0:0:0:0:
64,192,89492,1,0,0:0:0:0:
192,192,89617,1,0,0:0:0:0:
320,192,89617,1,0,0:0:0:0:
448,192,89638,1,0,0:0:0:0:
64,192,89742,1,0,0:0:0:0:
448,192,89742,1,0,0:0:0:0:
192,192,89763,1,0,0:0:0:0:
448,192,89867,1,0,0:0:0:0:
64,192,89867,1,0,0:0:0:0:
320,192,89930,1,0,0:0:0:0:
192,192,89992,1,0,0:0:0:0:
448,192,89992,1,0,0:0:0:0:
320,192,90055,1,0,0:0:0:0:
192,192,90117,1,0,0:0:0:0:
64,192,90117,1,0,0:0:0:0:
192,192,90242,1,0,0:0:0:0:
64,192,90242,1,0,0:0:0:0:
320,192,90284,1,0,0:0:0:0:
448,192,90325,1,0,0:0:0:0:
64,192,90367,1,0,0:0:0:0:
192,192,90367,1,0,0:0:0:0:
320,192,90409,1,0,0:0:0:0:
448,192,90450,1,0,0:0:0:0:
192,192,90492,1,0,0:0:0:0:
320,192,90534,1,0,0:0:0:0:
64,192,90575,1,0,0:0:0:0:
448,192,90617,1,0,0:0:0:0:
192,192,90659,1,0,0:0:0:0:
320,192,90700,1,0,0:0:0:0:
448,192,90742,1,0,0:0:0:0:
192,192,90784,1,0,0:0:0:0:
64,192,90825,1,0,0:0:0:0:
448,192,90867,1,0,0:0:0:0:
320,192,90867,1,0,0:0:0:0:
192,192,90909,1,0,0:0:0:0:
64,192,90950,1,0,0:0:0:0:
320,192,90992,1,0,0:0:0:0:
192,192,91034,1,0,0:0:0:0:
448,192,91075,1,0,0:0:0:0:
64,192,91117,1,0,0:0:0:0:
320,192,91117,1,0,0:0:0:0:
192,192,91180,1,0,0:0:0:0:
448,192,91242,1,0,0:0:0:0:
192,192,91305,1,0,0:0:0:0:
64,192,91305,1,0,0:0:0:0:
320,192,91367,1,0,0:0:0:0:
448,192,91367,1,0,0:0:0:0:
64,192,91430,1,0,0:0:0:0:
448,192,91492,1,0,0:0:0:0:
192,192,91555,1,0,0:0:0:0:
320,192,91617,1,0,0:0:0:0:
64,192,91617,1,0,0:0:0:0:
192,192,91680,1,0,0:0:0:0:
448,192,91742,1,0,0:0:0:0:
64,192,91805,1,0,0:0:0:0:
192,192,91805,1,0,0:0:0:0:
320,192,91867,1,0,0:0:0:0:
448,192,91867,1,0,0:0:0:0:
192,192,91930,1,0,0:0:0:0:
320,192,91992,1,0,0:0:0:0:
192,192,92055,1,0,0:0:0:0:
320,192,92117,1,0,0:0:0:0:
448,192,92117,1,0,0:0:0:0:
64,192,92180,1,0,0:0:0:0:
320,192,92242,1,0,0:0:0:0:
448,192,92305,1,0,0:0:0:0:
192,192,92305,1,0,0:0:0:0:
320,192,92367,1,0,0:0:0:0:
64,192,92367,1,0,0:0:0:0:
192,192,92430,1,0,0:0:0:0:
448,192,92492,1,0,0:0:0:0:
64,192,92555,1,0,0:0:0:0:
448,192,92617,1,0,0:0:0:0:
320,192,92617,1,0,0:0:0:0:
64,192,92680,1,0,0:0:0:0:
320,192,92742,1,0,0:0:0:0:
448,192,92805,1,0,0:0:0:0:
192,192,92805,1,0,0:0:0:0:
320,192,92867,1,0,0:0:0:0:
64,192,92867,1,0,0:0:0:0:
192,192,92930,1,0,0:0:0:0:
448,192,92992,1,0,0:0:0:0:
320,192,93034,1,0,0:0:0:0:
64,192,93055,1,0,0:0:0:0:
192,192,93117,1,0,0:0:0:0:
448,192,93117,1,0,0:0:0:0:
320,192,93180,1,0,0:0:0:0:
192,192,93242,1,0,0:0:0:0:
320,192,93305,1,0,0:0:0:0:
192,192,93367,1,0,0:0:0:0:
448,192,93367,1,0,0:0:0:0:
64,192,93430,1,0,0:0:0:0:
448,192,93492,1,0,0:0:0:0:
64,192,93555,1,0,0:0:0:0:
448,192,93617,1,0,0:0:0:0:
192,192,93617,1,0,0:0:0:0:
320,192,93638,1,0,0:0:0:0:
64,192,93700,1,0,0:0:0:0:
448,192,93742,1,0,0:0:0:0:
192,192,93742,1,0,0:0:0:0:
320,192,93763,1,0,0:0:0:0:
64,192,93805,1,0,0:0:0:0:
448,192,93867,1,0,0:0:0:0:
320,192,93867,1,0,0:0:0:0:
192,192,93930,1,0,0:0:0:0:
448,192,93992,1,0,0:0:0:0:
192,192,94055,1,0,0:0:0:0:
320,192,94117,1,0,0:0:0:0:
448,192,94117,1,0,0:0:0:0:
64,192,94180,1,0,0:0:0:0:
320,192,94242,1,0,0:0:0:0:
448,192,94242,1,0,0:0:0:0:
64,192,94305,1,0,0:0:0:0:
448,192,94367,1,0,0:0:0:0:
320,192,94367,1,0,0:0:0:0:
192,192,94430,1,0,0:0:0:0:
64,192,94492,1,0,0:0:0:0:
448,192,94534,1,0,0:0:0:0:
320,192,94575,1,0,0:0:0:0:
64,192,94617,1,0,0:0:0:0:
192,192,94617,1,0,0:0:0:0:
320,192,94680,1,0,0:0:0:0:
192,192,94742,1,0,0:0:0:0:
448,192,94774,1,0,0:0:0:0:
64,192,94805,1,0,0:0:0:0:
320,192,94867,1,0,0:0:0:0:
448,192,94867,1,0,0:0:0:0:
64,192,94992,1,0,0:0:0:0:
192,192,95055,1,0,0:0:0:0:
448,192,95117,1,0,0:0:0:0:
320,192,95117,1,0,0:0:0:0:
64,192,95117,1,0,0:0:0:0:
320,192,95242,1,0,0:0:0:0:
448,192,95305,1,0,0:0:0:0:
192,192,95367,1,0,0:0:0:0:
64,192,95409,1,0,0:0:0:0:
320,192,95450,1,0,0:0:0:0:
448,192,95492,1,0,0:0:0:0:
320,192,95555,1,0,0:0:0:0:
64,192,95617,1,0,0:0:0:0:
192,192,95617,1,0,0:0:0:0:
448,192,95659,1,0,0:0:0:0:
192,192,95700,1,0,0:0:0:0:
320,192,95742,1,0,0:0:0:0:
64,192,95805,1,0,0:0:0:0:
448,192,95867,1,0,0:0:0:0:
320,192,95867,1,0,0:0:0:0:
64,192,95930,1,0,0:0:0:0:
192,192,95992,1,0,0:0:0:0:
64,192,96055,1,0,0:0:0:0:
192,192,96117,1,0,0:0:0:0:
448,192,96117,1,0,0:0:0:0:
320,192,96117,1,0,0:0:0:0:
64,192,96180,1,0,0:0:0:0:
448,192,96242,1,0,0:0:0:0:
192,192,96305,1,0,0:0:0:0:
320,192,96367,1,0,0:0:0:0:
64,192,96367,1,0,0:0:0:0:
448,192,96430,1,0,0:0:0:0:
192,192,96492,1,0,0:0:0:0:
320,192,96555,1,0,0:0:0:0:
448,192,96617,1,0,0:0:0:0:
64,192,96617,1,0,0:0:0:0:
320,192,96659,1,0,0:0:0:0:
192,192,96700,1,0,0:0:0:0:
448,192,96742,1,0,0:0:0:0:
64,192,96805,1,0,0:0:0:0:
448,192,96867,1,0,0:0:0:0:
320,192,96867,1,0,0:0:0:0:
192,192,96909,1,0,0:0:0:0:
64,192,96950,1,0,0:0:0:0:
448,192,96992,1,0,0:0:0:0:
320,192,97034,1,0,0:0:0:0:
192,192,97075,1,0,0:0:0:0:
64,192,97117,1,0,0:0:0:0:
448,192,97117,1,0,0:0:0:0:
320,192,97180,1,0,0:0:0:0:
192,192,97242,1,0,0:0:0:0:
320,192,97305,1,0,0:0:0:0:
64,192,97367,1,0,0:0:0:0:
448,192,97367,1,0,0:0:0:0:
192,192,97399,1,0,0:0:0:0:
320,192,97430,1,0,0:0:0:0:
448,192,97461,1,0,0:0:0:0:
64,192,97492,1,0,0:0:0:0:
192,192,97555,1,0,0:0:0:0:
448,192,97617,1,0,0:0:0:0:
64,192,97617,1,0,0:0:0:0:
320,192,97649,5,0,0:0:0:0:
192,192,97680,1,0,0:0:0:0:
64,192,97711,1,0,0:0:0:0:
448,192,97742,1,0,0:0:0:0:
320,192,97805,1,0,0:0:0:0:
64,192,97867,1,0,0:0:0:0:
448,192,97867,1,0,0:0:0:0:
192,192,97992,1,0,0:0:0:0:
320,192,97992,1,0,0:0:0:0:
448,192,97992,1,0,0:0:0:0:
320,192,98617,5,0,0:0:0:0:
448,192,98617,1,0,0:0:0:0:
192,192,98680,1,0,0:0:0:0:
64,192,98680,1,0,0:0:0:0:
320,192,98742,1,0,0:0:0:0:
448,192,98742,1,0,0:0:0:0:
64,192,98805,1,0,0:0:0:0:
192,192,98805,1,0,0:0:0:0:
320,192,98867,1,0,0:0:0:0:
448,192,98867,1,0,0:0:0:0:
192,192,98930,1,0,0:0:0:0:
64,192,98930,1,0,0:0:0:0:
448,192,98992,1,0,0:0:0:0:
320,192,98992,1,0,0:0:0:0:
64,192,99055,1,0,0:0:0:0:
192,192,99055,1,0,0:0:0:0:
448,192,99117,1,0,0:0:0:0:
320,192,99117,1,0,0:0:0:0:
64,192,99180,1,0,0:0:0:0:
192,192,99180,1,0,0:0:0:0:
320,192,99242,1,0,0:0:0:0:
448,192,99242,1,0,0:0:0:0:
192,192,99305,1,0,0:0:0:0:
64,192,99305,1,0,0:0:0:0:
320,192,99367,1,0,0:0:0:0:
448,192,99367,1,0,0:0:0:0:
192,192,99430,1,0,0:0:0:0:
64,192,99430,1,0,0:0:0:0:
448,192,99492,1,0,0:0:0:0:
320,192,99492,1,0,0:0:0:0:
64,192,99555,1,0,0:0:0:0:
192,192,99555,1,0,0:0:0:0:
320,192,99617,1,0,0:0:0:0:
448,192,99617,1,0,0:0:0:0:
448,192,100867,1,0,0:0:0:0:
320,192,100867,1,0,0:0:0:0:
64,192,100930,1,0,0:0:0:0:
192,192,100992,1,0,0:0:0:0:
320,192,101055,1,0,0:0:0:0:
448,192,101117,1,0,0:0:0:0:
64,192,101117,1,0,0:0:0:0:
192,192,101492,1,0,0:0:0:0:
64,192,101555,1,0,0:0:0:0:
192,192,101617,1,0,0:0:0:0:
320,192,101742,1,0,0:0:0:0:
448,192,101867,1,0,0:0:0:0:
320,192,101992,1,0,0:0:0:0:
64,192,102055,1,0,0:0:0:0:
448,192,102117,1,0,0:0:0:0:
192,192,102242,1,0,0:0:0:0:
64,192,102492,1,0,0:0:0:0:
192,192,102555,1,0,0:0:0:0:
320,192,102617,1,0,0:0:0:0:
192,192,102742,1,0,0:0:0:0:
448,192,102805,1,0,0:0:0:0:
64,192,102992,1,0,0:0:0:0:
192,192,102992,1,0,0:0:0:0:
320,192,103055,1,0,0:0:0:0:
448,192,103117,1,0,0:0:0:0:
64,192,103117,1,0,0:0:0:0:
192,192,103117,1,0,0:0:0:0:
320,192,103242,1,0,0:0:0:0:
64,192,103367,1,0,0:0:0:0:
448,192,103492,1,0,0:0:0:0:
320,192,103492,1,0,0:0:0:0:
192,192,103492,1,0,0:0:0:0:
448,192,103742,1,0,0:0:0:0:
192,192,103742,1,0,0:0:0:0:
64,192,103742,1,0,0:0:0:0:
192,192,103867,1,0,0:0:0:0:
64,192,103992,1,0,0:0:0:0:
320,192,103992,1,0,0:0:0:0:
448,192,103992,1,0,0:0:0:0:
64,192,104242,1,0,0:0:0:0:
320,192,104367,1,0,0:0:0:0:
192,192,104492,1,0,0:0:0:0:
64,192,104617,1,0,0:0:0:0:
320,192,104680,1,0,0:0:0:0:
192,192,104742,1,0,0:0:0:0:
64,192,104805,1,0,0:0:0:0:
320,192,104867,1,0,0:0:0:0:
192,192,104930,1,0,0:0:0:0:
448,192,104992,1,0,0:0:0:0:
320,192,105055,1,0,0:0:0:0:
64,192,105117,1,0,0:0:0:0:
448,192,105367,1,0,0:0:0:0:
192,192,105367,1,0,0:0:0:0:
64,192,105367,1,0,0:0:0:0:
320,192,105430,1,0,0:0:0:0:
64,192,105492,1,0,0:0:0:0:
192,192,105492,1,0,0:0:0:0:
448,192,105555,1,0,0:0:0:0:
320,192,105617,1,0,0:0:0:0:
192,192,105617,1,0,0:0:0:0:
64,192,105680,1,0,0:0:0:0:
448,192,105742,1,0,0:0:0:0:
192,192,105742,1,0,0:0:0:0:
320,192,105805,1,0,0:0:0:0:
64,192,105867,1,0,0:0:0:0:
192,192,105867,1,0,0:0:0:0:
448,192,105930,1,0,0:0:0:0:
192,192,105992,1,0,0:0:0:0:
320,192,105992,1,0,0:0:0:0:
64,192,106024,1,0,0:0:0:0:
192,192,106117,1,0,0:0:0:0:
320,192,106117,1,0,0:0:0:0:
64,192,106180,1,0,0:0:0:0:
448,192,106242,1,0,0:0:0:0:
64,192,106305,1,0,0:0:0:0:
448,192,106367,1,0,0:0:0:0:
320,192,106367,1,0,0:0:0:0:
192,192,106430,1,0,0:0:0:0:
320,192,106492,1,0,0:0:0:0:
192,192,106555,1,0,0:0:0:0:
320,192,106617,1,0,0:0:0:0:
64,192,106617,1,0,0:0:0:0:
448,192,106680,1,0,0:0:0:0:
192,192,106742,1,0,0:0:0:0:
448,192,106805,1,0,0:0:0:0:
64,192,106867,1,0,0:0:0:0:
192,192,106867,1,0,0:0:0:0:
320,192,106930,1,0,0:0:0:0:
192,192,106992,1,0,0:0:0:0:
64,192,107055,1,0,0:0:0:0:
320,192,107117,1,0,0:0:0:0:
192,192,107117,1,0,0:0:0:0:
448,192,107180,1,0,0:0:0:0:
64,192,107242,1,0,0:0:0:0:
320,192,107305,1,0,0:0:0:0:
64,192,107367,1,0,0:0:0:0:
192,192,107367,1,0,0:0:0:0:
448,192,107430,1,0,0:0:0:0:
192,192,107492,1,0,0:0:0:0:
320,192,107492,1,0,0:0:0:0:
64,192,107492,1,0,0:0:0:0:
448,192,107742,1,0,0:0:0:0:
320,192,107742,1,0,0:0:0:0:
192,192,107742,1,0,0:0:0:0:
64,192,107805,1,0,0:0:0:0:
320,192,107867,1,0,0:0:0:0:
448,192,107867,1,0,0:0:0:0:
192,192,107930,1,0,0:0:0:0:
64,192,107992,1,0,0:0:0:0:
320,192,107992,1,0,0:0:0:0:
448,192,107992,1,0,0:0:0:0:
192,192,108055,1,0,0:0:0:0:
320,192,108117,1,0,0:0:0:0:
192,192,108180,1,0,0:0:0:0:
320,192,108242,1,0,0:0:0:0:
448,192,108242,1,0,0:0:0:0:
192,192,108305,1,0,0:0:0:0:
64,192,108305,1,0,0:0:0:0:
320,192,108367,1,0,0:0:0:0:
448,192,108367,1,0,0:0:0:0:
64,192,108492,1,0,0:0:0:0:
192,192,108492,1,0,0:0:0:0:
320,192,108555,1,0,0:0:0:0:
64,192,108617,1,0,0:0:0:0:
192,192,108617,1,0,0:0:0:0:
448,192,108680,1,0,0:0:0:0:
320,192,108742,1,0,0:0:0:0:
448,192,108774,1,0,0:0:0:0:
64,192,108805,1,0,0:0:0:0:
192,192,108836,1,0,0:0:0:0:
448,192,108867,1,0,0:0:0:0:
320,192,108867,1,0,0:0:0:0:
448,192,108992,1,0,0:0:0:0:
320,192,109024,1,0,0:0:0:0:
192,192,109055,1,0,0:0:0:0:
64,192,109086,1,0,0:0:0:0:
448,192,109117,1,0,0:0:0:0:
320,192,109117,1,0,0:0:0:0:
192,192,109180,1,0,0:0:0:0:
64,192,109242,1,0,0:0:0:0:
320,192,109305,1,0,0:0:0:0:
192,192,109367,1,0,0:0:0:0:
448,192,109367,1,0,0:0:0:0:
64,192,109430,1,0,0:0:0:0:
192,192,109492,1,0,0:0:0:0:
320,192,109492,1,0,0:0:0:0:
448,192,109555,1,0,0:0:0:0:
192,192,109617,1,0,0:0:0:0:
320,192,109617,1,0,0:0:0:0:
64,192,109680,1,0,0:0:0:0:
192,192,109742,1,0,0:0:0:0:
448,192,109742,1,0,0:0:0:0:
64,192,109805,1,0,0:0:0:0:
320,192,109867,1,0,0:0:0:0:
448,192,109867,1,0,0:0:0:0:
192,192,109930,1,0,0:0:0:0:
64,192,109992,1,0,0:0:0:0:
320,192,109992,1,0,0:0:0:0:
448,192,110024,1,0,0:0:0:0:
64,192,110117,1,0,0:0:0:0:
192,192,110117,1,0,0:0:0:0:
320,192,110180,1,0,0:0:0:0:
64,192,110242,1,0,0:0:0:0:
320,192,110305,1,0,0:0:0:0:
192,192,110367,1,0,0:0:0:0:
448,192,110367,1,0,0:0:0:0:
320,192,110430,1,0,0:0:0:0:
448,192,110492,1,0,0:0:0:0:
320,192,110555,1,0,0:0:0:0:
192,192,110617,1,0,0:0:0:0:
64,192,110617,1,0,0:0:0:0:
448,192,110680,1,0,0:0:0:0:
64,192,110742,1,0,0:0:0:0:
448,192,110805,1,0,0:0:0:0:
64,192,110867,1,0,0:0:0:0:
320,192,110867,1,0,0:0:0:0:
192,192,110930,1,0,0:0:0:0:
320,192,110992,1,0,0:0:0:0:
192,192,111055,1,0,0:0:0:0:
64,192,111117,1,0,0:0:0:0:
320,192,111117,1,0,0:0:0:0:
448,192,111117,1,0,0:0:0:0:
192,192,111180,1,0,0:0:0:0:
320,192,111242,1,0,0:0:0:0:
64,192,111305,1,0,0:0:0:0:
192,192,111367,1,0,0:0:0:0:
320,192,111367,1,0,0:0:0:0:
448,192,111430,1,0,0:0:0:0:
64,192,111492,1,0,0:0:0:0:
192,192,111492,1,0,0:0:0:0:
448,192,111555,1,0,0:0:0:0:
320,192,111617,1,0,0:0:0:0:
192,192,111617,1,0,0:0:0:0:
64,192,111680,1,0,0:0:0:0:
448,192,111742,1,0,0:0:0:0:
192,192,111742,1,0,0:0:0:0:
320,192,111805,1,0,0:0:0:0:
64,192,111867,1,0,0:0:0:0:
192,192,111867,1,0,0:0:0:0:
448,192,111930,1,0,0:0:0:0:
192,192,111992,1,0,0:0:0:0:
320,192,111992,1,0,0:0:0:0:
448,192,112024,1,0,0:0:0:0:
64,192,112117,1,0,0:0:0:0:
192,192,112117,1,0,0:0:0:0:
320,192,112117,1,0,0:0:0:0:
448,192,112242,1,0,0:0:0:0:
320,192,112242,1,0,0:0:0:0:
64,192,112305,1,0,0:0:0:0:
192,192,112367,1,0,0:0:0:0:
320,192,112367,1,0,0:0:0:0:
448,192,112492,1,0,0:0:0:0:
192,192,112492,1,0,0:0:0:0:
320,192,112555,1,0,0:0:0:0:
192,192,112617,1,0,0:0:0:0:
64,192,112617,1,0,0:0:0:0:
448,192,112617,1,0,0:0:0:0:
448,192,112742,1,0,0:0:0:0:
320,192,112805,1,0,0:0:0:0:
192,192,112867,1,0,0:0:0:0:
64,192,112867,1,0,0:0:0:0:
448,192,112867,1,0,0:0:0:0:
320,192,112930,1,0,0:0:0:0:
192,192,112992,1,0,0:0:0:0:
64,192,113055,1,0,0:0:0:0:
192,192,113117,1,0,0:0:0:0:
320,192,113117,1,0,0:0:0:0:
448,192,113117,1,0,0:0:0:0:
64,192,113242,1,0,0:0:0:0:
320,192,113242,1,0,0:0:0:0:
192,192,113305,1,0,0:0:0:0:
64,192,113367,1,0,0:0:0:0:
320,192,113367,1,0,0:0:0:0:
64,192,113492,1,0,0:0:0:0:
320,192,113492,1,0,0:0:0:0:
448,192,113492,1,0,0:0:0:0:
64,192,113617,1,0,0:0:0:0:
192,192,113617,1,0,0:0:0:0:
320,192,113659,1,0,0:0:0:0:
448,192,113700,1,0,0:0:0:0:
192,192,113742,1,0,0:0:0:0:
64,192,113742,1,0,0:0:0:0:
64,192,113867,1,0,0:0:0:0:
192,192,113867,1,0,0:0:0:0:
448,192,113867,1,0,0:0:0:0:
320,192,113992,1,0,0:0:0:0:
448,192,113992,1,0,0:0:0:0:
64,192,114055,1,0,0:0:0:0:
320,192,114117,1,0,0:0:0:0:
448,192,114117,1,0,0:0:0:0:
64,192,114242,1,0,0:0:0:0:
192,192,114242,1,0,0:0:0:0:
320,192,114242,1,0,0:0:0:0:
448,192,114367,1,0,0:0:0:0:
64,192,114492,1,0,0:0:0:0:
192,192,114555,1,0,0:0:0:0:
448,192,114617,1,0,0:0:0:0:
320,192,114680,1,0,0:0:0:0:
192,192,114742,1,0,0:0:0:0:
448,192,114805,1,0,0:0:0:0:
320,192,114867,1,0,0:0:0:0:
64,192,114930,1,0,0:0:0:0:
320,192,114992,1,0,0:0:0:0:
192,192,115055,1,0,0:0:0:0:
64,192,115117,1,0,0:0:0:0:
448,192,115117,1,0,0:0:0:0:
320,192,115117,1,0,0:0:0:0:
320,192,115242,1,0,0:0:0:0:
192,192,115242,1,0,0:0:0:0:
64,192,115305,1,0,0:0:0:0:
192,192,115367,1,0,0:0:0:0:
320,192,115367,1,0,0:0:0:0:
64,192,115492,1,0,0:0:0:0:
192,192,115492,1,0,0:0:0:0:
448,192,115492,1,0,0:0:0:0:
320,192,115617,1,0,0:0:0:0:
64,192,115617,1,0,0:0:0:0:
448,192,115659,1,0,0:0:0:0:
192,192,115700,1,0,0:0:0:0:
320,192,115742,1,0,0:0:0:0:
64,192,115742,1,0,0:0:0:0:
64,192,115867,1,0,0:0:0:0:
192,192,115867,1,0,0:0:0:0:
320,192,115867,1,0,0:0:0:0:
448,192,115992,1,0,0:0:0:0:
320,192,115992,1,0,0:0:0:0:
64,192,116055,1,0,0:0:0:0:
320,192,116117,1,0,0:0:0:0:
448,192,116117,1,0,0:0:0:0:
448,192,116242,1,0,0:0:0:0:
320,192,116242,1,0,0:0:0:0:
192,192,116242,1,0,0:0:0:0:
320,192,116492,1,0,0:0:0:0:
320,192,116555,1,0,0:0:0:0:
64,192,116617,1,0,0:0:0:0:
320,192,116742,1,0,0:0:0:0:
448,192,116742,1,0,0:0:0:0:
192,192,116805,1,0,0:0:0:0:
64,192,116867,1,0,0:0:0:0:
448,192,116867,1,0,0:0:0:0:
320,192,116867,1,0,0:0:0:0:
192,192,116992,1,0,0:0:0:0:
192,192,117117,5,0,0:0:0:0:
64,192,117117,1,0,0:0:0:0:
320,192,117149,1,0,0:0:0:0:
448,192,117242,1,0,0:0:0:0:
320,192,117305,1,0,0:0:0:0:
64,192,117367,1,0,0:0:0:0:
192,192,117367,1,0,0:0:0:0:
448,192,117367,1,0,0:0:0:0:
64,192,117492,1,0,0:0:0:0:
192,192,117555,1,0,0:0:0:0:
320,192,117617,1,0,0:0:0:0:
448,192,117617,1,0,0:0:0:0:
64,192,117617,1,0,0:0:0:0:
448,192,117742,1,0,0:0:0:0:
320,192,117805,1,0,0:0:0:0:
192,192,117867,1,0,0:0:0:0:
64,192,117867,1,0,0:0:0:0:
448,192,117867,1,0,0:0:0:0:
64,192,117992,5,0,0:0:0:0:
320,192,117992,1,0,0:0:0:0:
448,192,117992,1,0,0:0:0:0:
192,192,118055,1,0,0:0:0:0:
320,192,118117,1,0,0:0:0:0:
192,192,118180,1,0,0:0:0:0:
320,192,118242,1,0,0:0:0:0:
192,192,118305,1,0,0:0:0:0:
320,192,118367,1,0,0:0:0:0:
192,192,118430,1,0,0:0:0:0:
320,192,118492,1,0,0:0:0:0:
192,192,118555,1,0,0:0:0:0:
320,192,118617,1,0,0:0:0:0:
192,192,118680,1,0,0:0:0:0:
320,192,118742,1,0,0:0:0:0:
192,192,118805,1,0,0:0:0:0:
320,192,118867,1,0,0:0:0:0:
192,192,118930,1,0,0:0:0:0:
320,192,118992,1,0,0:0:0:0:
192,192,119055,1,0,0:0:0:0:
320,192,119117,1,0,0:0:0:0:
192,192,119180,1,0,0:0:0:0:
320,192,119242,1,0,0:0:0:0:
192,192,119305,1,0,0:0:0:0:
320,192,119367,1,0,0:0:0:0:
192,192,119430,1,0,0:0:0:0:
320,192,119492,1,0,0:0:0:0:
192,192,119555,1,0,0:0:0:0:
192,192,119867,1,0,0:0:0:0:
320,192,119930,1,0,0:0:0:0:
64,192,119992,1,0,0:0:0:0:
192,192,120055,1,0,0:0:0:0:
320,192,120117,1,0,0:0:0:0:
448,192,120117,1,0,0:0:0:0:
64,192,120242,1,0,0:0:0:0:
192,192,120367,1,0,0:0:0:0:
320,192,120492,1,0,0:0:0:0:
64,192,120555,1,0,0:0:0:0:
320,192,120617,1,0,0:0:0:0:
448,192,120617,1,0,0:0:0:0:
192,192,120742,1,0,0:0:0:0:
448,192,120867,1,0,0:0:0:0:
320,192,120992,1,0,0:0:0:0:
448,192,120992,1,0,0:0:0:0:
192,192,121242,1,0,0:0:0:0:
320,192,121242,1,0,0:0:0:0:
448,192,121305,1,0,0:0:0:0:
320,192,121367,1,0,0:0:0:0:
192,192,121492,1,0,0:0:0:0:
64,192,121492,1,0,0:0:0:0:
448,192,121617,1,0,0:0:0:0:
320,192,121742,1,0,0:0:0:0:
64,192,121742,1,0,0:0:0:0:
192,192,121867,1,0,0:0:0:0:
64,192,121992,1,0,0:0:0:0:
192,192,122055,1,0,0:0:0:0:
448,192,122117,1,0,0:0:0:0:
320,192,122117,1,0,0:0:0:0:
192,192,122242,1,0,0:0:0:0:
64,192,122367,1,0,0:0:0:0:
448,192,122367,1,0,0:0:0:0:
192,192,122492,1,0,0:0:0:0:
448,192,122492,1,0,0:0:0:0:
320,192,122742,1,0,0:0:0:0:
192,192,122742,1,0,0:0:0:0:
448,192,122867,1,0,0:0:0:0:
64,192,122992,1,0,0:0:0:0:
320,192,122992,1,0,0:0:0:0:
448,192,123034,1,0,0:0:0:0:
192,192,123242,1,0,0:0:0:0:
448,192,123367,1,0,0:0:0:0:
192,192,123492,1,0,0:0:0:0:
64,192,123492,1,0,0:0:0:0:
448,192,123617,1,0,0:0:0:0:
320,192,123617,1,0,0:0:0:0:
448,192,123742,1,0,0:0:0:0:
192,192,123742,1,0,0:0:0:0:
320,192,123867,1,0,0:0:0:0:
64,192,123867,1,0,0:0:0:0:
192,192,123992,1,0,0:0:0:0:
448,192,123992,1,0,0:0:0:0:
64,192,124117,1,0,0:0:0:0:
192,192,124117,1,0,0:0:0:0:
320,192,124117,1,0,0:0:0:0:
448,192,124367,1,0,0:0:0:0:
64,192,124492,1,0,0:0:0:0:
320,192,124492,1,0,0:0:0:0:
192,192,124555,1,0,0:0:0:0:
448,192,124617,1,0,0:0:0:0:
64,192,124617,1,0,0:0:0:0:
192,192,124742,1,0,0:0:0:0:
320,192,124784,1,0,0:0:0:0:
448,192,124784,1,0,0:0:0:0:
64,192,124992,1,0,0:0:0:0:
64,192,125117,1,0,0:0:0:0:
448,192,125117,1,0,0:0:0:0:
64,192,125305,1,0,0:0:0:0:
192,192,125367,1,0,0:0:0:0:
320,192,125409,1,0,0:0:0:0:
448,192,125409,1,0,0:0:0:0:
64,192,125492,1,0,0:0:0:0:
64,192,125617,1,0,0:0:0:0:
448,192,125617,1,0,0:0:0:0:
320,192,125659,1,0,0:0:0:0:
192,192,125700,1,0,0:0:0:0:
448,192,125742,1,0,0:0:0:0:
320,192,125805,1,0,0:0:0:0:
192,192,125867,1,0,0:0:0:0:
64,192,125867,1,0,0:0:0:0:
64,192,125992,5,0,0:0:0:0:
192,192,125992,1,0,0:0:0:0:
448,192,126117,1,0,0:0:0:0:
320,192,126117,1,0,0:0:0:0:
64,192,126117,1,0,0:0:0:0:
192,192,126242,1,0,0:0:0:0:
320,192,126305,1,0,0:0:0:0:
64,192,126367,1,0,0:0:0:0:
192,192,126367,1,0,0:0:0:0:
320,192,126492,1,0,0:0:0:0:
192,192,126555,1,0,0:0:0:0:
320,192,126617,1,0,0:0:0:0:
448,192,126617,1,0,0:0:0:0:
192,192,126742,1,0,0:0:0:0:
320,192,126805,1,0,0:0:0:0:
64,192,126867,1,0,0:0:0:0:
192,192,126867,1,0,0:0:0:0:
448,192,126992,1,0,0:0:0:0:
192,192,126992,1,0,0:0:0:0:
64,192,126992,1,0,0:0:0:0:
320,192,127055,1,0,0:0:0:0:
192,192,127117,1,0,0:0:0:0:
448,192,127180,1,0,0:0:0:0:
192,192,127242,1,0,0:0:0:0:
320,192,127305,1,0,0:0:0:0:
64,192,127367,1,0,0:0:0:0:
320,192,127430,1,0,0:0:0:0:
192,192,127492,1,0,0:0:0:0:
448,192,127555,1,0,0:0:0:0:
192,192,127617,1,0,0:0:0:0:
64,192,127617,1,0,0:0:0:0:
320,192,127680,1,0,0:0:0:0:
448,192,127680,1,0,0:0:0:0:
192,192,127742,1,0,0:0:0:0:
64,192,127742,1,0,0:0:0:0:
448,192,127805,1,0,0:0:0:0:
320,192,127805,1,0,0:0:0:0:
192,192,127867,1,0,0:0:0:0:
64,192,127867,1,0,0:0:0:0:
320,192,127930,1,0,0:0:0:0:
448,192,127930,1,0,0:0:0:0:
64,192,127992,1,0,0:0:0:0:
192,192,127992,1,0,0:0:0:0:
448,192,128055,1,0,0:0:0:0:
320,192,128055,1,0,0:0:0:0:
64,192,128117,1,0,0:0:0:0:
192,192,128117,1,0,0:0:0:0:
448,192,128180,1,0,0:0:0:0:
320,192,128180,1,0,0:0:0:0:
192,192,128242,1,0,0:0:0:0:
64,192,128242,1,0,0:0:0:0:
320,192,128305,1,0,0:0:0:0:
448,192,128305,1,0,0:0:0:0:
192,192,128367,1,0,0:0:0:0:
64,192,128367,1,0,0:0:0:0:
320,192,128430,1,0,0:0:0:0:
448,192,128430,1,0,0:0:0:0:
64,192,128492,1,0,0:0:0:0:
192,192,128492,1,0,0:0:0:0:
448,192,128555,1,0,0:0:0:0:
320,192,128555,1,0,0:0:0:0:
64,192,128617,1,0,0:0:0:0:
320,192,128659,1,0,0:0:0:0:
192,192,128700,1,0,0:0:0:0:
448,192,128742,1,0,0:0:0:0:
320,192,128784,1,0,0:0:0:0:
64,192,128825,1,0,0:0:0:0:
448,192,128867,1,0,0:0:0:0:
192,192,128909,1,0,0:0:0:0:
64,192,128950,1,0,0:0:0:0:
320,192,128992,1,0,0:0:0:0:
192,192,129034,1,0,0:0:0:0:
64,192,129075,1,0,0:0:0:0:
64,192,129367,128,0,131086:0:0:0:0:
448,192,129367,128,0,131086:0:0:0:0:
