osu file format v14

[General]
AudioFilename: audio.mp3
AudioLeadIn: 0
PreviewTime: 13336
Countdown: 0
SampleSet: Soft
StackLeniency: 0.6
Mode: 0
LetterboxInBreaks: 0
WidescreenStoryboard: 1

[Editor]
Bookmarks: 13866,36454,47748,53395,61866,84454,95748,107042,118336,128219,135277,146571,150807,171983,183277
DistanceSpacing: 1
BeatDivisor: 6
GridSize: 8
TimelineZoom: 2.4

[Metadata]
Title:Cait Sith
TitleUnicode:Cait Sith
Artist:AAAA + Umeboshi Chazuke
ArtistUnicode:ああああ茶漬け
Creator:bob
Version:Insane
Source:
Tags:dream chasers featured artist fa electronic instrumental setu wyrio bongo dailycare chai the tea
BeatmapID:3812821
BeatmapSetID:1848926

[Difficulty]
HPDrainRate:5.4
CircleSize:4
OverallDifficulty:8
ApproachRate:8.8
SliderMultiplier:1.6
SliderTickRate:1

[Events]
//Background and Video events
0,0,"bggea.png",0,0
//Break Periods
//Storyboard Layer 0 (Background)
//Storyboard Layer 1 (Fail)
//Storyboard Layer 2 (Pass)
//Storyboard Layer 3 (Foreground)
//Storyboard Layer 4 (Overlay)
//Storyboard Sound Samples

[TimingPoints]
2572,352.941176470588,4,2,0,40,1,0
3542,-80,4,2,0,40,0,0
3807,-133.333333333333,4,2,0,40,0,0
3983,-100,4,2,0,40,0,0
4954,-80,4,2,0,40,0,0
5219,-133.333333333333,4,2,0,40,0,0
5395,-100,4,2,0,40,0,0
6366,-80,4,2,0,40,0,0
6630,-133.333333333333,4,2,0,40,0,0
6807,-100,4,2,0,40,0,0
7777,-80,4,2,0,40,0,0
8042,-133.333333333333,4,2,0,40,0,0
8219,-66.6666666666667,4,2,2,50,0,0
8571,-80,4,2,2,50,0,0
9277,-133.333333333333,4,2,2,50,0,0
10513,-80,4,2,2,50,0,0
11042,-80,4,2,1,55,0,0
12630,-200,4,2,1,55,0,0
13336,-200,4,3,0,55,0,0
13866,-66.6666666666667,4,2,1,80,0,0
15277,-50,4,2,1,80,0,0
15895,-66.6666666666667,4,2,1,80,0,0
17042,-57.1428571428571,4,2,1,80,0,0
18895,-100,4,2,1,80,0,0
19160,-66.6666666666667,4,2,1,80,0,0
21277,-80,4,2,1,80,0,0
21895,-50,4,2,1,80,0,0
22601,-100,4,2,1,80,0,0
22954,-66.6666666666667,4,2,1,80,0,0
23219,-100,4,2,1,80,0,0
23924,-100,4,2,1,80,0,0
25160,-66.6666666666667,4,2,1,80,0,0
26571,-50,4,2,1,80,0,0
26836,-66.6666666666667,4,2,1,80,0,0
27101,-100,4,2,1,80,0,0
27630,-66.6666666666667,4,2,1,80,0,0
27983,-57.1428571428571,4,2,1,80,0,0
30189,-100,4,2,1,80,0,0
30454,-66.6666666666667,4,2,1,80,0,0
32571,-80,4,2,1,80,0,0
33189,-50,4,2,1,80,0,0
33630,-57.1428571428571,4,2,1,80,0,0
36454,-100,4,2,2,70,0,0
37513,-133.333333333333,4,2,2,70,0,0
37748,-100,4,2,2,70,0,0
38571,-80,4,2,2,70,0,0
39277,-133.333333333333,4,2,2,70,0,0
39630,-100,4,2,2,70,0,0
42101,-133.333333333333,4,2,2,70,0,0
45983,-100,4,2,2,70,0,0
46219,-200,4,2,2,70,0,0
46336,-133.333333333333,4,2,2,70,0,0
47748,-133.333333333333,4,2,3,70,0,0
48454,-80,4,2,3,70,0,0
49866,-100,4,2,3,70,0,0
50101,-90.9090909090909,4,2,3,50,0,0
50219,-90.9090909090909,4,2,3,53,0,0
50336,-83.3333333333333,4,2,3,56,0,0
50454,-83.3333333333333,4,2,3,58,0,0
50571,-76.9230769230769,4,2,3,63,0,0
50689,-76.9230769230769,4,2,3,66,0,0
50807,-71.4285714285714,4,2,3,69,0,0
50924,-71.4285714285714,4,2,3,72,0,0
51042,-66.6666666666667,4,2,3,72,0,0
51160,-66.6666666666667,4,2,3,76,0,0
51277,-62.5,4,2,3,79,0,0
51395,-62.5,4,2,3,82,0,0
51513,-58.8235294117647,4,2,3,85,0,0
51630,-58.8235294117647,4,2,3,93,0,0
51748,-55.5555555555556,4,2,3,95,0,0
51865,-55.5555555555556,4,2,3,97,0,0
51983,-400,4,2,3,100,0,0
52336,-400,4,2,3,52,0,0
52630,-400,4,2,3,5,0,0
52689,-400,4,2,3,52,0,0
53395,-50,4,2,1,82,0,0
54277,-66.6666666666667,4,2,1,82,0,0
56219,-50,4,2,1,82,0,0
57101,-66.6666666666667,4,2,1,82,0,0
59042,-100,4,2,1,60,0,0
59395,-57.1428571428571,4,2,1,70,0,0
59748,-57.1428571428571,4,2,1,80,0,0
60101,-57.1428571428571,4,2,1,90,0,0
60454,-57.1428571428571,4,2,1,100,0,0
60630,-200,4,2,1,100,0,0
61513,-200,4,2,1,60,0,0
61866,-66.6666666666667,4,2,1,80,0,0
63277,-50,4,2,1,80,0,0
63895,-66.6666666666667,4,2,1,80,0,0
65042,-57.1428571428571,4,2,1,80,0,0
66277,-133.333333333333,4,2,1,80,0,0
66807,-133.333333333333,4,2,0,80,0,0
67160,-66.6666666666667,4,2,1,80,0,0
69277,-80,4,2,1,80,0,0
69895,-50,4,2,1,80,0,0
70601,-100,4,2,1,80,0,0
70954,-66.6666666666667,4,2,1,80,0,0
71219,-100,4,2,1,80,0,0
71924,-100,4,2,1,80,0,0
73160,-66.6666666666667,4,2,1,80,0,0
74307,-50,4,2,1,80,0,0
74836,-66.6666666666667,4,2,1,80,0,0
75101,-100,4,2,1,80,0,0
75630,-66.6666666666667,4,2,1,80,0,0
75983,-57.1428571428571,4,2,1,80,0,0
77571,-133.333333333333,4,2,1,80,0,0
78277,-66.6666666666667,4,2,1,80,0,0
80571,-80,4,2,1,80,0,0
81189,-50,4,2,1,80,0,0
81630,-57.1428571428571,4,2,1,80,0,0
84101,-100,4,2,1,80,0,0
84454,-100,4,2,0,40,0,0
85424,-80,4,2,0,40,0,0
85689,-133.333333333333,4,2,0,40,0,0
85866,-100,4,2,0,40,0,0
86836,-80,4,2,0,40,0,0
87101,-133.333333333333,4,2,0,40,0,0
87277,-100,4,2,0,40,0,0
88248,-80,4,2,0,40,0,0
88513,-133.333333333333,4,2,0,40,0,0
88689,-100,4,2,0,40,0,0
89660,-80,4,2,0,40,0,0
89924,-133.333333333333,4,2,0,40,0,0
90101,-66.6666666666667,4,2,2,50,0,0
90454,-80,4,2,2,50,0,0
91160,-133.333333333333,4,2,2,50,0,0
92395,-80,4,2,2,50,0,0
92924,-80,4,2,1,55,0,0
95748,-80,4,2,6,70,0,0
96101,-100,4,2,6,70,0,0
97866,-80,4,2,6,70,0,0
98395,-100,4,2,6,70,0,0
99101,-80,4,2,6,70,0,0
99983,-66.6666666666667,4,2,6,70,0,0
100689,-80,4,2,6,70,0,0
101042,-100,4,2,6,70,0,0
103160,-80,4,2,6,70,0,0
104395,-100,4,2,6,70,0,0
105454,-80,4,2,6,70,0,0
105630,-80,4,2,1,70,0,0
107042,-66.6666666666667,4,2,1,80,0,0
108719,-57.1428571428571,4,2,1,80,0,0
109866,-66.6666666666667,4,2,1,80,0,0
110924,-100,4,2,1,80,0,0
112336,-66.6666666666667,4,2,1,80,0,0
116219,-57.1428571428571,4,2,1,80,0,0
117983,-133.333333333333,4,2,1,80,0,0
118336,-80,4,2,1,80,0,0
119571,-133.333333333333,4,2,1,80,0,0
119748,-80,4,2,1,80,0,0
120983,-100,4,2,1,80,0,0
121160,-80,4,2,1,80,0,0
122571,-80,4,2,3,70,0,0
122748,-100,4,2,3,70,0,0
123983,-100,4,2,4,84,0,0
125571,-80,4,2,4,84,0,0
126013,-100,4,2,4,84,0,0
127160,-66.6666666666667,4,2,3,84,0,0
127336,-66.6666666666667,4,2,4,84,0,0
128219,-66.6666666666667,4,2,2,84,0,0
129630,-66.6666666666667,4,2,3,84,0,0
130336,-80,4,2,3,84,0,0
131748,-133.333333333333,4,2,3,84,0,0
132101,-80,4,2,3,84,0,0
132807,-80,4,2,1,84,0,0
133160,-80,4,2,3,84,0,0
135277,-50,4,2,1,84,0,0
136160,-66.6666666666667,4,2,1,84,0,0
137395,-50,4,2,1,84,0,0
138983,-66.6666666666667,4,2,1,84,0,0
140924,-100,4,2,1,60,0,0
141277,-57.1428571428571,4,2,1,70,0,0
141630,-57.1428571428571,4,2,1,80,0,0
141983,-57.1428571428571,4,2,1,90,0,0
142336,-57.1428571428571,4,2,1,100,0,0
142513,-100,4,2,1,100,0,0
143748,-133.333333333333,4,2,1,40,0,0
146042,-133.333333333333,4,2,1,40,0,0
146571,-100,4,2,2,50,0,0
150101,-100,4,2,2,70,0,0
150454,-100,4,2,2,80,0,0
150542,-57.1428571428571,4,2,2,80,0,0
150807,-57.1428571428571,4,2,2,90,0,1
151601,-66.6666666666667,4,2,2,90,0,1
152219,-66.6666666666667,4,2,1,90,0,1
155042,-57.1428571428571,4,2,1,90,0,1
155660,-66.6666666666667,4,2,1,90,0,1
156454,-100,4,2,1,90,0,1
157866,-66.6666666666667,4,2,1,90,0,1
159454,-80,4,2,1,90,0,1
160336,-133.333333333333,4,2,1,90,0,1
160689,-57.1428571428571,4,2,1,90,0,1
161042,-66.6666666666667,4,2,1,90,0,1
162101,-57.1428571428571,4,2,1,90,0,1
162895,-66.6666666666667,4,2,1,90,0,1
163160,-66.6666666666667,4,2,1,50,0,1
163204,-66.6666666666667,4,2,1,55,0,1
163248,-66.6666666666667,4,2,1,60,0,1
163292,-66.6666666666667,4,2,1,65,0,1
163336,-66.6666666666667,4,2,1,70,0,1
163380,-66.6666666666667,4,2,1,75,0,1
163424,-66.6666666666667,4,2,1,80,0,1
163468,-66.6666666666667,4,2,1,85,0,1
163513,-66.6666666666667,4,2,1,90,0,1
165277,-66.6666666666667,4,2,1,90,0,1
165366,-66.6666666666667,4,2,1,90,0,1
165630,-57.1428571428571,4,2,1,90,0,1
167748,-100,4,2,1,40,0,0
168013,-133.333333333333,4,2,1,40,0,0
169160,-57.1428571428571,4,2,3,90,0,1
171454,-66.6666666666667,4,2,0,90,0,0
171983,-100,4,2,0,50,0,0
172954,-80,4,2,0,50,0,0
173219,-133.333333333333,4,2,0,50,0,0
173395,-100,4,2,0,50,0,0
174366,-80,4,2,0,50,0,0
174630,-133.333333333333,4,2,0,50,0,0
174807,-100,4,2,0,50,0,0
175777,-80,4,2,0,50,0,0
176042,-133.333333333333,4,2,0,50,0,0
176219,-100,4,2,0,50,0,0
177189,-80,4,2,0,50,0,0
177454,-133.333333333333,4,2,0,50,0,0
177630,-66.6666666666667,4,2,2,60,0,0
177983,-80,4,2,2,60,0,0
178689,-133.333333333333,4,2,2,60,0,0
179836,-80,4,2,2,60,0,0
180454,-80,4,2,1,70,0,0
182042,-133.333333333333,4,2,1,70,0,0
182807,-100,4,2,1,70,0,0
183277,-100,4,2,5,70,0,0
183513,-80,4,2,5,70,0,0
186336,-133.333333333333,4,2,5,70,0,0
187042,-100,4,2,5,70,0,0
188454,-60.6060606060606,4,2,5,70,0,0

[Colours]
Combo1 : 242,216,15
Combo2 : 122,203,12
Combo3 : 221,226,24
Combo4 : 65,240,28

[HitObjects]
376,50,2572,6,0,P|381:95|345:134,1,80,2|0,0:1|0:0,0:0:0:0:
341,142,2836,1,0,0:0:0:0:
341,142,2924,2,0,P|367:178|420:183,1,80,2|0,0:0|0:0,0:0:0:0:
435,192,3189,1,0,0:0:0:0:
435,192,3277,2,0,P|440:237|404:276,1,80,2|0,0:0|0:0,0:0:0:0:
341,261,3542,2,0,P|276:268|265:316,1,100,2|0,0:0|0:0,0:0:0:0:
254,327,3807,2,0,P|232:334|211:328,1,30.0000011444092,2|0,0:2|0:0,0:0:0:0:
136,334,3983,6,0,P|131:289|167:250,1,80,2|0,0:1|0:0,0:0:0:0:
171,242,4247,1,0,0:0:0:0:
171,242,4335,2,0,P|145:206|92:201,1,80,2|0,0:0|0:0,0:0:0:0:
77,192,4600,1,0,0:0:0:0:
77,192,4688,2,0,P|72:147|108:108,1,80,2|0,0:0|0:0,0:0:0:0:
171,123,4954,2,0,P|236:116|247:68,1,100,2|0,0:0|0:0,0:0:0:0:
258,57,5219,2,0,P|280:50|301:56,1,30.0000011444092,2|0,0:2|0:0,0:0:0:0:
376,50,5395,6,0,P|381:95|345:134,1,80,2|0,0:1|0:0,0:0:0:0:
341,142,5659,1,0,0:0:0:0:
341,142,5747,2,0,P|367:178|420:183,1,80,2|0,0:0|0:0,0:0:0:0:
435,192,6012,1,0,0:0:0:0:
435,192,6100,2,0,P|440:237|404:276,1,80,2|0,0:0|0:0,0:0:0:0:
341,261,6366,2,0,P|276:268|265:316,1,100,2|0,0:0|0:0,0:0:0:0:
254,327,6631,2,0,P|232:334|211:328,1,30.0000011444092,2|0,0:2|0:0,0:0:0:0:
136,334,6807,6,0,P|131:289|167:250,1,80,2|0,0:1|0:0,0:0:0:0:
171,242,7071,1,0,0:0:0:0:
171,242,7159,2,0,P|145:206|92:201,1,80,2|0,0:0|0:0,0:0:0:0:
77,192,7424,1,0,0:0:0:0:
77,192,7512,2,0,P|72:147|108:108,1,80,2|0,0:0|0:0,0:0:0:0:
171,123,7778,2,0,P|236:116|247:68,1,100,2|0,0:0|0:0,0:0:0:0:
258,57,8043,2,0,P|280:50|301:56,1,30.0000011444092,2|0,0:2|0:0,0:0:0:0:
441,34,8219,6,0,P|463:84|412:223,1,180.000006866455,10|8,0:2|0:0,0:0:0:0:
344,206,8571,2,0,P|295:225|300:291,1,100,8|0,0:0|0:0,0:0:0:0:
317,287,8836,1,8,0:0:0:0:
400,288,9013,1,8,0:0:0:0:
253,361,9189,1,8,0:0:0:0:
253,361,9277,2,0,L|217:361,4,30.0000011444092,8|0|0|0|8,0:2|0:0|0:0|0:0|0:2,0:0:0:0:
220,170,9807,5,8,0:0:0:0:
133,193,9983,1,10,0:0:0:0:
125,183,10071,1,2,0:0:0:0:
124,170,10160,1,2,0:0:0:0:
131,159,10248,1,8,0:0:0:0:
178,266,10424,1,10,0:0:0:0:
178,266,10513,6,0,P|158:291|159:328,1,50,2|8,0:2|0:0,0:0:0:0:
245,210,10689,2,0,P|233:180|200:162,1,50,8|0,3:2|0:0,0:0:0:0:
259,298,10866,2,0,P|290:302|322:283,1,50,2|0,3:2|0:0,0:0:0:0:
372,206,11042,2,0,P|415:228|402:292,2,100,4|8|0,3:2|0:1|3:2,0:0:0:0:
338,119,11571,1,8,0:1:0:0:
133,47,11748,6,0,B|151:8|234:27,1,100,2|8,0:2|0:1,0:0:0:0:
105,157,12101,2,0,B|87:196|4:177,1,100,10|8,3:1|0:1,0:0:0:0:
260,39,12454,1,14,3:1:0:0:
328,85,12630,6,0,L|328:113,6,20,2|0|2|0|2|0|2,0:2|0:0|0:2|0:0|0:2|0:0|0:2,0:0:0:0:
182,291,13336,5,2,0:3:0:0:
260,296,13512,1,2,0:3:0:0:
313,238,13689,1,2,0:3:0:0:
114,166,13866,5,4,3:2:0:0:
136,176,13954,1,0,0:0:0:0:
162,174,14042,1,10,0:1:0:0:
184,161,14130,1,2,0:2:0:0:
193,137,14219,2,0,P|220:131|276:167,1,60.0000022888184,2|0,3:2|0:0,0:0:0:0:
313,238,14395,2,0,P|286:244|230:208,1,60.0000022888184,10|0,0:1|3:0,0:0:0:0:
343,103,14571,6,0,L|361:35,1,60.0000022888184,2|2,0:0|3:1,0:0:0:0:
420,7,14748,1,10,0:1:0:0:
420,7,14836,2,0,L|402:75,1,60.0000022888184,2|2,0:0|3:2,0:0:0:0:
356,127,15013,1,2,0:0:0:0:
367,157,15101,1,10,0:1:0:0:
397,169,15189,1,2,0:0:0:0:
426,156,15277,6,0,B|395:228|451:238|408:327,1,160,2|8,3:1|0:1,0:0:0:0:
402,351,15542,1,2,0:0:0:0:
402,351,15630,2,0,P|465:361|451:276,1,160,2|2,3:1|0:0,0:0:0:0:
378,275,15895,2,0,L|257:275,1,120.000004577637,2|2,3:2|3:0,0:0:0:0:
160,304,16160,6,0,P|162:271|200:245,1,60.0000022888184,10|0,0:1|0:0,0:0:0:0:
206,161,16336,1,2,3:1:0:0:
231,149,16424,1,2,0:0:0:0:
259,151,16513,1,10,0:1:0:0:
280,168,16601,1,2,0:0:0:0:
288,194,16689,6,0,P|316:202|352:184,1,60.0000022888184,2|0,3:2|0:0,0:0:0:0:
363,77,16866,2,0,P|335:69|299:87,1,60.0000022888184,10|2,0:1|0:0,0:0:0:0:
206,161,17042,2,0,P|178:169|142:151,1,70.000000667572,2|2,3:2|3:0,0:0:0:0:
131,44,17219,2,0,P|159:36|195:54,1,70.000000667572,10|2,0:1|0:2,0:0:0:0:
28,172,17395,5,6,3:1:0:0:
9,213,17483,1,2,0:2:0:0:
11,257,17571,1,14,0:1:0:0:
43,288,17660,1,2,0:2:0:0:
140,256,17836,1,8,0:3:0:0:
140,256,17924,1,6,0:3:0:0:
232,368,18101,5,10,0:1:0:0:
312,368,18277,1,10,0:1:0:0:
392,368,18454,1,10,3:1:0:0:
448,296,18630,1,10,0:1:0:0:
448,296,18719,1,6,3:2:0:0:
353,208,18895,6,0,P|357:184|352:165,2,40,2|2|0,0:2|0:1|0:0,0:0:0:0:
383,144,19160,2,0,P|422:151|457:126,1,60.0000022888184,6|2,0:1|0:0,0:0:0:0:
309,89,19336,2,0,P|270:82|235:107,1,60.0000022888184,2|2,3:2|0:0,0:0:0:0:
244,191,19513,5,6,3:2:0:0:
265,262,19689,1,10,0:1:0:0:
145,179,19866,1,2,3:1:0:0:
150,105,20042,1,10,0:1:0:0:
86,274,20219,1,2,0:0:0:0:
142,323,20395,1,10,0:1:0:0:
244,191,20571,5,2,3:2:0:0:
244,191,20660,1,2,0:0:0:0:
307,95,20836,2,0,P|277:64|199:57,1,120.000004577637,2|2,0:0|0:0,0:0:0:0:
145,132,21101,6,0,P|119:132|87:102,1,60.0000022888184,10|2,0:1|0:0,0:0:0:0:
159,0,21277,2,0,L|159:50,3,50,2|2|10|2,3:2|0:0|0:1|3:0,0:0:0:0:
203,55,21630,1,0,0:0:0:0:
76,209,21895,2,0,P|101:252|16:269,1,160,2|0,0:0|0:0,0:0:0:0:
1,167,22160,5,10,0:1:0:0:
219,148,22336,2,0,P|270:119|251:28,1,160,6|8,3:2|0:1,0:0:0:0:
171,42,22601,2,0,L|116:42,2,40,2|2|2,0:0|3:2|0:0,0:0:0:0:
219,148,22954,2,0,P|227:211|276:262,1,120.000004577637,2|0,3:2|3:0,0:0:0:0:
367,260,23219,6,0,L|419:260,1,40,10|0,0:1|0:0,0:0:0:0:
470,327,23396,2,0,L|421:327,1,40,6|2,3:1|0:0,0:0:0:0:
440,229,23572,2,0,L|487:229,1,40,10|2,0:1|0:0,0:0:0:0:
348,285,23749,1,2,3:2:0:0:
318,208,23924,6,0,L|318:168,5,40,8|0|8|0|10|2,2:2|0:0|2:2|0:0|2:2|0:0,0:0:0:0:
348,285,24454,1,2,3:0:0:0:
336,91,24630,6,0,P|375:92|406:124,2,80,10|10|4,3:3|0:3|0:1,0:0:0:0:
179,77,25160,5,4,3:2:0:0:
164,87,25248,1,0,0:0:0:0:
162,105,25336,2,0,P|165:119|142:156,1,60.0000022888184,10|2,0:1|0:0,0:0:0:0:
95,243,25513,5,2,3:2:0:0:
105,258,25601,1,0,0:0:0:0:
122,263,25689,2,0,P|136:260|173:283,1,60.0000022888184,10|0,0:1|3:0,0:0:0:0:
251,194,25866,6,0,L|311:194,1,60.0000022888184,2|2,0:0|3:1,0:0:0:0:
299,283,26042,1,10,0:1:0:0:
299,283,26130,2,0,L|371:283,1,60.0000022888184,2|2,0:0|3:0,0:0:0:0:
325,182,26307,1,2,0:0:0:0:
354,169,26395,1,10,0:1:0:0:
384,180,26483,1,2,0:0:0:0:
402,207,26571,6,0,B|409:138|327:126|354:39,1,160,2|8,3:1|0:1,0:0:0:0:
386,50,26836,2,0,P|384:24|358:-2,2,60.0000022888184,2|2|0,0:0|3:1|0:0,0:0:0:0:
270,75,27101,2,0,L|310:75,2,40,10|2|0,0:1|3:2|0:0,0:0:0:0:
170,103,27366,5,0,3:0:0:0:
163,126,27454,1,10,0:1:0:0:
170,149,27542,1,2,0:0:0:0:
188,165,27630,2,0,P|209:169|234:211,1,60.0000022888184,2|2,3:1|0:0,0:0:0:0:
115,222,27807,2,0,P|93:217|68:175,1,60.0000022888184,10|2,0:1|0:0,0:0:0:0:
224,234,27983,6,0,P|236:252|224:300,1,70.000000667572,2|0,3:2|0:0,0:0:0:0:
82,153,28160,2,0,P|70:134|82:87,1,70.000000667572,10|2,0:1|0:0,0:0:0:0:
264,168,28336,1,6,3:1:0:0:
284,169,28424,1,2,3:0:0:0:
304,162,28513,1,6,0:1:0:0:
316,145,28601,1,2,0:2:0:0:
319,124,28689,5,6,3:1:0:0:
352,160,28777,1,2,0:0:0:0:
366,207,28865,1,10,0:3:0:0:
342,252,28954,1,10,0:3:0:0:
347,349,29130,1,6,0:3:0:0:
347,349,29219,1,6,0:3:0:0:
219,283,29395,5,10,0:2:0:0:
139,283,29571,1,10,0:2:0:0:
59,283,29748,1,10,3:2:0:0:
3,355,29924,1,10,0:2:0:0:
3,355,30013,1,6,3:2:0:0:
0,224,30189,6,0,P|21:200|45:199,2,40,0|0|2,0:0|0:1|0:0,0:0:0:0:
65,192,30454,2,0,P|69:151|28:116,1,60.0000022888184,6|2,0:1|0:0,0:0:0:0:
154,124,30630,2,0,P|194:119|230:161,1,60.0000022888184,2|0,3:0|0:0,0:0:0:0:
206,231,30807,5,4,3:2:0:0:
176,299,30983,1,10,0:1:0:0:
317,351,31160,1,2,3:1:0:0:
291,282,31336,1,10,0:1:0:0:
425,161,31513,1,2,0:0:0:0:
496,181,31689,1,10,0:1:0:0:
512,352,31866,5,2,3:2:0:0:
512,352,31954,1,2,0:0:0:0:
424,271,32130,2,0,P|354:235|353:187,1,120.000004577637,2|2,0:0|0:0,0:0:0:0:
425,161,32395,6,0,P|422:132|385:108,1,60.0000022888184,10|2,0:1|0:0,0:0:0:0:
310,183,32571,2,0,L|254:183,3,50,2|2|10|2,3:2|0:0|0:1|3:0,0:0:0:0:
349,200,32924,1,2,0:0:0:0:
512,76,33189,6,0,P|481:15|389:3,1,160,2|0,0:0|0:0,0:0:0:0:
384,100,33454,1,10,0:1:0:0:
238,30,33630,2,0,P|205:64|205:111,1,70.000000667572,6|0,3:2|0:0,0:0:0:0:
231,128,33807,1,8,0:1:0:0:
231,128,33895,1,2,0:0:0:0:
117,119,34071,1,2,0:1:0:0:
105,138,34160,1,10,0:1:0:0:
102,160,34248,1,2,3:0:0:0:
112,180,34336,6,0,B|156:219|121:272|173:318,1,140.000001335144,6|8,0:2|0:1,0:0:0:0:
177,308,34689,2,0,B|136:273|171:220|127:181,1,140.000001335144,2|8,3:2|0:1,0:0:0:0:
0,207,35042,1,14,3:1:0:0:
135,12,35307,5,2,0:2:0:0:
135,12,35395,1,10,2:3:0:0:
135,12,35483,1,6,0:3:0:0:
52,59,35660,1,6,0:2:0:0:
0,4,35924,5,2,0:2:0:0:
251,57,36277,5,2,0:2:0:0:
251,57,36366,1,2,0:2:0:0:
251,57,36454,2,0,P|290:91|272:149,1,106.666666666667,4|0,3:1|0:0,0:0:0:0:
185,162,36807,1,2,0:2:0:0:
185,162,37042,6,0,P|136:163|118:260,1,160,2|0,0:2|3:0,0:0:0:0:
195,292,37513,2,0,L|195:269,1,20.0000007629395,2|2,0:0|0:2,0:0:0:0:
284,226,37748,5,0,3:2:0:0:
294,235,37866,2,0,P|350:224|407:255,1,106.666666666667,2|8,3:2|3:2,0:0:0:0:
420,326,38219,5,2,0:2:0:0:
425,317,38307,5,0,0:0:0:0:
437,310,38395,5,0,0:0:0:0:
454,310,38483,5,0,0:0:0:0:
472,320,38571,6,0,P|500:295|458:215,1,133.333333333333,0|2,1:2|3:2,0:0:0:0:
374,137,38924,1,2,0:2:0:0:
394,90,39042,1,2,0:2:0:0:
444,77,39160,1,2,3:2:0:0:
487,104,39277,2,0,L|487:129,1,20.0000007629395,2|0,3:2|0:0,0:0:0:0:
253,90,39513,5,10,0:2:0:0:
243,61,39630,2,0,P|217:65|192:56,2,53.3333333333333,2|10|8,0:2|0:2|0:2,0:0:0:0:
315,9,39983,5,0,1:2:0:0:
364,87,40336,5,2,0:2:0:0:
322,172,40689,5,2,3:2:0:0:
325,180,40807,2,0,P|341:202|349:229,1,53.3333333333333,0|8,0:0|0:2,0:0:0:0:
228,156,41042,1,2,0:2:0:0:
229,165,41160,2,0,P|245:187|253:214,1,53.3333333333333
141,214,41395,2,0,P|96:166|94:112,1,106.666666666667,0|8,1:2|0:2,0:0:0:0:
91,29,41748,5,2,0:2:0:0:
64,14,41866,1,8,0:2:0:0:
33,12,41983,1,0,3:0:0:0:
8,30,42101,6,0,L|20:58,1,20.0000007629395,2|0,3:2|0:0,0:0:0:0:
173,66,42454,6,0,L|185:94,1,20.0000007629395,2|0,0:2|0:0,0:0:0:0:
19,188,42807,6,0,L|30:159,1,20.0000007629395,2|0,1:2|0:0,0:0:0:0:
88,259,43160,6,0,L|76:287,1,20.0000007629395,2|0,0:2|0:0,0:0:0:0:
243,207,43513,6,0,L|255:235,1,20.0000007629395,2|0,3:2|0:0,0:0:0:0:
311,298,43866,6,0,L|299:326,1,20.0000007629395,2|0,0:2|0:0,0:0:0:0:
380,277,44219,6,0,L|388:259,1,20.0000007629395,2|0,1:2|0:0,0:0:0:0:
449,336,44571,6,0,L|437:364,1,20.0000007629395,2|0,0:2|0:0,0:0:0:0:
512,158,44924,5,0,3:2:0:0:
512,158,45160,1,2,0:2:0:0:
489,118,45277,1,2,0:2:0:0:
443,112,45395,1,2,0:2:0:0:
400,130,45513,1,2,3:2:0:0:
356,116,45630,2,0,L|340:90,1,20.0000007629395,10|0,0:2|0:0,0:0:0:0:
208,47,45983,2,0,P|181:59|169:89,1,53.3333333333333,2|0,0:2|0:0,0:0:0:0:
203,173,46219,5,2,3:0:0:0:
192,184,46336,2,0,P|229:190|247:180,2,40.000001525879,6|0|0,3:2|0:0|0:0,0:0:0:0:
129,234,46689,2,0,P|92:228|74:238,2,40.000001525879,2|0|0,3:0|0:0|0:0,0:0:0:0:
186,290,47042,2,0,P|223:296|241:286,2,40.000001525879,2|0|0,3:0|0:0|0:0,0:0:0:0:
117,333,47395,2,0,P|80:327|62:337,2,40.000001525879,6|0|0,1:1|0:0|0:0,0:0:0:0:
287,355,47748,5,4,3:2:0:0:
335,337,47866,1,2,0:1:0:0:
352,289,47983,1,2,0:1:0:0:
340,239,48101,1,8,0:1:0:0:
361,192,48219,1,2,0:1:0:0:
410,177,48336,1,2,0:2:0:0:
453,205,48454,6,0,B|469:214|469:214|507:211,3,50,2|2|2|2,3:3|0:1|0:1|0:1,0:0:0:0:
471,130,48807,2,0,B|455:121|455:121|417:124,3,50,8|2|2|2,0:1|0:1|0:1|0:2,0:0:0:0:
359,66,49160,5,2,3:3:0:0:
357,52,49277,1,2,0:1:0:0:
355,39,49395,1,2,0:1:0:0:
353,25,49513,1,10,0:1:0:0:
262,106,49689,5,2,0:1:0:0:
265,116,49777,5,2,0:1:0:0:
273,123,49866,6,0,P|236:129|211:157,1,53.3333333333333,2|0,3:3|0:0,0:0:0:0:
187,262,50101,2,0,P|224:256|249:228,1,58.6666684570313,2|8,3:1|0:1,0:0:0:0:
296,178,50336,2,0,P|290:140|262:115,1,63.9999980468751,2|0,3:1|3:0,0:0:0:0:
160,204,50571,2,0,P|166:241|194:266,1,69.3333301595054,2|8,3:3|0:1,0:0:0:0:
296,178,50807,2,0,P|333:172|358:144,1,74.6666643880209,2|8,3:1|0:1,0:0:0:0:
160,204,51042,2,0,P|115:211|85:244,1,80.0000030517579,2|8,0:1|0:1,0:0:0:0:
331,249,51277,2,0,P|323:204|290:174,1,85.3333333333333,2|8,3:3|0:1,0:0:0:0:
120,130,51513,2,0,P|127:174|160:204,1,90.6666683959961,8|0,0:1|3:3,0:0:0:0:
251,289,51748,2,0,P|299:281|332:244,1,95.9999970703126,4|4,0:3|0:3,0:0:0:0:
120,130,51983,6,0,P|82:136|57:164,1,73.3333333333333,2|0,0:3|0:0,0:0:0:0:
68,207,52689,5,8,0:2:0:0:
68,207,53042,5,12,3:2:0:0:
416,177,53395,6,0,B|396:136|428:102|428:102|352:42|268:86,1,240,6|0,3:2|0:0,0:0:0:0:
236,152,53748,1,2,3:2:0:0:
176,94,53924,1,10,0:1:0:0:
176,94,54013,1,2,0:2:0:0:
202,246,54277,5,10,0:1:0:0:
213,262,54366,1,2,3:1:0:0:
216,281,54454,2,0,P|248:289|300:267,1,60.0000022888184,2|2,3:1|3:0,0:0:0:0:
369,220,54630,2,0,P|337:212|285:234,1,60.0000022888184,10|0,0:1|0:0,0:0:0:0:
381,371,54807,5,2,3:1:0:0:
381,371,54895,1,2,0:0:0:0:
487,289,55071,1,2,0:0:0:0:
487,289,55160,2,0,P|482:249|501:212,1,60.0000022888184,2|0,3:1|0:0,0:0:0:0:
444,172,55336,2,0,P|449:132|430:95,1,60.0000022888184,10|0,0:1|0:0,0:0:0:0:
493,6,55513,5,2,3:1:0:0:
477,20,55601,1,2,0:0:0:0:
455,23,55689,1,10,0:1:0:0:
435,15,55777,1,2,3:1:0:0:
413,15,55866,1,2,3:1:0:0:
392,22,55954,1,2,3:1:0:0:
378,39,56043,1,10,0:1:0:0:
375,61,56131,1,2,0:2:0:0:
381,89,56219,6,0,B|325:86|307:27|307:27|211:26|201:113,1,240,4|0,3:2|0:0,0:0:0:0:
219,177,56571,1,2,3:1:0:0:
133,187,56748,1,10,0:1:0:0:
133,187,56836,1,2,0:0:0:0:
92,334,57101,5,10,0:2:0:0:
77,321,57189,1,2,3:2:0:0:
74,301,57277,1,2,3:2:0:0:
80,282,57365,1,2,3:2:0:0:
95,269,57454,1,10,0:2:0:0:
100,250,57541,1,0,0:0:0:0:
94,231,57630,6,0,B|118:225|118:225|169:231,1,60.0000022888184,2|0,3:1|0:0,0:0:0:0:
1,145,57807,2,0,B|-5:121|-5:121|1:69,1,60.0000022888184,10|2,0:1|0:0,0:0:0:0:
193,151,57983,2,0,B|169:157|169:157|118:151,1,60.0000022888184,2|0,3:1|0:0,0:0:0:0:
17,163,58160,2,0,B|23:187|23:187|17:238,1,60.0000022888184,10|0,0:1|0:0,0:0:0:0:
115,65,58336,5,2,3:1:0:0:
118,50,58424,1,2,0:0:0:0:
115,36,58513,1,10,0:1:0:0:
109,23,58601,1,2,3:1:0:0:
136,35,58689,5,2,3:1:0:0:
167,33,58777,1,2,3:1:0:0:
196,23,58866,1,10,0:1:0:0:
226,25,58954,1,2,0:2:0:0:
242,52,59042,6,0,L|229:104,2,53.3333333333333,4|10|10,0:0|0:3|0:3,0:0:0:0:
280,184,59395,6,0,L|255:295,2,93.3333342234294,2|10|10,0:3|0:3|0:3,0:0:0:0:
354,170,59748,6,0,L|374:78,2,93.3333342234294,2|10|10,0:3|0:3|0:3,0:0:0:0:
402,229,60101,6,0,L|377:340,2,93.3333342234294,6|10|10,0:2|0:1|0:1,0:0:0:0:
374,79,60454,5,12,0:1:0:0:
392,0,60630,2,0,L|416:0,6,20,2|0|2|0|2|0|2,0:0|0:0|0:0|0:0|0:0|0:0|0:0,0:0:0:0:
186,74,61336,5,0,0:0:0:0:
141,137,61513,1,4,1:1:0:0:
171,208,61689,1,4,0:1:0:0:
28,56,61866,5,4,3:2:0:0:
46,39,61954,1,0,0:0:0:0:
71,37,62042,1,10,0:1:0:0:
93,50,62130,1,2,0:2:0:0:
104,73,62219,2,0,P|145:91|179:72,1,60.0000022888184,2|0,3:2|0:0,0:0:0:0:
259,74,62395,2,0,P|261:45|246:20,1,60.0000022888184,10|0,0:1|3:0,0:0:0:0:
215,219,62571,6,0,L|215:159,1,60.0000022888184,2|2,0:0|3:1,0:0:0:0:
296,239,62748,1,10,0:1:0:0:
296,239,62836,2,0,L|296:310,1,60.0000022888184,2|2,0:0|3:2,0:0:0:0:
358,154,63013,1,2,0:0:0:0:
380,131,63101,1,10,0:1:0:0:
410,142,63189,1,2,0:0:0:0:
427,169,63277,6,0,B|445:130|482:118|482:118|515:79|485:24,1,160,2|8,3:1|0:1,0:0:0:0:
456,30,63542,1,2,0:0:0:0:
456,30,63630,2,0,P|395:11|358:86,1,160,2|2,3:1|0:0,0:0:0:0:
427,169,63895,2,0,L|427:289,1,120.000004577637,2|2,3:2|3:0,0:0:0:0:
341,343,64160,6,0,P|308:340|282:302,1,60.0000022888184,10|0,0:1|0:0,0:0:0:0:
242,239,64336,1,2,3:1:0:0:
232,212,64424,1,2,0:0:0:0:
210,195,64513,1,10,0:1:0:0:
184,192,64601,1,2,0:0:0:0:
162,201,64689,6,0,P|136:186|123:148,1,60.0000022888184,2|0,3:2|0:0,0:0:0:0:
266,140,64866,2,0,P|291:154|304:192,1,60.0000022888184,10|2,0:1|0:0,0:0:0:0:
124,159,65042,2,0,P|95:167|60:149,1,70.000000667572,2|2,3:2|3:0,0:0:0:0:
303,181,65219,2,0,P|295:153|313:117,1,70.000000667572,10|2,0:1|0:2,0:0:0:0:
216,29,65395,5,6,3:1:0:0:
253,5,65483,1,2,0:2:0:0:
297,2,65571,1,14,0:1:0:0:
338,20,65660,1,2,0:2:0:0:
446,25,65836,1,8,0:3:0:0:
446,25,65924,1,6,0:3:0:0:
495,203,66101,1,8,0:1:0:0:
443,263,66277,6,0,P|443:283|456:262,2,60.0000022888184,2|2|0,0:2|0:2|3:0,0:0:0:0:
367,201,66807,1,2,0:1:0:0:
204,238,66983,5,2,0:0:0:0:
195,253,67071,1,0,0:0:0:0:
197,270,67160,2,0,P|236:263|268:292,1,60.0000022888184,2|2,3:1|0:0,0:0:0:0:
124,357,67336,2,0,P|163:364|195:335,1,60.0000022888184,2|2,3:1|0:0,0:0:0:0:
100,252,67513,5,6,3:2:0:0:
43,203,67689,1,10,0:1:0:0:
130,91,67866,1,2,3:1:0:0:
147,164,68042,1,10,0:1:0:0:
328,176,68219,1,2,0:0:0:0:
279,119,68395,1,10,0:1:0:0:
399,4,68571,5,2,3:2:0:0:
399,4,68660,1,2,0:0:0:0:
424,118,68836,2,0,P|481:132|484:198,1,120.000004577637,2|2,0:0|0:0,0:0:0:0:
407,212,69101,6,0,P|394:235|414:279,1,60.0000022888184,10|2,0:1|0:0,0:0:0:0:
503,326,69277,2,0,L|503:263,3,50,2|2|10|2,3:2|0:0|0:1|3:0,0:0:0:0:
473,256,69630,1,0,0:0:0:0:
288,347,69895,6,0,B|294:286|221:268|239:196,1,160,2|0,0:0|0:0,0:0:0:0:
180,117,70160,1,10,0:1:0:0:
56,248,70336,2,0,P|-9:205|61:195,1,160,6|8,3:2|0:1,0:0:0:0:
136,260,70601,2,0,B|147:263|147:263|156:323,2,40,2|2|2,0:0|3:2|0:0,0:0:0:0:
32,178,70954,2,0,P|40:112|108:92,1,120.000004577637,2|0,3:2|3:0,0:0:0:0:
180,117,71219,6,0,L|220:117,1,40,10|0,0:1|0:0,0:0:0:0:
284,191,71395,2,0,L|244:190,1,40,6|2,3:1|0:0,0:0:0:0:
243,95,71571,2,0,L|243:44,1,40,10|2,0:1|0:0,0:0:0:0:
316,175,71748,1,2,3:0:0:0:
371,121,71924,6,0,L|411:121,5,40,8|2|8|2|8|2,2:2|0:0|2:2|0:0|2:2|0:0,0:0:0:0:
316,175,72454,1,0,3:0:0:0:
262,353,72630,6,0,P|293:368|357:347,2,80,8|8|4,3:3|0:3|3:2,0:0:0:0:
179,233,73160,5,4,3:2:0:0:
164,223,73248,1,0,0:0:0:0:
146,224,73336,2,0,P|162:252|155:285,1,60.0000022888184,10|2,0:1|0:2,0:0:0:0:
50,337,73513,1,2,3:2:0:0:
65,347,73601,1,0,0:0:0:0:
83,346,73689,2,0,P|67:318|74:285,1,60.0000022888184,10|0,0:1|3:0,0:0:0:0:
60,196,73866,6,0,L|1:197,1,60.0000022888184,2|2,0:0|3:1,0:0:0:0:
137,125,74043,1,10,0:1:0:0:
137,125,74131,2,0,L|66:125,1,60.0000022888184,2|2,0:0|3:2,0:0:0:0:
244,151,74307,1,2,0:0:0:0:
275,151,74395,1,10,0:1:0:0:
289,122,74483,1,2,0:0:0:0:
272,95,74571,6,0,B|307:138|342:121|342:121|389:121|405:172,1,160,2|8,3:1|0:1,0:0:0:0:
365,194,74836,2,0,L|365:256,2,60.0000022888184,2|2|2,0:0|3:1|0:0,0:0:0:0:
435,153,75101,2,0,P|462:149|490:164,2,40,2|2|0,0:0|3:2|0:0,0:0:0:0:
487,250,75366,5,2,3:0:0:0:
463,255,75454,1,10,0:1:0:0:
447,273,75542,1,0,0:0:0:0:
443,297,75630,2,0,P|453:315|441:362,1,60.0000022888184,2|2,3:1|0:0,0:0:0:0:
338,359,75807,2,0,P|338:338|373:304,1,60.0000022888184,10|2,0:1|0:0,0:0:0:0:
340,207,75983,2,0,P|325:191|276:192,1,70.000000667572,2|0,3:2|0:0,0:0:0:0:
184,268,76160,2,0,P|199:284|248:283,1,70.000000667572,10|2,0:1|0:0,0:0:0:0:
194,108,76336,1,2,3:2:0:0:
182,91,76424,1,2,3:0:0:0:
163,81,76513,1,10,0:1:0:0:
142,83,76601,1,2,0:2:0:0:
125,95,76689,5,6,3:1:0:0:
140,48,76777,1,2,0:2:0:0:
185,27,76865,1,14,0:1:0:0:
234,37,76954,1,2,0:2:0:0:
328,21,77130,1,8,0:3:0:0:
328,21,77219,1,6,0:3:0:0:
399,188,77395,1,10,0:1:0:0:
449,119,77571,6,0,P|453:130|444:122,4,30.0000011444092,2|2|2|2|2,0:3|0:2|0:3|0:2|0:3,0:0:0:0:
308,133,78101,1,2,3:2:0:0:
360,283,78277,5,2,0:0:0:0:
351,298,78365,1,0,0:0:0:0:
353,315,78454,2,0,P|392:308|424:337,1,60.0000022888184,2|2,3:1|0:0,0:0:0:0:
261,275,78630,2,0,P|222:282|190:253,1,60.0000022888184,2|2,3:1|0:0,0:0:0:0:
121,318,78807,5,6,3:2:0:0:
178,368,78983,1,10,0:1:0:0:
31,311,79160,1,2,3:1:0:0:
69,245,79336,1,10,0:1:0:0:
241,169,79513,1,2,0:0:0:0:
203,103,79689,1,10,0:1:0:0:
38,104,79866,5,2,3:2:0:0:
38,104,79954,1,2,0:0:0:0:
147,154,80130,2,0,B|188:169|222:131|273:150,1,120.000004577637,2|2,0:0|0:0,0:0:0:0:
310,217,80395,6,0,P|348:201|357:174,1,60.0000022888184,10|2,0:1|0:0,0:0:0:0:
293,60,80571,2,0,L|293:123,3,50,2|2|10|2,3:2|0:0|0:1|3:0,0:0:0:0:
264,147,80924,1,0,0:0:0:0:
403,0,81189,6,0,P|456:49|422:162,1,160,2|0,0:0|0:0,0:0:0:0:
464,252,81454,1,10,0:1:0:0:
260,255,81630,2,0,P|250:283|279:322,1,70.000000667572,6|0,3:2|0:0,0:0:0:0:
323,324,81807,1,10,0:1:0:0:
323,324,81895,1,2,0:1:0:0:
264,147,82071,1,2,0:1:0:0:
231,133,82160,1,10,0:1:0:0:
197,143,82248,1,2,3:1:0:0:
182,175,82336,6,0,P|117:153|154:92,1,140.000001335144,6|8,0:1|0:1,0:0:0:0:
264,147,82689,2,0,P|319:188|264:234,1,140.000001335144,2|10,3:1|0:1,0:0:0:0:
34,222,83042,1,6,3:1:0:0:
225,72,83307,5,2,0:0:0:0:
225,72,83395,1,10,2:3:0:0:
225,72,83483,1,10,0:3:0:0:
118,41,83660,1,14,3:2:0:0:
188,0,83924,5,0,0:0:0:0:
326,36,84101,6,0,L|339:36,6,13.3333333333333,2|0|0|0|0|0|0,0:1|0:0|0:0|0:0|0:0|0:0|0:0,0:0:0:0:
494,48,84454,6,0,P|510:90|485:137,1,80,2|0,0:1|0:0,0:0:0:0:
452,120,84718,1,0,0:0:0:0:
452,120,84806,2,0,P|435:159|475:200,1,80,2|0,0:0|0:0,0:0:0:0:
504,203,85071,1,0,0:0:0:0:
504,203,85159,2,0,P|520:245|495:292,1,80,2|0,0:0|0:0,0:0:0:0:
426,256,85424,2,0,P|408:299|450:301,1,100,2|0,0:0|0:0,0:0:0:0:
492,320,85689,2,0,P|493:338|474:364,1,30.0000011444092,2|0,0:2|0:0,0:0:0:0:
399,352,85866,6,0,P|356:368|309:343,1,80,2|0,0:1|0:0,0:0:0:0:
327,310,86130,1,0,0:0:0:0:
327,310,86218,2,0,P|287:293|246:333,1,80,2|0,0:0|0:0,0:0:0:0:
244,362,86483,1,0,0:0:0:0:
244,362,86571,2,0,P|201:378|154:353,1,80,2|0,0:0|0:0,0:0:0:0:
191,284,86836,2,0,P|148:266|146:308,1,100,2|0,0:0|0:0,0:0:0:0:
127,350,87101,2,0,P|109:350|83:331,1,30.0000011444092,2|0,0:2|0:0,0:0:0:0:
18,336,87277,6,0,P|1:293|26:246,1,80,2|0,0:1|0:0,0:0:0:0:
60,264,87541,1,0,0:0:0:0:
60,264,87629,2,0,P|76:224|36:183,1,80,2|0,0:0|0:0,0:0:0:0:
8,181,87894,1,0,0:0:0:0:
8,181,87982,2,0,P|-8:138|16:91,1,80,2|0,0:0|0:0,0:0:0:0:
86,128,88248,2,0,P|104:85|62:83,1,100,2|0,0:0|0:0,0:0:0:0:
20,64,88513,2,0,P|19:46|38:20,1,30.0000011444092,2|0,0:2|0:0,0:0:0:0:
113,32,88689,6,0,P|155:15|202:40,1,80,2|0,0:1|0:0,0:0:0:0:
185,74,88953,1,0,0:0:0:0:
185,74,89041,2,0,P|224:90|265:50,1,80,2|0,0:0|0:0,0:0:0:0:
268,22,89306,1,0,0:0:0:0:
268,22,89394,2,0,P|310:5|357:30,1,80,2|0,0:0|0:0,0:0:0:0:
321,105,89660,2,0,P|364:123|366:81,1,100,2|0,0:0|0:0,0:0:0:0:
385,34,89925,2,0,P|403:33|429:52,1,30.0000011444092,2|0,0:2|0:0,0:0:0:0:
471,183,90101,6,0,P|454:238|333:242,1,180.000006866455,10|8,0:2|0:0,0:0:0:0:
253,188,90454,2,0,P|216:200|232:266,1,100,8|0,0:0|0:0,0:0:0:0:
254,271,90719,1,8,0:0:0:0:
216,346,90895,1,8,0:0:0:0:
82,261,91071,1,8,0:0:0:0:
82,261,91160,2,0,L|30:261,4,30.0000011444092,8|0|0|0|8,0:2|0:0|0:0|0:0|0:2,0:0:0:0:
160,77,91689,5,10,0:0:0:0:
82,122,91866,1,10,0:0:0:0:
69,118,91954,1,2,0:2:0:0:
60,108,92042,1,2,0:2:0:0:
56,95,92130,1,8,0:0:0:0:
190,150,92307,1,10,0:0:0:0:
190,150,92395,6,0,P|221:166|260:152,1,50,2|8,0:0|0:0,0:0:0:0:
297,92,92571,2,0,P|267:110|260:151,1,50,8|0,3:2|0:0,0:0:0:0:
292,213,92748,2,0,P|290:178|258:151,1,50,2|0,3:2|0:0,0:0:0:0:
294,62,92924,2,0,P|350:52|404:80,1,100,6|8,3:2|0:1,0:0:0:0:
494,88,93277,2,0,P|484:144|512:198,1,100,0|8,3:2|0:1,0:0:0:0:
407,325,93630,5,2,0:2:0:0:
378,259,93807,1,8,0:1:0:0:
237,310,93983,1,14,3:1:0:0:
209,244,94160,1,8,0:1:0:0:
68,296,94336,1,14,3:2:0:0:
68,296,95219,5,0,0:0:0:0:
94,224,95395,1,0,0:0:0:0:
65,154,95571,1,0,0:0:0:0:
123,51,95748,5,0,3:0:0:0:
123,51,96101,2,0,B|171:102|228:42|271:105,1,160,2|2,0:1|3:1,0:0:0:0:
251,178,96542,1,0,0:0:0:0:
251,178,96630,2,0,L|263:237,1,40,10|0,0:2|0:0,0:0:0:0:
237,286,96807,2,0,L|225:227,1,40,2|8,3:1|0:2,0:0:0:0:
304,248,96983,2,0,L|316:307,1,40,2|0,0:1|0:0,0:0:0:0:
353,180,97160,6,0,P|360:159|386:140,3,40,2|0|2|0,3:1|0:0|0:0|0:0,0:0:0:0:
413,218,97513,2,0,P|418:239|407:269,3,40,2|10|2|0,0:1|0:1|0:0|0:0,0:0:0:0:
486,157,97866,6,0,P|473:127|481:89,1,66.6666666666667,2|2,3:1|0:0,0:0:0:0:
472,82,98042,2,0,P|443:65|404:69,1,66.6666666666667,10|2,0:2|0:0,0:0:0:0:
241,0,98395,6,0,P|222:18|218:44,1,53.3333333333333,2|2,0:2|0:0,0:0:0:0:
239,79,98571,2,0,P|234:103|204:127,1,53.3333333333333,2|2,3:1|0:0,0:0:0:0:
174,131,98748,2,0,P|167:155|186:189,1,53.3333333333333,2|2,0:0|0:0,0:0:0:0:
178,221,98924,2,0,P|157:235|118:230,1,53.3333333333333,2|2,0:1|0:0,0:0:0:0:
38,230,99101,2,0,P|68:208|124:215,1,66.6666666666667,2|2,0:0|0:0,0:0:0:0:
120,275,99277,6,0,P|124:289|120:317,5,33.3333333333333,2|0|2|10|2|2,3:1|0:0|0:0|0:2|0:0|0:1,0:0:0:0:
127,331,99630,2,0,P|140:336|169:336,2,33.3333333333333,2|2|2,3:1|0:0|0:0,0:0:0:0:
246,302,99807,2,0,P|232:296|203:296,2,33.3333333333333,2|2|2,0:2|0:0|0:0,0:0:0:0:
242,324,99983,6,0,B|307:378|363:302|437:363,1,200.000007629395,2|0,3:1|0:0,0:0:0:0:
492,197,100454,6,0,P|482:225|406:210,1,120.000004577637,2|2,0:0|0:0,0:0:0:0:
347,170,100689,2,0,P|365:170|391:186,2,33.3333333333333,2|0|0,3:1|0:0|0:0,0:0:0:0:
326,209,100866,2,0,P|308:209|282:193,2,33.3333333333333,10|0|2,0:1|0:0|0:0,0:0:0:0:
267,174,101042,2,0,P|259:147|275:108,1,53.3333333333333,10|2,3:1|0:2,0:0:0:0:
284,92,101219,2,0,P|311:84|350:100,1,53.3333333333333,2|2,0:1|0:2,0:0:0:0:
364,97,101395,6,0,P|409:60|405:31,1,80,2|2,3:1|0:1,0:0:0:0:
233,10,101748,2,0,P|175:4|157:27,1,80,2|2,0:1|0:1,0:0:0:0:
167,161,102101,2,0,P|173:219|150:237,1,80,2|10,3:1|0:1,0:0:0:0:
31,99,102454,2,0,L|82:99,1,40,2|2,3:2|0:1,0:0:0:0:
17,240,102748,6,0,P|26:278|17:317,1,80,2|2,0:1|0:1,0:0:0:0:
53,327,102983,2,0,P|97:335|121:321,1,53.3333333333333,2|0,0:1|0:0,0:0:0:0:
137,322,103160,2,0,P|149:282|127:254,1,66.6666666666667,2|0,0:1|0:0,0:0:0:0:
180,203,103336,2,0,P|173:214|174:245,2,33.3333333333333,2|2|2,0:1|0:1|0:1,0:0:0:0:
227,280,103513,2,0,P|268:288|282:320,1,66.6666666666667,2|0,3:2|0:0,0:0:0:0:
350,337,103689,2,0,P|323:356|291:351,1,66.6666666666667,10|0,0:2|0:0,0:0:0:0:
400,228,103983,6,0,P|415:262|474:284,1,100
497,256,104219,2,0,P|497:240|492:224,2,33.3333333333333,2|2|2,3:1|0:1|0:1,0:0:0:0:
491,182,104395,2,0,P|482:144|499:112,1,53.3333333333333,2|0,0:1|0:0,0:0:0:0:
491,102,104571,2,0,P|463:75|427:75,1,53.3333333333333,2|2,0:1|0:1,0:0:0:0:
424,72,104748,2,0,P|390:90|379:123,1,53.3333333333333,2|2,0:1|0:1,0:0:0:0:
394,137,104924,1,2,3:1:0:0:
230,216,105101,6,0,P|201:223|169:205,1,53.3333333333333,10|0,0:1|0:0,0:0:0:0:
163,175,105277,2,0,P|156:147|174:114,1,53.3333333333333,2|0,3:2|0:0,0:0:0:0:
198,100,105454,2,0,P|227:93|260:111,1,66.6666666666667,2|0,0:2|0:0,0:0:0:0:
265,193,105630,1,4,3:1:0:0:
114,290,105807,6,0,P|109:328|140:360,1,66.6666666666667,2|0,0:2|0:0,0:0:0:0:
18,265,106101,2,0,L|18:228,1,33.3333333333333,2|2,0:2|0:2,0:0:0:0:
85,197,106277,2,0,P|82:154|14:139,1,100,2|0,0:2|0:0,0:0:0:0:
6,145,106513,5,10,0:1:0:0:
0,67,106689,1,8,0:3:0:0:
59,14,106866,1,6,0:1:0:0:
250,86,107042,5,6,3:2:0:0:
239,102,107130,1,2,0:0:0:0:
220,104,107219,2,0,P|186:104|162:130,1,60.0000022888184,10|0,0:1|0:0,0:0:0:0:
310,42,107395,6,0,P|342:52|357:84,1,60.0000022888184,2|0,3:1|0:0,0:0:0:0:
369,109,107571,1,10,0:1:0:0:
369,109,107660,6,0,P|336:98|321:66,1,60.0000022888184,2|0,3:2|0:2,0:0:0:0:
310,42,107836,1,2,3:0:0:0:
310,42,107925,6,0,P|342:52|357:84,1,60.0000022888184,10|0,0:1|0:0,0:0:0:0:
367,115,108101,2,0,P|351:174|400:227,1,120.000004577637,2|10,3:1|0:1,0:0:0:0:
467,195,108366,1,0,0:0:0:0:
467,195,108454,1,2,3:1:0:0:
467,195,108542,1,2,0:0:0:0:
369,267,108719,6,0,B|304:265|316:329|230:335,1,140.000001335144,2|2,0:1|0:0,0:0:0:0:
225,344,108983,2,0,P|216:310|186:292,1,70.000000667572,10|2,0:1|3:1,0:0:0:0:
140,124,109160,6,0,B|157:125|157:125|185:164,2,46.6666671117147,2|0|0,0:1|0:0|0:0,0:0:0:0:
237,106,109336,2,0,B|235:123|235:123|196:151,2,46.6666671117147,10|0|0,0:1|0:0|0:0,0:0:0:0:
255,201,109513,2,0,B|237:199|237:199|209:160,2,46.6666671117147,2|0|0,3:1|0:0|0:0,0:0:0:0:
159,222,109689,2,0,B|160:204|160:204|199:176,2,46.6666671117147,10|0|0,0:1|0:0|0:0,0:0:0:0:
140,124,109866,5,2,3:1:0:0:
126,97,109954,1,2,0:0:0:0:
97,90,110042,1,10,0:1:0:0:
67,94,110130,1,0,0:0:0:0:
43,112,110219,1,6,3:1:0:0:
37,141,110307,6,0,P|53:89|39:59,1,60.0000022888184,0|12,0:0|0:1,0:0:0:0:
113,18,110483,2,0,L|164:18,2,30.0000011444092,0|0|6,3:3|0:0|0:1,0:0:0:0:
228,65,110660,1,0,3:0:0:0:
238,65,110748,1,10,0:3:0:0:
248,65,110836,1,8,0:3:0:0:
258,65,110924,6,0,L|258:99,2,20,6|0|6,3:3|0:0|0:3,0:0:0:0:
326,32,111101,2,0,L|326:12,2,20,10|0|2,3:1|0:0|3:0,0:0:0:0:
372,103,111277,5,10,3:1:0:0:
346,205,111454,1,10,0:1:0:0:
448,78,111630,1,10,0:1:0:0:
448,78,111719,1,2,0:1:0:0:
485,245,111895,5,6,3:1:0:0:
412,288,112071,2,0,B|406:305|406:305|420:327,2,40,2|2|0,0:1|0:2|0:0,0:0:0:0:
346,205,112336,6,0,P|317:192|271:206,1,60.0000022888184,2|0,0:2|0:0,0:0:0:0:
224,280,112513,2,0,P|255:284|295:258,1,60.0000022888184,2|2,0:2|0:0,0:0:0:0:
153,143,112689,5,6,3:2:0:0:
139,148,112777,1,2,0:0:0:0:
129,159,112866,1,10,0:1:0:0:
122,172,112954,1,0,0:0:0:0:
121,187,113042,2,0,P|131:200|134:220,2,30.0000011444092,2|0|2,3:2|0:0|0:0,0:0:0:0:
58,270,113219,5,8,0:1:0:0:
61,284,113307,1,2,3:1:0:0:
70,295,113396,1,2,0:2:0:0:
82,304,113484,1,2,3:2:0:0:
97,307,113572,2,0,P|111:298|131:298,2,30.0000011444092,10|0|0,0:2|0:0|0:0,0:0:0:0:
224,280,113748,6,0,P|231:258|225:226,3,40.000001525879,2|0|0|10,3:1|0:0|0:0|0:1,0:0:0:0:
24,158,114101,5,2,3:1:0:0:
24,158,114189,1,2,0:0:0:0:
96,82,114366,1,2,0:0:0:0:
197,110,114542,1,2,0:0:0:0:
324,42,114719,6,0,L|324:79,4,30.0000011444092,2|2|2|2|0,3:1|0:0|0:0|0:2|3:0,0:0:0:0:
297,173,114983,2,0,P|329:184|366:170,1,60.0000022888184,10|2,0:1|0:0,0:0:0:0:
441,108,115160,5,2,3:1:0:0:
463,130,115248,1,2,0:2:0:0:
473,159,115336,1,10,0:1:0:0:
474,190,115424,1,2,0:2:0:0:
462,219,115513,1,2,3:1:0:0:
493,333,115689,1,10,0:1:0:0:
493,333,115777,1,2,0:1:0:0:
331,279,115954,2,0,P|314:296|313:337,2,60.0000022888184,2|8|2,0:1|0:1|3:1,0:0:0:0:
406,362,116219,6,0,P|325:336|269:363,1,140.000001335144,6|10,3:1|0:1,0:0:0:0:
64,283,116571,2,0,P|145:309|201:282,1,140.000001335144,2|8,3:1|0:1,0:0:0:0:
226,74,116924,5,14,3:1:0:0:
279,271,117189,1,2,0:0:0:0:
279,271,117277,1,10,0:1:0:0:
279,271,117366,1,10,0:3:0:0:
185,161,117542,1,4,3:2:0:0:
103,185,117807,5,2,0:1:0:0:
45,141,117983,2,0,L|45:101,3,30.0000011444092,2|2|2|2,0:2|0:0|0:1|0:0,0:0:0:0:
182,54,118336,6,0,P|208:40|273:77,1,100,6|10,3:2|0:1,0:0:0:0:
265,198,118689,2,0,P|241:207|228:238,1,50,2|2,0:1|3:1,0:0:0:0:
343,155,118954,2,0,P|385:150|406:92,1,100,2|0,0:1|0:0,0:0:0:0:
340,0,119219,1,10,0:2:0:0:
340,0,119395,1,10,0:2:0:0:
501,63,119571,6,0,L|501:83,2,20.0000007629395,2|2|2,0:0|0:0|0:2,0:0:0:0:
444,135,119748,2,0,B|437:170|456:197|450:237,1,100,6|10,3:2|0:1,0:0:0:0:
509,310,120013,6,0,P|484:329|453:268,1,116.666666666667,2|2,3:0|0:2,0:0:0:0:
421,242,120277,2,0,P|383:235|343:245,1,66.6666666666667,8|0,0:2|0:0,0:0:0:0:
337,268,120454,2,0,P|299:275|259:265,1,66.6666666666667,2|2,3:0|0:2,0:0:0:0:
252,170,120630,1,10,0:2:0:0:
252,170,120806,1,10,0:2:0:0:
186,338,120983,5,2,0:2:0:0:
158,266,121160,2,0,P|119:261|82:274,1,66.6666666666667,4|0,3:2|0:0,0:0:0:0:
51,260,121336,2,0,P|46:221|59:184,1,66.6666666666667,10|0,0:1|0:0,0:0:0:0:
41,149,121513,2,0,P|72:125|110:117,1,66.6666666666667,2|0,0:0|0:0,0:0:0:0:
193,118,121689,6,0,P|169:141|133:141,1,66.6666666666667,10|0,0:1|0:0,0:0:0:0:
117,109,121866,2,0,P|94:84|94:48,1,66.6666666666667,2|0,3:1|0:0,0:0:0:0:
118,33,122042,2,0,P|142:10|178:10,1,66.6666666666667,10|0,0:1|0:0,0:0:0:0:
210,77,122219,2,0,P|237:84|260:77,5,33.3333333333333,2|2|2|10|2|2,3:1|0:0|0:0|0:1|0:0|0:2,0:0:0:0:
283,59,122571,5,2,3:2:0:0:
256,231,122748,2,0,L|269:181,1,40,2|2,0:2|0:0,0:0:0:0:
294,61,123013,2,0,L|283:99,1,40,2|2,0:0|0:0,0:0:0:0:
244,241,123277,2,0,L|257:190,1,40,2|0,0:2|0:0,0:0:0:0:
325,167,123454,5,0,0:0:0:0:
398,212,123630,1,10,0:3:0:0:
385,297,123807,1,4,0:3:0:0:
301,310,123983,1,4,3:2:0:0:
290,325,124071,1,0,0:0:0:0:
289,344,124160,1,10,0:1:0:0:
297,361,124248,1,2,0:1:0:0:
467,333,124424,6,0,L|496:333,2,20,2|0|10,0:1|0:0|0:1,0:0:0:0:
492,291,124601,1,2,0:1:0:0:
492,291,124689,2,0,P|489:265|505:242,3,40,2|2|10|0,3:2|0:1|0:1|3:0,0:0:0:0:
469,161,125042,5,2,3:2:0:0:
456,155,125130,1,2,3:1:0:0:
442,152,125219,1,10,0:1:0:0:
428,156,125307,1,0,0:0:0:0:
416,164,125395,2,0,P|404:173|384:175,2,20,2|2|2,3:2|0:1|0:1,0:0:0:0:
394,83,125571,6,0,P|391:54|402:27,1,50,10|2,0:1|0:1,0:0:0:0:
493,27,125748,1,2,3:2:0:0:
493,27,125836,1,2,0:1:0:0:
300,69,126013,6,0,P|278:66|256:69,2,40,2|2|2,0:1|3:2|0:1,0:0:0:0:
239,115,126277,2,0,L|239:139,2,20,10|0|2,0:1|0:0|3:1,0:0:0:0:
308,179,126454,1,2,3:1:0:0:
308,179,126542,2,0,P|315:200|312:221,2,40,2|10|0,3:0|0:1|0:0,0:0:0:0:
209,208,126807,2,0,L|157:235,1,40,4|2,3:2|0:1,0:0:0:0:
103,171,126983,2,0,L|138:152,1,40,10|2,0:1|0:1,0:0:0:0:
99,309,127160,5,12,3:1:0:0:
113,323,127248,1,2,0:1:0:0:
133,326,127336,1,8,0:3:0:0:
152,319,127424,1,2,0:1:0:0:
169,308,127513,1,6,3:3:0:0:
189,305,127601,1,2,0:1:0:0:
208,312,127689,1,2,0:1:0:0:
222,326,127777,1,0,0:0:0:0:
227,346,127866,6,0,B|237:343|237:343|248:316,6,30.0000011444092,4|2|2|2|2|0|0,3:3|0:1|0:1|0:1|0:1|0:0|0:0,0:0:0:0:
320,240,128219,6,0,P|383:305|328:371,1,180.000006866455,4|0,3:2|0:0,0:0:0:0:
322,364,128571,2,0,P|335:274|421:278,1,180.000006866455,2|0,3:2|0:0,0:0:0:0:
419,310,128924,2,0,B|445:230|395:193|427:119,1,180.000006866455,2|0,3:2|0:0,0:0:0:0:
474,85,129277,2,0,P|451:85|423:112,6,40.000001525879,4|0|2|0|2|0|4,3:1|0:0|0:2|0:0|0:2|0:0|3:2,0:0:0:0:
247,56,129866,6,0,B|239:44|239:44|254:10,6,40.000001525879,2|2|10|2|2|2|0,0:1|0:1|0:1|0:1|0:1|0:1|0:0,0:0:0:0:
326,91,130336,1,2,3:3:0:0:
326,91,130571,2,0,P|339:126|310:169,1,66.6666666666667,2|10,0:1|0:1,0:0:0:0:
218,238,130924,2,0,P|205:273|234:316,1,66.6666666666667,0|2,3:0|3:3,0:0:0:0:
122,83,131277,1,2,0:1:0:0:
102,88,131395,6,0,P|119:117|110:163,2,66.6666666666667,10|2|2,0:1|0:1|0:2,0:0:0:0:
207,82,131748,2,0,L|223:57,4,20.0000007629395,2|0|0|0|2,3:3|0:0|0:0|0:0|3:1,0:0:0:0:
230,158,132101,6,0,P|226:185|268:216,2,66.6666666666667,10|2|2,0:1|0:1|0:1,0:0:0:0:
391,233,132454,2,0,P|395:260|353:291,2,66.6666666666667,2|10|2,3:3|0:1|3:1,0:0:0:0:
215,300,132807,2,0,P|211:327|253:358,2,66.6666666666667,8|2|8,0:1|0:1|0:1,0:0:0:0:
177,193,133160,5,2,3:3:0:0:
132,185,133277,1,10,0:1:0:0:
91,206,133395,1,10,0:1:0:0:
110,248,133513,1,8,0:3:0:0:
101,293,133630,1,10,0:1:0:0:
69,326,133748,1,2,0:1:0:0:
46,326,133866,5,6,3:3:0:0:
46,326,134571,5,2,0:2:0:0:
46,326,134924,5,2,0:2:0:0:
221,64,135277,6,0,B|231:49|227:33|227:33|307:51|280:124|280:124|300:183|357:174,1,240,6|0,3:2|0:0,0:0:0:0:
400,122,135630,1,2,3:1:0:0:
493,132,135807,1,10,0:1:0:0:
493,132,135895,1,2,0:1:0:0:
408,262,136160,5,10,0:1:0:0:
427,265,136248,1,2,3:1:0:0:
441,278,136336,2,0,P|466:306|518:307,1,60.0000022888184,2|2,3:1|3:0,0:0:0:0:
370,338,136513,2,0,P|332:339|298:378,1,60.0000022888184,10|0,0:1|0:0,0:0:0:0:
322,197,136689,5,2,3:1:0:0:
322,197,136777,1,2,0:0:0:0:
190,240,136954,1,2,0:0:0:0:
190,240,137042,2,0,P|170:217|171:174,1,60.0000022888184,2|0,3:1|0:0,0:0:0:0:
217,129,137219,2,0,P|197:105|154:100,1,60.0000022888184,10|2,0:1|0:1,0:0:0:0:
55,149,137395,5,2,3:1:0:0:
43,167,137483,1,2,0:1:0:0:
44,188,137571,1,10,0:1:0:0:
55,207,137659,1,2,3:1:0:0:
59,229,137748,1,2,3:1:0:0:
56,251,137836,1,2,3:1:0:0:
41,267,137925,1,10,0:1:0:0:
20,274,138013,1,2,0:1:0:0:
1,262,138101,6,0,B|22:256|28:241|28:241|81:258|75:314|75:314|138:363|188:309,1,240,4|0,3:2|0:0,0:0:0:0:
190,240,138454,1,2,3:1:0:0:
277,263,138630,1,10,0:1:0:0:
277,263,138719,1,2,0:0:0:0:
254,110,138983,5,10,0:1:0:0:
241,125,139071,1,2,3:0:0:0:
221,128,139159,1,2,3:1:0:0:
201,122,139247,1,2,3:0:0:0:
189,107,139336,1,10,0:1:0:0:
170,102,139423,1,0,0:0:0:0:
151,109,139513,6,0,P|124:112|89:90,1,60.0000022888184,2|2,3:1|0:1,0:0:0:0:
276,76,139689,2,0,P|303:73|338:95,1,60.0000022888184,10|0,0:1|0:0,0:0:0:0:
99,15,139866,2,0,P|102:41|81:77,1,60.0000022888184,2|2,3:1|0:1,0:0:0:0:
252,144,140042,2,0,P|248:117|269:81,1,60.0000022888184,10|2,0:1|0:2,0:0:0:0:
403,48,140218,5,2,3:1:0:0:
416,55,140306,1,2,0:2:0:0:
425,66,140395,1,10,0:1:0:0:
431,79,140483,1,2,3:1:0:0:
413,103,140571,1,2,3:1:0:0:
414,133,140660,1,2,3:1:0:0:
433,156,140748,1,10,0:1:0:0:
461,166,140836,1,2,0:1:0:0:
490,158,140924,6,0,L|470:226,2,53.3333333333333,4|10|10,0:1|0:3|0:3,0:0:0:0:
372,229,141277,6,0,L|348:319,2,93.3333342234294,2|8|8,0:3|0:3|0:3,0:0:0:0:
280,252,141630,6,0,L|256:342,2,93.3333342234294,4|10|10,0:1|0:3|0:3,0:0:0:0:
188,275,141983,6,0,L|164:365,2,93.3333342234294,4|10|10,0:2|0:1|0:1,0:0:0:0:
104,152,142336,5,12,0:1:0:0:
40,202,142513,2,0,L|-5:202,6,40
104,152,143748,6,0,L|118:98,2,40.000001525879,2|0|2,0:2|0:0|0:0,0:0:0:0:
166,62,144101,6,0,L|151:115,2,40.000001525879,2|0|2,0:2|0:0|0:0,0:0:0:0:
104,152,144454,6,0,L|118:98,2,40.000001525879,2|0|2,0:2|0:0|0:0,0:0:0:0:
166,62,144807,6,0,L|151:115,2,40.000001525879,2|0|2,0:2|0:0|0:0,0:0:0:0:
209,153,145160,5,2,0:2:0:0:
268,63,146042,5,0,0:0:0:0:
268,63,146219,1,0,0:0:0:0:
268,63,146395,1,0,0:0:0:0:
332,109,146571,6,0,L|380:124,3,40,0|0|0|0,3:2|0:0|0:0|0:0,0:0:0:0:
412,94,146924,2,0,L|460:109,3,40,0|0|2|0,3:2|0:0|0:0|0:0,0:0:0:0:
388,173,147277,6,0,P|385:196|350:221,1,40,0|0,3:2|0:0,0:0:0:0:
321,254,147454,1,2,0:0:0:0:
321,254,147542,2,0,P|324:231|359:206,1,40,0|0,0:0|3:2,0:0:0:0:
411,247,147719,6,0,P|433:271|434:306,3,40,0|2|0|0,0:0|0:0|0:0|3:2,0:0:0:0:
329,364,148160,5,2,0:0:0:0:
329,364,148248,2,0,L|286:364,3,40,0|0|0|2,0:0|3:2|0:0|0:0,0:0:0:0:
262,331,148601,2,0,P|235:305|186:322,1,80
145,368,148866,6,0,P|152:336|140:309,1,40,2|0,0:0|0:0,0:0:0:0:
87,294,149042,2,0,P|80:262|92:235,1,40,0|0,3:2|0:0,0:0:0:0:
149,227,149219,2,0,P|156:195|144:168,1,40,2|0,0:0|0:0,0:0:0:0:
84,120,149395,6,0,P|101:92|129:81,1,40,0|0,3:2|0:0,0:0:0:0:
194,119,149571,2,0,P|221:136|232:164,1,40,2|0,0:0|0:0,0:0:0:0:
97,45,149748,6,0,P|64:38|38:50,1,40,0|0,3:2|0:0,0:0:0:0:
10,119,149924,2,0,P|3:150|15:177,1,40,2|0,0:0|0:0,0:0:0:0:
67,222,150101,2,0,P|84:249|112:260,2,40,0|0|2,3:2|0:0|0:0,0:0:0:0:
84,120,150366,1,0,0:0:0:0:
164,242,150542,5,0,0:0:0:0:
179,240,150630,1,8,0:2:0:0:
193,247,150719,1,0,0:0:0:0:
200,261,150807,6,0,L|200:176,1,70.000000667572,4|0,3:1|0:0,0:0:0:0:
256,61,150983,2,0,L|256:146,1,70.000000667572,4|0,3:1|0:0,0:0:0:0:
312,261,151160,2,0,L|312:176,1,70.000000667572,4|0,3:2|0:0,0:0:0:0:
407,113,151336,1,0,3:0:0:0:
406,102,151424,1,4,3:2:0:0:
509,242,151601,5,8,0:3:0:0:
507,261,151689,1,8,0:3:0:0:
498,278,151777,1,8,0:3:0:0:
481,286,151866,2,0,B|454:288|454:288|425:332,3,60.0000022888184,4|4|4|4,0:1|0:3|0:3|0:3,0:0:0:0:
312,261,152219,5,4,3:2:0:0:
259,348,152395,1,10,0:1:0:0:
126,174,152571,1,2,3:1:0:0:
152,273,152748,1,10,0:1:0:0:
206,90,152924,2,0,B|213:84|213:84|251:89,3,40.000001525879,2|0|0|10,0:0|0:0|0:0|0:1,0:0:0:0:
37,129,153277,5,2,3:2:0:0:
37,129,153366,1,2,0:0:0:0:
210,203,153542,1,2,0:0:0:0:
288,181,153719,6,0,P|305:202|303:246,2,60.0000022888184,2|10|0,0:0|0:1|0:0,0:0:0:0:
206,90,153983,2,0,P|208:63|241:33,1,60.0000022888184,2|2,3:2|0:2,0:0:0:0:
368,132,154160,2,0,P|344:149|314:150,1,60.0000022888184,10|0,0:1|3:0,0:0:0:0:
347,15,154336,1,2,0:0:0:0:
372,4,154424,1,2,3:0:0:0:
400,4,154513,1,10,0:1:0:0:
424,17,154601,1,2,0:0:0:0:
442,38,154689,1,2,3:0:0:0:
430,62,154777,1,2,0:0:0:0:
430,90,154866,1,10,0:1:0:0:
443,114,154954,1,2,0:0:0:0:
465,132,155042,6,0,B|487:138|501:129|501:129|533:239|448:296,1,210.000002002716,6|2,3:2|0:1,0:0:0:0:
389,251,155395,1,2,3:1:0:0:
384,241,155483,1,2,0:1:0:0:
210,203,155660,2,0,P|198:140|252:175,1,120.000004577637,2|0,3:1|3:1,0:0:0:0:
306,178,155924,1,10,0:1:0:0:
215,353,156101,5,6,3:1:0:0:
169,365,156189,1,2,0:1:0:0:
123,355,156277,1,6,0:1:0:0:
97,315,156366,1,2,0:2:0:0:
98,268,156454,6,0,P|98:243|83:226,1,40,0|0,3:0|0:0,0:0:0:0:
13,254,156630,2,0,P|13:279|28:296,1,40,2|2,0:1|0:2,0:0:0:0:
70,146,156807,2,0,L|71:119,6,20,2|0|2|0|2|0|2,0:1|0:0|0:2|0:0|0:1|0:0|2:0,0:0:0:0:
107,114,157160,1,2,1:0:0:0:
306,178,157336,5,10,0:1:0:0:
306,101,157513,1,10,0:1:0:0:
240,140,157689,1,6,3:1:0:0:
466,141,157866,5,6,3:2:0:0:
480,126,157954,1,2,0:0:0:0:
475,106,158042,2,0,P|453:73|461:39,1,60.0000022888184,10|2,0:1|0:2,0:0:0:0:
398,195,158219,1,2,3:2:0:0:
384,209,158307,1,2,0:2:0:0:
383,229,158395,1,10,0:1:0:0:
392,247,158483,1,2,3:0:0:0:
409,257,158571,6,0,P|431:271|445:317,1,60.0000022888184,2|2,0:0|3:1,0:0:0:0:
341,344,158748,2,0,P|317:356|271:345,1,60.0000022888184,10|2,0:1|0:0,0:0:0:0:
290,241,158924,2,0,P|288:214|256:179,1,60.0000022888184,2|2,3:0|0:2,0:0:0:0:
150,298,159101,1,10,0:1:0:0:
141,308,159189,1,2,0:0:0:0:
140,321,159277,1,6,3:2:0:0:
58,203,159454,6,0,P|89:212|125:196,1,50,10|10,0:3|0:3,0:0:0:0:
233,95,159630,1,8,0:3:0:0:
241,100,159719,2,0,P|214:117|203:151,2,50,8|4|2,0:3|0:2|3:2,0:0:0:0:
290,241,159983,6,0,P|316:243|347:277,1,50,8|8,0:3|0:3,0:0:0:0:
209,167,160160,2,0,P|207:193|173:224,1,50,6|6,0:3|0:3,0:0:0:0:
338,71,160336,2,0,B|343:44,5,20.0000007629395,2|0|0|6|0|0,3:0|0:0|0:0|3:0|0:0|0:0,0:0:0:0:
416,39,160689,6,0,B|354:50|322:19|258:33,1,140.000001335144,6|2,0:2|0:1,0:0:0:0:
245,105,160954,1,2,0:1:0:0:
245,105,161042,2,0,P|208:114|182:96,1,60.0000022888184,8|0,0:1|0:0,0:0:0:0:
118,12,161219,2,0,P|85:31|79:62,1,60.0000022888184,2|2,0:1|0:1,0:0:0:0:
139,174,161395,5,2,3:0:0:0:
20,147,161571,1,0,0:1:0:0:
81,234,161748,1,10,0:1:0:0:
123,150,161924,1,2,0:1:0:0:
170,314,162101,6,0,L|170:229,1,70.000000667572,6|0,3:1|0:0,0:0:0:0:
226,114,162277,2,0,L|226:199,1,70.000000667572,6|0,3:1|0:0,0:0:0:0:
282,314,162454,2,0,L|282:229,1,70.000000667572,6|0,3:1|0:0,0:0:0:0:
341,139,162630,1,2,3:0:0:0:
341,128,162719,1,6,3:2:0:0:
478,232,162895,5,2,0:0:0:0:
490,217,162983,1,2,0:0:0:0:
492,198,163071,1,2,0:2:0:0:
485,180,163160,2,0,B|474:158|474:158|496:109,3,60.0000022888184,8|8|8|8,0:1|0:1|0:1|0:1,0:0:0:0:
387,224,163513,6,0,B|385:240|385:240|394:270,2,30.0000011444092,6|2|2,3:2|0:0|0:0,0:0:0:0:
341,139,163689,1,10,0:1:0:0:
414,29,163866,2,0,B|416:13|416:13|407:-17,2,30.0000011444092,2|2|2,3:1|0:0|0:0,0:0:0:0:
321,38,164042,1,10,0:1:0:0:
321,38,164130,2,0,B|305:43|305:43|284:74,2,30.0000011444092,0|0|2,3:0|0:0|0:0,0:0:0:0:
341,139,164307,2,0,B|357:134|357:134|378:103,2,30.0000011444092,2|0|10,3:0|0:0|0:1,0:0:0:0:
167,48,164571,2,0,B|154:43|154:43|118:53,2,30.0000011444092,2|2|2,3:2|0:0|0:0,0:0:0:0:
116,152,164748,2,0,B|121:164|121:164|154:183,2,30.0000011444092,8|0|2,0:1|0:0|0:0,0:0:0:0:
15,96,164924,5,0,3:0:0:0:
1,119,165013,1,2,0:0:0:0:
0,146,165101,1,10,0:1:0:0:
8,171,165189,2,0,B|28:197|12:249,1,60.0000022888184,2|2,0:0|3:2,0:0:0:0:
0,309,165366,2,0,P|59:336|113:301,1,120.000004577637,2|2,0:2|3:0,0:0:0:0:
151,201,165630,5,2,0:0:0:0:
168,196,165719,1,2,3:0:0:0:
185,199,165807,1,10,0:1:0:0:
199,209,165895,1,2,0:0:0:0:
197,254,165983,1,2,3:0:0:0:
228,286,166071,1,2,0:0:0:0:
273,283,166160,1,10,0:1:0:0:
298,245,166248,1,0,0:0:0:0:
280,237,166336,6,0,B|293:211|348:220|348:220|357:258|435:257,1,140.000001335144,6|10,3:1|0:1,0:0:0:0:
460,314,166601,1,2,0:0:0:0:
460,314,166689,2,0,P|433:275|437:247,1,70.000000667572,2|2,3:0|0:1,0:0:0:0:
502,178,166866,1,10,0:1:0:0:
502,178,166954,2,0,P|477:121|389:108,1,140.000001335144,4|0,3:2|3:1,0:0:0:0:
364,200,167219,1,12,0:1:0:0:
328,35,167395,1,12,0:1:0:0:
328,35,167748,6,0,P|299:68|310:115,1,80,2|0,0:2|0:0,0:0:0:0:
302,123,168013,2,0,L|343:123,3,30.0000011444092,2|0|0|2,0:2|0:0|0:0|0:0,0:0:0:0:
244,177,168366,1,0,0:0:0:0:
99,82,168630,2,0,P|138:81|157:100,1,60.0000022888184,0|2,0:0|0:2,0:0:0:0:
99,82,169160,6,0,B|69:120|86:151|86:151|118:175|103:229,1,140.000001335144,4|10,3:2|0:1,0:0:0:0:
46,294,169424,1,2,0:1:0:0:
52,303,169513,2,0,P|75:262|68:224,1,70.000000667572,2|14,0:2|0:1,0:0:0:0:
193,249,169689,1,0,0:0:0:0:
198,258,169777,2,0,P|272:264|311:339,1,140.000001335144,4|8,0:2|0:3,0:0:0:0:
231,368,170042,1,10,0:3:0:0:
364,210,170219,5,6,0:3:0:0:
386,206,170307,1,4,0:3:0:0:
407,213,170395,1,6,0:3:0:0:
423,229,170483,1,6,0:3:0:0:
431,250,170571,5,4,3:2:0:0:
399,333,170748,1,10,0:1:0:0:
512,191,170924,1,6,3:2:0:0:
511,180,171013,1,0,0:0:0:0:
401,48,171189,1,4,3:2:0:0:
329,102,171454,6,0,B|301:92|279:113|279:113|273:52|229:43|229:43|179:84|128:48,1,240.000009155274,2|0,0:1|0:0,0:0:0:0:
99,145,171983,6,0,P|94:190|130:229,1,80,2|0,0:1|0:0,0:0:0:0:
151,217,172248,1,0,0:0:0:0:
151,217,172336,2,0,P|169:251|161:290,1,80,2|0,0:0|0:0,0:0:0:0:
148,367,172601,1,0,0:0:0:0:
148,367,172689,2,0,P|129:332|137:293,1,80,2|0,0:0|0:0,0:0:0:0:
218,295,172954,2,0,P|273:309|296:275,1,100,2|0,0:0|0:0,0:0:0:0:
319,211,173219,2,0,P|303:227|300:253,1,30.0000011444092,2|0,0:2|0:0,0:0:0:0:
404,250,173395,6,0,P|409:205|373:166,1,80,2|0,0:1|0:0,0:0:0:0:
352,178,173660,1,0,0:0:0:0:
352,178,173748,2,0,P|333:143|341:104,1,80,2|0,0:0|0:0,0:0:0:0:
355,29,174013,1,0,0:0:0:0:
355,29,174101,2,0,P|373:63|365:102,1,80,2|0,0:0|0:0,0:0:0:0:
285,101,174366,2,0,P|230:87|206:120,1,100,2|0,0:0|0:0,0:0:0:0:
184,184,174631,2,0,P|199:168|202:142,1,30.0000011444092,2|0,0:2|0:0,0:0:0:0:
99,145,174807,6,0,P|94:190|130:229,1,80,2|0,0:1|0:0,0:0:0:0:
151,217,175072,1,0,0:0:0:0:
151,217,175160,2,0,P|169:251|161:290,1,80,2|0,0:0|0:0,0:0:0:0:
148,367,175425,1,0,0:0:0:0:
148,367,175513,2,0,P|129:332|137:293,1,80,2|0,0:0|0:0,0:0:0:0:
218,295,175778,2,0,P|273:309|296:275,1,100,2|0,0:0|0:0,0:0:0:0:
319,211,176043,2,0,P|303:227|300:253,1,30.0000011444092,2|0,0:2|0:0,0:0:0:0:
404,250,176219,6,0,P|409:205|373:166,1,80,2|0,0:1|0:0,0:0:0:0:
352,178,176484,1,0,0:0:0:0:
352,178,176572,2,0,P|333:143|341:104,1,80,2|0,0:0|0:0,0:0:0:0:
355,29,176837,1,0,0:0:0:0:
355,29,176925,2,0,P|373:63|365:102,1,80,2|0,0:0|0:0,0:0:0:0:
285,101,177190,2,0,P|230:87|206:120,1,100,2|0,0:0|0:0,0:0:0:0:
184,184,177455,2,0,P|199:168|202:142,1,30.0000011444092,2|0,0:2|0:0,0:0:0:0:
143,32,177630,6,0,P|89:41|94:162,1,180.000006866455,10|8,0:2|0:0,0:0:0:0:
98,260,177983,2,0,P|78:282|21:245,1,100,8|0,0:0|0:0,0:0:0:0:
76,182,178248,1,8,0:0:0:0:
180,212,178424,1,8,0:0:0:0:
51,371,178601,1,8,0:0:0:0:
51,371,178689,2,0,L|15:371,4,30.0000011444092,8|0|0|0|8,0:2|0:0|0:0|0:0|0:2,0:0:0:0:
260,310,179219,5,10,0:0:0:0:
334,366,179395,1,10,0:2:0:0:
359,353,179483,1,2,0:0:0:0:
372,328,179571,1,2,0:2:0:0:
371,300,179660,1,10,0:2:0:0:
278,185,179836,5,10,0:2:0:0:
278,185,179924,2,0,P|320:171|356:186,1,50,2|8,0:2|0:0,0:0:0:0:
259,309,180101,2,0,P|275:284|278:255,1,50,10|2,3:2|0:2,0:0:0:0:
370,186,180277,2,0,P|383:212|408:229,1,50,2|2,3:2|0:2,0:0:0:0:
242,104,180454,2,0,P|201:97|155:147,1,100,4|8,3:2|0:1,0:0:0:0:
349,92,180807,2,0,P|382:67|380:0,1,100,0|8,3:2|0:1,0:0:0:0:
213,4,181160,5,2,0:2:0:0:
159,61,181336,1,8,0:1:0:0:
0,59,181513,1,10,3:2:0:0:
14,137,181689,1,8,0:1:0:0:
179,178,181866,1,14,3:1:0:0:
116,229,182042,6,0,L|116:273,5,30.0000011444092
161,290,182571,1,0,0:0:0:0:
297,219,182807,6,0,P|323:230|343:271,1,53.3333333333333,2|2,0:2|0:2,0:0:0:0:
328,350,183160,2,0,P|302:339|282:298,1,53.3333333333333,2|4,0:2|3:2,0:0:0:0:
429,175,183513,6,0,P|473:175|505:214,1,66.6666666666667,2|10,0:2|0:1,0:0:0:0:
352,64,183866,1,2,0:2:0:0:
366,52,183983,2,0,P|379:72|306:120,1,133.333333333333,4|0,3:1|3:0,0:0:0:0:
282,93,184336,2,0,P|266:74|198:129,1,133.333333333333,10|0,0:1|3:0,0:0:0:0:
252,177,184689,6,0,L|271:266,1,66.6666666666667,4|8,0:2|0:2,0:0:0:0:
163,214,184924,1,8,0:2:0:0:
173,218,185042,2,0,L|192:307,1,66.6666666666667,2|8,0:1|0:3,0:0:0:0:
78,202,185277,1,4,0:3:0:0:
88,206,185395,5,2,3:1:0:0:
54,105,185630,1,2,3:1:0:0:
120,51,185983,1,0,0:0:0:0:
120,51,186336,6,0,L|160:51,4,40.000001525879,0|2|0|0|2,0:0|0:2|0:0|0:0|0:2,0:0:0:0:
282,93,187042,2,0,P|286:110|283:134,2,26.6666666666667,0|0|2,0:0|0:0|0:2,0:0:0:0:
351,33,187277,5,0,0:0:0:0:
379,27,187395,1,0,0:0:0:0:
406,36,187513,1,2,0:0:0:0:
463,129,187748,2,0,P|490:112|500:86,1,53.3333333333333,2|2,0:2|0:2,0:0:0:0:
348,234,188101,1,2,0:2:0:0:
348,234,188454,6,0,B|339:198|353:182|353:182|339:150|339:110|339:110|316:143|279:134|279:134|243:142|219:110|219:110|219:150|199:182|199:182|211:198|203:238,1,396.00000377655
