osu file format v14

[General]
AudioFilename: audio.mp3
AudioLeadIn: 0
PreviewTime: 18294
Countdown: 0
SampleSet: Normal
StackLeniency: 0.7
Mode: 1
LetterboxInBreaks: 0
WidescreenStoryboard: 1

[Editor]
DistanceSpacing: 0.1
BeatDivisor: 4
GridSize: 32
TimelineZoom: 1.7

[Metadata]
Title:UNDERVEIL IS REAL!!!
TitleUnicode:UNDERVEIL IS REAL!!!
Artist:AAAA + Silentroom
ArtistUnicode:ああああ + Silentroom
Creator:rubies87
Version:Oni
Source:
Tags:
BeatmapID:2058005
BeatmapSetID:983509

[Difficulty]
HPDrainRate:6
CircleSize:2
OverallDifficulty:5
ApproachRate:10
SliderMultiplier:1.4
SliderTickRate:1

[Events]
//Background and Video events
0,0,"858361.jpg",0,0
//Break Periods
//Storyboard Layer 0 (Background)
//Storyboard Layer 1 (Fail)
//Storyboard Layer 2 (Pass)
//Storyboard Layer 3 (Foreground)
//Storyboard Sound Samples

[TimingPoints]
6378,333.333333333333,4,1,0,85,1,0
18377,-100,4,1,0,100,0,1
29044,-100,4,1,0,85,0,0
31711,-100,4,1,0,100,0,1
39711,-100,4,1,0,85,0,0

[HitObjects]
256,192,6377,5,8,0:0:0:0:
256,192,6711,1,0,0:0:0:0:
256,192,6877,1,8,0:0:0:0:
256,192,7211,1,0,0:0:0:0:
256,192,7377,1,8,0:0:0:0:
256,192,7711,1,8,0:0:0:0:
256,192,8044,1,0,0:0:0:0:
256,192,8211,1,8,0:0:0:0:
256,192,8544,1,0,0:0:0:0:
256,192,8711,1,8,0:0:0:0:
256,192,9044,1,8,0:0:0:0:
256,192,9377,1,0,0:0:0:0:
256,192,9544,1,8,0:0:0:0:
256,192,9877,1,0,0:0:0:0:
256,192,10044,1,8,0:0:0:0:
256,192,10377,1,8,0:0:0:0:
256,192,10711,1,0,0:0:0:0:
256,192,10877,1,0,0:0:0:0:
256,192,11211,1,0,0:0:0:0:
256,192,11377,1,8,0:0:0:0:
256,192,11711,1,0,0:0:0:0:
256,192,11877,1,0,0:0:0:0:
256,192,12044,1,0,0:0:0:0:
256,192,12211,1,0,0:0:0:0:
256,192,12377,1,8,0:0:0:0:
256,192,12544,1,8,0:0:0:0:
256,192,12711,1,8,0:0:0:0:
256,192,12877,1,8,0:0:0:0:
256,192,13044,1,0,0:0:0:0:
256,192,13211,1,0,0:0:0:0:
256,192,13377,1,8,0:0:0:0:
256,192,13544,1,8,0:0:0:0:
256,192,13711,1,0,0:0:0:0:
256,192,13877,1,0,0:0:0:0:
256,192,14044,1,8,0:0:0:0:
256,192,14211,1,8,0:0:0:0:
256,192,14377,1,0,0:0:0:0:
256,192,14461,1,0,0:0:0:0:
256,192,14544,1,8,0:0:0:0:
256,192,14627,1,8,0:0:0:0:
256,192,14711,1,0,0:0:0:0:
256,192,14877,1,8,0:0:0:0:
256,192,15044,1,0,0:0:0:0:
256,192,15211,1,8,0:0:0:0:
256,192,15294,1,8,0:0:0:0:
256,192,15377,1,0,0:0:0:0:
256,192,15544,1,0,0:0:0:0:
256,192,15711,1,8,0:0:0:0:
256,192,16044,1,0,0:0:0:0:
256,192,16377,1,8,0:0:0:0:
256,192,16711,1,0,0:0:0:0:
256,192,17044,1,8,0:0:0:0:
256,192,17377,1,8,0:0:0:0:
256,192,17711,1,8,0:0:0:0:
256,192,17877,1,0,0:0:0:0:
256,192,17961,1,0,0:0:0:0:
256,192,18044,1,12,0:0:0:0:
256,192,18377,1,0,0:0:0:0:
256,192,18544,1,0,0:0:0:0:
256,192,18627,1,0,0:0:0:0:
256,192,18711,1,8,0:0:0:0:
256,192,18877,1,0,0:0:0:0:
256,192,19044,1,8,0:0:0:0:
256,192,19211,1,8,0:0:0:0:
256,192,19377,1,0,0:0:0:0:
256,192,19544,1,8,0:0:0:0:
256,192,19627,1,8,0:0:0:0:
256,192,19711,1,0,0:0:0:0:
256,192,19877,1,8,0:0:0:0:
256,192,20044,1,0,0:0:0:0:
256,192,20211,1,0,0:0:0:0:
256,192,20377,1,8,0:0:0:0:
256,192,20544,1,0,0:0:0:0:
256,192,20711,1,8,0:0:0:0:
256,192,20794,1,8,0:0:0:0:
256,192,20877,1,0,0:0:0:0:
256,192,20961,1,0,0:0:0:0:
256,192,21044,1,8,0:0:0:0:
256,192,21211,1,0,0:0:0:0:
256,192,21377,1,0,0:0:0:0:
256,192,21544,1,0,0:0:0:0:
256,192,21627,1,0,0:0:0:0:
256,192,21711,1,8,0:0:0:0:
256,192,21877,1,0,0:0:0:0:
256,192,22044,1,8,0:0:0:0:
256,192,22377,1,0,0:0:0:0:
256,192,22544,1,8,0:0:0:0:
256,192,22627,1,8,0:0:0:0:
256,192,22711,1,0,0:0:0:0:
256,192,22794,1,0,0:0:0:0:
256,192,22877,1,8,0:0:0:0:
256,192,23044,1,0,0:0:0:0:
256,192,23211,1,0,0:0:0:0:
256,192,23377,1,8,0:0:0:0:
256,192,23544,1,8,0:0:0:0:
256,192,23711,1,0,0:0:0:0:
256,192,23878,1,0,0:0:0:0:
256,192,23961,1,0,0:0:0:0:
256,192,24045,1,8,0:0:0:0:
256,192,24211,1,0,0:0:0:0:
256,192,24378,1,8,0:0:0:0:
256,192,24545,1,8,0:0:0:0:
256,192,24711,1,0,0:0:0:0:
256,192,24878,1,8,0:0:0:0:
256,192,24961,1,8,0:0:0:0:
256,192,25045,1,0,0:0:0:0:
256,192,25211,1,8,0:0:0:0:
256,192,25378,1,0,0:0:0:0:
256,192,25545,1,0,0:0:0:0:
256,192,25711,1,8,0:0:0:0:
256,192,25878,1,0,0:0:0:0:
256,192,26045,1,8,0:0:0:0:
256,192,26128,1,8,0:0:0:0:
256,192,26211,1,0,0:0:0:0:
256,192,26377,1,4,0:0:0:0:
256,192,26711,1,8,0:0:0:0:
256,192,26877,1,4,0:0:0:0:
256,192,27377,1,8,0:0:0:0:
256,192,27544,1,4,0:0:0:0:
256,192,28044,1,8,0:0:0:0:
256,192,28211,1,4,0:0:0:0:
256,192,28544,1,8,0:0:0:0:
256,192,28627,1,8,0:0:0:0:
256,192,28711,1,0,0:0:0:0:
256,192,29044,1,0,0:0:0:0:
256,192,29211,1,8,0:0:0:0:
256,192,29377,1,0,0:0:0:0:
256,192,29544,1,8,0:0:0:0:
256,192,29711,1,0,0:0:0:0:
256,192,29794,1,0,0:0:0:0:
256,192,29877,1,8,0:0:0:0:
256,192,30044,1,0,0:0:0:0:
256,192,30127,1,8,0:0:0:0:
256,192,30211,1,8,0:0:0:0:
256,192,30377,1,8,0:0:0:0:
256,192,30544,1,0,0:0:0:0:
256,192,30627,1,0,0:0:0:0:
256,192,30711,1,8,0:0:0:0:
256,192,30877,1,0,0:0:0:0:
256,192,30961,1,0,0:0:0:0:
256,192,31044,1,8,0:0:0:0:
256,192,31211,1,0,0:0:0:0:
256,192,31377,1,12,0:0:0:0:
256,192,31711,1,0,0:0:0:0:
256,192,31877,1,8,0:0:0:0:
256,192,31961,1,8,0:0:0:0:
256,192,32044,1,0,0:0:0:0:
256,192,32211,1,8,0:0:0:0:
256,192,32377,1,0,0:0:0:0:
256,192,32461,1,0,0:0:0:0:
256,192,32544,1,8,0:0:0:0:
256,192,32627,1,8,0:0:0:0:
256,192,32711,1,0,0:0:0:0:
256,192,32877,1,8,0:0:0:0:
256,192,33044,1,0,0:0:0:0:
256,192,33211,1,8,0:0:0:0:
256,192,33294,1,8,0:0:0:0:
256,192,33377,1,0,0:0:0:0:
256,192,33461,1,0,0:0:0:0:
256,192,33544,1,8,0:0:0:0:
256,192,33711,1,0,0:0:0:0:
256,192,33794,1,8,0:0:0:0:
256,192,33877,1,0,0:0:0:0:
256,192,34044,1,8,0:0:0:0:
256,192,34127,1,8,0:0:0:0:
256,192,34211,1,0,0:0:0:0:
256,192,34377,1,0,0:0:0:0:
256,192,34544,1,0,0:0:0:0:
256,192,34627,1,0,0:0:0:0:
256,192,34711,1,8,0:0:0:0:
256,192,34877,1,0,0:0:0:0:
256,192,35044,1,8,0:0:0:0:
256,192,35211,1,8,0:0:0:0:
256,192,35377,1,0,0:0:0:0:
256,192,35544,1,8,0:0:0:0:
256,192,35627,1,8,0:0:0:0:
256,192,35711,1,0,0:0:0:0:
256,192,35877,1,8,0:0:0:0:
256,192,36044,1,0,0:0:0:0:
256,192,36211,1,0,0:0:0:0:
256,192,36377,1,8,0:0:0:0:
256,192,36544,1,0,0:0:0:0:
256,192,36711,1,8,0:0:0:0:
256,192,36794,1,8,0:0:0:0:
256,192,36877,1,0,0:0:0:0:
256,192,37043,1,4,0:0:0:0:
256,192,37377,1,8,0:0:0:0:
256,192,37543,1,4,0:0:0:0:
256,192,38043,1,8,0:0:0:0:
256,192,38210,1,4,0:0:0:0:
256,192,38710,1,8,0:0:0:0:
256,192,38877,1,4,0:0:0:0:
256,192,39211,1,8,0:0:0:0:
256,192,39377,1,12,0:0:0:0:
256,192,39711,1,0,0:0:0:0:
256,192,40044,12,0,42377,0:0:0:0:
