osu file format v14

[General]
AudioFilename: audio.mp3
AudioLeadIn: 0
PreviewTime: 18294
Countdown: 0
SampleSet: Normal
StackLeniency: 0.7
Mode: 1
LetterboxInBreaks: 0
WidescreenStoryboard: 1

[Editor]
DistanceSpacing: 0.1
BeatDivisor: 4
GridSize: 32
TimelineZoom: 1.7

[Metadata]
Title:UNDERVEIL IS REAL!!!
TitleUnicode:UNDERVEIL IS REAL!!!
Artist:AAAA + Silentroom
ArtistUnicode:ああああ + Silentroom
Creator:rubies87
Version:Kantan
Source:
Tags:
BeatmapID:2058003
BeatmapSetID:983509

[Difficulty]
HPDrainRate:8
CircleSize:2
OverallDifficulty:2
ApproachRate:10
SliderMultiplier:1.4
SliderTickRate:1

[Events]
//Background and Video events
0,0,"858361.jpg",0,0
//Break Periods
//Storyboard Layer 0 (Background)
//Storyboard Layer 1 (Fail)
//Storyboard Layer 2 (Pass)
//Storyboard Layer 3 (Foreground)
//Storyboard Sound Samples

[TimingPoints]
6378,333.333333333333,4,1,0,85,1,0
18377,-100,4,1,0,100,0,1
29044,-100,4,1,0,85,0,0
31711,-100,4,1,0,100,0,1
39711,-100,4,1,0,85,0,0

[HitObjects]
256,192,6377,5,0,0:0:0:0:
256,192,7044,1,8,0:0:0:0:
256,192,7711,1,0,0:0:0:0:
256,192,9044,1,8,0:0:0:0:
256,192,9711,1,8,0:0:0:0:
256,192,10377,1,0,0:0:0:0:
256,192,11377,1,8,0:0:0:0:
256,192,11711,1,0,0:0:0:0:
256,192,12377,1,0,0:0:0:0:
256,192,13044,1,8,0:0:0:0:
256,192,13711,1,8,0:0:0:0:
256,192,14377,1,0,0:0:0:0:
256,192,15711,1,0,0:0:0:0:
256,192,16044,1,0,0:0:0:0:
256,192,16377,1,0,0:0:0:0:
256,192,17044,1,8,0:0:0:0:
256,192,17377,1,8,0:0:0:0:
256,192,17711,1,8,0:0:0:0:
256,192,18044,1,12,0:0:0:0:
256,192,18377,1,0,0:0:0:0:
256,192,19044,1,8,0:0:0:0:
256,192,19377,1,8,0:0:0:0:
256,192,19711,1,0,0:0:0:0:
256,192,20044,1,8,0:0:0:0:
256,192,20377,1,0,0:0:0:0:
256,192,20711,1,8,0:0:0:0:
256,192,21044,1,0,0:0:0:0:
256,192,21711,1,8,0:0:0:0:
256,192,22044,1,8,0:0:0:0:
256,192,22377,1,8,0:0:0:0:
256,192,23711,1,0,0:0:0:0:
256,192,24377,1,8,0:0:0:0:
256,192,24711,1,8,0:0:0:0:
256,192,25044,1,0,0:0:0:0:
256,192,25377,1,8,0:0:0:0:
256,192,25711,1,0,0:0:0:0:
256,192,26044,1,8,0:0:0:0:
256,192,26377,1,4,0:0:0:0:
256,192,26877,1,4,0:0:0:0:
256,192,27544,1,4,0:0:0:0:
256,192,28211,1,4,0:0:0:0:
256,192,29044,1,0,0:0:0:0:
256,192,30377,1,8,0:0:0:0:
256,192,30711,1,8,0:0:0:0:
256,192,31044,1,8,0:0:0:0:
256,192,31377,1,12,0:0:0:0:
256,192,31711,1,0,0:0:0:0:
256,192,32377,1,8,0:0:0:0:
256,192,32711,1,8,0:0:0:0:
256,192,33044,1,8,0:0:0:0:
256,192,34377,1,0,0:0:0:0:
256,192,35044,1,8,0:0:0:0:
256,192,35377,1,8,0:0:0:0:
256,192,35711,1,0,0:0:0:0:
256,192,36377,1,0,0:0:0:0:
256,192,36711,1,8,0:0:0:0:
256,192,37044,1,4,0:0:0:0:
256,192,37544,1,4,0:0:0:0:
256,192,38211,1,4,0:0:0:0:
256,192,38877,1,4,0:0:0:0:
256,192,39377,1,12,0:0:0:0:
256,192,40044,12,0,42377,0:0:0:0:
