osu file format v14

[General]
AudioFilename: audio.mp3
AudioLeadIn: 0
PreviewTime: 18297
Countdown: 0
SampleSet: Normal
StackLeniency: 0.7
Mode: 3
LetterboxInBreaks: 0
SpecialStyle: 0
WidescreenStoryboard: 1

[Editor]
DistanceSpacing: 0.8
BeatDivisor: 4
GridSize: 16
TimelineZoom: 2.999999

[Metadata]
Title:UNDERVEIL IS REAL!!!
TitleUnicode:UNDERVEIL IS REAL!!!
Artist:AAAA + Silentroom
ArtistUnicode:ああああ + Silentroom
Creator:angki
Version:ANGKI IS REAL!!!
Source:UNDERTALE
Tags:UNDERVEIL THE REAL Special Arrangement Album UNDERVEIL THE EXTRA Toby fox Once Upon A Time Remix Video Game Instrumental Electronic Famoss
BeatmapID:2059459
BeatmapSetID:984247

[Difficulty]
HPDrainRate:8.3
CircleSize:4
OverallDifficulty:8.3
ApproachRate:5
SliderMultiplier:1.4
SliderTickRate:1

[Events]
//Background and Video events
0,0,"Undertale.jpg",0,0
//Break Periods
//Storyboard Layer 0 (Background)
//Storyboard Layer 1 (Fail)
//Storyboard Layer 2 (Pass)
//Storyboard Layer 3 (Foreground)
//Storyboard Layer 4 (Overlay)
//Storyboard Sound Samples

[TimingPoints]
6381,333.333333333333,4,1,1,50,1,0
11380,-62.5,4,1,1,50,0,0
11463,-111.111111111111,4,1,1,50,0,0
11546,-250,4,1,1,50,0,0
11630,-1000,4,1,1,50,0,0
11672,-47.6190476190476,4,1,1,50,0,0
11714,-100,4,1,1,50,0,0
18047,-66.6666666666667,4,1,1,50,0,0
18214,-200,4,1,1,50,0,0
18380,-100,4,1,1,50,0,1
18464,-100,4,1,1,50,0,0
31380,-66.6666666666667,4,1,1,50,0,0
31547,-200,4,1,1,50,0,0
31714,-100,4,1,1,50,0,1
31797,-100,4,1,1,50,0,0

[HitObjects]
64,192,6380,128,0,6714:0:0:0:0:
448,192,6380,1,0,0:0:0:40:punchy snare 38.wav
320,192,6380,1,0,0:0:0:70:clap04.wav
448,192,6547,1,0,0:0:0:0:
192,192,6714,1,0,0:0:0:70:clap04.wav
320,192,6714,1,0,0:0:0:0:
64,192,6880,1,0,0:0:0:40:punchy snare 38.wav
192,192,6880,1,0,0:0:0:0:
448,192,6880,1,0,0:0:0:0:
320,192,7047,1,0,0:0:0:70:clap04.wav
448,192,7047,128,0,7380:0:0:0:0:
64,192,7214,1,0,0:0:0:0:
64,192,7380,1,0,0:0:0:40:punchy snare 38.wav
192,192,7380,1,0,0:0:0:70:clap04.wav
320,192,7380,1,0,0:0:0:0:
448,192,7547,1,0,0:0:0:0:
64,192,7714,1,0,0:0:0:40:punchy snare 38.wav
320,192,7714,128,0,8380:0:0:0:70:clap04.wav
448,192,7714,1,0,0:0:0:0:
192,192,7880,1,0,0:0:0:0:
64,192,8047,1,0,0:0:0:70:clap04.wav
448,192,8047,1,0,0:0:0:0:
64,192,8214,1,0,0:0:0:40:punchy snare 38.wav
192,192,8214,1,0,0:0:0:0:
448,192,8214,1,0,0:0:0:0:
64,192,8380,1,0,0:0:0:70:clap04.wav
192,192,8380,1,0,0:0:0:0:
448,192,8547,1,0,0:0:0:0:
64,192,8714,1,0,0:0:0:40:punchy snare 38.wav
192,192,8714,1,0,0:0:0:70:clap04.wav
320,192,8714,1,0,0:0:0:0:
320,192,8880,1,0,0:0:0:0:
64,192,9047,1,0,0:0:0:40:punchy snare 38.wav
192,192,9047,128,0,9380:0:0:0:70:clap04.wav
448,192,9047,1,0,0:0:0:0:
448,192,9214,1,0,0:0:0:0:
64,192,9380,1,0,0:0:0:70:clap04.wav
320,192,9380,1,0,0:0:0:0:
64,192,9547,1,0,0:0:0:40:punchy snare 38.wav
192,192,9547,1,0,0:0:0:0:
448,192,9547,1,0,0:0:0:0:
320,192,9714,1,0,0:0:0:70:clap04.wav
448,192,9714,128,0,10047:0:0:0:0:
64,192,9880,1,0,0:0:0:0:
64,192,10047,1,0,0:0:0:40:punchy snare 38.wav
192,192,10047,1,0,0:0:0:70:clap04.wav
320,192,10047,1,0,0:0:0:0:
320,192,10214,1,0,0:0:0:0:
192,192,10380,1,0,0:0:0:40:punchy snare 38.wav
64,192,10380,128,0,11047:0:0:0:70:clap04.wav
448,192,10380,1,0,0:0:0:0:
320,192,10547,1,0,0:0:0:0:
192,192,10714,1,0,0:0:0:70:clap04.wav
448,192,10714,1,0,0:0:0:0:
192,192,10880,1,0,0:0:0:40:punchy snare 38.wav
320,192,10880,1,0,0:0:0:0:
448,192,10880,1,0,0:0:0:0:
320,192,11047,1,0,0:0:0:70:clap04.wav
448,192,11047,1,0,0:0:0:0:
64,192,11214,1,0,0:0:0:0:
192,192,11380,1,0,0:0:0:70:kring.wav
192,192,11714,1,0,0:0:0:40:punchy snare 38.wav
64,192,11714,1,0,0:0:0:70:clap04.wav
448,192,11714,1,0,0:0:0:0:
320,192,11880,1,0,0:0:0:40:punchy snare 38.wav
448,192,11880,1,0,0:0:0:0:
64,192,12047,1,0,0:0:0:40:punchy snare 38.wav
448,192,12047,1,0,0:0:0:70:clap04.wav
320,192,12047,1,0,0:0:0:0:
320,192,12214,1,0,0:0:0:40:punchy snare 38.wav
192,192,12214,1,0,0:0:0:0:
192,192,12380,1,0,0:0:0:40:punchy snare 38.wav
320,192,12380,1,0,0:0:0:70:clap04.wav
448,192,12380,1,0,0:0:0:0:
64,192,12547,1,0,0:0:0:40:punchy snare 38.wav
192,192,12547,1,0,0:0:0:0:
64,192,12714,1,0,0:0:0:40:punchy snare 38.wav
192,192,12714,1,0,0:0:0:70:clap04.wav
320,192,12714,1,0,0:0:0:0:
64,192,12880,1,0,0:0:0:40:punchy snare 38.wav
448,192,12880,1,0,0:0:0:0:
64,192,13047,1,0,0:0:0:40:punchy snare 38.wav
192,192,13047,1,0,0:0:0:70:clap04.wav
448,192,13047,1,0,0:0:0:0:
320,192,13214,1,0,0:0:0:40:punchy snare 38.wav
448,192,13214,1,0,0:0:0:0:
64,192,13380,1,0,0:0:0:40:punchy snare 38.wav
448,192,13380,1,0,0:0:0:70:clap04.wav
320,192,13380,1,0,0:0:0:0:
192,192,13547,1,0,0:0:0:40:punchy snare 38.wav
64,192,13547,1,0,0:0:0:0:
64,192,13714,1,0,0:0:0:40:punchy snare 38.wav
192,192,13714,1,0,0:0:0:70:clap04.wav
448,192,13714,1,0,0:0:0:0:
445,192,13880,1,0,0:0:0:40:punchy snare 38.wav
320,192,13880,1,0,0:0:0:0:
64,192,14047,1,0,0:0:0:40:punchy snare 38.wav
448,192,14047,1,0,0:0:0:70:clap04.wav
320,192,14047,1,0,0:0:0:0:
192,192,14214,1,0,0:0:0:40:punchy snare 38.wav
448,192,14214,1,0,0:0:0:0:
64,192,14380,1,0,0:0:0:30:punchy snare 38.wav
192,192,14380,1,0,0:0:0:70:clap04.wav
320,192,14464,1,0,0:0:0:30:punchy snare 38.wav
64,192,14547,1,0,0:0:0:30:punchy snare 38.wav
448,192,14547,1,0,0:0:0:0:
192,192,14630,1,0,0:0:0:30:punchy snare 38.wav
320,192,14714,1,0,0:0:0:30:punchy snare 38.wav
448,192,14714,1,0,0:0:0:70:clap04.wav
64,192,14797,1,0,0:0:0:30:punchy snare 38.wav
192,192,14880,1,0,0:0:0:30:punchy snare 38.wav
320,192,14880,1,0,0:0:0:0:
448,192,14964,1,0,0:0:0:30:punchy snare 38.wav
64,192,15047,1,0,0:0:0:20:punchy snare 38.wav
192,192,15047,1,0,0:0:0:70:clap04.wav
320,192,15130,1,0,0:0:0:20:punchy snare 38.wav
192,192,15214,1,0,0:0:0:20:punchy snare 38.wav
448,192,15214,1,0,0:0:0:0:
64,192,15297,1,0,0:0:0:20:punchy snare 38.wav
320,192,15380,1,0,0:0:0:20:punchy snare 38.wav
448,192,15380,1,0,0:0:0:70:clap04.wav
192,192,15464,1,0,0:0:0:20:punchy snare 38.wav
64,192,15547,1,0,0:0:0:30:punchy snare 38.wav
320,192,15547,1,0,0:0:0:0:
448,192,15630,1,0,0:0:0:30:punchy snare 38.wav
192,192,15714,128,0,17047:0:0:0:70:clap04.wav
320,192,16047,128,0,16880:0:0:0:70:clap04.wav
448,192,16380,128,0,16880:0:0:0:70:clap04.wav
64,192,16714,128,0,17047:0:0:0:70:clap04.wav
320,192,17047,1,0,0:0:0:100:point.wav
448,192,17047,128,0,17797:0:0:0:70:clap04.wav
192,192,17380,1,0,0:0:0:100:point.wav
320,192,17380,128,0,17880:0:0:0:70:clap04.wav
64,192,17714,128,0,17964:0:0:0:100:point.wav
192,192,17714,128,0,17964:0:0:0:70:clap04.wav
448,192,17880,1,0,0:0:0:0:
320,192,17964,1,0,0:0:0:0:
64,192,18047,1,0,0:0:0:100:VEC4 Snares 151.wav
192,192,18047,1,0,0:0:0:0:
448,192,18047,1,0,0:0:0:0:
192,192,18380,1,0,0:0:0:0:
448,192,18380,1,4,0:0:0:0:
64,192,18380,128,2,18880:0:0:0:0:
320,192,18547,1,0,0:0:0:0:
448,192,18714,1,0,0:0:0:0:
320,192,18714,1,2,0:0:0:0:
192,192,18714,1,8,0:0:0:0:
448,192,18880,1,0,0:0:0:0:
320,192,19047,1,0,0:0:0:0:
64,192,19047,1,2,0:0:0:0:
192,192,19110,128,0,19380:0:0:0:0:
448,192,19214,1,0,0:0:0:0:
320,192,19380,1,0,0:0:0:0:
64,192,19380,128,8,19714:0:0:0:0:
448,192,19380,1,2,0:0:0:0:
192,192,19547,1,0,0:0:0:0:
192,192,19714,1,0,0:0:0:0:
448,192,19714,128,2,20047:0:0:0:0:
320,192,19880,1,0,0:0:0:0:
192,192,20047,1,0,0:0:0:0:
64,192,20047,1,2,0:0:0:0:
320,192,20047,128,8,20380:0:0:0:0:
192,192,20214,1,0,0:0:0:0:
448,192,20380,1,0,0:0:0:0:
64,192,20380,128,2,20714:0:0:0:0:
320,192,20547,1,0,0:0:0:0:
448,192,20714,1,0,0:0:0:0:
320,192,20714,1,2,0:0:0:0:
192,192,20714,128,8,20964:0:0:0:0:
448,192,20880,1,0,0:0:0:0:
192,192,21047,128,0,21714:0:0:0:0:
64,192,21047,1,2,0:0:0:0:
320,192,21214,1,0,0:0:0:0:
448,192,21380,1,0,0:0:0:0:
320,192,21380,1,8,0:0:0:0:
64,192,21380,1,2,0:0:0:0:
448,192,21547,1,0,0:0:0:0:
320,192,21714,1,0,0:0:0:0:
64,192,21714,1,2,0:0:0:0:
448,192,21776,128,0,22047:0:0:0:0:
192,192,21880,1,0,0:0:0:0:
320,192,22047,1,0,0:0:0:0:
192,192,22047,1,2,0:0:0:0:
64,192,22047,128,8,22380:0:0:0:0:
448,192,22214,1,0,0:0:0:0:
320,192,22380,128,0,23547:0:0:0:0:
448,192,22380,1,2,0:0:0:0:
64,192,22547,1,0,0:0:0:0:
192,192,22714,1,2,0:0:0:0:
448,192,22714,1,8,0:0:0:0:
64,192,22797,1,0,0:0:0:0:
192,192,22880,1,0,0:0:0:0:
64,192,23047,1,0,0:0:0:0:
448,192,23047,1,2,0:0:0:0:
192,192,23214,1,0,0:0:0:0:
192,192,23380,1,0,0:0:0:0:
64,192,23380,1,8,0:0:0:0:
448,192,23380,1,2,0:0:0:0:
64,192,23547,1,0,0:0:0:0:
448,192,23714,1,0,0:0:0:0:
192,192,23714,128,2,24214:0:0:0:0:
64,192,23880,1,0,0:0:0:0:
448,192,24047,1,0,0:0:0:0:
320,192,24047,1,8,0:0:0:0:
64,192,24047,1,2,0:0:0:0:
320,192,24214,1,0,0:0:0:0:
64,192,24380,1,2,0:0:0:0:
448,192,24380,128,0,24714:0:0:0:0:
320,192,24547,1,0,0:0:0:0:
320,192,24714,128,8,25047:0:0:0:0:
192,192,24714,1,2,0:0:0:0:
64,192,24714,1,0,0:0:0:0:
192,192,24880,1,0,0:0:0:0:
64,192,25047,128,2,25380:0:0:0:0:
448,192,25047,1,0,0:0:0:0:
192,192,25214,1,0,0:0:0:0:
320,192,25380,1,8,0:0:0:0:
448,192,25380,128,2,25714:0:0:0:0:
192,192,25380,1,0,0:0:0:0:
320,192,25547,1,0,0:0:0:0:
192,192,25714,128,2,26047:0:0:0:0:
64,192,25714,1,0,0:0:0:0:
320,192,25880,1,0,0:0:0:0:
64,192,26047,1,2,0:0:0:0:
320,192,26047,128,8,26464:0:0:0:0:
448,192,26047,1,0,0:0:0:0:
448,192,26214,1,0,0:0:0:0:
64,192,26380,128,2,26464:0:0:0:0:
192,192,26380,128,0,26464:0:0:0:0:
192,192,26547,128,0,26630:0:0:0:0:
320,192,26547,128,0,26630:0:0:0:0:
64,192,26714,128,8,27047:0:0:0:0:
320,192,26714,128,0,26797:0:0:0:0:
448,192,26714,128,0,26797:0:0:0:0:
192,192,26880,128,2,27047:0:0:0:0:
448,192,26880,128,0,27297:0:0:0:0:
192,192,27214,128,0,27297:0:0:0:0:
320,192,27214,128,0,27297:0:0:0:0:
64,192,27380,128,8,27464:0:0:0:0:
192,192,27380,128,0,27464:0:0:0:0:
448,192,27380,128,0,27714:0:0:0:0:
64,192,27547,128,2,27964:0:0:0:0:
320,192,27547,128,0,27714:0:0:0:0:
192,192,27880,128,0,27964:0:0:0:0:
320,192,27880,128,0,27964:0:0:0:0:
64,192,28047,128,8,28130:0:0:0:0:
192,192,28047,128,0,28130:0:0:0:0:
448,192,28047,128,0,28130:0:0:0:0:
448,192,28214,128,2,28547:0:0:0:0:
320,192,28214,128,0,28547:0:0:0:0:
64,192,28547,1,0,0:0:0:0:
192,192,28630,1,0,0:0:0:0:
448,192,28714,1,0,0:0:0:0:
320,192,28755,1,0,0:0:0:0:
192,192,28797,1,0,0:0:0:0:
64,192,28839,1,0,0:0:0:0:
448,192,28880,1,0,0:0:0:0:
320,192,28922,1,0,0:0:0:0:
192,192,28964,1,0,0:0:0:0:
64,192,29005,1,0,0:0:0:0:
448,192,29047,1,2,0:0:0:0:
320,192,29047,1,0,0:0:0:0:
192,192,29130,1,0,0:0:0:0:
64,192,29214,1,0,0:0:0:0:
320,192,29297,1,0,0:0:0:0:
64,192,29380,1,0,0:0:0:30:punchy snare 38.wav
448,192,29380,1,0,0:0:0:0:
192,192,29464,1,0,0:0:0:0:
448,192,29547,1,0,0:0:0:0:
320,192,29630,1,0,0:0:0:0:
64,192,29714,1,0,0:0:0:30:punchy snare 38.wav
192,192,29714,1,0,0:0:0:0:
320,192,29797,1,0,0:0:0:0:
64,192,29880,1,0,0:0:0:0:
192,192,29964,1,0,0:0:0:0:
320,192,30047,1,0,0:0:0:20:punchy snare 38.wav
448,192,30047,1,0,0:0:0:0:
64,192,30130,1,0,0:0:0:0:
320,192,30214,1,0,0:0:0:0:
192,192,30297,1,0,0:0:0:0:
64,192,30380,1,0,0:0:0:100:point.wav
448,192,30380,1,0,0:0:0:0:
320,192,30464,1,0,0:0:0:0:
192,192,30547,1,0,0:0:0:0:
320,192,30630,1,0,0:0:0:0:
64,192,30714,1,0,0:0:0:100:point.wav
448,192,30714,1,0,0:0:0:0:
192,192,30797,1,0,0:0:0:0:
320,192,30880,1,0,0:0:0:0:
192,192,30964,1,0,0:0:0:0:
448,192,31047,1,0,0:0:0:100:point.wav
64,192,31047,1,0,0:0:0:0:
320,192,31130,1,0,0:0:0:0:
192,192,31214,1,0,0:0:0:0:
64,192,31214,1,0,0:0:0:0:
320,192,31297,1,0,0:0:0:0:
192,192,31380,1,0,0:0:0:70:kring.wav
64,192,31380,1,0,0:0:0:100:VEC4 Snares 151.wav
448,192,31380,1,0,0:0:0:0:
64,192,31714,128,2,32380:0:0:0:0:
192,192,31714,1,4,0:0:0:0:
448,192,31714,1,0,0:0:0:0:
320,192,31880,1,0,0:0:0:0:
192,192,32047,1,8,0:0:0:0:
320,192,32047,1,2,0:0:0:0:
448,192,32047,1,0,0:0:0:0:
448,192,32214,1,0,0:0:0:0:
320,192,32380,1,2,0:0:0:0:
192,192,32380,1,0,0:0:0:0:
448,192,32443,128,0,32714:0:0:0:0:
64,192,32547,1,0,0:0:0:0:
64,192,32714,1,2,0:0:0:0:
192,192,32714,1,8,0:0:0:0:
320,192,32714,128,0,33047:0:0:0:0:
448,192,32880,1,0,0:0:0:0:
64,192,33047,1,2,0:0:0:0:
192,192,33047,128,0,34214:0:0:0:0:
320,192,33214,1,0,0:0:0:0:
64,192,33380,1,8,0:0:0:0:
448,192,33380,1,2,0:0:0:0:
320,192,33464,1,0,0:0:0:0:
64,192,33547,1,0,0:0:0:0:
320,192,33714,1,2,0:0:0:0:
448,192,33714,1,0,0:0:0:0:
64,192,33880,1,0,0:0:0:0:
64,192,34047,1,2,0:0:0:0:
320,192,34047,1,8,0:0:0:0:
448,192,34047,1,0,0:0:0:0:
320,192,34214,1,0,0:0:0:0:
64,192,34380,128,2,34880:0:0:0:0:
192,192,34380,1,0,0:0:0:0:
448,192,34547,1,0,0:0:0:0:
192,192,34714,1,2,0:0:0:0:
320,192,34714,1,8,0:0:0:0:
448,192,34714,1,0,0:0:0:0:
320,192,34880,1,0,0:0:0:0:
64,192,35047,1,2,0:0:0:0:
448,192,35047,128,0,35380:0:0:0:0:
192,192,35214,1,0,0:0:0:0:
64,192,35380,1,8,0:0:0:0:
320,192,35380,128,2,35714:0:0:0:0:
192,192,35380,1,0,0:0:0:0:
448,192,35547,1,0,0:0:0:0:
64,192,35714,1,2,0:0:0:0:
192,192,35714,128,0,36047:0:0:0:0:
320,192,35880,1,0,0:0:0:0:
448,192,36047,128,8,36380:0:0:0:0:
64,192,36047,1,2,0:0:0:0:
320,192,36047,1,0,0:0:0:0:
192,192,36214,1,0,0:0:0:0:
64,192,36380,128,2,36714:0:0:0:0:
320,192,36380,1,0,0:0:0:0:
448,192,36547,1,0,0:0:0:0:
320,192,36714,1,2,0:0:0:0:
192,192,36714,128,8,37130:0:0:0:0:
448,192,36714,1,0,0:0:0:0:
64,192,36880,1,0,0:0:0:0:
320,192,37047,128,2,37130:0:0:0:0:
448,192,37047,128,0,37130:0:0:0:0:
192,192,37214,128,0,37297:0:0:0:0:
320,192,37214,128,0,37297:0:0:0:0:
64,192,37380,128,8,37464:0:0:0:0:
192,192,37380,128,0,37464:0:0:0:0:
448,192,37380,128,0,37714:0:0:0:0:
64,192,37547,128,2,37964:0:0:0:0:
320,192,37547,128,0,37714:0:0:0:0:
192,192,37880,128,0,37964:0:0:0:0:
320,192,37880,128,0,37964:0:0:0:0:
64,192,38047,128,8,38380:0:0:0:0:
320,192,38047,128,0,38130:0:0:0:0:
448,192,38047,128,0,38130:0:0:0:0:
192,192,38214,128,2,38380:0:0:0:0:
448,192,38214,128,0,38630:0:0:0:0:
64,192,38547,128,0,38630:0:0:0:0:
320,192,38547,128,0,38630:0:0:0:0:
64,192,38714,128,8,38797:0:0:0:0:
192,192,38714,128,0,38797:0:0:0:0:
448,192,38714,128,0,38797:0:0:0:0:
320,192,38880,128,2,39297:0:0:0:0:
448,192,38880,128,0,39297:0:0:0:0:
64,192,39214,128,0,39297:0:0:0:0:
192,192,39214,128,0,39297:0:0:0:0:
192,192,39380,128,2,39714:0:0:0:0:
448,192,39380,128,0,39714:0:0:0:0:
64,192,39380,1,8,0:0:0:0:
320,192,39714,1,0,0:0:0:0:
64,192,39776,128,0,42380:0:0:0:0:
448,192,40047,128,0,42380:0:0:0:0:
192,192,40047,1,0,0:0:0:0:
320,192,40130,1,0,0:0:0:0:
192,192,40214,1,0,0:0:0:0:
320,192,40380,1,0,0:0:0:0:
192,192,40464,1,0,0:0:0:0:
320,192,40547,1,0,0:0:0:0:
192,192,40714,1,0,0:0:0:0:
320,192,40797,1,0,0:0:0:0:
192,192,40880,1,0,0:0:0:0:
320,192,41047,1,0,0:0:0:0:
192,192,41130,1,0,0:0:0:0:
320,192,41214,1,0,0:0:0:0:
192,192,41380,1,0,0:0:0:0:
320,192,41464,1,0,0:0:0:0:
192,192,41547,1,0,0:0:0:0:
320,192,41714,1,0,0:0:0:0:
192,192,41797,1,0,0:0:0:0:
320,192,41880,1,0,0:0:0:0:
192,192,42047,1,0,0:0:0:0:
320,192,42130,1,0,0:0:0:0:
192,192,42214,1,0,0:0:0:0:
