osu file format v14

[General]
AudioFilename: audio.mp3
AudioLeadIn: 0
PreviewTime: 48375
Countdown: 0
SampleSet: Soft
StackLeniency: 0.9
Mode: 0
LetterboxInBreaks: 0
WidescreenStoryboard: 1

[Editor]
DistanceSpacing: 1
BeatDivisor: 4
GridSize: 8
TimelineZoom: 1

[Metadata]
Title:Ashita no Hikari (TV Size)
TitleUnicode:アシタノヒカリ (TV Size)
Artist:AAA
ArtistUnicode:AAA
Creator:Yudragen
Version:Normal
Source:ワールドトリガー
Tags:world trigger chaoticred anime japanese opening 2 second jpop pop トリプル・エー triple a
BeatmapID:2397758
BeatmapSetID:1148453

[Difficulty]
HPDrainRate:4
CircleSize:3
OverallDifficulty:4
ApproachRate:5.5
SliderMultiplier:1.65
SliderTickRate:1

[Events]
//Background and Video events
0,0,"tumblr_noi9at4BnW1tvjzgko2_1280.jpg",0,0
//Break Periods
//Storyboard Layer 0 (Background)
//Storyboard Layer 1 (Fail)
//Storyboard Layer 2 (Pass)
//Storyboard Layer 3 (Foreground)
//Storyboard Layer 4 (Overlay)
//Storyboard Sound Samples

[TimingPoints]
875,500,4,2,1,50,1,0
875,-125,4,2,1,50,0,0
8875,-100,4,2,1,70,0,0
16875,-125,4,2,1,60,0,0
32875,-111.111111111111,4,2,1,75,0,0
48875,-90.9090909090909,4,2,1,95,0,1
68375,-90.9090909090909,4,2,1,70,0,0
68875,-100,4,2,1,85,0,0
86750,-100,4,2,1,70,0,0

[Colours]
Combo1 : 126,207,199
Combo2 : 141,99,199
Combo3 : 151,226,82
Combo4 : 228,69,69

[HitObjects]
51,54,875,6,0,P|128:69|183:102,1,132,2|2,0:0|0:0,0:0:0:0:
319,93,1875,2,0,P|286:143|276:196,2,99,2|2|2,0:0|0:0|0:0,0:0:0:0:
394,54,2875,2,0,P|409:172|413:203,1,132,2|2,0:0|0:0,0:0:0:0:
360,321,3875,2,0,P|410:288|463:278,2,99,2|2|2,0:0|0:0|0:0,0:0:0:0:
284,357,4875,6,0,P|239:330|87:303,1,198,2|2,0:0|0:0,0:0:0:0:
74,214,5875,2,0,P|171:202|260:159,1,198,2|2,0:0|0:0,0:0:0:0:
344,125,6875,2,0,P|363:187|382:239,2,99,2|2|2,0:0|0:0|0:0,0:0:0:0:
384,50,7875,2,0,L|309:28,1,66,2|2,0:0|0:0,0:0:0:0:
246,73,8375,1,2,0:0:0:0:
77,6,8875,6,0,P|43:35|23:165,1,165,2|2,3:2|3:2,0:0:0:0:
107,300,9875,2,0,P|153:279|199:278,1,82.5,2|2,3:2|0:0,0:0:0:0:
222,291,10250,2,0,P|284:319|367:316,1,123.75,2|2,0:0|0:0,0:0:0:0:
416,350,10875,1,2,3:2:0:0:
486,182,11375,1,2,3:2:0:0:
354,58,11875,2,0,P|296:75|250:87,1,82.5,2|0,3:2|0:0,0:0:0:0:
236,64,12250,2,0,P|193:55|88:36,1,123.75,2|2,0:0|0:0,0:0:0:0:
46,86,12875,6,0,P|72:136|87:272,1,165,2|0,3:2|3:0,0:0:0:0:
254,228,13875,2,0,P|313:249|333:260,1,82.5,2|2,3:2|0:0,0:0:0:0:
362,343,14375,1,2,3:2:0:0:
452,332,14625,1,2,0:0:0:0:
472,246,14875,2,0,P|454:183|444:82,1,165,2|0,3:2|3:0,0:0:0:0:
375,38,15625,2,0,P|326:65|311:71,1,41.25,2|2,0:0|0:0,0:0:0:0:
300,45,15875,2,0,P|236:18|140:11,1,165,2|0,3:2|3:0,0:0:0:0:
39,95,16875,6,0,P|60:140|77:230,1,132,2|0,3:2|3:0,0:0:0:0:
199,270,17875,2,0,P|210:205|236:144,1,132,0|0,3:0|3:0,0:0:0:0:
357,97,18875,1,2,3:2:0:0:
500,120,19375,1,0,3:2:0:0:
501,263,19875,2,0,P|436:278|374:298,1,132,0|0,3:0|3:0,0:0:0:0:
270,379,20875,6,0,P|233:336|254:239,1,132,2|0,3:2|3:0,0:0:0:0:
145,167,21875,2,0,P|82:154|29:131,2,99,2|2|0,3:2|0:0|0:0,0:0:0:0:
207,116,22875,2,0,P|267:76|335:87,1,132,2|0,3:2|3:0,0:0:0:0:
290,210,23875,1,2,3:2:0:0:
421,271,24375,1,2,3:2:0:0:
496,145,24875,6,0,P|468:75|450:-3,1,132,2|0,3:2|3:0,0:0:0:0:
333,73,25875,2,0,P|263:45|185:27,1,132,0|0,3:2|3:0,0:0:0:0:
100,107,26875,1,2,3:2:0:0:
36,237,27375,1,0,3:0:0:0:
118,358,27875,2,0,B|179:333|179:333|253:367,1,132,0|0,3:2|3:2,0:0:0:0:
342,278,28875,6,0,P|304:213|296:132,1,132,2|2,3:2|3:2,0:0:0:0:
377,54,29875,2,0,P|433:76|478:87,2,99,2|2|0,3:2|0:0|0:0,0:0:0:0:
309,3,30875,2,0,P|245:20|181:36,1,132,0|2,3:0|3:2,0:0:0:0:
97,155,31875,2,0,P|54:123|36:70,2,99,0|2|0,3:0|0:0|3:0,0:0:0:0:
171,197,32875,6,0,P|191:254|196:297,2,74.2499977340699,6|2|8,3:2|0:0|3:2,0:0:0:0:
226,136,33625,1,2,0:0:0:0:
288,188,33875,2,0,P|344:155|435:141,1,148.49999546814,2|8,3:2|3:2,0:0:0:0:
510,280,34875,6,0,P|452:297|391:362,1,148.49999546814,4|8,3:0|3:2,0:0:0:0:
335,300,35625,1,2,0:0:0:0:
278,359,35875,2,0,P|237:341|185:334,1,74.2499977340699,2|2,3:2|0:0,0:0:0:0:
156,272,36375,2,0,P|115:290|63:297,1,74.2499977340699,10|2,3:2|0:0,0:0:0:0:
29,236,36875,6,0,P|6:160|-1:74,1,148.49999546814,2|8,3:2|3:2,0:0:0:0:
149,30,37875,2,0,P|114:15|81:-1,2,74.2499977340699,2|2|8,3:2|0:0|3:2,0:0:0:0:
210,84,38625,1,2,0:0:0:0:
281,44,38875,6,0,P|348:41|414:126,1,148.49999546814,4|10,3:0|3:2,0:0:0:0:
353,155,39625,1,2,0:0:0:0:
412,210,39875,2,0,P|460:187|500:177,2,74.2499977340699,2|2|10,3:2|0:0|3:2,0:0:0:0:
378,285,40625,1,2,0:0:0:0:
301,257,40875,6,0,P|234:281|140:297,1,148.49999546814,2|8,3:2|3:2,0:0:0:0:
85,256,41625,1,2,0:0:0:0:
107,177,41875,2,0,P|52:179|5:232,2,111.374996601105,2|2|2,3:2|0:0|0:3,0:0:0:0:
164,118,42875,5,2,3:2:0:0:
290,14,43375,2,0,P|345:34|384:43,1,74.2499977340699,8|2,3:2|0:0,0:0:0:0:
400,108,43875,2,0,P|455:107|503:81,2,111.374996601105,2|2|2,3:2|0:0|0:0,0:0:0:0:
337,161,44875,6,0,P|372:225|400:322,1,148.49999546814,2|10,3:2|3:2,0:0:0:0:
250,372,45875,2,0,P|195:349|151:342,1,74.2499977340699,0|0,3:0|3:0,0:0:0:0:
150,269,46375,2,0,P|95:292|51:299,1,74.2499977340699,8|2,3:2|3:2,0:0:0:0:
15,245,46875,5,2,3:2:0:0:
268,38,47875,6,0,P|329:60|335:60,1,37.1249988670349,8|4,3:2|3:0,0:0:0:0:
373,2,48250,1,8,3:2:0:0:
442,61,48500,2,0,P|464:107|476:148,1,74.2499977340699,10|10,3:2|3:2,0:0:0:0:
448,173,48875,6,0,B|346:159|385:245|262:236,1,181.500005538941,6|10,3:2|3:2,0:0:0:0:
213,305,49625,2,0,P|187:283|181:258,1,45.3750013847352,2|2,0:0|0:0,0:0:0:0:
154,231,49875,2,0,P|179:172|182:116,1,90.7500027694703,0|2,3:0|0:0,0:0:0:0:
126,63,50375,1,10,3:2:0:0:
212,12,50625,2,0,P|253:33|270:34,1,45.3750013847352,2|2,0:0|0:0,0:0:0:0:
295,56,50875,5,0,3:2:0:0:
470,79,51375,1,8,3:2:0:0:
402,152,51625,2,0,P|387:212|384:223,1,45.3750013847352,2|2,0:0|0:0,0:0:0:0:
426,231,51875,2,0,P|453:281|459:324,1,90.7500027694703,0|0,3:0|3:0,0:0:0:0:
369,360,52375,2,0,P|319:333|276:327,1,90.7500027694703,8|2,3:2|0:0,0:0:0:0:
194,367,52875,6,0,P|130:339|11:318,1,181.500005538941,2|8,3:2|3:2,0:0:0:0:
80,237,53625,2,0,P|97:203|103:182,1,45.3750013847352,2|2,0:0|0:0,0:0:0:0:
78,150,53875,2,0,P|58:87|51:42,1,90.7500027694703,0|2,3:0|0:0,0:0:0:0:
138,10,54375,1,10,3:2:0:0:
210,78,54625,2,0,P|258:62|272:61,1,45.3750013847352,2|2,0:0|0:0,0:0:0:0:
294,35,54875,6,0,B|394:26|364:108|494:98,1,181.500005538941,0|8,3:0|3:2,0:0:0:0:
385,166,55625,2,0,P|361:224|355:239,1,45.3750013847352,2|2,0:0|0:0,0:0:0:0:
392,251,55875,2,0,P|419:330|426:360,1,90.7500027694703,0|2,3:0|3:2,0:0:0:0:
328,374,56375,1,10,3:2:0:0:
258,302,56625,1,10,3:2:0:0:
165,339,56875,5,6,3:2:0:0:
27,194,57375,2,0,P|91:186|129:156,1,90.7500027694703,10|2,3:2|0:0,0:0:0:0:
166,88,57875,2,0,P|221:65|319:138,1,181.500005538941,0|10,3:0|3:2,0:0:0:0:
401,177,58625,2,0,P|428:130|421:110,1,45.3750013847352,2|2,0:0|0:0,0:0:0:0:
419,92,58875,5,0,3:0:0:0:
509,270,59375,2,0,P|453:291|421:319,1,90.7500027694703,10|2,3:2|0:0,0:0:0:0:
398,349,59750,2,0,P|342:328|310:300,1,90.7500027694703,2|0,0:0|0:0,0:0:0:0:
269,322,60125,1,2,0:0:0:0:
188,262,60375,1,8,3:2:0:0:
319,111,60875,6,0,P|303:68|277:31,1,90.7500027694703,2|2,3:2|0:0,0:0:0:0:
176,21,61375,2,0,P|150:58|134:100,1,90.7500027694703,10|2,3:2|0:0,0:0:0:0:
67,175,61875,2,0,P|17:226|15:356,1,181.500005538941,0|8,3:0|3:2,0:0:0:0:
195,269,62875,6,0,P|251:298|290:307,1,90.7500027694703,2|2,3:2|0:0,0:0:0:0:
354,369,63375,2,0,P|410:340|449:331,1,90.7500027694703,10|2,3:2|0:0,0:0:0:0:
489,248,63875,2,0,P|465:195|433:44,1,181.500005538941,2|10,3:1|3:2,0:0:0:0:
353,17,64625,2,0,P|325:38|290:51,1,45.3750013847352,2|2,3:2|0:0,0:0:0:0:
266,33,64875,6,0,P|194:18|115:97,1,181.500005538941,6|8,3:2|3:2,0:0:0:0:
186,144,65625,1,2,3:2:0:0:
110,194,65875,2,0,P|93:238|86:288,1,90.7500027694703,0|0,3:0|3:0,0:0:0:0:
142,351,66375,1,8,3:2:0:0:
212,294,66625,1,2,0:0:0:0:
285,347,66875,6,0,P|321:273|304:186,2,136.125004154205,12|12|12,3:2|3:2|3:2,0:0:0:0:
417,381,68000,2,0,P|394:340|396:301,1,45.3750013847352,12|12,3:2|3:2,0:0:0:0:
448,269,68375,2,0,P|469:189|470:125,1,136.125004154205,14|0,3:2|0:0,0:0:0:0:
443,104,68875,6,0,P|381:81|337:103,1,82.5,6|2,3:2|0:0,0:0:0:0:
301,33,69375,2,0,P|239:56|195:34,1,82.5,8|2,3:2|0:0,0:0:0:0:
152,14,69875,1,2,3:2:0:0:
22,115,70375,2,0,P|52:180|69:267,1,123.75,10|2,3:2|0:0,0:0:0:0:
48,268,70875,6,0,P|98:254|130:248,1,82.5,2|2,3:2|0:0,0:0:0:0:
188,307,71375,2,0,P|248:339|342:304,1,165,8|2,3:2|3:2,0:0:0:0:
353,146,72375,2,0,P|331:75|321:1,1,123.75,10|0,3:2|0:0,0:0:0:0:
358,4,72875,5,2,3:2:0:0:
246,125,73375,1,10,3:2:0:0:
95,57,73875,1,2,3:2:0:0:
37,116,74125,2,0,P|22:165|20:188,1,41.25,2|2,0:0|0:0,0:0:0:0:
43,191,74375,2,0,P|69:266|75:302,1,82.5,10|2,3:2|0:0,0:0:0:0:
125,329,74875,6,0,P|185:289|245:285,1,123.75,2|2,3:2|0:0,0:0:0:0:
269,306,75375,2,0,P|320:323|367:309,1,82.5,8|2,3:2|0:0,0:0:0:0:
413,267,75875,2,0,L|437:214,1,41.25,2|2,3:2|3:2,0:0:0:0:
485,168,76250,2,0,L|461:115,1,41.25,2|8,0:0|3:2,0:0:0:0:
305,100,76875,6,0,P|242:74|127:46,1,165,6|10,3:2|3:2,0:0:0:0:
45,173,77875,2,0,P|66:231|70:260,1,82.5,2|2,3:2|0:0,0:0:0:0:
36,327,78375,1,10,3:2:0:0:
102,375,78625,1,2,0:0:0:0:
167,325,78875,6,0,B|260:301|247:368|336:355,1,165,2|10,3:2|3:2,0:0:0:0:
436,235,79875,2,0,P|385:218|340:205,1,82.5,2|2,3:2|0:0,0:0:0:0:
324,133,80375,2,0,P|375:116|420:103,1,82.5,10|2,3:2|0:0,0:0:0:0:
456,44,80875,5,2,3:2:0:0:
295,7,81375,1,10,3:2:0:0:
191,135,81875,2,0,P|153:115|124:109,1,41.25,2|2,3:2|0:0,0:0:0:0:
117,98,82125,2,0,P|79:118|50:124,1,41.25,2|2,0:0|0:0,0:0:0:0:
58,152,82375,2,0,P|93:211|105:251,1,82.5,10|0,3:2|0:0,0:0:0:0:
64,299,82875,6,0,P|139:319|223:369,1,165,6|10,3:2|3:2,0:0:0:0:
263,296,83625,1,2,0:0:0:0:
314,360,83875,2,0,P|367:342|402:334,1,82.5,2|2,3:2|0:0,0:0:0:0:
471,361,84375,1,10,3:2:0:0:
508,200,84875,6,0,P|482:146|464:88,1,82.5,2|2,3:2|0:0,0:0:0:0:
421,61,85375,2,0,P|372:48|304:36,1,82.5,10|0,3:2|3:0,0:0:0:0:
309,68,85750,2,0,P|264:85|242:84,1,41.25,10|10,3:2|3:2,0:0:0:0:
240,111,86000,2,0,P|195:94|173:95,1,41.25,2|2,0:0|3:2,0:0:0:0:
142,37,86375,2,0,P|80:55|20:56,1,123.75,2|2,0:0|0:0,0:0:0:0:
