osu file format v14

[General]
AudioFilename: audio.mp3
AudioLeadIn: 0
PreviewTime: 48375
Countdown: 0
SampleSet: Soft
StackLeniency: 0.9
Mode: 0
LetterboxInBreaks: 0
WidescreenStoryboard: 0

[Editor]
DistanceSpacing: 1.1
BeatDivisor: 4
GridSize: 4
TimelineZoom: 1

[Metadata]
Title:Ashita no Hikari (TV Size)
TitleUnicode:アシタノヒカリ (TV Size)
Artist:AAA
ArtistUnicode:AAA
Creator:Yudragen
Version:Ignited Light
Source:ワールドトリガー
Tags:world trigger chaoticred anime japanese opening 2 second jpop pop トリプル・エー triple a
BeatmapID:2397756
BeatmapSetID:1148453

[Difficulty]
HPDrainRate:5.5
CircleSize:4.2
OverallDifficulty:8.5
ApproachRate:9.5
SliderMultiplier:2.2
SliderTickRate:1

[Events]
//Background and Video events
0,0,"tumblr_noi9at4BnW1tvjzgko2_1280.jpg",0,0
//Break Periods
//Storyboard Layer 0 (Background)
//Storyboard Layer 1 (Fail)
//Storyboard Layer 2 (Pass)
//Storyboard Layer 3 (Foreground)
//Storyboard Layer 4 (Overlay)
//Storyboard Sound Samples

[TimingPoints]
875,500,4,2,1,50,1,0
875,-142.857142857143,4,2,1,50,0,0
8875,-111.111111111111,4,2,1,70,0,0
16875,-142.857142857143,4,2,1,60,0,0
32875,-90.9090909090909,4,2,1,75,0,0
45875,-74.0740740740741,4,2,1,75,0,0
46875,-125,4,2,1,75,0,0
48875,-62.5,4,2,1,95,0,1
68375,-166.666666666667,4,2,1,70,0,0
68875,-68.9655172413793,4,2,1,85,0,0
86625,-125,4,2,1,70,0,0

[Colours]
Combo1 : 126,207,199
Combo2 : 141,99,199
Combo3 : 151,226,82
Combo4 : 228,69,69

[HitObjects]
478,37,875,6,0,P|434:48|362:113,1,115.49999647522,2|0,0:0|0:0,0:0:0:0:
411,192,1375,2,0,P|367:181|295:116,1,115.49999647522,2|0,0:0|0:0,0:0:0:0:
260,72,1875,2,0,P|227:118|225:149,1,76.9999976501466,2|2,0:0|0:0,0:0:0:0:
189,210,2250,1,2,0:0:0:0:
286,303,2625,1,2,0:0:0:0:
149,345,2875,6,0,P|104:318|30:300,1,115.49999647522,2|0,0:0|0:0,0:0:0:0:
0,230,3375,2,0,P|55:215|105:186,1,115.49999647522,2|0,0:0|0:0,0:0:0:0:
186,199,3875,2,0,P|200:162|199:118,1,76.9999976501466,2|2,0:0|0:0,0:0:0:0:
157,55,4250,1,2,0:0:0:0:
298,155,4625,1,2,0:0:0:0:
408,47,4875,6,0,P|437:105|456:223,1,153.999995300293,2|0,0:0|0:0,0:0:0:0:
337,266,5625,2,0,P|340:256|343:271,1,38.4999988250733,2|0,0:0|0:0,0:0:0:0:
294,329,5875,2,0,B|207:322|247:387|126:382,1,153.999995300293,2|0,0:0|0:0,0:0:0:0:
53,302,6625,1,2,0:0:0:0:
156,232,6875,6,0,P|172:174|170:145,1,76.9999976501466,2|0,0:0|0:0,0:0:0:0:
254,137,7250,2,0,P|219:87|196:70,1,76.9999976501466,2|0,0:0|0:0,0:0:0:0:
239,1,7625,1,2,0:0:0:0:
395,119,7875,2,0,P|443:103|483:91,2,76.9999976501466,2|2|2,0:0|0:0|0:0,0:0:0:0:
395,119,8875,6,0,P|376:175|388:253,1,98.9999969787599,2|0,3:2|0:0,0:0:0:0:
449,291,9250,1,0,0:0:0:0:
441,285,9375,2,0,L|319:319,1,98.9999969787599,2|0,3:2|0:0,0:0:0:0:
273,359,9750,1,0,0:0:0:0:
264,365,9875,2,0,L|177:341,1,49.4999984893799,2|0,3:2|0:0,0:0:0:0:
142,230,10125,1,2,0:0:0:0:
91,296,10250,2,0,P|111:359|113:373,2,49.4999984893799,2|0|0,0:0|3:0|0:0,0:0:0:0:
12,213,10625,2,0,P|19:189|28:166,1,49.4999984893799,2|0,0:0|0:0,0:0:0:0:
125,86,10875,6,0,P|172:107|235:117,1,98.9999969787599,2|0,3:2|0:0,0:0:0:0:
293,62,11250,1,0,0:0:0:0:
300,55,11375,2,0,P|347:34|410:24,1,98.9999969787599,2|0,3:2|0:0,0:0:0:0:
464,71,11750,1,0,0:0:0:0:
472,75,11875,2,0,P|498:152|473:190,1,98.9999969787599,2|0,3:2|0:0,0:0:0:0:
431,222,12250,2,0,P|396:204|364:198,2,49.4999984893799,2|0|0,0:0|3:0|0:0,0:0:0:0:
377,291,12625,2,0,P|354:299|333:312,1,49.4999984893799,2|0,0:0|0:0,0:0:0:0:
213,384,12875,6,0,P|241:323|222:174,1,197.99999395752,2|0,3:2|3:0,0:0:0:0:
143,237,13625,1,2,0:0:0:0:
151,243,13750,1,2,0:0:0:0:
159,249,13875,1,2,3:2:0:0:
311,142,14125,1,2,0:0:0:0:
157,40,14375,2,0,L|138:99,1,49.4999984893799,2|0,3:2|0:0,0:0:0:0:
232,194,14625,2,0,L|216:146,1,49.4999984893799,2|0,0:0|0:0,0:0:0:0:
272,58,14875,6,0,B|380:29|362:114|467:93,1,197.99999395752,2|0,3:2|3:0,0:0:0:0:
216,296,15625,1,2,0:0:0:0:
262,356,15750,1,2,0:0:0:0:
343,337,15875,2,0,P|332:282|309:129,1,197.99999395752,2|0,3:2|3:0,0:0:0:0:
42,44,16875,6,0,P|68:101|81:143,1,76.9999976501466,2|0,3:2|0:0,0:0:0:0:
172,105,17250,2,0,P|146:162|133:204,1,76.9999976501466,2|2,0:0|0:0,0:0:0:0:
197,239,17625,2,0,P|245:257|280:279,1,76.9999976501466,2|0,0:2|3:0,0:0:0:0:
267,269,18375,1,0,3:0:0:0:
367,181,18750,5,2,0:0:0:0:
392,258,18875,2,0,P|379:310|376:350,1,76.9999976501466,2|2,3:2|0:0,0:0:0:0:
492,285,19250,2,0,P|486:246|476:209,1,76.9999976501466,2|2,0:0|0:0,0:0:0:0:
416,145,19625,2,0,P|413:102|441:77,1,76.9999976501466,2|0,0:0|3:0,0:0:0:0:
435,79,20375,1,0,3:0:0:0:
179,54,20750,5,2,0:0:0:0:
117,100,20875,2,0,P|60:86|20:77,1,76.9999976501466,2|2,3:2|0:0,0:0:0:0:
75,179,21250,2,0,P|18:193|-22:202,1,76.9999976501466,2|2,0:0|0:0,0:0:0:0:
60,277,21625,2,0,P|117:291|157:300,1,76.9999976501466,2|0,0:0|3:0,0:0:0:0:
262,189,22250,1,0,0:0:0:0:
268,198,22375,2,0,P|282:255|291:295,1,76.9999976501466,0|0,3:0|0:0,0:0:0:0:
240,346,22750,1,2,0:0:0:0:
310,384,22875,6,0,P|348:360|393:334,1,76.9999976501466,2|2,3:2|0:0,0:0:0:0:
454,363,23250,2,0,P|467:291|472:258,1,76.9999976501466,2|2,0:0|0:0,0:0:0:0:
353,138,23750,1,2,0:0:0:0:
282,153,23875,2,0,P|348:173|460:197,1,153.999995300293,2|2,3:2|3:2,0:0:0:0:
248,41,24875,6,0,P|187:27|138:18,1,76.9999976501466,2|2,3:2|0:0,0:0:0:0:
180,106,25250,2,0,P|119:120|70:129,1,76.9999976501466,2|2,0:0|0:0,0:0:0:0:
43,175,25625,2,0,P|19:213|32:253,1,76.9999976501466,2|0,0:0|3:0,0:0:0:0:
24,242,26375,1,0,3:0:0:0:
180,210,26750,5,2,0:0:0:0:
239,254,26875,2,0,P|279:233|330:225,1,76.9999976501466,2|2,3:2|0:0,0:0:0:0:
377,174,27250,2,0,P|356:134|348:83,1,76.9999976501466,2|2,0:0|0:0,0:0:0:0:
285,44,27625,2,0,P|238:35|196:23,1,76.9999976501466,2|0,0:0|3:0,0:0:0:0:
209,27,28375,1,0,3:0:0:0:
409,268,28750,5,2,0:0:0:0:
350,325,28875,2,0,B|274:316|306:381|192:385,1,153.999995300293,2|2,3:2|3:2,0:0:0:0:
106,166,29875,2,0,P|147:220|150:231,1,76.9999976501466,2|2,3:2|0:0,0:0:0:0:
218,274,30250,2,0,P|207:300|208:332,2,38.4999988250733,2|0|0,0:0|3:0|0:0,0:0:0:0:
347,35,30875,5,0,3:0:0:0:
347,35,31125,1,2,0:0:0:0:
398,99,31375,2,0,P|406:148|414:184,1,76.9999976501466,2|2,3:2|0:0,0:0:0:0:
474,224,31750,2,0,L|467:274,1,38.4999988250733,2|0,0:0|3:0,0:0:0:0:
337,313,32250,2,0,L|296:301,2,38.4999988250733,2|0|2,0:0|3:0|0:0,0:0:0:0:
395,372,32625,1,0,3:0:0:0:
404,365,32750,1,0,3:0:0:0:
249,228,32875,6,0,P|208:253|104:273,1,121.000003692627,6|2,3:2|0:0,0:0:0:0:
13,310,33250,2,0,P|50:326|108:341,1,60.5000018463135,2|8,0:0|3:2,0:0:0:0:
230,56,33625,2,0,P|199:115|205:143,1,60.5000018463135,2|0,0:0|0:0,0:0:0:0:
308,8,33875,2,0,P|339:67|333:95,1,60.5000018463135,2|0,3:2|0:0,0:0:0:0:
390,175,34125,1,2,0:0:0:0:
455,120,34250,2,0,P|516:140|544:149,1,60.5000018463135,2|8,0:0|3:2,0:0:0:0:
334,291,34500,1,2,0:0:0:0:
259,238,34625,2,0,P|230:248|201:257,1,60.5000018463135,2|0,0:0|0:0,0:0:0:0:
128,347,34875,6,0,P|87:288|108:202,1,121.000003692627,4|0,3:0|0:0,0:0:0:0:
142,184,35250,1,2,0:0:0:0:
0,105,35375,2,0,P|25:160|30:183,1,60.5000018463135,8|0,3:2|0:0,0:0:0:0:
117,67,35625,2,0,P|127:38|141:12,1,60.5000018463135,2|0,0:0|0:0,0:0:0:0:
230,121,35875,2,0,P|309:146|323:150,1,60.5000018463135,2|0,3:2|0:0,0:0:0:0:
415,25,36125,2,0,P|336:50|322:54,1,60.5000018463135,2|0,0:0|0:0,0:0:0:0:
402,158,36375,2,0,P|427:237|431:251,1,60.5000018463135,10|0,3:2|0:0,0:0:0:0:
274,314,36625,2,0,P|283:285|292:256,1,60.5000018463135,2|0,0:0|0:0,0:0:0:0:
496,308,36875,6,0,B|429:303|448:348|365:347,1,121.000003692627,2|2,3:2|0:0,0:0:0:0:
280,242,37250,2,0,P|265:186|252:159,1,60.5000018463135,2|8,0:0|3:2,0:0:0:0:
95,325,37625,2,0,P|38:302|-6:293,1,60.5000018463135,2|0,0:0|0:0,0:0:0:0:
6,214,37875,2,0,P|34:204|61:191,1,60.5000018463135,2|0,3:2|0:0,0:0:0:0:
146,98,38125,1,2,0:0:0:0:
32,30,38250,2,0,P|65:108|65:127,1,60.5000018463135,2|8,0:0|3:2,0:0:0:0:
152,0,38500,1,2,0:0:0:0:
278,149,38625,2,0,P|289:120|306:96,1,60.5000018463135,2|0,0:0|0:0,0:0:0:0:
464,13,38875,6,0,P|435:75|426:157,1,121.000003692627,4|0,3:0|0:0,0:0:0:0:
488,183,39250,1,2,0:0:0:0:
394,256,39375,2,0,P|369:193|374:184,1,60.5000018463135,10|0,3:2|0:0,0:0:0:0:
314,340,39625,2,0,P|275:355|248:376,1,60.5000018463135,2|0,0:0|0:0,0:0:0:0:
117,266,39875,2,0,P|156:281|183:302,1,60.5000018463135,2|0,3:2|0:0,0:0:0:0:
266,158,40125,2,0,L|245:242,1,60.5000018463135,2|0,0:0|0:0,0:0:0:0:
140,152,40375,2,0,L|125:93,1,60.5000018463135,10|0,3:2|0:0,0:0:0:0:
208,0,40625,2,0,P|233:63|228:72,1,60.5000018463135,2|0,0:0|0:0,0:0:0:0:
358,198,40875,6,0,P|434:158|514:140,1,121.000003692627,2|0,3:2|0:0,0:0:0:0:
512,79,41250,1,2,0:0:0:0:
428,13,41375,2,0,P|405:81|404:93,1,60.5000018463135,8|0,3:2|0:0,0:0:0:0:
335,1,41625,1,2,0:0:0:0:
335,1,41750,1,2,0:0:0:0:
252,142,41875,2,0,B|181:140|213:189|100:189,1,121.000003692627,2|0,3:2|0:0,0:0:0:0:
78,143,42250,1,2,0:0:0:0:
0,245,42375,2,0,P|60:261|103:299,1,121.000003692627,8|2,3:2|0:0,0:0:0:0:
250,225,42750,1,2,0:0:0:0:
309,384,42875,6,0,P|330:322|338:261,1,121.000003692627,2|0,3:2|0:0,0:0:0:0:
390,209,43250,1,2,0:0:0:0:
488,322,43375,2,0,P|466:243|469:216,1,60.5000018463135,8|0,3:2|0:0,0:0:0:0:
408,363,43625,1,2,0:0:0:0:
408,363,43750,1,2,0:0:0:0:
259,215,43875,2,0,P|201:219|157:285,1,121.000003692627,2|0,3:2|0:0,0:0:0:0:
101,320,44250,1,2,0:0:0:0:
0,125,44375,2,0,P|38:169|97:173,1,121.000003692627,8|2,3:2|0:0,0:0:0:0:
187,39,44750,1,2,0:0:0:0:
288,133,44875,6,0,P|355:102|443:79,1,121.000003692627,2|0,3:2|0:0,0:0:0:0:
482,118,45250,1,2,0:0:0:0:
400,228,45375,2,0,P|361:213|322:209,1,60.5000018463135,10|0,3:2|0:0,0:0:0:0:
295,333,45625,2,0,P|334:318|372:314,1,60.5000018463135,2|0,0:0|0:0,0:0:0:0:
174,216,45875,5,0,3:0:0:0:
245,241,46000,1,0,3:0:0:0:
174,216,46125,1,0,3:0:0:0:
275,76,46250,6,0,P|302:169|307:191,1,74.2500002832413,2|8,3:2|3:2,0:0:0:0:
185,18,46500,1,2,3:2:0:0:
390,98,46625,2,0,P|400:62|411:26,1,74.2500002832413,2|0,3:2|3:0,0:0:0:0:
464,201,46875,6,0,B|395:172|343:250|354:260|365:268|346:348|255:324,1,264,2|0,3:2|0:0,0:0:0:0:
134,155,47875,5,8,3:2:0:0:
242,100,48000,1,4,3:0:0:0:
91,73,48125,1,4,3:0:0:0:
269,183,48250,1,8,3:2:0:0:
269,183,48500,5,10,3:2:0:0:
172,31,48625,1,10,3:2:0:0:
76,220,48750,1,10,3:2:0:0:
257,85,48875,6,0,P|326:108|384:113,1,88,6|0,3:2|0:0,0:0:0:0:
428,231,49125,2,0,P|385:240|344:256,1,88,2|0,0:2|0:0,0:0:0:0:
453,48,49375,2,0,P|504:113|504:140,1,88,10|0,3:2|0:0,0:0:0:0:
397,334,49625,1,2,0:0:0:0:
244,198,49750,2,0,B|148:200|186:262|82:282,1,176,2|0,0:2|0:0,0:0:0:0:
141,21,50125,2,0,P|176:104|185:120,1,88,2|0,0:0|0:0,0:0:0:0:
2,178,50375,2,0,P|20:138|35:96,1,88,10|0,3:2|0:0,0:0:0:0:
109,288,50625,1,2,0:0:0:0:
263,44,50750,1,2,0:0:0:0:
263,44,50812,1,2,0:0:0:0:
263,44,50875,6,0,P|341:40|386:118,1,176,0|0,3:0|0:0,0:0:0:0:
480,45,51250,1,2,0:0:0:0:
396,243,51375,2,0,P|363:214|321:199,1,88,8|0,3:2|0:0,0:0:0:0:
164,109,51625,1,2,0:0:0:0:
267,270,51750,1,2,0:0:0:0:
69,255,51875,1,0,3:0:0:0:
196,384,52000,1,0,3:0:0:0:
69,255,52125,2,0,B|51:298|51:298|72:343,1,88,0|0,3:0|0:0,0:0:0:0:
302,203,52375,2,0,B|319:165|319:165|301:122,1,88,8|2,3:2|0:0,0:0:0:0:
149,107,52625,1,2,0:0:0:0:
230,0,52750,1,2,0:0:0:0:
140,120,52875,6,0,P|86:100|39:86,1,88,2|0,3:2|0:0,0:0:0:0:
148,314,53125,2,0,P|202:294|249:280,1,88,2|0,0:0|0:0,0:0:0:0:
47,229,53375,2,0,P|27:283|13:330,1,88,8|0,3:2|0:0,0:0:0:0:
163,115,53625,1,2,0:0:0:0:
237,296,53750,2,0,P|331:296|367:220,1,176,2|0,0:0|0:0,0:0:0:0:
325,41,54125,2,0,P|295:86|305:134,1,88,2|0,0:0|0:0,0:0:0:0:
485,233,54375,2,0,P|514:187|504:139,1,88,10|0,3:2|0:0,0:0:0:0:
445,25,54625,1,2,0:0:0:0:
360,250,54750,1,2,0:0:0:0:
360,250,54812,1,2,0:0:0:0:
360,250,54875,6,0,P|278:214|179:200,1,176,0|0,3:0|0:0,0:0:0:0:
304,124,55250,1,2,0:0:0:0:
157,26,55375,2,0,B|136:65|136:65|159:122,1,88,8|0,3:2|0:0,0:0:0:0:
273,0,55625,1,2,0:0:0:0:
428,152,55750,2,0,B|449:113|449:113|426:56,1,88,2|0,0:0|3:0,0:0:0:0:
339,244,56000,1,0,3:0:0:0:
507,296,56125,2,0,P|465:309|424:324,1,88,2|0,3:2|0:0,0:0:0:0:
250,120,56375,2,0,P|292:132|333:147,1,88,10|0,3:2|0:0,0:0:0:0:
427,59,56625,1,10,3:2:0:0:
330,257,56750,1,8,3:2:0:0:
149,80,56875,6,0,B|38:94|106:144|-12:166,1,176,6|2,3:2|0:0,0:0:0:0:
33,37,57250,1,0,0:0:0:0:
155,183,57375,2,0,P|169:224|175:267,1,88,10|0,3:2|0:0,0:0:0:0:
247,144,57625,1,2,0:0:0:0:
112,324,57750,2,0,P|186:307|238:381,1,176,2|0,0:0|0:0,0:0:0:0:
365,202,58125,2,0,P|324:216|281:222,1,88,2|0,0:0|0:0,0:0:0:0:
374,326,58375,2,0,P|415:340|458:346,1,88,10|0,3:2|0:0,0:0:0:0:
227,384,58625,1,2,0:0:0:0:
374,189,58750,6,0,P|343:102|338:17,1,176,2|0,0:0|0:0,0:0:0:0:
243,126,59125,2,0,P|163:154|130:169,1,88,2|0,0:0|0:0,0:0:0:0:
73,20,59375,2,0,P|153:48|186:63,1,88,10|0,3:2|0:0,0:0:0:0:
0,106,59625,1,2,0:0:0:0:
155,167,59750,2,0,P|235:139|268:124,1,88,2|0,0:0|3:0,0:0:0:0:
15,244,60000,1,2,0:0:0:0:
148,311,60125,2,0,P|228:339|261:354,1,88,2|0,0:0|0:0,0:0:0:0:
440,186,60375,2,0,P|342:200|312:264,1,176,8|0,3:2|0:0,0:0:0:0:
246,154,60750,1,2,0:0:0:0:
430,306,60875,6,0,P|517:274|543:269,1,88,2|0,3:2|0:0,0:0:0:0:
341,384,61125,2,0,P|254:352|228:347,1,88,2|0,0:0|0:0,0:0:0:0:
270,160,61375,2,0,P|302:247|307:273,1,88,10|0,3:2|0:0,0:0:0:0:
322,67,61625,1,2,0:0:0:0:
190,259,61750,2,0,P|106:265|57:197,1,176,2|0,0:0|3:0,0:0:0:0:
173,82,62125,2,0,P|160:124|142:164,1,88,2|0,0:0|0:0,0:0:0:0:
0,66,62375,2,0,P|49:-3|133:3,1,176,8|0,3:2|0:0,0:0:0:0:
246,154,62750,1,2,0:0:0:0:
379,29,62875,6,0,P|304:8|258:-4,1,88,2|0,3:2|0:0,0:0:0:0:
389,193,63125,2,0,P|464:172|510:160,1,88,2|0,0:0|0:0,0:0:0:0:
234,143,63375,2,0,P|222:185|210:227,1,88,10|0,3:2|0:0,0:0:0:0:
345,316,63625,1,2,0:0:0:0:
191,380,63750,2,0,P|148:368|106:356,1,88,2|2,0:0|3:1,0:0:0:0:
12,272,64000,1,2,3:1:0:0:
133,227,64125,1,0,3:0:0:0:
32,140,64250,1,2,0:0:0:0:
100,345,64375,2,0,P|142:357|184:368,1,88,10|0,3:2|0:0,0:0:0:0:
306,227,64625,1,2,3:2:0:0:
442,364,64750,1,2,0:0:0:0:
442,364,64812,1,2,0:0:0:0:
442,364,64875,6,0,P|498:300|477:213,1,176,6|0,3:2|0:0,0:0:0:0:
379,138,65250,1,0,3:0:0:0:
485,30,65375,2,0,B|505:72|505:72|482:129,1,88,8|0,3:2|0:0,0:0:0:0:
277,241,65625,2,0,B|257:199|257:199|280:142,1,88,2|0,3:2|0:0,0:0:0:0:
111,0,65875,1,0,3:0:0:0:
223,77,66000,1,0,3:0:0:0:
48,137,66125,2,0,P|25:246|11:336,1,176,2|8,0:0|3:2,0:0:0:0:
119,184,66500,5,2,0:0:0:0:
164,347,66625,1,2,0:0:0:0:
282,230,66750,1,2,0:0:0:0:
47,384,66875,5,12,3:2:0:0:
270,236,67250,1,12,3:2:0:0:
475,384,67625,1,12,3:2:0:0:
321,142,68000,5,12,3:2:0:0:
219,384,68125,1,12,3:2:0:0:
321,142,68375,6,0,P|329:190|337:239,1,98.9999969787599,14|0,3:2|0:0,0:0:0:0:
404,266,68875,6,0,B|315:257|350:323|240:309,1,159.500004867554,6|2,3:2|0:0,0:0:0:0:
141,188,69250,2,0,P|170:264|174:282,1,79.7500024337769,2|8,0:0|3:2,0:0:0:0:
55,147,69500,1,2,0:0:0:0:
269,87,69625,2,0,P|240:163|236:181,1,79.7500024337769,2|0,0:0|0:0,0:0:0:0:
350,57,69875,1,2,3:2:0:0:
136,0,70000,2,0,P|165:76|169:94,1,79.7500024337769,2|0,0:0|0:0,0:0:0:0:
286,233,70250,1,2,0:0:0:0:
453,64,70375,2,0,P|513:125|480:226,1,159.500004867554,10|0,3:2|0:0,0:0:0:0:
375,275,70750,1,2,0:0:0:0:
491,341,70875,6,0,P|403:361|336:384,1,159.500004867554,2|2,3:2|0:0,0:0:0:0:
194,281,71250,2,0,P|232:289|260:316,1,79.7500024337769,2|8,0:0|3:2,0:0:0:0:
105,221,71500,1,2,0:0:0:0:
275,146,71625,2,0,P|247:173|209:183,1,79.7500024337769,2|0,0:0|0:0,0:0:0:0:
61,85,71875,1,2,3:2:0:0:
216,62,72000,2,0,P|187:34|149:26,1,79.7500024337769,2|0,0:0|0:0,0:0:0:0:
303,239,72250,1,2,0:0:0:0:
358,59,72375,2,0,P|443:71|459:154,1,159.500004867554,10|0,3:2|3:0,0:0:0:0:
406,246,72750,1,2,0:2:0:0:
481,303,72875,6,0,P|509:227|505:181,1,79.7500024337769,2|0,3:2|0:0,0:0:0:0:
299,265,73125,1,2,0:0:0:0:
406,376,73250,1,2,0:0:0:0:
309,250,73375,2,0,P|233:222|187:226,1,79.7500024337769,10|0,3:2|0:0,0:0:0:0:
106,184,73625,1,2,0:0:0:0:
160,323,73750,1,2,0:0:0:0:
94,172,73875,2,0,P|121:85|124:77,1,79.7500024337769,2|0,3:2|0:0,0:0:0:0:
21,247,74125,1,2,0:0:0:0:
208,142,74250,1,2,0:0:0:0:
0,14,74375,2,0,P|12:51|23:90,1,79.7500024337769,10|0,3:2|0:0,0:0:0:0:
108,161,74625,2,0,P|135:74|138:66,1,79.7500024337769,2|0,0:0|0:0,0:0:0:0:
261,220,74875,6,0,B|350:222|310:158|415:159,1,159.500004867554,2|2,3:2|0:0,0:0:0:0:
503,175,75250,2,0,P|475:95|467:46,1,79.7500024337769,2|8,0:0|3:2,0:0:0:0:
406,248,75500,1,2,0:0:0:0:
509,312,75625,1,2,0:0:0:0:
406,248,75750,1,2,0:0:0:0:
506,185,75875,1,2,3:2:0:0:
410,375,76000,2,0,P|330:347|281:339,1,79.7500024337769,2|0,3:2|0:0,0:0:0:0:
207,256,76250,1,2,0:0:0:0:
394,143,76375,2,0,P|314:171|265:179,1,79.7500024337769,8|0,3:2|0:0,0:0:0:0:
200,265,76625,2,0,P|120:237|71:229,1,79.7500024337769,0|0,3:0|0:0,0:0:0:0:
38,43,76875,5,6,3:2:0:0:
114,147,77000,1,2,0:0:0:0:
166,31,77125,1,2,0:0:0:0:
0,192,77250,1,2,0:0:0:0:
216,251,77375,2,0,P|268:233|309:225,1,79.7500024337769,10|2,3:2|0:0,0:0:0:0:
445,150,77625,1,2,0:2:0:0:
312,59,77750,1,2,0:2:0:0:
487,42,77875,5,2,3:2:0:0:
320,143,78000,1,2,0:2:0:0:
511,238,78125,2,0,P|472:247|435:261,1,79.7500024337769,2|0,0:0|0:0,0:0:0:0:
236,384,78375,2,0,P|276:331|268:290,1,79.7500024337769,10|0,3:2|0:0,0:0:0:0:
171,175,78625,2,0,P|131:228|139:269,1,79.7500024337769,2|0,0:0|0:0,0:0:0:0:
299,198,78875,5,2,3:2:0:0:
183,73,79000,1,2,0:0:0:0:
299,198,79125,1,2,0:0:0:0:
183,73,79250,1,2,0:0:0:0:
377,7,79375,5,10,3:2:0:0:
290,122,79500,1,2,0:2:0:0:
485,131,79625,1,2,0:2:0:0:
398,267,79750,1,2,0:0:0:0:
277,107,79875,2,0,B|316:96|316:96|352:113,1,79.7500024337769,2|0,3:2|0:0,0:0:0:0:
484,286,80125,2,0,B|445:297|445:297|409:280,1,79.7500024337769,2|0,3:2|0:0,0:0:0:0:
179,183,80375,2,0,P|207:274|218:357,1,159.500004867554,10|2,3:2|0:2,0:0:0:0:
32,86,80875,5,2,3:2:0:0:
185,170,81000,1,2,0:0:0:0:
57,266,81125,1,2,0:0:0:0:
185,170,81250,1,2,0:0:0:0:
0,331,81375,5,10,3:2:0:0:
59,184,81500,1,2,0:0:0:0:
139,314,81625,1,2,0:2:0:0:
198,167,81750,1,2,0:0:0:0:
299,291,81875,6,0,P|368:268|397:262,1,79.7500024337769,2|2,3:2|0:0,0:0:0:0:
466,146,82125,1,2,0:0:0:0:
400,365,82250,1,2,0:0:0:0:
512,274,82375,5,10,3:2:0:0:
333,128,82500,2,0,P|294:117|257:103,1,79.7500024337769,2|0,0:0|3:0,0:0:0:0:
107,229,82750,1,2,0:0:0:0:
184,14,82875,5,6,3:2:0:0:
0,14,83000,2,0,B|111:37|20:67|182:109,1,159.500004867554,2|2,0:0|0:2,0:0:0:0:
233,259,83375,5,10,3:2:0:0:
291,102,83500,1,2,0:0:0:0:
239,272,83625,1,2,0:0:0:0:
282,90,83750,1,2,0:0:0:0:
128,128,83875,6,0,B|93:112|93:112|38:131,1,79.7500024337769,2|0,3:2|3:0,0:0:0:0:
361,255,84125,2,0,B|396:271|396:271|451:252,1,79.7500024337769,2|0,0:0|0:0,0:0:0:0:
220,32,84375,2,0,P|250:112|264:189,1,159.500004867554,10|2,3:2|0:0,0:0:0:0:
223,309,84750,1,0,3:0:0:0:
432,156,84875,6,0,P|478:174|544:182,1,79.7500024337769,2|0,3:2|0:0,0:0:0:0:
330,85,85125,1,2,0:0:0:0:
271,228,85250,1,2,0:0:0:0:
155,138,85375,2,0,P|87:165|-5:176,1,159.500004867554,10|0,3:2|3:0,0:0:0:0:
224,48,85750,5,10,3:2:0:0:
307,310,85875,1,10,3:2:0:0:
306,95,86000,5,2,3:2:0:0:
251,245,86125,2,0,P|210:223|150:219,1,79.7500024337769,2|0,0:0|0:0,0:0:0:0:
38,269,86375,6,0,P|-5:177|50:46,1,239.250007301331,2|2,0:0|0:0,0:0:0:0:
