osu file format v14

[General]
AudioFilename: audio.mp3
AudioLeadIn: 0
PreviewTime: 48375
Countdown: 0
SampleSet: Soft
StackLeniency: 0.9
Mode: 0
LetterboxInBreaks: 0
WidescreenStoryboard: 1

[Editor]
DistanceSpacing: 1.1
BeatDivisor: 4
GridSize: 8
TimelineZoom: 1

[Metadata]
Title:Ashita no Hikari (TV Size)
TitleUnicode:アシタノヒカリ (TV Size)
Artist:AAA
ArtistUnicode:AAA
Creator:Yudragen
Version:Hard
Source:ワールドトリガー
Tags:world trigger chaoticred anime japanese opening 2 second jpop pop トリプル・エー triple a
BeatmapID:2397755
BeatmapSetID:1148453

[Difficulty]
HPDrainRate:4.5
CircleSize:3.5
OverallDifficulty:6
ApproachRate:7.5
SliderMultiplier:2.1
SliderTickRate:1

[Events]
//Background and Video events
0,0,"tumblr_noi9at4BnW1tvjzgko2_1280.jpg",0,0
//Break Periods
//Storyboard Layer 0 (Background)
//Storyboard Layer 1 (Fail)
//Storyboard Layer 2 (Pass)
//Storyboard Layer 3 (Foreground)
//Storyboard Layer 4 (Overlay)
//Storyboard Sound Samples

[TimingPoints]
875,500,4,2,1,50,1,0
875,-200,4,2,1,50,0,0
8875,-133.333333333333,4,2,1,70,0,0
16875,-166.666666666667,4,2,1,60,0,0
32875,-111.111111111111,4,2,1,75,0,0
46875,-333.333333333333,4,2,1,75,0,0
47875,-100,4,2,1,75,0,0
48875,-86.9565217391304,4,2,1,95,0,1
68375,-200,4,2,1,70,0,0
68875,-100,4,2,1,85,0,0
86375,-133.333333333333,4,2,1,70,0,0

[Colours]
Combo1 : 126,207,199
Combo2 : 141,99,199
Combo3 : 151,226,82
Combo4 : 228,69,69

[HitObjects]
142,90,875,6,0,P|73:47|34:45,1,105,2|2,0:0|0:0,0:0:0:0:
153,180,1875,2,0,P|193:213|203:217,1,52.5,2|2,0:0|0:0,0:0:0:0:
226,137,2250,2,0,P|284:116|314:111,1,78.75,2|2,0:0|0:0,0:0:0:0:
399,139,2875,6,0,P|382:95|365:14,1,105,2|2,0:0|0:0,0:0:0:0:
480,200,3875,2,0,P|461:227|452:257,1,52.5,2|2,0:0|0:0,0:0:0:0:
497,315,4250,2,0,P|450:340|420:360,1,78.75,2|2,0:0|0:0,0:0:0:0:
336,304,4875,6,0,B|250:293|279:358|181:351,1,157.5,2|2,0:0|0:0,0:0:0:0:
114,384,5875,2,0,P|91:326|153:241,1,157.5,2|2,0:0|0:0,0:0:0:0:
214,196,6875,6,0,P|181:168|129:152,2,78.75,2|2|2,0:0|0:0|0:0,0:0:0:0:
292,151,7875,2,0,P|328:135|351:119,2,52.5,2|2|2,0:0|0:0|0:0,0:0:0:0:
49,24,8875,6,0,P|75:84|87:141,1,118.125004506111,2|0,3:2|0:0,0:0:0:0:
154,180,9375,2,0,P|128:240|116:297,1,118.125004506111,2|0,3:2|0:0,0:0:0:0:
145,373,9875,2,0,P|86:365|33:340,2,118.125004506111,2|2|2,3:2|0:0|0:0,0:0:0:0:
249,384,10875,6,0,P|223:324|211:267,1,118.125004506111,2|0,3:2|0:0,0:0:0:0:
290,239,11375,2,0,P|316:179|328:122,1,118.125004506111,2|0,3:2|0:0,0:0:0:0:
394,66,11875,2,0,P|446:91|513:98,2,118.125004506111,2|2|2,3:2|0:0|0:0,0:0:0:0:
319,6,12875,6,0,P|273:12|232:194,1,236.250009012223,2|2,3:2|0:0,0:0:0:0:
212,167,13750,1,2,0:0:0:0:
212,167,13875,1,2,3:2:0:0:
284,235,14125,2,0,P|331:213|384:209,2,78.7500030040742,2|2|2,0:0|3:2|0:0,0:0:0:0:
231,311,14875,6,0,P|185:323|87:244,1,157.500006008148,2|0,3:2|3:0,0:0:0:0:
18,222,15625,1,2,0:0:0:0:
18,222,15750,1,2,0:0:0:0:
18,222,15875,2,0,P|67:163|59:86,1,157.500006008148,2|0,3:2|3:0,0:0:0:0:
483,29,16875,6,0,P|440:72|424:146,1,125.999996154785,2|0,3:2|3:0,0:0:0:0:
471,193,17500,2,0,P|485:221|490:243,1,31.4999990386963,2|2,0:0|0:0,0:0:0:0:
449,318,17875,2,0,P|399:294|327:282,1,125.999996154785,0|0,3:0|3:0,0:0:0:0:
167,355,18750,1,2,0:0:0:0:
167,355,18875,6,0,P|128:314|129:222,1,125.999996154785,2|0,3:2|3:0,0:0:0:0:
180,199,19500,2,0,P|202:174|202:152,1,31.4999990386963,2|2,0:0|0:0,0:0:0:0:
167,79,19875,2,0,P|226:62|310:36,1,125.999996154785,0|0,3:0|3:0,0:0:0:0:
446,88,20750,1,2,0:0:0:0:
446,88,20875,6,0,P|401:113|381:200,1,125.999996154785,2|0,3:2|3:0,0:0:0:0:
436,255,21500,2,0,P|405:253|389:264,1,31.4999990386963,2|2,0:0|0:0,0:0:0:0:
341,339,21875,2,0,P|387:347|432:363,2,94.499997116089,2|2|0,3:2|0:0|0:0,0:0:0:0:
266,370,22750,1,2,0:0:0:0:
266,370,22875,6,0,P|216:341|138:327,1,125.999996154785,2|0,3:2|3:0,0:0:0:0:
83,363,23500,2,0,P|57:321|58:305,1,62.9999980773926,2|2,0:0|0:0,0:0:0:0:
105,247,23875,2,0,P|129:200|106:109,1,125.999996154785,2|2,3:2|3:2,0:0:0:0:
202,22,24875,6,0,P|305:52|344:58,1,125.999996154785,2|0,3:2|3:0,0:0:0:0:
393,21,25500,2,0,P|424:8|450:2,1,31.4999990386963,2|2,0:0|0:0,0:0:0:0:
505,61,25875,2,0,P|457:131|449:190,1,125.999996154785,0|0,3:2|3:0,0:0:0:0:
392,279,26750,1,2,0:0:0:0:
392,279,26875,6,0,P|341:256|288:307,1,125.999996154785,2|0,3:2|3:0,0:0:0:0:
232,347,27500,2,0,P|202:366|190:369,1,31.4999990386963,2|2,0:0|0:0,0:0:0:0:
124,302,27875,2,0,P|131:263|140:188,1,94.499997116089,0|0,3:2|0:0,0:0:0:0:
61,199,28375,2,0,P|54:160|45:85,1,94.499997116089,0|2,3:2|0:0,0:0:0:0:
85,40,28875,6,0,P|138:46|210:110,1,125.999996154785,2|2,3:2|3:2,0:0:0:0:
288,23,29875,2,0,P|322:39|369:50,1,62.9999980773926,2|2,3:2|0:0,0:0:0:0:
404,107,30250,2,0,P|432:95|442:93,1,31.4999990386963,2|0,0:0|3:0,0:0:0:0:
282,221,30875,5,0,3:0:0:0:
376,273,31125,1,2,0:0:0:0:
376,273,31375,2,0,P|361:336|357:363,1,62.9999980773926,2|2,3:2|0:0,0:0:0:0:
270,375,31875,2,0,P|225:359|124:345,1,125.999996154785,0|0,3:0|3:0,0:0:0:0:
4,254,32625,2,0,P|21:227|26:215,1,31.4999990386963,0|0,3:0|3:0,0:0:0:0:
7,152,32875,6,0,P|58:141|110:136,1,94.499997116089,6|2,3:2|0:0,0:0:0:0:
163,181,33250,2,0,P|214:192|266:197,1,94.499997116089,2|2,0:0|0:0,0:0:0:0:
328,161,33625,1,2,0:0:0:0:
431,118,33875,2,0,P|452:171|436:212,1,94.499997116089,2|2,3:2|0:0,0:0:0:0:
394,272,34250,2,0,P|347:259|319:272,2,47.2499985580445,2|8|2,0:0|3:2|0:0,0:0:0:0:
447,333,34625,1,2,0:0:0:0:
263,294,34875,6,0,P|217:316|157:330,1,94.499997116089,4|0,3:0|0:0,0:0:0:0:
106,293,35250,1,2,0:0:0:0:
106,293,35375,2,0,P|60:271|0:257,1,94.499997116089,8|2,3:2|0:0,0:0:0:0:
111,185,35875,1,2,3:2:0:0:
26,123,36125,1,2,0:0:0:0:
110,58,36375,2,0,P|160:74|239:89,1,94.499997116089,10|2,3:2|0:0,0:0:0:0:
346,30,36875,6,0,P|311:79|317:143,1,94.499997116089,2|2,3:2|0:0,0:0:0:0:
372,161,37250,2,0,P|407:210|401:274,1,94.499997116089,2|0,0:0|0:0,0:0:0:0:
359,304,37625,1,2,0:0:0:0:
252,373,37875,2,0,P|193:347|150:340,1,94.499997116089,2|2,3:2|0:0,0:0:0:0:
107,288,38250,2,0,P|138:237|149:234,2,47.2499985580445,2|8|2,0:0|3:2|0:0,0:0:0:0:
41,331,38625,1,2,0:0:0:0:
2,232,38875,6,0,P|21:175|33:73,1,141.749995674133,4|2,3:0|0:0,0:0:0:0:
2,21,39375,1,10,3:2:0:0:
117,81,39625,1,2,0:0:0:0:
216,10,39875,2,0,P|284:27|311:34,2,94.499997116089,2|2|10,3:2|0:0|3:2,0:0:0:0:
249,113,40625,1,2,0:0:0:0:
164,170,40875,6,0,P|188:219|217:364,1,188.999994232178,2|8,3:2|3:2,0:0:0:0:
305,288,41625,1,2,0:0:0:0:
389,362,41875,2,0,P|404:269|441:182,1,188.999994232178,2|8,3:2|3:2,0:0:0:0:
369,115,42625,1,0,0:0:0:0:
395,32,42875,6,0,B|292:6|320:93|209:71,1,188.999994232178,2|8,3:2|3:2,0:0:0:0:
144,17,43625,1,2,0:0:0:0:
77,84,43875,2,0,B|131:160|131:160|77:264,1,188.999994232178,2|8,3:2|3:2,0:0:0:0:
9,286,44625,1,0,0:0:0:0:
70,351,44875,6,0,P|133:326|220:318,1,141.749995674133,2|2,3:2|0:0,0:0:0:0:
257,246,45375,2,0,P|320:271|407:279,1,141.749995674133,10|0,3:2|0:0,0:0:0:0:
460,333,45875,2,0,P|480:283|442:212,1,94.499997116089,0|0,3:0|3:0,0:0:0:0:
411,184,46250,2,0,P|397:157|402:125,1,47.2499985580445,2|8,3:2|3:2,0:0:0:0:
437,71,46500,1,2,3:2:0:0:
437,71,46625,1,2,3:2:0:0:
356,8,46875,5,2,3:2:0:0:
217,130,47875,6,0,P|229:151|236:180,2,52.5,8|4|4,3:2|3:0|3:0,0:0:0:0:
150,84,48250,1,8,3:2:0:0:
72,163,48500,2,0,P|33:148|3:139,2,52.5,10|10|10,3:2|3:2|3:2,0:0:0:0:
124,222,48875,6,0,P|105:310|100:357,1,120.750002303124,6|2,3:2|0:0,0:0:0:0:
202,276,49375,1,10,3:2:0:0:
265,362,49625,1,2,0:0:0:0:
265,362,49750,2,0,P|323:331|392:317,1,120.750002303124,2|0,0:0|0:0,0:0:0:0:
459,346,50125,1,2,0:0:0:0:
421,228,50375,1,10,3:2:0:0:
502,122,50625,1,2,0:0:0:0:
502,122,50750,6,0,P|443:107|390:78,1,120.750002303124,2|0,0:0|0:0,0:0:0:0:
315,67,51125,2,0,P|278:59|236:84,1,60.3750011515618,0|2,0:0|0:0,0:0:0:0:
191,110,51375,1,8,3:2:0:0:
76,51,51625,1,2,0:0:0:0:
76,51,51750,2,0,P|108:-10|111:-42,2,60.3750011515618,2|0|0,0:0|3:0|3:0,0:0:0:0:
5,94,52125,2,0,P|38:164|40:187,1,60.3750011515618,0|0,3:0|0:0,0:0:0:0:
0,224,52375,2,0,P|74:244|128:300,1,120.750002303124,8|2,3:2|0:0,0:0:0:0:
156,337,52750,1,2,0:0:0:0:
156,337,52875,6,0,P|204:302|263:289,1,120.750002303124,2|2,3:2|0:0,0:0:0:0:
356,346,53375,1,8,3:2:0:0:
433,271,53625,1,2,0:0:0:0:
433,271,53750,2,0,P|408:211|399:138,1,120.750002303124,2|0,0:0|0:0,0:0:0:0:
445,88,54125,2,0,P|460:27|463:7,1,60.3750011515618,2|0,0:0|0:0,0:0:0:0:
388,0,54375,1,10,3:2:0:0:
299,116,54625,1,2,0:0:0:0:
299,116,54750,6,0,P|218:86|163:83,1,120.750002303124,2|0,0:0|0:0,0:0:0:0:
124,29,55125,2,0,P|67:51|26:54,1,60.3750011515618,0|2,0:0|0:0,0:0:0:0:
5,98,55375,1,8,3:2:0:0:
88,179,55625,1,2,0:0:0:0:
88,179,55750,2,0,P|64:234|59:310,1,120.750002303124,2|0,0:0|3:0,0:0:0:0:
103,362,56125,2,0,P|150:316|145:284,1,60.3750011515618,2|0,3:2|0:0,0:0:0:0:
180,252,56375,1,10,3:2:0:0:
277,356,56625,2,0,P|337:329|357:325,1,60.3750011515618,10|8,3:2|3:2,0:0:0:0:
405,361,56875,6,0,P|425:292|410:217,1,120.750002303124,6|2,3:2|0:0,0:0:0:0:
493,157,57375,1,10,3:2:0:0:
395,93,57625,1,2,0:0:0:0:
395,93,57750,2,0,P|327:114|248:146,1,120.750002303124,2|0,0:0|0:0,0:0:0:0:
217,84,58125,1,2,0:0:0:0:
138,183,58375,1,10,3:2:0:0:
38,97,58625,1,2,0:0:0:0:
38,97,58750,6,0,P|16:161|8:247,1,120.750002303124,2|0,0:0|0:0,0:0:0:0:
65,270,59125,2,0,P|84:342|80:364,1,60.3750011515618,2|0,0:0|0:0,0:0:0:0:
140,382,59375,1,10,3:2:0:0:
228,287,59625,1,2,0:0:0:0:
228,287,59750,2,0,P|290:305|302:306,1,60.3750011515618,2|0,0:0|3:0,0:0:0:0:
354,352,60000,1,2,0:0:0:0:
354,352,60125,1,2,0:0:0:0:
464,283,60375,2,0,P|439:224|429:166,1,120.750002303124,8|0,3:2|0:0,0:0:0:0:
481,110,60750,1,2,0:0:0:0:
481,110,60875,6,0,P|374:64|321:59,1,120.750002303124,2|2,3:2|0:0,0:0:0:0:
295,151,61375,1,10,3:2:0:0:
212,61,61625,1,2,0:0:0:0:
212,61,61750,2,0,B|146:60|180:104|72:106,1,120.750002303124,2|0,0:0|3:0,0:0:0:0:
35,144,62125,1,2,0:0:0:0:
117,233,62375,2,0,P|93:297|85:357,1,120.750002303124,8|0,3:2|0:0,0:0:0:0:
162,380,62750,1,2,0:0:0:0:
162,380,62875,6,0,P|228:344|294:339,1,120.750002303124,2|2,3:2|0:0,0:0:0:0:
380,384,63375,1,10,3:2:0:0:
454,291,63625,1,2,0:0:0:0:
454,291,63750,2,0,P|436:204|430:165,1,120.750002303124,2|2,0:0|3:1,0:0:0:0:
472,101,64125,2,0,P|480:41|480:21,1,60.3750011515618,0|2,3:0|0:0,0:0:0:0:
410,0,64375,1,10,3:2:0:0:
322,119,64625,2,0,P|271:133|245:147,1,60.3750011515618,2|2,3:2|0:0,0:0:0:0:
199,72,64875,6,0,P|149:152|142:241,1,181.125003454685,6|0,3:2|3:0,0:0:0:0:
198,295,65375,1,8,3:2:0:0:
299,235,65625,1,2,3:2:0:0:
371,328,65875,2,0,L|345:396,2,60.3750011515618,0|0|0,3:0|3:0|3:0,0:0:0:0:
465,263,66375,2,0,L|444:185,1,60.3750011515618,8|2,3:2|0:0,0:0:0:0:
386,150,66625,1,2,0:0:0:0:
386,150,66750,1,2,0:0:0:0:
386,150,66875,6,0,P|313:117|216:53,2,181.125003454685,12|12|12,3:2|3:2|3:2,0:0:0:0:
512,293,68000,1,12,3:2:0:0:
512,293,68125,1,12,3:2:0:0:
418,375,68375,6,0,P|376:362|328:353,1,78.75,14|0,3:2|0:0,0:0:0:0:
279,292,68875,6,0,P|229:316|152:327,1,105,6|2,3:2|0:0,0:0:0:0:
76,334,69250,2,0,P|104:290|121:241,1,105,2|2,0:0|0:0,0:0:0:0:
80,170,69625,1,2,0:0:0:0:
173,88,69875,1,2,3:2:0:0:
173,88,70000,2,0,P|238:119|290:125,1,105,2|2,0:0|0:0,0:0:0:0:
336,77,70375,2,0,P|355:174|298:229,1,157.5,10|2,3:2|0:0,0:0:0:0:
251,254,70875,5,2,3:2:0:0:
343,332,71125,1,2,0:0:0:0:
343,332,71250,2,0,P|277:357|197:378,1,105,2|2,0:0|0:0,0:0:0:0:
174,328,71625,2,0,P|124:321|88:320,1,52.5,2|0,0:0|0:0,0:0:0:0:
54,362,71875,1,2,3:2:0:0:
54,362,72000,2,0,P|13:312|16:232,1,105,2|2,0:0|0:0,0:0:0:0:
64,218,72375,1,10,3:2:0:0:
151,137,72625,1,2,3:2:0:0:
34,99,72875,6,0,P|58:48|74:-4,1,105,2|2,3:2|0:0,0:0:0:0:
144,42,73250,1,2,0:0:0:0:
144,42,73375,2,0,P|218:19|309:25,1,157.5,10|2,3:2|0:0,0:0:0:0:
352,81,73875,2,0,P|337:139|331:218,1,105,2|2,3:2|0:0,0:0:0:0:
377,252,74250,1,2,0:0:0:0:
377,252,74375,1,10,3:2:0:0:
472,319,74625,1,2,0:0:0:0:
362,377,74875,6,0,P|291:353|219:336,1,105,2|2,3:2|0:0,0:0:0:0:
252,265,75250,2,0,P|181:289|109:306,1,105,2|2,0:0|0:0,0:0:0:0:
77,264,75625,2,0,P|67:319|74:339,2,52.5,2|2|2,0:0|0:0|3:2,0:0:0:0:
135,210,76000,1,2,3:2:0:0:
30,121,76250,1,2,0:0:0:0:
30,121,76375,2,0,P|85:106|134:74,1,105,8|0,3:2|3:0,0:0:0:0:
218,9,76875,6,0,P|256:28|296:33,1,52.5,6|2,3:2|0:0,0:0:0:0:
325,82,77125,2,0,P|363:63|403:58,1,52.5,2|2,0:0|0:0,0:0:0:0:
448,91,77375,2,0,P|467:26|467:16,2,52.5,10|2|2,3:2|0:0|0:2,0:0:0:0:
393,152,77750,1,2,0:2:0:0:
393,152,77875,2,0,P|416:209|415:231,1,52.5,2|2,3:2|0:2,0:0:0:0:
373,270,78125,2,0,P|298:248|232:226,2,105,2|10|2,0:0|3:2|0:0,0:0:0:0:
470,384,78875,6,0,P|434:370|419:352,1,52.5,2|2,3:2|0:0,0:0:0:0:
348,361,79125,2,0,P|327:378|302:384,1,52.5,2|2,0:0|0:0,0:0:0:0:
228,350,79375,2,0,P|174:368|144:372,2,52.5,10|2|2,3:2|0:0|0:0,0:0:0:0:
272,276,79750,1,2,0:0:0:0:
272,276,79875,2,0,P|234:219|219:144,1,105,2|2,3:2|0:0,0:0:0:0:
134,112,80375,2,0,P|184:94|226:63,1,105,10|2,3:2|0:0,0:0:0:0:
325,9,80875,6,0,P|351:51|354:78,1,52.5,2|2,3:2|0:0,0:0:0:0:
422,99,81125,2,0,P|405:120|395:144,1,52.5,2|2,0:0|0:0,0:0:0:0:
445,209,81375,1,10,3:2:0:0:
445,209,81500,1,2,0:0:0:0:
445,209,81625,2,0,L|379:231,1,52.5,2|2,0:0|0:0,0:0:0:0:
350,291,81875,2,0,L|399:308,2,52.5,2|2|2,3:2|0:0|0:0,0:0:0:0:
288,238,82250,1,2,0:0:0:0:
288,238,82375,2,0,P|233:272|124:297,1,157.5,10|2,3:2|0:0,0:0:0:0:
75,257,82875,5,6,3:2:0:0:
75,257,83000,2,0,P|113:159|111:119,1,105,2|2,0:0|0:0,0:0:0:0:
57,99,83375,2,0,P|82:93|102:77,1,52.5,10|2,3:2|0:0,0:0:0:0:
163,21,83625,2,0,P|188:28|208:44,1,52.5,2|2,0:0|0:0,0:0:0:0:
251,112,83875,1,2,3:2:0:0:
355,17,84125,1,2,0:0:0:0:
437,119,84375,2,0,P|416:190|404:274,1,157.5,10|0,3:2|3:0,0:0:0:0:
459,335,84875,6,0,P|413:369|334:347,1,105,2|2,3:2|0:0,0:0:0:0:
307,316,85250,1,2,0:0:0:0:
307,316,85375,2,0,P|261:282|182:304,1,105,10|0,3:2|3:0,0:0:0:0:
148,335,85750,1,10,3:2:0:0:
148,335,85875,2,0,P|167:389|168:393,2,52.5,10|2|2,3:2|0:0|3:2,0:0:0:0:
44,274,86375,2,0,P|73:228|95:152,1,118.125004506111,2|2,0:0|0:0,0:0:0:0:
