osu file format v14

[General]
AudioFilename: audio.mp3
AudioLeadIn: 0
PreviewTime: 48375
Countdown: 0
SampleSet: Soft
StackLeniency: 0.5
Mode: 0
LetterboxInBreaks: 0
WidescreenStoryboard: 1

[Editor]
DistanceSpacing: 1.1
BeatDivisor: 4
GridSize: 8
TimelineZoom: 1

[Metadata]
Title:Ashita no Hikari (TV Size)
TitleUnicode:アシタノヒカリ (TV Size)
Artist:AAA
ArtistUnicode:AAA
Creator:Yudragen
Version:Extra
Source:ワールドトリガー
Tags:world trigger chaoticred anime japanese opening 2 second jpop pop トリプル・エー triple a
BeatmapID:2397754
BeatmapSetID:1148453

[Difficulty]
HPDrainRate:5.2
CircleSize:4
OverallDifficulty:8
ApproachRate:9.3
SliderMultiplier:2.2
SliderTickRate:1

[Events]
//Background and Video events
0,0,"tumblr_noi9at4BnW1tvjzgko2_1280.jpg",0,0
//Break Periods
//Storyboard Layer 0 (Background)
//Storyboard Layer 1 (Fail)
//Storyboard Layer 2 (Pass)
//Storyboard Layer 3 (Foreground)
//Storyboard Layer 4 (Overlay)
//Storyboard Sound Samples

[TimingPoints]
875,500,4,2,1,50,1,0
875,-200,4,2,1,50,0,0
8875,-133.333333333333,4,2,1,70,0,0
16875,-166.666666666667,4,2,1,60,0,0
32875,-100,4,2,1,75,0,0
46875,-250,4,2,1,75,0,0
47750,-250,4,2,1,70,0,0
47875,-250,4,2,1,75,0,0
48875,-71.4285714285714,4,2,1,95,0,1
68375,-285.714285714286,4,2,1,70,0,0
68875,-80,4,2,1,85,0,0
76875,-74.0740740740741,4,2,1,85,0,0
86625,-74.0740740740741,4,2,1,70,0,0

[Colours]
Combo1 : 126,207,199
Combo2 : 141,99,199
Combo3 : 151,226,82
Combo4 : 228,69,69

[HitObjects]
65,60,875,6,0,P|117:66|180:91,2,110,2|2|2,0:0|0:0|0:0,0:0:0:0:
198,186,2125,1,2,0:0:0:0:
188,195,2250,2,0,P|162:239|171:286,1,82.5,2|2,0:0|0:0,0:0:0:0:
292,153,2875,6,0,B|351:146|337:180|401:176,2,110,2|2|2,0:0|0:0|0:0,0:0:0:0:
285,241,4125,1,2,0:0:0:0:
296,248,4250,2,0,P|322:292|313:339,1,82.5,2|2,0:0|0:0,0:0:0:0:
396,384,4875,6,0,P|327:361|228:340,1,165,2|2,0:0|0:0,0:0:0:0:
175,278,5875,2,0,P|106:301|7:322,1,165,2|2,0:0|0:0,0:0:0:0:
84,218,6875,6,0,P|96:167|104:111,2,82.5,2|2|2,0:0|0:0|0:0,0:0:0:0:
47,71,7875,1,2,0:0:0:0:
47,71,8125,1,2,0:0:0:0:
47,71,8375,1,2,0:0:0:0:
186,174,8875,6,0,P|231:146|309:169,1,123.750004720688,2|0,3:2|0:0,0:0:0:0:
265,239,9375,2,0,P|310:267|388:244,1,123.750004720688,2|0,3:2|0:0,0:0:0:0:
447,308,9875,2,0,P|465:242|460:208,1,82.5000031471254,2|2,3:2|0:0,0:0:0:0:
415,160,10250,2,0,P|397:94|402:60,1,82.5000031471254,2|0,0:0|0:0,0:0:0:0:
436,14,10625,1,2,0:0:0:0:
436,14,10875,6,0,P|352:54|304:71,1,123.750004720688,2|0,3:2|0:0,0:0:0:0:
295,147,11375,2,0,P|211:107|163:90,1,123.750004720688,2|0,3:2|0:0,0:0:0:0:
119,39,11875,2,0,P|79:75|75:109,1,82.5000031471254,2|0,3:2|0:0,0:0:0:0:
125,174,12250,2,0,P|113:212|80:236,1,82.5000031471254,2|0,0:0|0:0,0:0:0:0:
7,195,12625,1,2,0:0:0:0:
7,195,12875,6,0,P|57:234|58:360,1,165.000006294251,2|0,3:2|3:0,0:0:0:0:
243,243,13625,1,2,0:0:0:0:
243,243,13750,1,2,0:0:0:0:
243,243,13875,1,2,3:2:0:0:
315,291,14125,1,2,0:0:0:0:
234,331,14375,1,2,3:2:0:0:
158,275,14625,1,2,0:0:0:0:
318,170,14875,6,0,P|398:196|500:221,1,165.000006294251,2|0,3:2|3:0,0:0:0:0:
423,55,15625,1,2,0:0:0:0:
423,55,15750,1,2,0:0:0:0:
423,55,15875,2,0,P|425:109|440:53,1,165.000006294251,2|0,3:2|3:0,0:0:0:0:
439,52,16875,6,0,P|363:69|280:86,1,131.99999597168,2|0,3:2|3:0,0:0:0:0:
223,46,17875,2,0,P|146:29|63:12,1,131.99999597168,0|0,3:0|3:0,0:0:0:0:
0,98,18750,1,2,0:0:0:0:
12,108,18875,6,0,P|40:168|6:238,1,131.99999597168,2|0,3:2|3:0,0:0:0:0:
143,370,19875,2,0,P|121:309|149:251,1,131.99999597168,0|0,3:0|3:0,0:0:0:0:
278,322,20750,1,2,0:0:0:0:
290,311,20875,6,0,B|368:300|339:353|434:344,1,131.99999597168,2|0,3:2|3:0,0:0:0:0:
502,277,21875,2,0,P|477:244|475:162,2,98.9999969787599,2|2|0,3:2|0:0|0:0,0:0:0:0:
360,227,22750,1,2,0:0:0:0:
368,219,22875,6,0,P|316:180|252:188,1,131.99999597168,2|0,3:2|3:0,0:0:0:0:
183,328,23750,1,2,0:0:0:0:
178,312,23875,2,0,P|157:237|145:195,1,98.9999969787599,2|0,3:2|0:0,0:0:0:0:
66,233,24375,2,0,P|87:158|99:116,1,98.9999969787599,2|0,3:2|0:0,0:0:0:0:
51,67,24875,6,0,B|115:42|115:42|174:75,1,131.99999597168,2|0,3:2|3:0,0:0:0:0:
226,166,25875,2,0,B|290:191|290:191|349:158,1,131.99999597168,0|0,3:2|3:0,0:0:0:0:
481,31,26750,1,2,0:0:0:0:
470,43,26875,6,0,P|446:119|478:165,1,131.99999597168,2|0,3:2|3:0,0:0:0:0:
437,280,27875,2,0,P|376:295|340:305,1,98.9999969787599,0|0,3:2|0:0,0:0:0:0:
285,359,28375,2,0,P|237:345|189:334,1,98.9999969787599,0|2,3:2|0:0,0:0:0:0:
117,360,28875,6,0,P|88:303|111:232,1,131.99999597168,2|2,3:2|3:2,0:0:0:0:
233,174,29875,2,0,P|191:162|133:138,1,98.9999969787599,2|2,3:2|0:0,0:0:0:0:
131,130,30375,2,0,P|134:95|145:80,2,32.99999899292,0|0|0,3:0|0:0|0:0,0:0:0:0:
323,112,30875,5,0,3:0:0:0:
368,178,31125,1,2,0:0:0:0:
368,178,31375,2,0,P|347:233|343:260,1,65.9999979858399,2|2,3:2|0:0,0:0:0:0:
431,302,31875,2,0,P|364:320|318:350,1,98.9999969787599,0|2,3:0|0:0,0:0:0:0:
334,344,32375,2,0,P|305:360|293:362,1,32.99999899292,0|2,3:0|0:0,0:0:0:0:
236,333,32625,1,0,3:0:0:0:
236,333,32750,1,0,3:0:0:0:
167,377,32875,6,0,P|144:336|148:259,1,110,6|2,3:2|0:0,0:0:0:0:
62,256,33250,2,0,P|74:210|132:159,1,110,2|2,0:0|0:0,0:0:0:0:
75,96,33625,2,0,P|144:87|162:99,1,55,2|0,0:0|0:0,0:0:0:0:
239,18,33875,2,0,P|214:86|204:147,1,110,2|2,3:2|0:0,0:0:0:0:
266,182,34250,2,0,P|287:235|287:247,1,55,2|8,0:0|3:2,0:0:0:0:
249,304,34500,1,2,0:0:0:0:
362,197,34625,2,0,P|368:170|382:146,1,55,2|0,0:0|0:0,0:0:0:0:
509,33,34875,6,0,P|471:67|398:59,1,110,4|0,3:0|0:0,0:0:0:0:
357,13,35250,1,2,0:0:0:0:
357,13,35375,1,8,3:2:0:0:
481,167,35625,2,0,P|494:210|498:236,1,55,2|0,0:0|0:0,0:0:0:0:
439,275,35875,2,0,P|426:318|422:344,1,55,2|0,3:2|0:0,0:0:0:0:
357,368,36125,2,0,P|335:333|339:312,1,55,2|0,0:0|0:0,0:0:0:0:
260,278,36375,2,0,P|257:304|238:324,1,55,10|0,3:2|0:0,0:0:0:0:
172,278,36625,1,2,0:0:0:0:
172,278,36750,1,0,0:0:0:0:
101,326,36875,6,0,P|75:304|74:190,1,110,2|2,3:2|0:0,0:0:0:0:
127,186,37250,2,0,P|153:164|154:50,1,110,2|0,0:0|0:0,0:0:0:0:
125,21,37625,2,0,P|101:44|92:72,1,55,2|0,0:0|0:0,0:0:0:0:
252,147,37875,2,0,P|306:122|363:106,1,110,2|2,3:2|0:0,0:0:0:0:
433,84,38250,2,0,P|422:59|402:42,1,55,2|8,0:0|3:2,0:0:0:0:
483,1,38500,1,2,0:0:0:0:
512,129,38625,2,0,P|487:185|476:242,1,110,2|4,0:0|3:0,0:0:0:0:
347,349,39125,5,0,0:0:0:0:
347,349,39250,1,2,0:0:0:0:
347,349,39375,2,0,P|308:334|270:330,1,55,10|0,3:2|0:0,0:0:0:0:
257,257,39625,2,0,P|218:272|180:276,1,55,2|0,0:0|0:0,0:0:0:0:
140,335,39875,2,0,P|117:277|124:209,1,110,2|2,3:2|0:0,0:0:0:0:
20,218,40250,1,0,0:0:0:0:
29,231,40375,2,0,P|52:173|45:105,1,110,10|2,3:2|0:0,0:0:0:0:
41,32,40750,1,0,0:0:0:0:
28,42,40875,6,0,B|122:23|96:93|214:85,1,165,2|2,3:2|0:0,0:0:0:0:
250,38,41375,2,0,P|297:19|334:17,1,55,8|0,3:2|0:0,0:0:0:0:
373,42,41625,1,2,0:0:0:0:
373,42,41750,1,2,0:0:0:0:
492,17,41875,2,0,P|442:111|454:143,1,110,2|0,3:2|0:0,0:0:0:0:
367,158,42250,2,0,P|417:252|405:284,1,110,2|0,0:0|0:0,0:0:0:0:
371,317,42625,1,2,0:0:0:0:
371,317,42750,1,2,0:0:0:0:
291,266,42875,6,0,P|219:297|139:324,2,110,2|0|8,3:2|0:0|3:2,0:0:0:0:
206,205,43500,1,0,0:0:0:0:
197,219,43625,2,0,P|148:200|117:194,1,55,2|2,0:0|0:0,0:0:0:0:
60,306,43875,2,0,B|84:256|84:256|54:200,1,110,0|0,3:2|0:0,0:0:0:0:
0,145,44250,2,0,B|-24:95|-24:95|6:39,1,110,2|0,0:0|0:0,0:0:0:0:
65,1,44625,1,2,0:0:0:0:
135,83,44750,1,2,0:0:0:0:
223,17,44875,6,0,P|287:33|365:46,1,110,2|0,3:2|0:0,0:0:0:0:
384,102,45250,1,2,0:0:0:0:
384,102,45375,2,0,P|420:61|417:43,1,55,10|0,3:2|0:0,0:0:0:0:
456,150,45625,2,0,P|467:174|491:187,1,55,2|0,0:0|0:0,0:0:0:0:
424,253,45875,1,0,3:0:0:0:
487,288,46000,1,0,3:0:0:0:
428,338,46125,1,0,3:0:0:0:
260,277,46250,2,0,P|201:294|170:301,1,55,2|8,3:2|3:2,0:0:0:0:
343,211,46500,1,2,3:2:0:0:
283,161,46625,2,0,P|224:144|193:137,1,55,2|0,3:2|3:0,0:0:0:0:
90,71,46875,6,0,P|127:137|140:217,1,154,2|0,3:2|0:0,0:0:0:0:
97,280,47875,5,8,3:2:0:0:
190,324,48000,1,4,3:0:0:0:
106,374,48125,5,4,3:0:0:0:
259,244,48250,1,8,3:2:0:0:
259,244,48500,5,10,3:2:0:0:
343,325,48625,1,10,3:2:0:0:
452,276,48750,1,10,3:2:0:0:
366,179,48875,6,0,P|329:113|316:33,1,153.999995300293,6|2,3:2|0:0,0:0:0:0:
156,214,49250,1,0,0:0:0:0:
96,115,49375,2,0,P|119:41|112:8,1,76.9999976501466,10|0,3:2|0:0,0:0:0:0:
226,146,49625,1,2,0:0:0:0:
71,234,49750,2,0,P|31:215|-9:204,1,76.9999976501466,2|0,0:0|3:0,0:0:0:0:
159,332,50000,1,0,0:0:0:0:
159,332,50125,2,0,P|199:313|239:302,1,76.9999976501466,2|0,0:0|0:0,0:0:0:0:
429,250,50375,2,0,P|354:338|361:371,1,153.999995300293,10|2,3:2|0:0,0:0:0:0:
501,309,50750,1,2,0:0:0:0:
353,175,50875,6,0,P|370:130|376:88,1,76.9999976501466,0|0,3:0|0:0,0:0:0:0:
460,10,51125,2,0,P|467:47|482:83,1,76.9999976501466,0|2,0:0|0:0,0:0:0:0:
305,28,51375,2,0,B|221:24|250:88|157:88,1,153.999995300293,8|2,3:2|0:0,0:0:0:0:
77,145,51750,2,0,P|42:45|38:36,1,76.9999976501466,2|0,0:0|3:0,0:0:0:0:
172,187,52000,1,0,3:0:0:0:
172,187,52125,2,0,P|159:223|149:261,1,76.9999976501466,0|0,3:0|0:0,0:0:0:0:
0,313,52375,2,0,P|87:331|114:393,1,153.999995300293,8|2,3:2|0:0,0:0:0:0:
244,245,52750,1,2,0:0:0:0:
383,365,52875,6,0,P|331:346|271:332,1,76.9999976501466,2|0,3:2|0:0,0:0:0:0:
440,272,53125,2,0,P|492:253|552:239,1,76.9999976501466,2|0,0:0|0:0,0:0:0:0:
375,139,53375,2,0,P|356:191|342:251,1,76.9999976501466,8|0,3:2|0:0,0:0:0:0:
320,53,53625,1,2,0:0:0:0:
488,150,53750,2,0,P|477:113|463:77,1,76.9999976501466,2|0,0:0|3:0,0:0:0:0:
310,66,54000,1,0,0:0:0:0:
309,66,54125,2,0,L|230:92,1,76.9999976501466,2|0,0:0|0:0,0:0:0:0:
89,140,54375,2,0,L|270:199,1,153.999995300293,10|2,3:2|0:0,0:0:0:0:
130,271,54750,1,2,0:0:0:0:
225,341,54875,6,0,B|317:321|292:393|439:369,1,153.999995300293,0|0,3:0|0:0,0:0:0:0:
493,240,55250,1,2,0:0:0:0:
493,240,55375,2,0,P|466:276|463:323,1,76.9999976501466,8|0,3:2|0:0,0:0:0:0:
414,141,55625,1,2,0:0:0:0:
311,211,55750,2,0,P|275:184|228:181,1,76.9999976501466,2|0,0:0|3:0,0:0:0:0:
118,266,56000,1,0,3:0:0:0:
118,266,56125,2,0,P|139:194|156:148,1,76.9999976501466,2|0,3:2|0:0,0:0:0:0:
27,69,56375,2,0,P|38:105|48:142,1,76.9999976501466,10|0,3:2|0:0,0:0:0:0:
133,86,56625,1,10,3:2:0:0:
0,228,56750,1,8,3:2:0:0:
168,335,56875,6,0,P|245:310|323:305,1,153.999995300293,6|2,3:2|0:0,0:0:0:0:
433,384,57250,1,0,0:0:0:0:
433,384,57375,2,0,P|408:306|404:275,1,76.9999976501466,10|0,3:2|0:0,0:0:0:0:
445,172,57625,1,2,0:0:0:0:
292,208,57750,2,0,P|370:233|401:237,1,76.9999976501466,2|0,0:0|3:0,0:0:0:0:
450,75,58000,1,0,0:0:0:0:
450,75,58125,2,0,P|412:84|377:99,1,76.9999976501466,2|0,0:0|0:0,0:0:0:0:
261,0,58375,2,0,P|276:62|196:127,1,153.999995300293,10|2,3:2|0:0,0:0:0:0:
132,38,58750,1,2,0:0:0:0:
58,141,58875,6,0,P|87:233|97:302,1,153.999995300293,0|2,3:0|0:0,0:0:0:0:
54,368,59250,1,0,0:0:0:0:
194,269,59375,2,0,P|244:272|281:311,1,76.9999976501466,10|0,3:2|0:0,0:0:0:0:
371,221,59625,1,2,0:0:0:0:
225,142,59750,2,0,P|275:139|312:100,1,76.9999976501466,2|0,0:0|3:0,0:0:0:0:
381,44,60000,1,2,0:0:0:0:
436,151,60125,2,0,P|412:293|412:332,2,153.999995300293,2|8|0,0:0|3:2|0:0,0:0:0:0:
291,20,60750,1,2,0:0:0:0:
469,23,60875,6,0,P|409:49|373:60,1,76.9999976501466,2|0,3:2|0:0,0:0:0:0:
284,138,61125,2,0,P|224:112|188:101,1,76.9999976501466,2|0,0:0|0:0,0:0:0:0:
28,29,61375,2,0,P|103:101|81:160,1,153.999995300293,10|2,3:2|0:0,0:0:0:0:
21,264,61750,1,2,0:0:0:0:
21,264,61875,2,0,P|-5:180|-33:137,1,76.9999976501466,0|0,3:0|3:0,0:0:0:0:
117,301,62125,2,0,P|103:337|95:374,1,76.9999976501466,2|0,0:0|0:0,0:0:0:0:
209,254,62375,2,0,B|295:232|277:307|383:289,1,153.999995300293,8|0,3:2|0:0,0:0:0:0:
439,363,62750,1,2,0:0:0:0:
511,211,62875,6,0,P|489:262|483:323,1,76.9999976501466,2|0,3:2|0:0,0:0:0:0:
414,184,63125,2,0,P|404:146|387:112,1,76.9999976501466,2|0,0:0|0:0,0:0:0:0:
512,32,63375,2,0,P|435:26|360:10,1,153.999995300293,10|2,3:2|0:0,0:0:0:0:
282,80,63750,2,0,P|237:88|185:115,1,76.9999976501466,2|2,0:0|3:1,0:0:0:0:
123,44,64000,1,2,3:1:0:0:
230,207,64125,2,0,P|192:201|157:187,1,76.9999976501466,0|2,3:0|0:0,0:0:0:0:
17,111,64375,2,0,P|64:202|75:273,1,153.999995300293,10|2,3:2|3:2,0:0:0:0:
24,335,64750,1,2,0:0:0:0:
170,301,64875,6,0,B|262:290|231:360|350:357,1,153.999995300293,6|0,3:2|0:0,0:0:0:0:
399,232,65250,1,0,3:0:0:0:
399,232,65375,2,0,P|354:252|318:262,1,76.9999976501466,8|0,3:2|0:0,0:0:0:0:
252,136,65625,2,0,P|297:156|333:166,1,76.9999976501466,2|0,3:2|0:0,0:0:0:0:
480,72,65875,1,0,3:0:0:0:
480,72,66000,1,0,3:0:0:0:
400,13,66125,2,0,P|378:94|377:126,1,76.9999976501466,0|0,3:0|0:0,0:0:0:0:
508,244,66375,2,0,P|500:206|487:169,1,76.9999976501466,8|2,3:2|0:0,0:0:0:0:
407,234,66625,1,2,0:0:0:0:
512,334,66750,1,2,0:0:0:0:
373,384,66875,5,12,3:2:0:0:
373,384,67250,1,12,3:2:0:0:
373,384,67625,1,12,3:2:0:0:
373,384,68000,1,12,3:2:0:0:
323,163,68125,1,12,3:2:0:0:
247,229,68375,6,0,P|210:239|179:250,1,57.7499982376099,14|0,3:2|0:0,0:0:0:0:
133,308,68875,6,0,P|105:243|98:198,1,68.75,6|0,3:2|0:0,0:0:0:0:
57,366,69125,1,2,0:0:0:0:
1,242,69250,2,0,P|29:177|36:132,1,68.75,2|8,0:0|3:2,0:0:0:0:
247,73,69500,1,2,0:0:0:0:
111,0,69625,2,0,P|173:22|223:19,1,68.75,2|0,0:0|0:0,0:0:0:0:
262,66,69875,1,2,3:2:0:0:
114,160,70000,2,0,P|176:138|226:141,1,68.75,2|0,0:0|0:0,0:0:0:0:
388,87,70250,1,2,0:0:0:0:
344,23,70375,2,0,P|295:80|325:162,1,137.5,10|0,3:2|0:0,0:0:0:0:
401,189,70750,1,2,0:0:0:0:
307,260,70875,6,0,B|293:292|293:292|309:331,1,68.75,2|0,3:2|0:0,0:0:0:0:
386,200,71125,1,2,0:0:0:0:
450,320,71250,2,0,B|464:352|464:352|448:391,1,68.75,2|8,0:0|3:2,0:0:0:0:
401,189,71500,1,2,0:0:0:0:
295,269,71625,2,0,P|254:285|197:302,1,68.75,2|0,0:0|0:0,0:0:0:0:
166,234,71875,1,2,3:2:0:0:
227,384,72000,2,0,P|186:368|129:351,1,68.75,2|0,0:0|0:0,0:0:0:0:
0,255,72250,1,2,0:0:0:0:
53,319,72375,2,0,P|79:194|48:121,1,206.25,10|0,3:2|0:0,0:0:0:0:
131,42,72875,6,0,B|209:30|189:89|286:80,1,137.5,2|2,3:2|0:0,0:0:0:0:
333,29,73250,1,2,0:0:0:0:
232,192,73375,2,0,B|310:204|290:145|387:154,1,137.5,10|2,3:2|0:0,0:0:0:0:
434,205,73750,1,2,0:0:0:0:
365,325,73875,2,0,P|337:255|334:224,1,68.75,2|0,3:2|0:0,0:0:0:0:
287,384,74125,1,2,0:0:0:0:
287,384,74250,1,2,0:0:0:0:
168,268,74375,2,0,P|103:267|53:333,1,137.5,10|2,3:2|0:0,0:0:0:0:
247,181,74875,6,0,P|237:113|214:48,1,137.5,2|2,3:2|0:0,0:0:0:0:
350,0,75250,2,0,P|322:69|323:120,2,68.75,2|8|2,0:0|3:2|0:0,0:0:0:0:
388,130,75625,1,2,0:0:0:0:
388,130,75750,1,2,0:0:0:0:
480,66,75875,1,2,3:2:0:0:
424,235,76000,2,0,P|452:304|451:355,1,68.75,2|0,3:2|0:0,0:0:0:0:
512,175,76250,1,2,0:0:0:0:
342,295,76375,2,0,B|271:282|290:341|192:340,1,137.5,8|0,3:2|3:0,0:0:0:0:
122,78,76875,5,6,3:2:0:0:
217,131,77000,1,2,0:0:0:0:
122,188,77125,1,2,0:0:0:0:
217,131,77250,1,2,0:0:0:0:
111,72,77375,2,0,L|90:-32,1,74.2500002832413,10|2,3:2|0:0,0:0:0:0:
227,138,77625,1,2,0:2:0:0:
116,199,77750,1,2,0:2:0:0:
217,283,77875,2,0,L|202:355,1,74.2500002832413,2|2,3:2|0:2,0:0:0:0:
331,218,78125,2,0,P|366:232|402:241,1,74.2500002832413,2|0,0:0|0:0,0:0:0:0:
506,109,78375,2,0,P|471:122|436:131,1,74.2500002832413,10|0,3:2|0:0,0:0:0:0:
318,0,78625,2,0,P|353:14|389:23,1,74.2500002832413,2|0,0:0|0:0,0:0:0:0:
163,155,78875,5,2,3:2:0:0:
124,72,79000,1,2,0:0:0:0:
208,42,79125,1,2,0:0:0:0:
248,126,79250,1,2,0:0:0:0:
152,174,79375,5,10,3:2:0:0:
210,27,79500,1,2,0:0:0:0:
262,134,79625,1,2,0:0:0:0:
103,65,79750,1,2,0:0:0:0:
269,235,79875,6,0,P|307:210|354:200,1,74.2500002832413,2|0,3:2|0:0,0:0:0:0:
185,306,80125,2,0,P|147:281|100:271,1,74.2500002832413,2|0,0:0|0:0,0:0:0:0:
261,383,80375,2,0,P|319:338|401:326,1,148.500000566483,10|2,3:2|0:0,0:0:0:0:
501,181,80875,5,2,3:2:0:0:
421,120,81000,1,2,0:0:0:0:
352,189,81125,1,2,0:0:0:0:
433,249,81250,1,2,0:0:0:0:
303,115,81375,5,10,3:2:0:0:
244,209,81500,1,2,0:0:0:0:
203,111,81625,1,2,0:0:0:0:
140,200,81750,1,2,0:0:0:0:
97,95,81875,6,0,P|50:76|-6:44,1,74.2500002832413,2|2,3:2|0:0,0:0:0:0:
208,100,82125,1,2,0:0:0:0:
143,180,82250,1,2,0:0:0:0:
256,201,82375,1,10,3:2:0:0:
172,283,82500,2,0,P|112:301|38:371,1,148.500000566483,2|2,0:0|0:0,0:0:0:0:
260,217,82875,5,6,3:2:0:0:
353,333,83000,2,0,B|443:323|410:382|502:376,1,148.500000566483,2|2,0:0|0:0,0:0:0:0:
361,201,83375,1,10,3:2:0:0:
431,245,83500,2,0,P|443:209|450:173,1,74.2500002832413,2|2,0:0|0:0,0:0:0:0:
354,110,83750,1,2,0:0:0:0:
450,0,83875,2,0,P|399:21|356:33,1,74.2500002832413,2|0,3:2|3:0,0:0:0:0:
260,130,84125,2,0,P|209:109|166:97,1,74.2500002832413,2|0,0:0|0:0,0:0:0:0:
28,23,84375,2,0,P|78:86|82:175,1,148.500000566483,10|2,3:2|0:0,0:0:0:0:
0,222,84750,1,0,3:0:0:0:
72,306,84875,6,0,P|148:274|156:273,1,74.2500002832413,2|0,3:2|0:0,0:0:0:0:
231,361,85125,1,2,0:0:0:0:
276,228,85250,1,2,0:0:0:0:
375,328,85375,2,0,P|451:360|517:332,1,148.500000566483,10|0,3:2|3:0,0:0:0:0:
468,127,85750,5,10,3:2:0:0:
269,245,85875,1,10,3:2:0:0:
434,220,86000,5,2,0:0:0:0:
331,162,86125,1,2,3:2:0:0:
331,162,86375,6,0,B|329:160|188:169|300:267|128:284,1,222.750000849724,2|2,0:2|0:0,0:0:0:0:
