osu file format v14

[General]
AudioFilename: A4paper - Hypernova.mp3
AudioLeadIn: 0
PreviewTime: 15388
Countdown: 0
SampleSet: Soft
StackLeniency: 0.7
Mode: 3
LetterboxInBreaks: 0
SpecialStyle: 0
WidescreenStoryboard: 1

[Editor]
DistanceSpacing: 1
BeatDivisor: 4
GridSize: 32
TimelineZoom: 1

[Metadata]
Title:Hypernova
TitleUnicode:Hypernova
Artist:A4paper
ArtistUnicode:A4paper
Creator:Spy
Version:4K Normal
Source:BMS
Tags:GO BACK 2 YOUR ROOTS 2014 G2R2014 Energetic Trance Mashiro-Fang ExPew ljqandylee tbftbf123 ExNeko
BeatmapID:1147747
BeatmapSetID:541278

[Difficulty]
HPDrainRate:7
CircleSize:4
OverallDifficulty:7
ApproachRate:5
SliderMultiplier:1.4
SliderTickRate:1

[Events]
//Background and Video events
0,0,"BG.png",0,0
//Break Periods
//Storyboard Layer 0 (Background)
//Storyboard Layer 1 (Fail)
//Storyboard Layer 2 (Pass)
//Storyboard Layer 3 (Foreground)
//Storyboard Sound Samples

[TimingPoints]
4,384.615384615385,4,2,1,65,1,0
15388,-100,4,2,1,65,0,1
39619,-100,4,2,1,65,0,0
40004,-100,4,2,1,65,0,1
52311,-100,4,2,1,30,0,0
76927,-100,4,2,1,65,0,0
92311,-100,4,2,1,65,0,1
104427,-100,4,2,1,65,0,0
104619,-100,4,2,1,65,0,1
129234,-100,4,2,1,65,0,0

[HitObjects]
448,192,1542,128,0,3080:0:0:0:0:
320,192,3080,1,8,0:0:0:0:
192,192,3369,1,8,0:0:0:0:
320,192,3657,1,8,0:0:0:0:
320,192,4042,1,8,0:0:0:0:
320,192,4427,1,12,0:0:0:0:
64,192,4619,1,12,0:0:0:0:
448,192,4907,1,8,0:0:0:0:
192,192,5196,1,8,0:0:0:0:
64,192,5773,1,0,0:0:0:65:snare.wav
320,192,5965,1,0,0:0:0:65:snare.wav
192,192,6061,1,0,0:0:0:65:snare.wav
448,192,6157,1,12,0:0:0:0:
320,192,6734,1,8,0:0:0:0:
448,192,7311,1,8,0:0:0:0:
192,192,7407,1,8,0:0:0:0:
320,192,7504,1,8,0:0:0:0:
64,192,7600,1,8,0:0:0:0:
448,192,7696,1,12,0:0:0:0:
448,192,7984,1,12,0:0:0:0:
448,192,8273,1,12,0:0:0:0:
64,192,8850,128,0,9234:0:0:0:0:
192,192,9234,1,12,0:0:0:0:
192,192,10004,1,12,0:0:0:0:
448,192,10292,1,8,0:0:0:0:
448,192,10580,1,8,0:0:0:0:
192,192,10773,1,12,0:0:0:0:
64,192,11061,1,12,0:0:0:0:
64,192,11350,1,12,0:0:0:0:
320,192,11734,1,12,0:0:0:0:
192,192,12119,1,12,0:0:0:0:
320,192,12215,1,12,0:0:0:0:
192,192,12311,1,12,0:0:0:0:
320,192,12504,1,8,0:0:0:0:
448,192,12696,1,8,0:0:0:0:
320,192,12888,1,8,0:0:0:0:
64,192,13080,1,8,0:0:0:0:
320,192,13273,1,8,0:0:0:0:
448,192,13465,1,8,0:0:0:0:
192,192,13657,1,8,0:0:0:0:
320,192,13850,1,8,0:0:0:0:
64,192,14042,1,0,0:0:0:0:
448,192,14138,1,0,0:0:0:0:
192,192,14234,1,0,0:0:0:0:
64,192,14619,1,0,0:0:0:0:
192,192,14907,1,0,0:0:0:0:
320,192,15196,1,0,0:0:0:0:
64,192,15388,1,4,0:0:0:0:
448,192,15388,1,8,0:0:0:0:
192,192,15773,1,8,0:0:0:0:
320,192,16061,1,0,0:0:0:0:
64,192,16157,1,8,0:0:0:0:
448,192,16254,1,0,0:0:0:0:
192,192,16350,1,0,0:0:0:0:
320,192,16542,1,8,0:0:0:0:
64,192,16734,1,0,0:0:0:0:
320,192,17119,1,0,0:0:0:0:
448,192,17215,1,0,0:0:0:0:
64,192,17311,1,8,0:0:0:0:
320,192,17696,1,8,0:0:0:0:
448,192,17888,1,0,0:0:0:0:
192,192,17984,1,0,0:0:0:0:
64,192,18273,1,0,0:0:0:0:
320,192,18465,1,8,0:0:0:0:
192,192,18657,1,0,0:0:0:0:
448,192,18850,1,8,0:0:0:0:
192,192,19138,1,0,0:0:0:0:
448,192,19234,1,8,0:0:0:0:
64,192,19427,1,0,0:0:0:0:
192,192,19619,1,8,0:0:0:0:
320,192,19811,1,0,0:0:0:0:
448,192,20196,1,0,0:0:0:0:
64,192,20292,1,0,0:0:0:0:
192,192,20388,1,8,0:0:0:0:
320,192,20773,1,8,0:0:0:0:
192,192,21061,1,0,0:0:0:0:
64,192,21350,1,0,0:0:0:0:
448,192,21542,1,8,0:0:0:0:
192,192,21927,1,8,0:0:0:0:
448,192,22119,1,0,0:0:0:0:
192,192,22215,1,0,0:0:0:0:
64,192,22407,1,0,0:0:0:0:
448,192,22504,1,0,0:0:0:0:
320,192,22696,1,8,0:0:0:0:
192,192,22888,1,0,0:0:0:0:
64,192,23273,1,0,0:0:0:0:
320,192,23369,1,0,0:0:0:0:
192,192,23465,1,8,0:0:0:0:
320,192,23850,1,8,0:0:0:0:
448,192,24138,1,0,0:0:0:0:
192,192,24427,1,0,0:0:0:0:
64,192,24619,1,8,0:0:0:0:
320,192,24907,1,0,0:0:0:0:
64,192,25196,1,0,0:0:0:0:
192,192,25484,1,0,0:0:0:0:
320,192,25773,1,8,0:0:0:0:
448,192,25965,1,0,0:0:0:0:
192,192,26350,1,0,0:0:0:0:
448,192,26446,1,0,0:0:0:0:
64,192,26542,1,8,0:0:0:0:
64,192,26927,1,8,0:0:0:0:
448,192,26927,128,0,27215:0:0:0:0:
320,192,27215,1,0,0:0:0:0:
64,192,27311,1,8,0:0:0:0:
192,192,27311,1,0,0:0:0:0:
64,192,27504,1,8,0:0:0:0:
192,192,27504,1,0,0:0:0:0:
320,192,27696,128,0,29234:0:0:0:0:
448,192,27696,1,12,0:0:0:0:
192,192,29234,128,0,29811:0:0:0:0:
64,192,29811,128,0,30388:0:0:0:0:
192,192,30388,128,0,30773:0:0:0:0:
320,192,30773,128,0,31350:0:0:0:0:
192,192,31350,128,0,31927:0:0:0:0:
64,192,31927,128,0,33465:0:0:0:0:
320,192,33465,1,8,0:0:0:0:
448,192,33657,1,0,0:0:0:0:
320,192,33850,128,0,35388:0:0:0:0:
192,192,35388,128,0,35965:0:0:0:0:
64,192,35965,128,0,36542:0:0:0:0:
192,192,36542,128,0,36927:0:0:0:0:
320,192,36927,128,0,37504:0:0:0:0:
448,192,37504,128,0,37888:0:0:0:0:
320,192,37888,1,0,0:0:0:0:
192,192,38080,1,8,0:0:0:0:
64,192,38273,128,0,39619:0:0:0:0:
320,192,39619,1,8,0:0:0:0:
448,192,39715,1,8,0:0:0:0:
320,192,39811,1,8,0:0:0:0:
192,192,39907,1,8,0:0:0:0:
64,192,40004,1,12,0:0:0:0:
320,192,40004,128,0,41542:0:0:0:0:
448,192,41542,128,0,42119:0:0:0:0:
320,192,42119,128,0,42696:0:0:0:0:
192,192,42696,128,0,43080:0:0:0:0:
64,192,43080,128,0,43657:0:0:0:0:
320,192,43080,1,4,0:0:0:0:
192,192,43657,128,0,44234:0:0:0:0:
320,192,44234,128,0,44619:0:0:0:0:
448,192,44619,1,4,0:0:0:0:
192,192,44619,128,0,45773:0:0:0:0:
448,192,45388,1,4,0:0:0:0:
448,192,45773,1,8,0:0:0:0:
320,192,45869,1,0,0:0:0:0:
192,192,45965,1,8,0:0:0:0:
64,192,46061,1,0,0:0:0:0:
192,192,46157,1,8,0:0:0:0:
448,192,46157,128,0,47696:0:0:0:0:
320,192,47696,128,0,48273:0:0:0:0:
192,192,48273,128,0,48850:0:0:0:0:
64,192,48850,128,0,49234:0:0:0:0:
448,192,49234,128,0,49619:0:0:0:0:
320,192,49619,1,0,0:0:0:0:
192,192,49811,128,0,50196:0:0:0:0:
64,192,50196,1,0,0:0:0:0:
320,192,50388,1,0,0:0:0:0:
448,192,50580,1,0,0:0:0:0:
320,192,50773,128,0,52311:0:0:0:0:
64,192,52311,128,0,54619:0:0:0:0:
192,192,52311,1,4,0:0:0:0:
448,192,54619,128,0,55388:0:0:0:0:
320,192,55388,128,0,56927:0:0:0:0:
192,192,56927,128,0,58465:0:0:0:0:
320,192,58465,128,0,60773:0:0:0:0:
64,192,60773,128,0,61542:0:0:0:0:
192,192,61542,128,0,63080:0:0:0:0:
320,192,63080,128,0,63850:0:0:0:0:
192,192,63850,128,0,64619:0:0:0:0:
448,192,64619,1,0,0:0:0:0:
64,192,64811,1,0,0:0:0:0:
320,192,64907,1,0,0:0:0:0:
448,192,65100,1,0,0:0:0:0:
192,192,65196,1,0,0:0:0:0:
320,192,65388,1,0,0:0:0:0:
64,192,65484,1,0,0:0:0:0:
192,192,65677,1,0,0:0:0:0:
448,192,65773,1,0,0:0:0:0:
320,192,65965,1,0,0:0:0:0:
192,192,66157,1,0,0:0:0:0:
64,192,66350,1,0,0:0:0:0:
448,192,66446,1,0,0:0:0:0:
320,192,66638,1,0,0:0:0:0:
64,192,66734,1,0,0:0:0:0:
192,192,66927,1,0,0:0:0:0:
448,192,67119,1,0,0:0:0:0:
64,192,67215,1,0,0:0:0:0:
320,192,67407,1,0,0:0:0:0:
64,192,67504,1,0,0:0:0:0:
192,192,67696,1,0,0:0:0:0:
320,192,67888,1,0,0:0:0:0:
64,192,67984,1,0,0:0:0:0:
192,192,68177,1,0,0:0:0:0:
448,192,68273,1,0,0:0:0:0:
320,192,68465,1,0,0:0:0:0:
64,192,68561,1,0,0:0:0:0:
192,192,68754,1,0,0:0:0:0:
448,192,68850,1,0,0:0:0:0:
320,192,69042,1,0,0:0:0:0:
64,192,69234,1,0,0:0:0:0:
448,192,69427,1,0,0:0:0:0:
192,192,69523,1,0,0:0:0:0:
320,192,69715,1,0,0:0:0:0:
64,192,69811,1,0,0:0:0:0:
192,192,70004,1,0,0:0:0:0:
448,192,70100,1,0,0:0:0:0:
320,192,70292,1,0,0:0:0:0:
64,192,70388,1,0,0:0:0:0:
192,192,70580,1,0,0:0:0:0:
448,192,70773,1,0,0:0:0:0:
64,192,70965,1,0,0:0:0:0:
320,192,71061,1,0,0:0:0:0:
192,192,71254,1,0,0:0:0:0:
448,192,71350,1,0,0:0:0:0:
320,192,71542,1,0,0:0:0:0:
64,192,71638,1,0,0:0:0:0:
448,192,71830,1,0,0:0:0:0:
192,192,71927,1,0,0:0:0:0:
320,192,72119,1,0,0:0:0:0:
192,192,72311,1,0,0:0:0:0:
64,192,72504,1,0,0:0:0:0:
448,192,72600,1,0,0:0:0:0:
64,192,72792,1,0,0:0:0:0:
320,192,72888,1,0,0:0:0:0:
192,192,73080,1,0,0:0:0:0:
448,192,73273,1,0,0:0:0:0:
64,192,73369,1,0,0:0:0:0:
192,192,73561,1,0,0:0:0:0:
448,192,73657,1,0,0:0:0:0:
320,192,73850,1,0,0:0:0:0:
192,192,74042,1,0,0:0:0:0:
448,192,74138,1,0,0:0:0:0:
64,192,74427,1,0,0:0:0:0:
192,192,74715,1,0,0:0:0:0:
64,192,75004,1,0,0:0:0:0:
320,192,75196,1,0,0:0:0:0:
192,192,75388,1,0,0:0:0:0:
448,192,75580,1,0,0:0:0:0:
64,192,75677,1,0,0:0:0:0:
320,192,75965,1,0,0:0:0:0:
192,192,76157,1,0,0:0:0:0:
448,192,76254,1,0,0:0:0:0:
320,192,76542,1,0,0:0:0:0:
192,192,76734,1,0,0:0:0:0:
448,192,76927,5,8,0:0:0:0:
64,192,77215,1,0,0:0:0:65:snare.wav
448,192,77504,1,8,0:0:0:0:
320,192,77792,1,0,0:0:0:0:
448,192,78080,1,8,0:0:0:0:
64,192,78273,128,0,78465:0:0:0:0:
192,192,78273,1,8,0:0:0:0:
320,192,78465,1,0,0:0:0:65:snare.wav
448,192,78754,1,8,0:0:0:0:
64,192,79042,1,8,0:0:0:0:
320,192,79234,1,0,0:0:0:65:snare.wav
320,192,79523,1,0,0:0:0:65:snare.wav
64,192,79811,1,8,0:0:0:0:
448,192,80004,1,8,0:0:0:0:
192,192,80292,1,12,0:0:0:0:
192,192,80580,1,12,0:0:0:0:
448,192,80869,1,8,0:0:0:0:
64,192,81157,1,8,0:0:0:0:
320,192,81350,1,8,0:0:0:0:
192,192,81446,1,8,0:0:0:0:
64,192,81542,1,12,0:0:0:0:
448,192,81830,1,0,0:0:0:0:
320,192,82119,1,0,0:0:0:0:
64,192,82311,1,12,0:0:0:0:
448,192,82407,1,0,0:0:0:0:
192,192,82696,1,0,0:0:0:65:snare.wav
320,192,82888,1,8,0:0:0:0:
64,192,83080,1,12,0:0:0:0:
448,192,83369,1,12,0:0:0:0:
192,192,83657,1,12,0:0:0:0:
320,192,83946,1,12,0:0:0:0:
320,192,84234,1,8,0:0:0:0:
448,192,84234,128,0,84427:0:0:0:0:
64,192,84427,1,12,0:0:0:0:
192,192,84523,1,8,0:0:0:0:
64,192,84619,1,8,0:0:0:0:
448,192,84907,1,8,0:0:0:0:
64,192,85196,1,8,0:0:0:0:
320,192,85388,1,12,0:0:0:0:
192,192,85677,1,12,0:0:0:0:
448,192,85965,1,12,0:0:0:0:
320,192,86157,1,12,0:0:0:0:
192,192,86446,1,12,0:0:0:0:
64,192,86734,1,8,0:0:0:0:
320,192,87023,1,8,0:0:0:0:
192,192,87311,1,8,0:0:0:0:
320,192,87504,1,8,0:0:0:0:
448,192,87696,1,12,0:0:0:0:
320,192,87984,1,8,0:0:0:0:
192,192,88273,1,8,0:0:0:0:
192,192,88561,1,0,0:0:0:0:
320,192,88754,1,0,0:0:0:0:
448,192,88850,1,0,0:0:0:0:
64,192,88946,1,8,0:0:0:0:
320,192,89042,1,0,0:0:0:0:
192,192,89234,1,0,0:0:0:0:
448,192,89234,1,4,0:0:0:0:
64,192,90773,1,0,0:0:0:0:
192,192,91061,1,0,0:0:0:0:
320,192,91350,1,0,0:0:0:0:
448,192,91638,1,0,0:0:0:0:
64,192,91927,128,0,92311:0:0:0:0:
192,192,92311,1,12,0:0:0:0:
448,192,92504,1,0,0:0:0:0:
320,192,92600,1,0,0:0:0:0:
64,192,92696,1,8,0:0:0:0:
192,192,92888,1,0,0:0:0:0:
320,192,93080,1,8,0:0:0:0:
448,192,93177,1,0,0:0:0:0:
64,192,93465,1,8,0:0:0:0:
192,192,93657,1,0,0:0:0:0:
448,192,93850,1,8,0:0:0:0:
192,192,94042,1,0,0:0:0:0:
64,192,94138,1,0,0:0:0:0:
320,192,94234,1,8,0:0:0:0:
448,192,94330,1,0,0:0:0:0:
320,192,94427,1,0,0:0:0:0:
192,192,94619,1,8,0:0:0:0:
320,192,94811,1,0,0:0:0:0:
64,192,94907,1,0,0:0:0:0:
192,192,95100,1,0,0:0:0:0:
448,192,95196,1,0,0:0:0:0:
64,192,95388,1,8,0:0:0:0:
320,192,95580,1,0,0:0:0:0:
448,192,95677,1,0,0:0:0:0:
320,192,95869,1,0,0:0:0:0:
192,192,95965,1,0,0:0:0:0:
448,192,96157,1,8,0:0:0:0:
64,192,96254,1,0,0:0:0:0:
192,192,96542,1,8,0:0:0:0:
320,192,96734,1,0,0:0:0:0:
448,192,96927,1,8,0:0:0:0:
192,192,97119,1,0,0:0:0:0:
64,192,97215,1,0,0:0:0:0:
320,192,97504,1,0,0:0:0:0:
448,192,97696,1,8,0:0:0:0:
192,192,97792,1,0,0:0:0:0:
320,192,98080,1,8,0:0:0:0:
320,192,98273,1,8,0:0:0:0:
64,192,98465,1,4,0:0:0:0:
192,192,98465,1,8,0:0:0:0:
448,192,98657,1,0,0:0:0:0:
320,192,98754,1,0,0:0:0:0:
64,192,98946,1,0,0:0:0:0:
192,192,99042,1,0,0:0:0:0:
448,192,99234,1,8,0:0:0:0:
192,192,99330,1,0,0:0:0:0:
320,192,99619,1,8,0:0:0:0:
192,192,99811,1,0,0:0:0:0:
320,192,100004,1,8,0:0:0:0:
64,192,100196,1,0,0:0:0:0:
192,192,100292,1,0,0:0:0:0:
448,192,100484,1,0,0:0:0:0:
320,192,100580,1,0,0:0:0:0:
64,192,100773,1,8,0:0:0:0:
192,192,100965,1,0,0:0:0:0:
448,192,101061,1,0,0:0:0:0:
320,192,101350,1,0,0:0:0:0:
192,192,101542,1,12,0:0:0:0:
64,192,101734,1,0,0:0:0:0:
320,192,101830,1,0,0:0:0:0:
448,192,102023,1,0,0:0:0:0:
192,192,102119,1,0,0:0:0:0:
64,192,102311,1,12,0:0:0:0:
448,192,102407,1,0,0:0:0:0:
320,192,102696,1,8,0:0:0:0:
192,192,102888,1,8,0:0:0:0:
64,192,103080,1,8,0:0:0:0:
320,192,103177,1,12,0:0:0:0:
192,192,103273,1,12,0:0:0:0:
448,192,103369,1,12,0:0:0:0:
64,192,103465,1,0,0:0:0:0:
320,192,103657,1,12,0:0:0:0:
192,192,103754,1,12,0:0:0:0:
448,192,103946,1,0,0:0:0:0:
64,192,104042,1,8,0:0:0:0:
320,192,104234,1,8,0:0:0:0:
192,192,104427,1,8,0:0:0:0:
448,192,104619,1,4,0:0:0:0:
64,192,104619,1,8,0:0:0:0:
320,192,104811,1,0,0:0:0:0:
64,192,104907,1,0,0:0:0:0:
320,192,105100,1,0,0:0:0:0:
448,192,105196,1,0,0:0:0:0:
192,192,105484,1,0,0:0:0:0:
64,192,105580,1,0,0:0:0:0:
320,192,105773,1,0,0:0:0:0:
448,192,105965,1,0,0:0:0:0:
192,192,106157,1,0,0:0:0:0:
448,192,106350,1,0,0:0:0:0:
320,192,106446,1,0,0:0:0:0:
64,192,106638,1,0,0:0:0:0:
192,192,106734,1,0,0:0:0:0:
448,192,106927,1,8,0:0:0:0:
320,192,107119,1,0,0:0:0:0:
64,192,107215,1,0,0:0:0:0:
192,192,107407,1,0,0:0:0:0:
448,192,107504,1,0,0:0:0:0:
320,192,107696,1,8,0:0:0:0:
64,192,107888,1,0,0:0:0:0:
448,192,107984,1,0,0:0:0:0:
320,192,108177,1,0,0:0:0:0:
64,192,108273,1,0,0:0:0:0:
192,192,108465,1,8,0:0:0:0:
448,192,108561,1,0,0:0:0:0:
320,192,108850,1,8,0:0:0:0:
192,192,109042,1,0,0:0:0:0:
64,192,109234,1,8,0:0:0:0:
192,192,109427,1,0,0:0:0:0:
448,192,109523,1,0,0:0:0:0:
320,192,109715,1,0,0:0:0:0:
64,192,109811,1,0,0:0:0:0:
192,192,110004,1,0,0:0:0:0:
448,192,110100,1,0,0:0:0:0:
320,192,110388,1,8,0:0:0:0:
320,192,110580,1,8,0:0:0:0:
64,192,110773,1,8,0:0:0:0:
192,192,110773,1,4,0:0:0:0:
448,192,110965,1,0,0:0:0:0:
320,192,111061,1,0,0:0:0:0:
64,192,111254,1,0,0:0:0:0:
320,192,111350,1,0,0:0:0:0:
448,192,111638,1,0,0:0:0:0:
192,192,111927,1,8,0:0:0:0:
320,192,112119,1,0,0:0:0:0:
448,192,112311,1,12,0:0:0:0:
64,192,112504,1,0,0:0:0:0:
320,192,112600,1,0,0:0:0:0:
192,192,112888,1,0,0:0:0:0:
320,192,113080,1,8,0:0:0:0:
64,192,113273,1,0,0:0:0:0:
448,192,113369,1,0,0:0:0:0:
320,192,113561,1,0,0:0:0:0:
64,192,113657,1,8,0:0:0:0:
192,192,113850,1,12,0:0:0:0:
192,192,114138,1,12,0:0:0:0:
192,192,114427,1,12,0:0:0:0:
320,192,114715,1,0,0:0:0:0:
448,192,115004,1,12,0:0:0:0:
320,192,115196,1,12,0:0:0:0:
192,192,115388,1,12,0:0:0:0:
192,192,115677,1,0,0:0:0:0:
64,192,115965,5,8,0:0:0:0:
192,192,116157,1,8,0:0:0:0:
320,192,116446,1,8,0:0:0:0:
64,192,116542,1,0,0:0:0:0:
192,192,116734,1,8,0:0:0:0:
448,192,116927,5,8,0:0:0:0:
320,192,117119,1,0,0:0:0:0:
64,192,117215,1,0,0:0:0:0:
192,192,117407,1,0,0:0:0:0:
448,192,117504,1,12,0:0:0:0:
320,192,117792,1,0,0:0:0:0:
320,192,118080,5,8,0:0:0:0:
192,192,118273,1,8,0:0:0:0:
64,192,118465,1,12,0:0:0:0:
448,192,118657,1,0,0:0:0:0:
192,192,118754,1,8,0:0:0:0:
64,192,118946,1,0,0:0:0:0:
448,192,119042,1,12,0:0:0:0:
320,192,119234,5,0,0:0:0:0:
192,192,119330,1,0,0:0:0:0:
320,192,119427,1,0,0:0:0:0:
192,192,119523,1,0,0:0:0:0:
448,192,119619,1,0,0:0:0:0:
448,192,119811,1,0,0:0:0:0:
320,192,120004,1,12,0:0:0:0:
192,192,120196,1,0,0:0:0:0:
64,192,120292,1,8,0:0:0:0:
192,192,120484,1,0,0:0:0:0:
448,192,120580,1,8,0:0:0:0:
320,192,120869,1,0,0:0:0:0:
448,192,121157,1,8,0:0:0:0:
192,192,121350,1,8,0:0:0:0:
64,192,121542,1,12,0:0:0:0:
192,192,121830,1,0,0:0:0:0:
320,192,122119,1,12,0:0:0:0:
448,192,122504,5,0,0:0:0:0:
64,192,122696,1,0,0:0:0:65:crash2.wav
320,192,122696,1,0,0:0:0:0:
448,192,123080,1,8,0:0:0:0:
64,192,123369,1,0,0:0:0:0:
448,192,123561,1,0,0:0:0:0:
320,192,123657,1,8,0:0:0:0:
192,192,123946,1,0,0:0:0:0:
64,192,124234,1,8,0:0:0:0:
320,192,124427,1,8,0:0:0:0:
448,192,124619,1,12,0:0:0:0:
320,192,124907,1,8,0:0:0:0:
192,192,125196,1,8,0:0:0:0:
64,192,125388,1,8,0:0:0:0:
192,192,125580,1,8,0:0:0:0:
320,192,125965,1,8,0:0:0:0:
448,192,126157,1,12,0:0:0:0:
192,192,126446,1,8,0:0:0:0:
448,192,126734,128,0,126927:0:0:0:0:
320,192,127023,1,8,0:0:0:0:
64,192,127215,1,8,0:0:0:0:
448,192,127311,1,8,0:0:0:0:
192,192,127504,1,8,0:0:0:0:
448,192,127696,128,0,127888:0:0:0:0:
192,192,127984,128,0,128177:0:0:0:0:
64,192,128273,128,0,128465:0:0:0:0:
192,192,128561,1,8,0:0:0:0:
448,192,128657,128,0,128850:0:0:0:0:
320,192,128850,1,8,0:0:0:0:
64,192,129042,1,8,0:0:0:0:
192,192,129042,1,0,0:0:0:0:
320,192,129234,5,8,0:0:0:0:
448,192,129234,1,4,0:0:0:0:
