osu file format v14

[General]
AudioFilename: audio.mp3
AudioLeadIn: 0
PreviewTime: 55166
Countdown: 0
SampleSet: Soft
StackLeniency: 0.4
Mode: 0
LetterboxInBreaks: 0
WidescreenStoryboard: 1

[Editor]
Bookmarks: 27795
DistanceSpacing: 1
BeatDivisor: 2
GridSize: 4
TimelineZoom: 1

[Metadata]
Title:Circle of Seasons (TV Size)
TitleUnicode:Circle of Seasons (TV Size)
Artist:A3ders!
ArtistUnicode:A3ders!
Creator:arronchu1207
Version:Normal
Source:A3! SEASON AUTUMN & WINTER
Tags:anime op opening japanese エースリー Ēsurī eesurii 佐久間 咲也 Sakuma Sakuya 酒井広大 Sakai Koudai 皇天馬 Sumeragi Tenma 江口拓也 Eguchi Takuya 摂津万里 Settsu Banri 沢城千春 Sawashiro Chiharu 月岡紬 Tsukioka Tsumugi 田丸篤志 Tamaru Atsushi ANIMATION PROJECT MANKAI Theatre Stage Liber Progressive Animation Works P.A.Works Studio 3Hz Pony Canyon Entertainment Incorporated Inc. jpop j-pop pop Act! Addict! Actors!
BeatmapID:2660529
BeatmapSetID:1277743

[Difficulty]
HPDrainRate:3
CircleSize:3.3
OverallDifficulty:4
ApproachRate:5.2
SliderMultiplier:1
SliderTickRate:1

[Events]
//Background and Video events
0,0,"aaa.jpg",0,0
Video,-181,"a3.mp4"
//Break Periods
//Storyboard Layer 0 (Background)
//Storyboard Layer 1 (Fail)
//Storyboard Layer 2 (Pass)
//Storyboard Layer 3 (Foreground)
//Storyboard Layer 4 (Overlay)
//Storyboard Sound Samples

[TimingPoints]
-726,357.142857142857,4,2,1,60,1,0
345,-125,4,2,1,60,0,0
7309,-100,4,2,1,70,0,0
22131,-111.111111111111,4,2,1,60,0,0
27845,-100,4,2,1,70,0,0
44988,-111.111111111111,4,2,1,60,0,0
50523,-100,4,2,1,70,0,0
56238,-100,4,2,1,80,0,1
73559,-100,4,2,1,70,0,0
87845,-100,4,2,1,5,0,0

[Colours]
Combo1 : 63,63,63
Combo2 : 255,38,38
Combo3 : 255,128,0
Combo4 : 203,156,99

[HitObjects]
341,129,345,5,10,0:0:0:0:
383,43,702,6,0,P|436:124|400:205,1,160,6|2,0:0|0:0,0:0:0:0:
262,191,2131,2,0,L|239:351,1,160,2|2,0:0|0:0,0:0:0:0:
163,375,3202,1,2,0:0:0:0:
97,328,3559,6,0,L|122:138,2,160,2|2|2,0:0|0:0|0:0,0:0:0:0:
242,260,5702,1,6,0:0:0:0:
256,192,5881,12,6,7666,0:0:0:0:
121,28,9273,6,0,L|111:95,1,50,14|2,1:2|3:2,0:0:0:0:
138,121,9631,2,0,L|148:188,1,50,2|10,3:2|1:2,0:0:0:0:
218,238,10166,2,0,P|252:235|268:227,1,50,2|2,3:2|3:2,0:0:0:0:
298,190,10523,2,0,L|424:203,1,100,14|8,1:2|1:2,0:0:0:0:
447,206,11059,1,8,1:2:0:0:
447,206,12131,6,0,P|452:162|445:137,1,50,6|8,1:2|0:0,0:0:0:0:
437,108,12488,1,8,0:0:0:0:
437,108,12666,2,0,L|306:119,1,100,8|0,0:0|3:2,0:0:0:0:
294,89,13202,1,14,1:2:0:0:
212,31,13559,6,0,P|189:83|202:130,1,100,2|8,3:2|0:0,0:0:0:0:
223,166,14095,2,0,L|235:298,1,100,0|0,3:2|3:2,0:0:0:0:
238,315,14631,1,8,0:0:0:0:
144,339,14988,1,6,0:0:0:0:
144,339,15166,2,0,P|120:332|98:320,1,50,2|10,0:0|0:0,0:0:0:0:
69,278,15523,2,0,L|85:145,1,100,6|0,0:0|3:2,0:0:0:0:
98,79,16238,6,0,L|231:63,1,100,6|0,3:2|3:2,0:0:0:0:
246,59,16773,1,8,0:0:0:0:
320,134,17131,1,10,0:0:0:0:
320,134,17309,2,0,L|312:203,1,50,10|10,0:0|0:0,0:0:0:0:
308,233,17666,2,0,B|369:226|369:226|434:259,1,100,6|0,3:2|3:2,0:0:0:0:
348,327,18381,2,0,B|313:344|313:344|252:337,1,100,6|0,3:2|3:2,0:0:0:0:
203,330,18916,1,8,0:0:0:0:
128,263,19273,5,6,3:2:0:0:
188,183,19631,1,10,0:0:0:0:
120,108,19988,2,0,P|95:104|70:108,2,50,2|2|10,3:2|0:0|0:0,0:0:0:0:
160,79,20523,2,0,P|209:90|283:62,1,100,2|0,0:0|3:2,0:0:0:0:
295,47,21059,1,8,0:0:0:0:
392,23,21416,2,0,L|387:87,1,50,0|14,3:2|0:0,0:0:0:0:
417,113,21773,1,14,0:0:0:0:
475,181,22131,5,0,3:2:0:0:
418,250,22488,2,0,L|304:234,1,89.999997253418,2|0,3:2|3:2,0:0:0:0:
284,235,23023,1,10,0:0:0:0:
221,299,23381,2,0,P|158:300|99:222,1,134.999995880127,10|0,0:0|3:2,0:0:0:0:
62,175,24273,2,0,B|49:133|49:133|68:78,1,89.999997253418,2|0,3:2|3:2,0:0:0:0:
89,55,24809,2,0,L|140:51,1,44.999998626709,10|0,0:0|3:2,0:0:0:0:
212,95,25345,6,0,L|322:107,1,89.999997253418,2|0,3:2|3:2,0:0:0:0:
340,81,25881,1,10,0:0:0:0:
403,144,26238,2,0,P|416:202|393:245,1,89.999997253418,6|2,3:2|0:0,0:0:0:0:
377,263,26773,2,0,P|334:255|307:264,1,44.999998626709,10|0,0:0|3:2,0:0:0:0:
290,269,27131,1,2,3:2:0:0:
214,220,27488,1,10,0:0:0:0:
154,287,27845,6,0,L|23:264,1,100,6|10,3:2|0:0,0:0:0:0:
17,237,28381,2,0,B|2:175|2:175|22:116,1,100,2|0,0:0|3:2,0:0:0:0:
33,94,28916,1,8,0:0:0:0:
114,35,29273,2,0,L|249:50,1,100,2|10,3:2|0:0,0:0:0:0:
260,29,29809,2,0,P|243:88|266:161,1,100,2|2,3:2|3:2,0:0:0:0:
271,169,30345,1,10,0:0:0:0:
338,243,30702,6,0,L|449:252,1,100,14|10,0:0|0:0,0:0:0:0:
503,175,31416,2,0,L|507:55,1,100,10|10,0:0|0:0,0:0:0:0:
415,31,32131,2,0,B|356:14|356:14|295:33,1,100,10|8,0:0|0:0,0:0:0:0:
281,56,32666,1,0,3:2:0:0:
281,56,32845,2,0,L|292:184,1,100,10|8,0:0|0:0,0:0:0:0:
217,224,33559,5,6,0:0:0:0:
136,165,33916,1,10,0:0:0:0:
65,235,34273,1,2,0:0:0:0:
65,235,34452,2,0,L|70:297,1,50,2|0,3:2|0:3,0:0:0:0:
46,329,34809,2,0,B|106:323|106:323|167:357,1,100,2|0,3:2|0:0,0:0:0:0:
182,370,35345,1,10,0:0:0:0:
268,317,35702,1,2,3:2:0:0:
268,317,35881,2,0,L|343:327,1,50,2|8,3:2|0:0,0:0:0:0:
366,334,36238,6,0,P|353:269|378:212,1,100,2|0,3:2|0:0,0:0:0:0:
398,204,36773,1,10,0:0:0:0:
374,111,37131,1,0,3:2:0:0:
374,111,37309,2,0,P|336:126|314:125,1,50,2|0,3:2|0:0,0:0:0:0:
282,104,37666,2,0,P|217:89|167:109,1,100,6|0,3:2|0:0,0:0:0:0:
149,131,38202,1,10,0:0:0:0:
111,223,38559,2,0,L|130:351,1,100,2|10,3:2|0:0,0:0:0:0:
135,370,39095,1,6,3:2:0:0:
258,283,39631,5,10,0:0:0:0:
258,283,39809,2,0,P|295:256|404:270,1,150,6|10,3:2|0:0,0:0:0:0:
433,294,40523,1,6,3:2:0:0:
478,153,41059,1,10,0:0:0:0:
478,153,41238,2,0,L|351:147,1,100,6|2,3:2|0:0,0:0:0:0:
340,115,41773,1,10,0:0:0:0:
241,133,42131,6,0,L|258:263,1,100,14|10,0:0|0:0,0:0:0:0:
293,262,42666,2,0,L|276:392,1,100,2|2,3:2|3:2,0:0:0:0:
179,356,43381,2,0,P|130:369|68:336,1,100,10|0,0:0|3:2,0:0:0:0:
44,324,43916,1,8,0:0:0:0:
21,226,44273,2,0,P|21:192|32:165,1,50,10|2,0:0|0:0,0:0:0:0:
67,148,44631,2,0,P|67:114|56:87,1,50,10|2,0:0|0:0,0:0:0:0:
46,56,44988,6,0,L|159:52,1,89.999997253418,6|2,3:2|0:0,0:0:0:0:
200,115,45702,2,0,L|295:120,1,89.9999972534181,10|2,0:0|3:2,0:0:0:0:
338,129,46238,1,2,3:2:0:0:
338,129,46416,2,0,P|318:185|335:250,1,89.999997253418,2|2,3:2|3:2,0:0:0:0:
386,275,47131,2,0,P|413:275|440:271,1,44.999998626709,10|2,0:0|3:2,0:0:0:0:
469,249,47488,2,0,P|483:226|493:200,1,44.999998626709,2|2,0:0|0:0,0:0:0:0:
490,164,47845,6,0,L|484:66,1,89.9999972534181,2|2,3:2|0:0,0:0:0:0:
410,23,48559,2,0,L|297:32,1,89.999997253418,10|2,0:0|3:2,0:0:0:0:
279,41,49095,1,2,3:2:0:0:
279,41,49273,2,0,P|257:86|269:156,1,89.9999972534181,2|2,3:2|3:2,0:0:0:0:
204,198,49988,2,0,L|145:194,2,44.999998626709,8|0|8,0:0|3:2|0:0,0:0:0:0:
235,236,50523,6,0,B|289:222|289:222|361:251,1,100,14|0,3:2|3:2,0:0:0:0:
422,200,51238,2,0,P|430:244|410:299,1,100,2|0,3:2|3:2,0:0:0:0:
378,331,51773,1,8,0:0:0:0:
378,331,51952,2,0,B|332:351|332:351|278:337,1,100,6|0,3:2|3:2,0:0:0:0:
205,276,52666,2,0,L|195:166,1,100,2|0,3:2|3:2,0:0:0:0:
162,139,53202,1,8,0:0:0:0:
162,139,53381,2,0,P|110:128|57:153,1,100,6|0,3:2|3:2,0:0:0:0:
39,185,53916,1,8,0:0:0:0:
70,279,54273,6,0,L|19:284,2,50,10|2|2,0:0|3:2|3:2,0:0:0:0:
111,306,54809,1,10,0:0:0:0:
208,329,55166,2,0,L|216:396,2,50,2|2|0,0:0|0:0|3:2,0:0:0:0:
289,270,55881,2,0,L|298:199,1,50,2|2,3:2|3:2,0:0:0:0:
266,179,56238,6,0,P|209:159|142:189,1,100,6|2,3:2|3:2,0:0:0:0:
132,198,56773,1,8,0:0:0:0:
73,116,57131,1,2,3:2:0:0:
136,38,57488,2,0,L|197:44,1,50,10|2,0:0|0:0,0:0:0:0:
228,16,57845,2,0,L|334:9,1,100,2|10,3:2|0:0,0:0:0:0:
374,27,58381,1,6,3:2:0:0:
338,120,58738,2,0,P|338:156|347:172,1,50,8|8,0:1|0:1,0:0:0:0:
375,206,59095,6,0,L|365:331,1,100,6|2,3:2|3:2,0:0:0:0:
360,355,59631,1,10,0:0:0:0:
263,379,59988,1,2,3:2:0:0:
238,282,60345,2,0,L|245:231,1,50,10|2,0:0|0:0,0:0:0:0:
276,193,60702,2,0,L|264:74,1,100,2|10,3:2|0:0,0:0:0:0:
259,43,61238,1,6,3:2:0:0:
166,5,61595,2,0,L|157:66,1,50,8|8,0:1|0:1,0:0:0:0:
124,91,61952,6,0,L|131:211,1,100,6|2,3:2|0:0,0:0:0:0:
104,233,62488,2,0,P|74:242|52:237,2,50,10|2|2,0:0|3:2|3:2,0:0:0:0:
186,298,63202,1,8,0:1:0:0:
186,298,63381,2,0,P|252:286|317:317,1,100,6|2,3:2|0:0,0:0:0:0:
328,314,63916,2,0,L|336:243,1,50,10|2,0:0|3:2,0:0:0:0:
367,227,64273,2,0,L|357:117,1,100,2|8,3:2|0:1,0:0:0:0:
300,45,64988,5,14,0:0:0:0:
203,69,65345,1,10,0:0:0:0:
200,169,65702,1,10,0:0:0:0:
292,205,66059,1,10,0:0:0:0:
357,127,66416,1,10,0:0:0:0:
357,127,66595,2,0,L|412:121,1,50,0|10,3:2|0:0,0:0:0:0:
456,118,66952,2,0,L|466:243,1,100,2|0,3:2|3:2,0:0:0:0:
432,312,67666,6,0,B|372:297|372:297|310:331,1,100,14|2,3:2|3:2,0:0:0:0:
296,341,68202,1,10,0:0:0:0:
209,290,68559,1,2,3:2:0:0:
267,208,68916,2,0,L|282:140,1,50,10|2,0:0|0:0,0:0:0:0:
317,128,69273,2,0,P|327:76|307:30,1,100,6|10,3:2|0:0,0:0:0:0:
265,9,69809,1,2,3:2:0:0:
170,42,70166,2,0,P|161:76|161:104,1,50,8|8,0:1|0:1,0:0:0:0:
188,132,70523,6,0,L|199:254,1,100,6|2,3:2|3:2,0:0:0:0:
203,281,71059,1,10,0:0:0:0:
279,345,71416,1,2,3:2:0:0:
347,272,71773,2,0,L|406:265,1,50,10|2,0:0|3:2,0:0:0:0:
433,231,72131,2,0,P|446:191|427:134,1,100,2|10,3:2|0:0,0:0:0:0:
391,104,72666,2,0,L|262:92,1,100,2|8,3:2|0:1,0:0:0:0:
241,90,73202,1,8,0:1:0:0:
168,158,73559,6,0,P|166:198|219:256,1,100,6|2,3:2|0:0,0:0:0:0:
244,265,74095,1,2,3:2:0:0:
341,234,74452,1,2,0:0:0:0:
341,234,74631,2,0,L|349:308,1,50,2|2,3:2|3:2,0:0:0:0:
356,332,74988,2,0,B|406:322|406:322|473:356,1,100,2|2,0:0|0:0,0:0:0:0:
490,371,75523,2,0,L|501:258,1,100,2|0,3:2|3:2,0:0:0:0:
483,171,76238,6,0,P|427:152|364:174,1,100,6|10,3:2|0:0,0:0:0:0:
343,182,76773,1,10,0:0:0:0:
282,102,77131,2,0,L|289:32,2,50,10|10|10,0:0|0:0|0:0,0:0:0:0:
246,136,77666,1,14,0:0:0:0:
155,173,78023,1,2,3:2:0:0:
155,173,78202,2,0,P|146:209|156:239,1,50,10|0,0:0|3:2,0:0:0:0:
173,264,78559,2,0,B|222:255|222:255|282:270,1,100,2|10,3:2|0:0,0:0:0:0:
367,243,79273,6,0,L|383:114,1,100,6|8,3:2|0:0,0:0:0:0:
365,95,79809,2,0,P|310:86|252:121,1,100,2|0,3:2|3:2,0:0:0:0:
242,144,80345,1,10,0:0:0:0:
233,247,80702,1,6,3:2:0:0:
233,247,80881,2,0,L|243:317,1,50,2|10,0:0|0:0,0:0:0:0:
227,344,81238,2,0,P|175:373|113:361,1,100,6|0,3:2|3:2,0:0:0:0:
57,308,81952,6,0,L|64:182,1,100,6|0,3:2|3:2,0:0:0:0:
66,158,82488,1,8,0:0:0:0:
122,76,82845,1,10,0:0:0:0:
122,76,83023,2,0,P|160:102|191:100,1,50,10|10,0:0|0:0,0:0:0:0:
212,95,83381,2,0,L|199:215,1,100,6|0,3:2|3:2,0:0:0:0:
300,209,84095,2,0,L|313:89,1,100,6|0,3:2|3:2,0:0:0:0:
317,59,84631,1,8,0:0:0:0:
408,19,84988,5,6,3:2:0:0:
492,72,85345,1,10,0:0:0:0:
444,159,85702,2,0,L|372:169,2,50,2|2|10,3:2|0:0|0:0,0:0:0:0:
474,198,86238,2,0,L|459:329,1,100,2|0,0:0|3:2,0:0:0:0:
454,346,86773,1,8,0:0:0:0:
355,363,87131,2,0,L|296:349,1,50,0|14,3:2|1:2,0:0:0:0:
269,317,87488,2,0,B|225:340|225:340|175:330,1,100,14|0,1:2|0:0,0:0:0:0:
