osu file format v14

[General]
AudioFilename: audio.mp3
AudioLeadIn: 0
PreviewTime: 55166
Countdown: 0
SampleSet: Soft
StackLeniency: 0.4
Mode: 0
LetterboxInBreaks: 0
WidescreenStoryboard: 1

[Editor]
Bookmarks: 27795
DistanceSpacing: 1.3
BeatDivisor: 4
GridSize: 4
TimelineZoom: 1

[Metadata]
Title:Circle of Seasons (TV Size)
TitleUnicode:Circle of Seasons (TV Size)
Artist:A3ders!
ArtistUnicode:A3ders!
Creator:arronchu1207
Version:Hard
Source:A3! SEASON AUTUMN & WINTER
Tags:anime op opening japanese エースリー Ēsurī eesurii 佐久間 咲也 Sakuma Sakuya 酒井広大 Sakai Koudai 皇天馬 Sumeragi Tenma 江口拓也 Eguchi Takuya 摂津万里 Settsu Banri 沢城千春 Sawashiro Chiharu 月岡紬 Tsukioka Tsumugi 田丸篤志 Tamaru Atsushi ANIMATION PROJECT MANKAI Theatre Stage Liber Progressive Animation Works P.A.Works Studio 3Hz Pony Canyon Entertainment Incorporated Inc. jpop j-pop pop Act! Addict! Actors!
BeatmapID:2660528
BeatmapSetID:1277743

[Difficulty]
HPDrainRate:4
CircleSize:3.8
OverallDifficulty:6.3
ApproachRate:7.8
SliderMultiplier:1.4
SliderTickRate:1

[Events]
//Background and Video events
0,0,"aaa.jpg",0,0
Video,-181,"a3.mp4"
//Break Periods
//Storyboard Layer 0 (Background)
//Storyboard Layer 1 (Fail)
//Storyboard Layer 2 (Pass)
//Storyboard Layer 3 (Foreground)
//Storyboard Layer 4 (Overlay)
//Storyboard Sound Samples

[TimingPoints]
-726,357.142857142857,4,2,1,60,1,0
345,-166.666666666667,4,2,1,60,0,0
7309,-100,4,2,1,70,0,0
22131,-125,4,2,1,60,0,0
27845,-100,4,2,1,70,0,0
44988,-111.111111111111,4,2,1,60,0,0
50523,-100,4,2,1,70,0,0
56238,-100,4,2,1,80,0,1
73559,-111.111111111111,4,2,1,70,0,0
76238,-100,4,2,1,70,0,0
87845,-100,4,2,1,5,0,0

[Colours]
Combo1 : 63,63,63
Combo2 : 255,38,38
Combo3 : 255,128,0
Combo4 : 203,156,99

[HitObjects]
348,41,345,5,10,0:0:0:0:
183,68,702,6,0,L|358:40,1,167.999994873047,6|2,0:0|0:0,0:0:0:0:
348,41,1773,1,2,0:0:0:0:
410,96,1952,1,2,0:0:0:0:
353,158,2131,2,0,P|330:225|369:309,1,167.999994873047,2|2,0:0|0:0,0:0:0:0:
439,225,3202,1,2,0:0:0:0:
353,158,3559,6,0,L|265:172,1,83.9999974365235,2|0,0:0|0:0,0:0:0:0:
252,74,4273,2,0,L|334:60,1,83.9999974365235,2|2,0:0|0:0,0:0:0:0:
270,171,4988,2,0,L|187:157,1,83.9999974365235,2|0,0:0|0:0,0:0:0:0:
113,219,5702,1,6,0:0:0:0:
256,192,5791,12,6,7666,0:0:0:0:
126,182,9273,5,14,1:2:0:0:
108,271,9452,1,2,3:2:0:0:
197,289,9630,1,2,3:2:0:0:
215,200,9809,1,10,1:2:0:0:
215,200,10166,5,2,3:2:0:0:
191,111,10345,1,2,3:2:0:0:
263,57,10523,2,0,B|341:39|323:103|412:75,1,140,14|8,1:2|1:2,0:0:0:0:
475,33,11059,1,8,1:2:0:0:
475,33,12131,5,6,1:2:0:0:
512,124,12309,1,8,0:0:0:0:
512,124,12398,1,8,0:0:0:0:
512,124,12488,2,0,L|504:177,3,35,8|0|8|8,0:0|0:0|0:0|0:0,0:0:0:0:
478,195,12845,2,0,L|486:248,1,35,0|0,3:2|3:2,0:0:0:0:
449,260,13023,2,0,L|441:313,1,35,0|0,3:2|3:2,0:0:0:0:
405,319,13202,1,14,1:2:0:0:
334,151,13559,6,0,P|294:138|259:140,1,70,2|0,3:2|0:0,0:0:0:0:
182,172,13916,1,8,0:0:0:0:
182,172,14095,2,0,L|169:22,1,140,0|0,3:2|3:2,0:0:0:0:
79,23,14631,2,0,L|85:102,1,70,8|0,0:0|0:0,0:0:0:0:
17,154,14988,6,0,L|11:233,1,70,6|2,0:0|0:0,0:0:0:0:
89,270,15345,1,10,0:0:0:0:
89,270,15523,2,0,P|149:239|220:263,1,140,6|0,0:0|3:2,0:0:0:0:
157,329,16059,1,8,0:0:0:0:
89,270,16238,6,0,L|101:125,1,140,6|0,3:2|3:2,0:0:0:0:
148,53,16773,2,0,P|184:45|222:52,1,70,8|0,0:0|0:0,0:0:0:0:
297,93,17131,1,10,0:0:0:0:
336,174,17309,1,10,0:0:0:0:
245,167,17488,1,10,0:0:0:0:
297,93,17666,6,0,P|352:86|420:141,1,140,6|0,3:2|3:2,0:0:0:0:
501,180,18202,1,8,0:0:0:0:
501,180,18381,2,0,P|449:224|381:221,1,140,6|0,3:2|3:2,0:0:0:0:
297,184,18916,1,8,0:0:0:0:
241,257,19095,1,2,3:2:0:0:
241,257,19184,1,2,3:2:0:0:
241,257,19273,6,0,L|167:245,1,70,6|0,3:2|0:0,0:0:0:0:
83,271,19631,2,0,P|81:226|98:194,1,70,10|0,0:0|3:2,0:0:0:0:
96,162,19898,1,0,3:2:0:0:
96,162,19988,2,0,L|86:87,1,70,2|2,3:2|0:0,0:0:0:0:
175,70,20345,2,0,L|184:139,1,70,10|2,0:0|0:0,0:0:0:0:
259,189,20702,5,0,3:2:0:0:
272,98,20881,1,0,3:2:0:0:
344,159,21059,2,0,P|379:171|422:161,1,70,8|0,0:0|3:2,0:0:0:0:
502,144,21416,1,0,3:2:0:0:
502,144,21595,1,14,0:0:0:0:
449,244,21773,1,14,0:0:0:0:
449,244,22131,6,0,L|463:363,1,112,0|0,3:2|3:2,0:0:0:0:
462,355,22845,1,0,3:2:0:0:
382,382,23023,2,0,L|316:371,1,56,10|0,0:0|3:2,0:0:0:0:
271,308,23381,6,0,P|255:259|278:202,1,112,10|0,0:0|0:0,0:0:0:0:
349,164,23916,2,0,P|354:114|351:101,1,56,0|0,3:2|0:0,0:0:0:0:
304,39,24273,1,0,3:2:0:0:
304,39,24452,2,0,L|230:46,1,56,10|0,0:0|3:2,0:0:0:0:
180,94,24809,1,10,0:0:0:0:
180,94,24988,6,0,L|57:82,1,112,0|0,3:2|3:2,0:0:0:0:
68,83,25702,1,0,3:2:0:0:
20,152,25881,2,0,P|14:194|20:212,1,56,10|0,0:0|3:2,0:0:0:0:
58,280,26238,6,0,L|180:268,1,112,6|2,3:2|0:0,0:0:0:0:
230,211,26773,1,10,0:0:0:0:
288,285,26952,1,0,3:2:0:0:
288,285,27041,1,8,0:0:0:0:
288,285,27131,2,0,L|281:348,1,56,2|0,3:2|3:2,0:0:0:0:
355,382,27488,2,0,L|391:374,3,28,10|8|2|0,0:0|0:0|3:2|3:2,0:0:0:0:
427,381,27845,6,0,L|444:241,1,140,6|10,3:2|0:0,0:0:0:0:
383,173,28381,2,0,B|345:170|317:188|317:188|278:184|246:146,1,140,2|0,0:0|3:2,0:0:0:0:
219,72,28916,1,8,0:0:0:0:
133,93,29095,1,2,3:2:0:0:
133,93,29273,6,0,L|126:238,1,140,2|10,3:2|0:0,0:0:0:0:
122,323,29809,2,0,B|156:297|199:308|199:308|212:341|250:363,1,140,2|2,3:2|3:2,0:0:0:0:
323,377,30345,1,10,0:0:0:0:
345,289,30523,1,2,3:2:0:0:
431,317,30702,6,0,P|435:280|424:243,1,70,14|0,0:0|3:2,0:0:0:0:
386,167,31059,2,0,P|382:130|393:93,1,70,10|0,0:0|3:2,0:0:0:0:
339,22,31416,2,0,L|264:32,1,70,10|0,0:0|3:2,0:0:0:0:
200,89,31773,2,0,L|125:79,1,70,10|0,0:0|3:2,0:0:0:0:
59,21,32131,6,0,P|39:64|71:151,1,140,10|8,0:0|0:0,0:0:0:0:
147,189,32666,1,0,3:2:0:0:
147,189,32845,2,0,L|303:172,1,140,10|8,0:0|0:0,0:0:0:0:
369,210,33381,1,0,3:2:0:0:
441,156,33559,5,6,0:0:0:0:
441,156,33916,2,0,L|432:87,1,70,10|2,0:0|0:0,0:0:0:0:
364,24,34273,1,2,0:0:0:0:
364,24,34452,2,0,P|319:18|288:30,1,70,2|0,3:2|0:3,0:0:0:0:
233,91,34809,6,0,L|223:240,1,140,2|0,3:2|0:0,0:0:0:0:
149,284,35345,1,10,0:0:0:0:
74,232,35523,2,0,L|28:246,2,35,0|0|0,3:2|3:2|3:2,0:0:0:0:
122,154,35881,2,0,P|126:102|115:74,1,70,2|8,3:2|0:0,0:0:0:0:
194,31,36238,6,0,P|230:71|323:74,1,140,2|0,3:2|0:0,0:0:0:0:
391,35,36773,1,10,0:0:0:0:
449,105,36952,2,0,L|439:255,1,140,2|2,0:0|3:2,0:0:0:0:
472,329,37488,1,0,0:0:0:0:
372,373,37666,6,0,B|348:344|314:333|314:333|280:360|234:350,1,140,6|0,3:2|0:0,0:0:0:0:
256,261,38202,1,10,0:0:0:0:
178,302,38381,1,2,3:2:0:0:
178,302,38470,1,0,3:2:0:0:
178,302,38559,2,0,P|138:305|105:288,1,70,2|0,3:2|3:2,0:0:0:0:
39,237,38916,1,10,0:0:0:0:
39,237,39095,6,0,L|56:96,1,140,6|0,3:2|0:0,0:0:0:0:
68,7,39631,1,10,0:0:0:0:
174,114,39809,2,0,P|225:126|298:69,1,140,6|2,3:2|0:0,0:0:0:0:
338,0,40345,1,10,0:0:0:0:
446,100,40523,6,0,B|418:135|418:135|434:247,1,140,6|0,3:2|0:0,0:0:0:0:
500,288,41059,1,10,0:0:0:0:
390,354,41238,2,0,B|315:373|332:313|239:341,1,140,6|2,3:2|0:0,0:0:0:0:
174,377,41773,1,10,0:0:0:0:
174,377,41952,1,2,3:2:0:0:
102,320,42131,6,0,P|94:277|107:240,1,70,14|0,0:0|3:2,0:0:0:0:
169,192,42488,2,0,P|177:149|164:112,1,70,10|2,0:0|3:2,0:0:0:0:
153,34,42845,2,0,L|229:28,1,70,8|2,0:0|3:2,0:0:0:0:
311,76,43202,1,8,0:0:0:0:
311,76,43291,1,8,0:0:0:0:
311,76,43381,6,0,B|284:121|284:121|294:233,1,140,10|0,0:0|3:2,0:0:0:0:
352,275,43916,2,0,L|343:349,1,70,8|2,0:0|3:2,0:0:0:0:
258,376,44273,1,10,0:0:0:0:
195,309,44452,1,2,0:0:0:0:
113,349,44631,2,0,P|67:354|30:335,1,70,10|2,0:0|0:0,0:0:0:0:
3,264,44988,6,0,L|17:130,1,125.999996154785,6|2,3:2|0:0,0:0:0:0:
16,138,45702,2,0,P|57:156|90:153,1,62.9999980773926,10|2,0:0|0:0,0:0:0:0:
147,117,46059,2,0,P|165:76|162:43,1,62.9999980773926,2|2,3:2|3:2,0:0:0:0:
227,5,46416,6,0,P|259:35|352:37,1,125.999996154785,2|2,3:2|3:2,0:0:0:0:
337,42,47131,2,0,L|327:112,1,62.9999980773926,10|2,0:0|3:2,0:0:0:0:
400,142,47488,2,0,L|410:212,1,62.9999980773926,2|2,0:0|0:0,0:0:0:0:
464,264,47845,6,0,B|425:289|425:289|331:269,1,125.999996154785,2|2,3:2|0:0,0:0:0:0:
347,272,48559,2,0,P|342:314|348:345,1,62.9999980773926,10|2,0:0|0:0,0:0:0:0:
276,379,48916,2,0,P|234:374|203:380,1,62.9999980773926,2|2,3:2|3:2,0:0:0:0:
155,319,49273,6,0,L|171:191,1,125.999996154785,2|2,3:2|3:2,0:0:0:0:
239,146,49809,1,2,0:0:0:0:
239,146,49898,1,0,0:0:0:0:
239,146,49988,2,0,L|233:78,1,62.9999980773926,8|0,0:0|3:2,0:0:0:0:
291,25,50345,1,8,0:0:0:0:
291,25,50434,1,8,0:0:0:0:
291,25,50523,6,0,P|347:24|381:101,1,140,14|0,3:2|3:2,0:0:0:0:
361,180,51059,1,8,0:0:0:0:
361,180,51238,2,0,L|368:251,1,70,0|0,3:2|3:2,0:0:0:0:
299,309,51595,2,0,L|222:289,1,70,0|8,3:2|0:0,0:0:0:0:
130,222,51952,6,0,B|92:244|92:244|117:347,1,140,6|0,3:2|3:2,0:0:0:0:
33,379,52488,1,8,0:0:0:0:
0,294,52666,2,0,L|12:204,1,70,0|0,3:2|3:2,0:0:0:0:
66,153,53023,2,0,L|54:63,1,70,0|8,3:2|0:0,0:0:0:0:
169,18,53381,6,0,B|217:20|241:56|241:56|270:62|298:42,1,140,6|0,3:2|3:2,0:0:0:0:
382,28,53916,2,0,L|392:100,1,70,8|0,0:0|3:2,0:0:0:0:
467,148,54273,2,0,L|476:78,1,70,10|2,0:0|3:2,0:0:0:0:
373,190,54631,1,2,3:2:0:0:
450,237,54809,1,10,0:0:0:0:
450,237,55166,6,0,P|461:284|451:318,1,70,2|2,0:0|0:0,0:0:0:0:
381,355,55523,2,0,L|341:348,2,35,0|0|0,3:2|3:2|3:2,0:0:0:0:
305,262,55881,1,2,3:2:0:0:
305,262,56059,1,2,3:2:0:0:
243,329,56238,6,0,B|207:298|207:298|223:193,1,140,6|2,3:2|3:2,0:0:0:0:
280,138,56773,1,8,0:0:0:0:
236,69,56952,1,2,3:2:0:0:
236,69,57041,1,0,3:2:0:0:
236,69,57131,2,0,L|164:76,1,70,2|2,3:2|3:2,0:0:0:0:
100,138,57488,2,0,P|92:190|105:221,1,70,10|2,0:0|0:0,0:0:0:0:
143,284,57845,5,2,3:2:0:0:
225,246,58023,1,2,0:0:0:0:
225,246,58202,1,10,0:0:0:0:
282,316,58381,2,0,L|423:305,1,140,6|8,3:2|0:1,0:0:0:0:
511,295,58916,1,8,0:1:0:0:
450,193,59095,6,0,B|420:164|424:128|424:128|450:98|447:58,1,140,6|2,3:2|3:2,0:0:0:0:
356,63,59631,1,10,0:0:0:0:
296,131,59809,1,2,3:2:0:0:
296,131,59898,1,0,3:2:0:0:
296,131,59988,2,0,L|306:215,1,70,2|2,3:2|3:2,0:0:0:0:
244,269,60345,2,0,P|209:275|172:265,1,70,10|2,0:0|0:0,0:0:0:0:
95,224,60702,5,2,3:2:0:0:
145,147,60881,1,2,0:0:0:0:
145,147,61059,1,10,0:0:0:0:
75,88,61238,2,0,P|108:63|204:83,1,140,6|8,3:2|0:1,0:0:0:0:
271,133,61773,1,8,0:1:0:0:
234,232,61952,6,0,L|92:223,1,140,6|2,3:2|0:0,0:0:0:0:
36,293,62488,1,10,0:0:0:0:
93,375,62666,1,2,3:2:0:0:
93,375,62756,1,0,3:2:0:0:
93,375,62845,2,0,L|169:365,1,70,2|8,3:2|0:1,0:0:0:0:
242,321,63202,1,8,0:1:0:0:
332,381,63381,6,0,P|350:316|323:251,1,140,6|2,3:2|0:0,0:0:0:0:
260,185,63916,1,10,0:0:0:0:
329,127,64095,1,2,3:2:0:0:
329,127,64184,1,0,3:2:0:0:
329,127,64273,2,0,L|400:135,1,70,2|8,3:2|0:1,0:0:0:0:
478,89,64631,1,8,0:1:0:0:
428,13,64809,1,0,3:2:0:0:
428,13,64988,6,0,L|356:21,1,70,14|0,0:0|3:2,0:0:0:0:
271,47,65345,2,0,L|199:39,1,70,10|0,0:0|3:2,0:0:0:0:
141,107,65702,2,0,P|135:153|146:182,1,70,10|0,0:0|3:2,0:0:0:0:
185,254,66059,2,0,P|191:300|180:329,1,70,10|0,0:0|3:2,0:0:0:0:
103,365,66416,5,10,0:0:0:0:
35,303,66595,1,0,3:2:0:0:
91,231,66773,1,10,0:0:0:0:
35,172,66952,1,0,3:2:0:0:
35,172,67041,1,0,3:2:0:0:
35,172,67131,2,0,L|43:92,1,70,8|0,0:0|3:2,0:0:0:0:
174,48,67488,1,8,0:0:0:0:
174,48,67577,1,8,0:0:0:0:
174,48,67666,6,0,B|210:53|239:31|239:31|282:30|306:60,1,140,14|2,3:2|3:2,0:0:0:0:
343,137,68202,1,10,0:0:0:0:
432,103,68381,1,2,3:2:0:0:
432,103,68470,1,0,3:2:0:0:
432,103,68559,2,0,P|468:102|507:116,1,70,2|2,3:2|3:2,0:0:0:0:
487,202,68916,2,0,P|451:203|412:189,1,70,10|2,0:0|0:0,0:0:0:0:
343,137,69273,5,6,3:2:0:0:
267,188,69452,1,2,0:0:0:0:
267,188,69631,1,10,0:0:0:0:
199,126,69809,2,0,P|152:112|74:155,1,140,2|8,3:2|0:1,0:0:0:0:
66,243,70345,1,8,0:1:0:0:
168,304,70523,6,0,L|319:283,1,140,6|2,3:2|3:2,0:0:0:0:
388,323,71059,1,10,0:0:0:0:
466,272,71238,1,2,3:2:0:0:
466,272,71327,1,0,3:2:0:0:
466,272,71416,2,0,L|454:199,1,70,2|2,3:2|3:2,0:0:0:0:
389,141,71773,2,0,L|401:68,1,70,10|2,0:0|3:2,0:0:0:0:
329,13,72131,5,2,3:2:0:0:
268,80,72309,1,2,0:0:0:0:
268,80,72488,1,10,0:0:0:0:
191,31,72666,2,0,P|179:75|226:155,1,140,2|8,3:2|0:1,0:0:0:0:
306,189,73202,1,8,0:1:0:0:
268,272,73381,1,0,3:2:0:0:
268,272,73559,6,0,L|135:257,1,125.999996154785,6|2,3:2|0:0,0:0:0:0:
80,311,74095,2,0,P|61:247|95:190,1,125.999996154785,2|2,3:2|0:0,0:0:0:0:
158,157,74631,2,0,P|170:120|166:93,1,62.9999980773926,2|2,3:2|3:2,0:0:0:0:
143,18,74988,6,0,L|207:9,1,62.9999980773926,2|2,0:0|3:2,0:0:0:0:
267,62,75345,1,2,0:0:0:0:
328,8,75523,1,2,3:2:0:0:
391,60,75702,2,0,P|395:104|384:128,1,62.9999980773926,8|0,0:0|3:2,0:0:0:0:
310,142,76059,1,0,3:2:0:0:
310,142,76238,6,0,L|326:282,1,140,6|10,3:2|0:0,0:0:0:0:
263,346,76773,1,10,0:0:0:0:
263,346,76952,1,8,0:0:0:0:
187,294,77131,5,10,0:0:0:0:
128,362,77309,1,10,0:0:0:0:
60,303,77488,1,10,0:0:0:0:
119,235,77666,1,14,0:0:0:0:
119,235,78023,5,2,3:2:0:0:
192,180,78202,2,0,P|195:138|182:100,1,70,10|0,0:0|3:2,0:0:0:0:
248,43,78559,2,0,L|317:53,1,70,2|2,3:2|3:2,0:0:0:0:
387,110,78916,2,0,L|456:100,1,70,10|2,0:0|3:2,0:0:0:0:
512,217,79273,6,0,L|499:376,1,140,6|8,3:2|0:0,0:0:0:0:
413,383,79809,2,0,P|374:378|348:360,1,70,2|0,3:2|3:2,0:0:0:0:
290,291,80166,1,0,3:2:0:0:
290,291,80345,2,0,P|251:296|225:314,1,70,10|0,0:0|3:2,0:0:0:0:
169,384,80702,6,0,L|90:378,1,70,6|2,3:2|0:0,0:0:0:0:
38,306,81059,1,10,0:0:0:0:
38,306,81237,2,0,P|7:246|31:175,1,140,6|0,3:2|3:2,0:0:0:0:
98,237,81773,1,8,0:0:0:0:
166,176,81952,6,0,L|149:31,1,140,6|0,3:2|3:2,0:0:0:0:
234,3,82487,2,0,L|244:85,1,70,8|0,0:0|0:0,0:0:0:0:
281,155,82845,1,10,0:0:0:0:
372,162,83024,1,10,0:0:0:0:
333,81,83202,1,10,0:0:0:0:
281,155,83380,6,0,P|304:222|369:254,1,140,6|0,3:2|3:2,0:0:0:0:
456,247,83916,1,8,0:0:0:0:
456,247,84095,2,0,P|433:314|368:346,1,140,6|0,3:2|3:2,0:0:0:0:
286,320,84631,1,8,0:0:0:0:
221,383,84809,1,2,3:2:0:0:
221,383,84898,1,2,3:2:0:0:
221,383,84987,6,0,L|147:371,1,70,6|0,3:2|0:0,0:0:0:0:
98,297,85345,2,0,P|96:252|113:220,1,70,10|0,0:0|3:2,0:0:0:0:
142,202,85612,1,0,3:2:0:0:
142,202,85702,2,0,L|132:127,1,70,2|2,3:2|0:0,0:0:0:0:
222,116,86059,2,0,L|231:185,1,70,10|2,0:0|0:0,0:0:0:0:
295,249,86416,5,0,3:2:0:0:
364,189,86595,1,0,3:2:0:0:
432,248,86773,2,0,P|467:260|510:250,1,70,8|0,0:0|3:2,0:0:0:0:
478,170,87130,1,0,3:2:0:0:
478,170,87309,1,14,1:2:0:0:
345,159,87488,6,0,P|307:186|363:180,1,140,14|0,1:2|0:0,0:0:0:0:
