osu file format v14

[General]
AudioFilename: audio.mp3
AudioLeadIn: 0
PreviewTime: 51707
Countdown: 0
SampleSet: Soft
StackLeniency: 0.4
Mode: 0
LetterboxInBreaks: 0
WidescreenStoryboard: 1

[Editor]
Bookmarks: 39149
DistanceSpacing: 1
BeatDivisor: 2
GridSize: 8
TimelineZoom: 1.8

[Metadata]
Title:Act! Addict! Actors! (TV Size)
TitleUnicode:Act! Addict! Actors! (TV Size)
Artist:A3ders!
ArtistUnicode:A3ders!
Creator:arronchu1207
Version:Normal
Source:A3! SEASON SPRING & SUMMER
Tags:anime op opening japanese エースリー 佐久間 咲也 Sakuma Sakuya 酒井広大 Sakai Koudai 皇天馬 Sumeragi Tenma 江口拓也 Eguchi Takuya 摂津万里 Settsu Banri 沢城千春 Sawashiro Chiharu 月岡紬 Tsukioka Tsumugi 田丸篤志 Tamaru Atsushi ANIMATION PROJECT MANKAI Theatre Stage Liber Progressive Animation Works P.A.Works Studio 3Hz Pony Canyon Entertainment Incorporated Inc. mobile game jpop pop j-pop
BeatmapID:2322195
BeatmapSetID:1111424

[Difficulty]
HPDrainRate:3
CircleSize:3.3
OverallDifficulty:4
ApproachRate:5
SliderMultiplier:1
SliderTickRate:1

[Events]
//Background and Video events
Video,0,"op.mp4"
0,0,"ex.jpg",0,0
//Break Periods
//Storyboard Layer 0 (Background)
//Storyboard Layer 1 (Fail)
//Storyboard Layer 2 (Pass)
//Storyboard Layer 3 (Foreground)
//Storyboard Layer 4 (Overlay)
//Storyboard Sound Samples

[TimingPoints]
-617,348.837209302326,4,2,1,50,1,0
778,-111.111111111111,4,2,1,50,0,0
5661,348.837209302326,4,2,1,70,1,0
8451,-100,4,2,1,70,0,0
14033,-100,4,2,1,60,0,0
22405,-100,4,2,1,70,0,0
25195,-100,4,2,1,60,0,0
33567,-100,4,2,1,70,0,0
35661,-100,4,2,1,50,0,0
36358,-100,4,2,1,60,0,0
37056,-100,4,2,1,70,0,0
38277,-100,4,2,1,50,0,0
39149,-111.111111111111,4,2,1,60,0,0
41591,-111.111111111111,4,2,2,60,0,0
41940,-111.111111111111,4,2,1,60,0,0
47172,-111.111111111111,4,2,2,60,0,0
47521,-100,4,2,1,70,0,0
47870,-100,4,2,1,40,0,0
48219,-100,4,2,1,50,0,0
48567,-100,4,2,1,60,0,0
48916,-100,4,2,1,50,0,0
50137,-100,4,2,1,70,0,0
52405,-111.111111111111,4,2,1,50,0,0
54498,-90.9090909090909,4,2,1,80,0,1
62870,-90.9090909090909,4,2,1,60,0,1
64265,-90.9090909090909,4,2,1,80,0,1
76823,-111.111111111111,4,2,1,60,0,0
79091,-100,4,2,1,70,0,0
86416,-100,4,2,1,80,0,0

[Colours]
Combo1 : 63,63,63
Combo2 : 255,38,38
Combo3 : 255,128,0
Combo4 : 203,156,99

[HitObjects]
111,92,778,6,0,P|156:78|212:91,1,89.9999972534181,2|2,0:0|0:0,0:0:0:0:
272,134,1475,2,0,P|317:148|365:140,1,89.9999972534181,2|2,0:0|0:0,0:0:0:0:
441,107,2173,1,10,0:3:0:0:
477,283,2871,6,0,P|411:278|334:315,1,134.999995880127,2|10,0:0|0:3,0:0:0:0:
277,359,3743,1,0,0:0:0:0:
196,319,4091,2,0,B|157:196|267:177|217:48,1,269.999991760254,14|10,0:3|0:0,0:0:0:0:
184,32,5312,1,10,0:0:0:0:
91,69,5661,6,0,L|97:134,1,50,10|10,0:0|0:0,0:0:0:0:
34,197,6184,1,10,0:0:0:0:
108,263,6533,1,10,0:0:0:0:
188,322,6881,2,0,P|240:297|337:307,1,150,10|10,0:0|0:0,0:0:0:0:
423,326,7754,1,10,0:0:0:0:
477,242,8102,1,10,0:3:0:0:
425,157,8451,6,0,L|312:163,1,100,14|10,0:0|0:0,0:0:0:0:
266,80,9149,2,0,L|153:74,1,100,10|8,0:3|0:0,0:0:0:0:
116,68,9672,2,0,P|128:117|121:170,1,100,10|10,0:3|0:3,0:0:0:0:
95,208,10195,1,8,0:0:0:0:
13,266,10544,2,0,P|56:305|97:312,1,100,10|10,0:3|0:0,0:0:0:0:
183,262,11242,6,0,L|285:255,1,100,14|10,0:3|0:0,0:0:0:0:
349,329,11940,2,0,L|451:336,1,100,10|8,0:3|0:0,0:0:0:0:
491,308,12463,2,0,P|503:259|485:198,1,100,14|10,0:0|0:3,0:0:0:0:
457,175,12986,1,10,0:0:0:0:
376,115,13335,2,0,P|350:123|316:120,1,50,10|10,0:0|0:0,0:0:0:0:
281,103,13684,2,0,P|255:95|221:98,1,50,10|0,0:0|0:0,0:0:0:0:
185,113,14033,6,0,L|79:107,1,100,12|8,0:3|0:0,0:0:0:0:
13,177,14730,2,0,P|8:231|27:274,1,100,0|10,0:0|0:0,0:0:0:0:
117,311,15428,2,0,L|113:373,2,50,10|2|10,0:3|0:0|0:0,0:0:0:0:
152,276,15951,2,0,L|262:283,1,100,10|8,0:3|0:3,0:0:0:0:
301,286,16474,1,10,0:0:0:0:
394,251,16823,6,0,P|420:198|415:148,1,100,10|8,0:3|0:0,0:0:0:0:
399,111,17347,2,0,L|299:108,1,100,2|10,0:0|0:3,0:0:0:0:
248,106,17870,1,8,0:0:0:0:
153,71,18219,2,0,L|155:17,2,50,8|0|8,0:3|0:0|0:0,0:0:0:0:
118,106,18742,2,0,P|104:161|119:210,1,100,8|8,0:3|0:3,0:0:0:0:
146,240,19265,1,8,0:0:0:0:
217,310,19614,6,0,L|323:304,1,100,14|8,0:3|0:0,0:0:0:0:
409,265,20312,2,0,P|432:201|426:165,1,100,0|10,0:0|0:0,0:0:0:0:
367,90,21009,2,0,L|371:33,2,50,10|2|10,0:3|0:0|0:0,0:0:0:0:
335,129,21533,2,0,P|280:135|228:109,1,100,10|10,0:3|0:3,0:0:0:0:
208,79,22056,1,8,0:0:0:0:
126,21,22405,6,0,L|113:129,1,100,14|8,0:0|0:0,0:0:0:0:
35,181,23102,2,0,L|48:289,1,100,8|8,0:0|0:0,0:0:0:0:
54,330,23626,1,10,0:3:0:0:
54,330,23800,2,0,P|104:318|165:331,1,100,10|10,0:0|0:3,0:0:0:0:
197,344,24323,2,0,B|273:371|273:315|356:350,1,150,14|2,0:0|0:0,0:0:0:0:
442,359,25195,6,0,P|474:307|471:260,1,100,14|8,0:3|0:0,0:0:0:0:
444,173,25893,2,0,L|337:181,1,100,0|8,0:0|0:0,0:0:0:0:
253,223,26591,2,0,L|257:278,2,50,10|2|10,0:3|0:0|0:0,0:0:0:0:
212,193,27114,2,0,P|162:184|117:202,1,100,10|0,0:3|0:0,0:0:0:0:
86,241,27637,1,10,0:0:0:0:
110,338,27986,6,0,L|212:347,1,100,10|8,0:3|0:0,0:0:0:0:
246,312,28509,2,0,L|348:303,1,100,2|10,0:0|0:3,0:0:0:0:
395,297,29033,1,8,0:0:0:0:
468,229,29381,2,0,P|489:160|481:117,1,100,8|8,0:3|0:0,0:0:0:0:
464,87,29905,2,0,L|350:89,1,100,8|8,0:3|0:3,0:0:0:0:
313,90,30428,1,8,0:0:0:0:
214,105,30777,6,0,B|136:122|148:54|58:78,2,150,14|2|10,0:3|0:0|0:0,0:0:0:0:
279,180,32172,2,0,P|296:240|287:296,1,100,10|10,0:0|0:3,0:0:0:0:
275,323,32695,2,0,L|166:315,1,100,14|8,0:0|0:3,0:0:0:0:
124,311,33219,1,8,0:0:0:0:
51,242,33567,6,0,P|41:180|61:129,1,100,8|8,0:0|0:0,0:0:0:0:
126,79,34265,2,0,P|188:69|239:89,1,100,8|8,0:0|0:0,0:0:0:0:
310,128,34963,1,10,0:0:0:0:
401,87,35312,1,10,0:0:0:0:
442,178,35661,1,10,0:3:0:0:
351,219,36010,1,10,0:3:0:0:
310,128,36358,6,0,P|252:126|183:181,1,150,14|8,0:0|0:0,0:0:0:0:
172,230,37056,1,10,0:0:0:0:
193,327,37405,1,8,0:0:0:0:
193,327,37579,2,0,L|311:322,1,100,14|8,0:0|0:0,0:0:0:0:
342,319,38102,1,8,0:0:0:0:
342,319,38277,2,0,P|333:265|354:213,1,100,8|8,0:3|0:3,0:0:0:0:
387,193,38800,1,8,0:3:0:0:
475,175,39149,6,0,P|490:128|469:79,1,89.9999972534181,6|2,0:0|0:0,0:0:0:0:
458,50,39672,2,0,P|401:64|363:67,1,89.9999972534181,10|0,0:3|0:0,0:0:0:0:
333,91,40195,1,2,0:0:0:0:
333,91,40370,2,0,P|276:77|238:74,1,89.9999972534181,10|10,0:3|0:3,0:0:0:0:
159,84,41067,1,10,0:3:0:0:
159,84,41242,2,0,P|167:142|160:177,1,89.9999972534181,10|8,0:0|0:0,0:0:0:0:
84,220,41940,6,0,P|76:278|83:313,1,89.9999972534181,10|2,0:3|0:0,0:0:0:0:
111,342,42463,1,10,0:3:0:0:
188,297,42812,1,0,0:0:0:0:
256,356,43161,2,0,L|352:351,1,89.9999972534181,10|10,0:3|0:3,0:0:0:0:
390,346,43684,1,2,0:0:0:0:
456,284,44033,2,0,P|463:226|448:184,1,89.9999972534181,10|2,0:0|0:0,0:0:0:0:
368,169,44730,6,0,P|361:111|376:69,1,89.9999972534181,14|2,0:3|0:0,0:0:0:0:
385,39,45254,2,0,L|283:30,1,89.9999972534181,10|0,0:3|0:0,0:0:0:0:
252,15,45777,1,8,0:0:0:0:
252,15,45951,2,0,P|267:67|259:111,1,89.9999972534181,10|10,0:3|0:3,0:0:0:0:
226,187,46649,1,10,0:3:0:0:
226,187,46823,2,0,L|322:180,1,89.9999972534181,10|8,0:0|0:0,0:0:0:0:
326,280,47521,6,0,L|226:288,1,100,6|8,0:0|0:3,0:0:0:0:
132,324,48219,2,0,P|81:290|87:252,1,100,8|8,0:0|0:0,0:0:0:0:
113,217,48742,1,2,0:0:0:0:
113,217,48916,2,0,P|140:169|137:114,1,100,6|0,0:0|0:0,0:0:0:0:
213,56,49614,2,0,P|205:18|208:-4,2,50,8|8|8,0:3|0:3|0:3,0:0:0:0:
245,95,50137,6,0,L|348:85,1,100,14|8,0:0|0:3,0:0:0:0:
394,80,50661,1,10,0:0:0:0:
430,172,51009,1,10,0:0:0:0:
364,247,51358,1,10,0:0:0:0:
400,339,51706,1,10,0:0:0:0:
260,195,52405,6,0,P|168:199|101:262,2,179.999994506836,8|8|8,0:3|0:3|0:3,0:0:0:0:
459,190,54498,6,0,P|469:139|450:84,1,110.000003356934,10|14,0:0|0:0,0:0:0:0:
371,17,55195,1,10,0:3:0:0:
371,17,55370,2,0,L|306:25,1,55.0000016784668,10|10,0:3|0:0,0:0:0:0:
274,59,55719,2,0,L|164:46,1,110.000003356934,14|8,0:3|0:3,0:0:0:0:
110,38,56242,1,8,0:0:0:0:
63,137,56591,2,0,L|8:129,2,55.0000016784668,10|10|10,0:3|0:3|0:0,0:0:0:0:
107,168,57114,6,0,P|122:224|109:273,1,110.000003356934,14|8,0:3|0:3,0:0:0:0:
78,319,57637,1,10,0:0:0:0:
78,319,57812,2,0,L|192:314,1,110.000003356934,8|10,0:3|0:3,0:0:0:0:
297,308,58509,2,0,P|342:263|346:212,1,110.000003356934,14|8,0:3|0:3,0:0:0:0:
336,164,59033,1,8,0:0:0:0:
262,82,59381,2,0,L|267:26,2,55.0000016784668,10|8|10,0:0|0:3|0:0,0:0:0:0:
228,126,59905,6,0,L|114:116,1,110.000003356934,14|8,0:3|0:3,0:0:0:0:
74,149,60428,1,12,0:0:0:0:
58,257,60777,2,0,L|-2:259,2,55.0000016784668,10|10|10,0:3|0:3|0:0,0:0:0:0:
92,300,61300,2,0,P|142:312|199:297,1,110.000003356934,14|8,0:3|0:3,0:0:0:0:
232,254,61823,1,12,0:0:0:0:
287,159,62172,2,0,L|407:149,1,110.000003356934,10|8,0:3|0:0,0:0:0:0:
455,147,62695,1,8,0:3:0:0:
455,147,62870,6,0,P|449:217|454:257,1,110.000003356934,10|8,0:0|0:0,0:0:0:0:
390,346,63567,2,0,P|320:340|278:342,1,110.000003356934,10|10,0:0|0:0,0:0:0:0:
178,383,64265,1,10,0:0:0:0:
70,359,64614,1,10,0:0:0:0:
29,256,64963,2,0,P|26:223|29:188,1,55.0000016784668,10|8,0:3|0:0,0:0:0:0:
58,155,65312,2,0,P|91:152|126:155,1,55.0000016784668,10|8,0:0|0:0,0:0:0:0:
167,160,65661,6,0,L|183:48,1,110.000003356934,10|14,0:0|0:0,0:0:0:0:
296,52,66358,1,10,0:3:0:0:
296,52,66533,2,0,L|287:109,1,55.0000016784668,10|10,0:3|0:0,0:0:0:0:
280,160,66881,2,0,P|336:165|393:179,1,110.000003356934,14|8,0:3|0:3,0:0:0:0:
437,202,67405,1,10,0:0:0:0:
430,311,67754,2,0,L|486:304,2,55.0000016784668,10|10|10,0:3|0:3|0:0,0:0:0:0:
385,343,68277,6,0,P|325:336|272:335,1,110.000003356934,14|8,0:3|0:3,0:0:0:0:
221,346,68800,1,10,0:0:0:0:
221,346,68974,2,0,L|215:231,1,110.000003356934,8|10,0:3|0:3,0:0:0:0:
124,173,69672,1,14,0:3:0:0:
197,91,70021,1,14,0:3:0:0:
293,143,70370,1,14,0:3:0:0:
365,60,70719,1,10,0:0:0:0:
469,94,71067,6,0,P|484:155|426:235,1,165.000005035401,12|8,0:0|0:0,0:0:0:0:
323,253,71940,1,8,0:0:0:0:
323,253,72114,2,0,L|265:247,1,55.0000016784668,10|10,0:3|0:0,0:0:0:0:
223,243,72463,2,0,P|237:296|222:351,1,110.000003356934,6|10,0:0|0:0,0:0:0:0:
177,374,72986,1,8,0:0:0:0:
177,374,73161,2,0,L|62:366,1,110.000003356934,6|8,0:0|0:3,0:0:0:0:
12,362,73684,1,10,0:0:0:0:
54,260,74033,6,0,P|56:190|49:144,1,110.000003356934,14|10,0:0|0:0,0:0:0:0:
33,98,74556,2,0,P|103:100|149:93,1,110.000003356934,10|10,0:3|0:3,0:0:0:0:
233,32,75254,2,0,L|343:35,1,110.000003356934,10|8,0:3|0:3,0:0:0:0:
397,61,75777,1,14,0:0:0:0:
397,61,75951,2,0,P|411:117|396:168,1,110.000003356934,10|10,0:3|0:3,0:0:0:0:
347,190,76474,2,0,L|290:189,1,55.0000016784668,8|10,0:0|0:3,0:0:0:0:
246,168,76823,5,6,0:0:0:0:
322,312,77521,2,0,B|266:325|247:283|179:301,1,134.999995880127,2|10,0:0|0:3,0:0:0:0:
108,337,78393,1,0,0:0:0:0:
37,280,78742,2,0,P|26:229|37:187,1,89.9999972534181,10|10,0:3|0:0,0:0:0:0:
62,151,79265,2,0,L|126:157,1,50,10|10,0:0|0:0,0:0:0:0:
154,129,79614,5,10,0:0:0:0:
154,129,79788,1,10,0:0:0:0:
237,74,80137,1,10,0:0:0:0:
326,119,80486,1,10,0:0:0:0:
340,217,80835,2,0,P|349:278|296:346,1,150,14|2,0:0|0:0,0:0:0:0:
203,313,81707,2,0,L|95:321,1,100,2|14,0:0|0:3,0:0:0:0:
83,221,82405,6,0,L|182:213,1,100,14|10,0:3|0:0,0:0:0:0:
276,178,83102,2,0,P|294:125|280:75,1,100,10|8,0:3|0:0,0:0:0:0:
270,34,83626,2,0,L|382:41,1,100,10|8,0:3|0:3,0:0:0:0:
419,43,84149,1,8,0:0:0:0:
472,127,84498,2,0,P|485:184|468:228,1,100,10|10,0:3|0:0,0:0:0:0:
411,301,85195,5,10,0:3:0:0:
315,269,85544,1,10,0:0:0:0:
239,334,85893,2,0,L|128:315,1,100,10|8,0:3|0:0,0:0:0:0:
91,306,86416,5,14,0:0:0:0:
142,221,86765,1,10,0:0:0:0:
142,221,86940,1,10,0:0:0:0:
91,135,87288,1,14,0:0:0:0:
