osu file format v14

[General]
AudioFilename: audio.mp3
AudioLeadIn: 0
PreviewTime: 51707
Countdown: 0
SampleSet: Soft
StackLeniency: 0.4
Mode: 0
LetterboxInBreaks: 0
WidescreenStoryboard: 1

[Editor]
Bookmarks: 39149
DistanceSpacing: 1
BeatDivisor: 4
GridSize: 8
TimelineZoom: 1.8

[Metadata]
Title:Act! Addict! Actors! (TV Size)
TitleUnicode:Act! Addict! Actors! (TV Size)
Artist:A3ders!
ArtistUnicode:A3ders!
Creator:arronchu1207
Version:Insane
Source:A3! SEASON SPRING & SUMMER
Tags:anime op opening japanese エースリー 佐久間 咲也 Sakuma Sakuya 酒井広大 Sakai Koudai 皇天馬 Sumeragi Tenma 江口拓也 Eguchi Takuya 摂津万里 Settsu Banri 沢城千春 Sawashiro Chiharu 月岡紬 Tsukioka Tsumugi 田丸篤志 Tamaru Atsushi ANIMATION PROJECT MANKAI Theatre Stage Liber Progressive Animation Works P.A.Works Studio 3Hz Pony Canyon Entertainment Incorporated Inc. mobile game jpop pop j-pop
BeatmapID:2322194
BeatmapSetID:1111424

[Difficulty]
HPDrainRate:5
CircleSize:4.2
OverallDifficulty:8
ApproachRate:9
SliderMultiplier:1.6
SliderTickRate:1

[Events]
//Background and Video events
Video,0,"op.mp4"
0,0,"ex.jpg",0,0
//Break Periods
//Storyboard Layer 0 (Background)
//Storyboard Layer 1 (Fail)
//Storyboard Layer 2 (Pass)
//Storyboard Layer 3 (Foreground)
//Storyboard Layer 4 (Overlay)
//Storyboard Sound Samples

[TimingPoints]
-617,348.837209302326,4,2,1,60,1,0
603,-133.333333333333,4,2,1,50,0,0
778,-133.333333333333,4,2,1,60,0,0
4091,-200,4,2,1,60,0,0
5051,-200,4,2,1,5,0,0
5138,-100,4,2,1,70,0,0
5182,-100,4,2,1,5,0,0
5312,-100,4,2,1,70,0,0
5356,-100,4,2,1,5,0,0
5487,-100,4,2,1,70,0,0
5530,-100,4,2,1,5,0,0
5661,348.837209302326,4,2,1,70,1,0
12463,-76.9230769230769,4,2,1,70,0,0
12724,-76.9230769230769,4,2,1,5,0,0
12812,-76.9230769230769,4,2,1,70,0,0
12986,-100,4,2,1,70,0,0
13684,-100,4,2,1,70,0,0
14033,-125,4,2,1,60,0,0
22405,-100,4,2,1,70,0,0
25195,-125,4,2,1,60,0,0
33567,-125,4,2,1,70,0,0
33916,-125,4,2,1,70,0,0
35661,-125,4,2,1,50,0,0
36358,-90.9090909090909,4,2,1,60,0,0
36620,-90.9090909090909,4,2,1,5,0,0
36707,-90.9090909090909,4,2,1,60,0,0
37056,-125,4,2,1,70,0,0
38451,-125,4,2,1,50,0,0
39149,-125,4,2,1,60,0,0
41416,-125,4,2,2,60,0,0
41852,-125,4,2,1,5,0,0
41940,-125,4,2,1,60,0,0
44643,-125,4,2,1,5,0,0
44730,-125,4,2,1,60,0,0
46998,-125,4,2,2,60,0,0
47172,-125,4,2,1,60,0,0
47521,-125,4,2,1,70,0,0
47870,-125,4,2,1,40,0,0
48219,-125,4,2,1,50,0,0
48567,-125,4,2,1,60,0,0
48916,-125,4,2,1,50,0,0
49614,-100,4,2,1,60,0,0
50137,-100,4,2,1,70,0,0
52405,-125,4,2,1,50,0,0
52579,-125,4,2,1,5,0,0
52754,-125,4,2,1,50,0,0
52928,-125,4,2,1,5,0,0
53102,-100,4,2,1,70,0,0
54498,-100,4,2,1,80,0,1
54847,-62.5,4,2,1,80,0,1
55195,-100,4,2,1,80,0,1
59905,-125,4,2,1,80,0,1
60341,-76.9230769230769,4,2,1,80,0,1
61300,-125,4,2,1,80,0,1
61736,-76.9230769230769,4,2,1,80,0,1
62172,-100,4,2,1,80,0,1
62434,-100,4,2,1,5,0,1
62521,-100,4,2,1,80,0,1
62870,-100,4,2,1,60,0,1
63567,-100,4,2,1,70,0,1
64265,-83.3333333333333,4,2,1,80,0,1
64963,-100,4,2,1,60,0,1
65137,-100,4,2,1,70,0,1
65312,-100,4,2,1,80,0,1
65922,-100,4,2,1,5,0,1
66009,-62.5,4,2,1,80,0,1
66271,-62.5,4,2,1,5,0,1
66358,-100,4,2,1,80,0,1
69672,-76.9230769230769,4,2,1,80,0,1
69934,-76.9230769230769,4,2,1,5,0,1
70021,-76.9230769230769,4,2,1,80,0,1
70283,-76.9230769230769,4,2,1,5,0,1
70370,-76.9230769230769,4,2,1,80,0,1
70631,-76.9230769230769,4,2,1,5,0,1
70719,-76.9230769230769,4,2,1,80,0,1
71067,-100,4,2,1,80,0,1
74033,-100,4,2,1,80,0,1
76823,-125,4,2,1,60,0,0
79004,-125,4,2,1,5,0,0
79091,-100,4,2,1,70,0,0
79134,-100,4,2,1,5,0,0
79265,-100,4,2,1,70,0,0
79309,-100,4,2,1,5,0,0
79440,-100,4,2,1,70,0,0
79483,-100,4,2,1,5,0,0
79614,-100,4,2,1,70,0,0
80835,-125,4,2,1,60,0,0
81707,-66.6666666666667,4,2,1,70,0,0
82056,-76.9230769230769,4,2,1,70,0,0
82405,-100,4,2,1,70,0,0
86416,-100,4,2,1,80,0,0
86765,-83.3333333333333,4,2,1,80,0,0
87637,-100,4,2,1,5,0,0

[Colours]
Combo1 : 63,63,63
Combo2 : 255,38,38
Combo3 : 255,128,0
Combo4 : 203,156,99

[HitObjects]
145,250,638,6,0,L|139:288,2,24.0000009155274,2|2|2,0:0|0:0|0:0,0:0:0:0:
159,166,952,1,2,0:0:0:0:
313,237,1126,1,2,0:0:0:0:
229,223,1301,1,2,0:0:0:0:
298,72,1475,5,2,0:0:0:0:
282,155,1650,1,2,0:0:0:0:
131,85,1824,1,2,0:0:0:0:
215,99,1999,1,2,0:0:0:0:
68,24,2173,6,0,P|44:78|60:135,1,120.000004577637,10|0,0:3|0:0,0:0:0:0:
160,251,2871,1,2,0:0:0:0:
160,251,3045,2,0,L|157:191,1,60.0000022888184,2|0,0:0|0:0,0:0:0:0:
77,280,3394,2,0,P|113:330|168:339,1,120.000004577637,10|0,0:3|0:0,0:0:0:0:
243,289,3917,1,0,0:0:0:0:
243,289,4091,6,0,B|349:265|332:331|440:310,1,200,14|0,0:3|0:0,0:0:0:0:
512,159,5138,5,10,0:0:0:0:
396,214,5312,1,10,0:0:0:0:
408,88,5487,1,10,0:0:0:0:
512,174,5661,5,10,0:0:0:0:
295,144,5835,1,10,0:0:0:0:
221,93,6184,5,10,0:0:0:0:
149,44,6533,5,10,0:0:0:0:
29,100,6881,6,0,P|12:152|47:206,1,120,10|0,0:0|0:0,0:0:0:0:
61,209,7230,1,8,0:3:0:0:
199,138,7405,2,0,L|117:132,1,80,10|8,0:0|0:3,0:0:0:0:
290,189,7754,2,0,P|305:155|297:102,1,80,10|8,0:0|0:3,0:0:0:0:
284,79,8015,1,8,0:3:0:0:
284,79,8102,2,0,L|363:73,1,80,10|8,0:3|0:0,0:0:0:0:
453,52,8364,1,8,0:0:0:0:
456,58,8451,6,0,P|452:108|450:139,1,80,14|0,0:0|0:0,0:0:0:0:
502,296,8800,2,0,P|508:256|494:219,1,80,10|8,0:0|0:3,0:0:0:0:
422,266,9062,1,8,0:3:0:0:
414,266,9149,2,0,L|328:261,1,80,10|8,0:3|0:3,0:0:0:0:
317,162,9498,1,8,0:0:0:0:
257,309,9672,6,0,P|241:260|265:201,1,80,10|0,0:3|0:0,0:0:0:0:
317,162,10021,1,10,0:3:0:0:
491,270,10195,2,0,P|449:276|408:262,1,80,8|2,0:0|0:0,0:0:0:0:
455,184,10457,1,8,0:0:0:0:
456,177,10544,2,0,L|464:95,1,80,10|10,0:3|0:3,0:0:0:0:
396,19,10893,1,10,0:0:0:0:
253,100,11068,1,2,0:0:0:0:
253,100,11155,1,8,0:0:0:0:
253,100,11242,6,0,L|260:191,1,80,14|0,0:3|0:0,0:0:0:0:
160,257,11591,2,0,L|154:339,1,80,10|8,0:0|0:3,0:0:0:0:
79,378,11852,1,8,0:3:0:0:
73,381,11940,2,0,P|31:381|-2:360,1,80,10|8,0:3|0:3,0:0:0:0:
59,285,12288,1,8,0:0:0:0:
8,146,12463,6,0,B|46:129|86:137|86:137|117:172|170:169,1,155.999992858887,14|0,0:0|0:0,0:0:0:0:
173,163,12812,1,10,0:3:0:0:
339,284,12986,2,0,L|245:273,1,80,10|8,0:0|0:3,0:0:0:0:
124,319,13335,2,0,P|106:281|117:228,1,80,10|10,0:0|0:0,0:0:0:0:
152,168,13597,1,8,0:0:0:0:
152,168,13684,2,0,L|108:159,1,40,10|8,0:0|0:0,0:0:0:0:
40,198,13858,2,0,L|-4:207,1,40,10|8,0:0|0:0,0:0:0:0:
5,119,14033,6,0,L|12:53,1,64,12|0,0:3|0:0,0:0:0:0:
147,13,14381,2,0,L|152:78,1,64,8|0,0:0|0:0,0:0:0:0:
231,155,14730,1,0,0:0:0:0:
296,94,14905,1,10,0:3:0:0:
231,155,15079,2,0,P|225:196|233:226,1,64,10|0,0:0|0:0,0:0:0:0:
319,332,15428,6,0,P|325:291|317:261,1,64,10|2,0:3|0:0,0:0:0:0:
242,384,15777,1,10,0:0:0:0:
184,314,15951,2,0,P|126:301|65:339,1,128,10|8,0:3|0:3,0:0:0:0:
0,265,16474,1,10,0:0:0:0:
0,265,16649,1,2,0:0:0:0:
128,201,16823,6,0,P|186:182|215:116,1,128,10|8,0:3|0:0,0:0:0:0:
126,48,17347,2,0,P|124:88|127:116,1,64,2|0,0:0|0:0,0:0:0:0:
287,65,17695,2,0,P|288:37|286:2,1,64,10|8,0:3|0:0,0:0:0:0:
214,125,18044,1,2,0:0:0:0:
292,178,18219,6,0,L|357:170,1,64,8|0,0:3|0:0,0:0:0:0:
442,202,18567,1,8,0:0:0:0:
354,300,18742,2,0,P|308:270|228:281,1,128,8|8,0:3|0:3,0:0:0:0:
70,303,19265,1,8,0:0:0:0:
140,365,19440,1,2,0:0:0:0:
145,362,19527,1,0,0:0:0:0:
150,359,19614,6,0,P|154:306|161:213,1,128,14|8,0:3|0:0,0:0:0:0:
172,141,20137,2,0,P|217:168|290:159,1,128,0|8,0:0|0:3,0:0:0:0:
248,12,20661,2,0,P|241:52|244:76,1,64,10|0,0:0|0:0,0:0:0:0:
382,121,21009,5,10,0:3:0:0:
335,44,21184,1,2,0:0:0:0:
335,44,21358,1,10,0:0:0:0:
416,208,21533,2,0,P|463:170|470:97,1,128,10|10,0:3|0:3,0:0:0:0:
382,121,22056,2,0,L|312:129,1,64,8|10,0:0|0:3,0:0:0:0:
192,214,22405,5,14,0:0:0:0:
277,291,22579,1,0,0:0:0:0:
190,196,22754,5,8,0:0:0:0:
202,329,22928,1,8,0:3:0:0:
189,181,23102,5,8,0:0:0:0:
96,270,23277,1,8,0:3:0:0:
188,166,23451,5,8,0:0:0:0:
93,163,23626,1,10,0:3:0:0:
269,227,23800,5,10,0:0:0:0:
232,24,23974,1,10,0:3:0:0:
93,163,24149,1,10,0:3:0:0:
319,154,24323,1,14,0:0:0:0:
319,154,24672,6,0,L|352:150,4,20,2|2|2|2|2,0:0|0:0|0:0|0:0|0:0,0:0:0:0:
191,186,25021,1,8,0:3:0:0:
191,186,25108,1,8,0:3:0:0:
191,186,25195,6,0,P|183:221|188:254,1,64,14|0,0:3|0:0,0:0:0:0:
235,319,25457,1,2,0:0:0:0:
235,319,25544,2,0,L|299:315,1,64,8|0,0:0|0:0,0:0:0:0:
417,182,25893,1,0,0:0:0:0:
461,260,26067,2,0,P|416:272|345:235,1,128,10|0,0:3|0:0,0:0:0:0:
285,159,26591,1,10,0:3:0:0:
210,220,26765,1,2,0:0:0:0:
210,220,26940,1,10,0:0:0:0:
142,147,27114,6,0,P|151:108|125:24,1,128,10|0,0:3|0:0,0:0:0:0:
126,25,27637,1,10,0:0:0:0:
75,200,27812,2,0,P|142:187|193:217,1,128,2|0,0:0|0:0,0:0:0:0:
262,342,28335,1,8,0:0:0:0:
262,342,28509,2,0,L|270:267,1,64,2|0,0:0|0:0,0:0:0:0:
342,158,28858,2,0,L|348:227,1,64,10|8,0:3|0:0,0:0:0:0:
405,299,29207,1,2,0:0:0:0:
252,191,29381,6,0,P|186:183|135:229,1,128,8|8,0:3|0:0,0:0:0:0:
14,108,29905,1,8,0:3:0:0:
14,108,30079,2,0,L|85:115,1,64,2|8,0:0|0:3,0:0:0:0:
34,206,30428,1,8,0:0:0:0:
139,41,30602,1,8,0:3:0:0:
139,41,30690,1,8,0:3:0:0:
139,41,30777,6,0,P|168:77|257:82,1,128,14|8,0:3|0:0,0:0:0:0:
385,30,31300,2,0,B|406:9|406:9|390:132,1,128,2|8,0:0|0:3,0:0:0:0:
307,233,31823,2,0,L|304:167,1,64,10|0,0:0|0:0,0:0:0:0:
400,204,32172,5,10,0:0:0:0:
305,338,32347,1,10,0:3:0:0:
305,338,32521,1,10,0:3:0:0:
216,201,32695,2,0,P|147:191|95:232,1,128,14|8,0:0|0:3,0:0:0:0:
173,288,33219,1,8,0:0:0:0:
6,247,33393,1,8,0:0:0:0:
6,247,33480,1,8,0:0:0:0:
6,247,33567,6,0,L|14:175,1,64,8|0,0:0|0:0,0:0:0:0:
26,88,33916,1,8,0:0:0:0:
141,138,34091,1,8,0:3:0:0:
220,3,34265,5,8,0:0:0:0:
111,52,34440,1,8,0:3:0:0:
275,138,34614,2,0,P|282:94|275:69,1,64,8|8,0:0|0:3,0:0:0:0:
141,138,34963,6,0,P|138:165|146:202,1,64,10|8,0:0|0:3,0:0:0:0:
237,313,35312,2,0,L|241:246,1,64,10|8,0:0|0:3,0:0:0:0:
247,218,35573,1,8,0:3:0:0:
247,218,35661,1,10,0:3:0:0:
339,263,35835,1,8,0:3:0:0:
435,167,36009,2,0,P|437:133|443:99,1,64,10|8,0:3|0:3,0:0:0:0:
340,0,36358,6,0,P|311:45|336:126,1,132.00000402832,14|0,0:0|0:0,0:0:0:0:
339,124,36707,1,8,0:0:0:0:
229,191,36881,1,8,0:0:0:0:
335,251,37056,5,10,0:0:0:0:
227,75,37230,1,8,0:0:0:0:
333,262,37405,1,8,0:0:0:0:
229,65,37579,5,14,0:0:0:0:
229,65,37928,6,0,L|222:19,2,32,8|8|8,0:0|0:0|0:0,0:0:0:0:
141,168,38277,1,8,0:3:0:0:
57,104,38451,1,8,0:3:0:0:
57,104,38626,1,8,0:3:0:0:
57,104,38800,1,8,0:3:0:0:
148,301,39149,6,0,P|183:304|219:308,1,64,6|0,0:0|0:0,0:0:0:0:
286,234,39498,1,2,0:0:0:0:
196,189,39672,2,0,P|185:252|216:311,1,128,10|0,0:3|0:0,0:0:0:0:
318,328,40195,1,2,0:0:0:0:
350,238,40370,6,0,L|287:235,1,64,10|0,0:3|0:0,0:0:0:0:
318,328,40719,2,0,L|381:325,1,64,10|0,0:3|0:0,0:0:0:0:
427,182,41067,1,10,0:3:0:0:
427,182,41242,1,10,0:0:0:0:
286,234,41416,2,0,L|260:232,3,21.3333333333333,8|8|8|8,0:0|0:0|0:0|0:0,0:0:0:0:
286,234,41940,6,0,P|300:197|300:167,1,64,10|0,0:3|0:0,0:0:0:0:
286,72,42288,1,2,0:0:0:0:
189,120,42463,2,0,P|187:149|202:187,1,64,10|8,0:3|0:0,0:0:0:0:
286,72,42812,2,0,P|297:46|301:9,1,64,0|0,0:0|0:0,0:0:0:0:
194,16,43161,2,0,L|126:10,1,64,10|0,0:3|0:0,0:0:0:0:
50,107,43509,1,10,0:3:0:0:
50,107,43684,2,0,L|118:101,1,64,2|8,0:0|0:3,0:0:0:0:
235,126,44033,5,10,0:0:0:0:
336,239,44207,1,8,0:3:0:0:
188,273,44381,1,2,0:0:0:0:
188,273,44730,6,0,L|252:265,1,64,14|0,0:3|0:0,0:0:0:0:
394,312,45079,1,2,0:0:0:0:
319,379,45254,1,10,0:3:0:0:
319,379,45428,2,0,L|244:368,1,64,8|0,0:0|0:0,0:0:0:0:
226,366,45690,1,8,0:0:0:0:
226,366,45777,1,8,0:0:0:0:
342,277,45951,6,0,P|370:288|400:322,1,64,10|0,0:3|0:0,0:0:0:0:
251,265,46300,2,0,L|258:201,1,64,10|0,0:3|0:0,0:0:0:0:
372,97,46649,1,10,0:3:0:0:
372,97,46823,1,10,0:0:0:0:
423,169,46998,2,0,L|426:194,3,21.3333333333333,8|8|8|8,0:0|0:0|0:0|0:0,0:0:0:0:
280,122,47347,1,0,0:0:0:0:
178,226,47521,6,0,P|136:225|98:183,1,96,6|0,0:0|0:0,0:0:0:0:
97,171,47870,1,8,0:3:0:0:
110,85,48044,1,8,0:0:0:0:
5,158,48219,5,8,0:0:0:0:
29,280,48393,1,8,0:0:0:0:
178,226,48567,5,8,0:0:0:0:
227,65,48742,1,2,0:0:0:0:
227,65,48829,1,2,0:0:0:0:
227,65,48916,6,0,P|257:51|290:54,1,64,6|0,0:0|0:0,0:0:0:0:
439,187,49265,2,0,P|402:188|377:175,1,64,0|8,0:0|0:3,0:0:0:0:
355,157,49527,1,8,0:3:0:0:
355,157,49614,2,0,L|352:114,2,40,8|8|8,0:3|0:3|0:3,0:0:0:0:
305,277,49963,1,8,0:3:0:0:
195,151,50137,6,0,P|142:145|90:195,1,120,14|0,0:0|0:0,0:0:0:0:
92,205,50486,1,8,0:3:0:0:
253,318,50661,5,10,0:0:0:0:
286,178,50835,1,8,0:3:0:0:
240,314,51009,5,10,0:0:0:0:
297,181,51184,1,8,0:3:0:0:
175,246,51358,5,10,0:0:0:0:
331,265,51533,1,8,0:3:0:0:
242,84,51707,5,10,0:0:0:0:
242,84,52405,6,0,P|275:70|306:68,1,64,8|0,0:3|0:0,0:0:0:0:
162,141,52754,2,0,P|129:127|101:123,1,64,8|0,0:3|0:0,0:0:0:0:
275,187,53102,5,8,0:3:0:0:
275,187,53277,1,8,0:3:0:0:
175,246,53451,1,8,0:3:0:0:
175,246,53626,1,8,0:3:0:0:
260,320,53800,2,0,L|303:315,1,40,8|8,0:3|0:3,0:0:0:0:
432,306,53974,5,8,0:0:0:0:
438,285,54062,1,8,0:0:0:0:
441,264,54149,1,8,0:0:0:0:
438,243,54236,1,8,0:0:0:0:
431,223,54323,1,8,0:0:0:0:
420,204,54411,1,8,0:0:0:0:
404,190,54498,6,0,B|352:202|352:202|286:193,1,120,10|0,0:0|0:0,0:0:0:0:
220,136,54847,6,0,P|224:66|301:111,1,192,14|0,0:0|0:0,0:0:0:0:
285,192,55195,1,10,0:3:0:0:
142,272,55370,1,10,0:3:0:0:
77,114,55544,1,10,0:0:0:0:
228,289,55719,6,0,P|212:328|105:358,1,160,14|8,0:3|0:3,0:0:0:0:
126,193,56242,2,0,P|137:234|142:274,1,80,8|0,0:0|0:0,0:0:0:0:
22,224,56591,1,10,0:3:0:0:
160,111,56765,1,10,0:3:0:0:
5,48,56940,1,10,0:0:0:0:
176,119,57114,6,0,B|276:135|231:85|339:103,1,160,14|8,0:3|0:3,0:0:0:0:
402,0,57637,1,10,0:0:0:0:
489,63,57812,1,8,0:3:0:0:
489,63,57899,1,8,0:3:0:0:
489,63,57986,2,0,P|481:107|477:151,1,80,8|10,0:3|0:3,0:0:0:0:
371,205,58335,1,8,0:0:0:0:
401,348,58509,6,0,P|415:289|366:201,1,160,14|8,0:3|0:3,0:0:0:0:
210,110,59033,2,0,P|257:103|304:94,1,80,8|8,0:0|0:3,0:0:0:0:
368,74,59294,1,8,0:0:0:0:
376,71,59381,1,10,0:0:0:0:
266,201,59556,1,8,0:3:0:0:
234,11,59730,1,10,0:0:0:0:
256,215,59905,6,0,P|223:230|127:183,1,128,14|8,0:3|0:3,0:0:0:0:
74,136,60341,1,8,0:3:0:0:
76,128,60428,6,0,L|92:23,1,103.999995239258,12|0,0:0|0:0,0:0:0:0:
269,0,60777,1,10,0:3:0:0:
348,106,60951,1,10,0:3:0:0:
230,198,61126,1,10,0:0:0:0:
361,98,61300,6,0,P|422:86|482:119,1,128,14|8,0:3|0:3,0:0:0:0:
501,200,61736,1,8,0:3:0:0:
502,207,61823,6,0,L|513:317,1,103.999995239258,12|0,0:0|0:0,0:0:0:0:
294,260,62172,2,0,P|337:252|408:298,1,120,10|0,0:3|0:0,0:0:0:0:
451,369,62521,2,0,L|357:378,1,80,8|8,0:0|0:3,0:0:0:0:
251,341,62870,5,10,0:0:0:0:
294,260,63044,1,8,0:3:0:0:
226,346,63219,5,8,0:0:0:0:
209,224,63393,1,8,0:3:0:0:
202,349,63567,5,10,0:0:0:0:
119,201,63741,1,8,0:3:0:0:
294,260,63916,2,0,P|336:259|381:253,1,80,10|8,0:0|0:3,0:0:0:0:
196,111,64265,6,0,B|166:120|166:120|97:111,1,95.9999970703126,10|8,0:0|0:3,0:0:0:0:
26,99,64527,1,8,0:3:0:0:
26,99,64614,1,10,0:0:0:0:
219,205,64788,1,8,0:3:0:0:
142,19,64963,1,10,0:3:0:0:
58,220,65137,2,0,L|97:216,1,40,8|8,0:0|0:0,0:0:0:0:
172,307,65312,5,10,0:0:0:0:
179,326,65399,1,8,0:0:0:0:
179,344,65486,1,8,0:0:0:0:
175,360,65573,1,8,0:0:0:0:
166,373,65661,6,0,B|217:359|217:359|288:366,1,120,10|0,0:0|0:0,0:0:0:0:
367,370,66009,6,0,P|414:319|322:305,1,192,14|0,0:0|0:0,0:0:0:0:
283,365,66358,1,10,0:3:0:0:
310,158,66533,1,10,0:3:0:0:
162,244,66707,1,10,0:0:0:0:
381,220,66881,6,0,P|403:158|362:79,1,160,14|8,0:3|0:3,0:0:0:0:
230,149,67405,2,0,P|271:152|315:158,1,80,10|0,0:0|0:0,0:0:0:0:
203,33,67754,1,10,0:3:0:0:
110,181,67928,1,10,0:3:0:0:
1,63,68102,1,10,0:0:0:0:
113,4,68277,6,0,B|99:167,1,160,14|8,0:3|0:3,0:0:0:0:
203,313,68800,1,10,0:0:0:0:
288,266,68974,1,8,0:3:0:0:
288,266,69062,1,8,0:3:0:0:
288,266,69149,2,0,P|297:217|287:186,1,80,8|10,0:3|0:3,0:0:0:0:
229,113,69498,1,8,0:0:0:0:
407,180,69672,6,0,P|480:163|444:100,1,155.999992858887,14|0,0:3|0:0,0:0:0:0:
376,98,70021,2,0,B|341:81|293:88|293:88|265:117|226:112,1,155.999992858887,14|0,0:3|0:0,0:0:0:0:
145,84,70370,2,0,P|129:37|213:31,1,155.999992858887,14|0,0:3|0:0,0:0:0:0:
228,112,70719,2,0,L|219:167,1,51.999997619629,10|8,0:0|0:0,0:0:0:0:
131,272,70893,2,0,L|122:220,1,51.999997619629,8|8,0:0|0:0,0:0:0:0:
179,360,71067,6,0,P|252:380|317:329,1,160,12|8,0:0|0:3,0:0:0:0:
288,253,71504,1,8,0:3:0:0:
288,253,71591,2,0,L|369:262,1,80,8|8,0:0|0:3,0:0:0:0:
470,144,71940,2,0,L|390:150,1,80,8|10,0:0|0:3,0:0:0:0:
210,188,72288,1,10,0:0:0:0:
356,340,72463,6,0,P|360:302|370:249,1,80,6|0,0:0|0:0,0:0:0:0:
210,188,72812,1,10,0:0:0:0:
210,188,72899,1,8,0:0:0:0:
210,188,72986,1,8,0:0:0:0:
277,39,73161,2,0,P|284:78|288:118,1,80,6|0,0:0|0:0,0:0:0:0:
125,231,73509,1,8,0:3:0:0:
201,361,73684,2,0,P|213:313|207:283,1,80,10|8,0:0|0:3,0:0:0:0:
133,153,74033,6,0,P|120:198|128:238,1,80,14|8,0:0|0:3,0:0:0:0:
294,340,74381,1,10,0:0:0:0:
223,202,74556,1,10,0:3:0:0:
223,202,74643,1,8,0:3:0:0:
223,202,74730,5,10,0:0:0:0:
120,323,74905,1,10,0:3:0:0:
309,244,75079,5,8,0:0:0:0:
133,153,75254,1,10,0:3:0:0:
397,105,75428,5,8,0:0:0:0:
223,202,75603,1,8,0:3:0:0:
404,117,75777,2,0,B|429:126|429:126|501:120,1,80,14|10,0:0|0:3,0:0:0:0:
320,21,76126,5,8,0:0:0:0:
380,213,76300,1,10,0:3:0:0:
380,213,76387,1,8,0:0:0:0:
380,213,76474,1,8,0:0:0:0:
454,31,76649,1,10,0:3:0:0:
260,153,76823,5,6,0:0:0:0:
260,153,77521,5,2,0:0:0:0:
260,153,77695,2,0,L|256:216,1,64,2|0,0:0|0:0,0:0:0:0:
311,288,78044,2,0,P|278:306|192:281,1,128,10|0,0:3|0:0,0:0:0:0:
156,167,78567,1,0,0:0:0:0:
340,199,78742,2,0,P|378:219|403:271,1,96,10|0,0:3|0:0,0:0:0:0:
401,300,79091,5,10,0:0:0:0:
255,216,79265,1,10,0:0:0:0:
413,125,79440,1,10,0:0:0:0:
311,288,79614,5,10,0:0:0:0:
343,68,79788,1,10,0:0:0:0:
263,22,80137,5,10,0:0:0:0:
195,80,80486,5,10,0:0:0:0:
243,164,80661,1,8,0:3:0:0:
243,164,80748,1,8,0:3:0:0:
243,164,80835,2,0,P|263:231|230:295,1,128,14|0,0:0|0:0,0:0:0:0:
145,368,81358,2,0,L|77:360,1,64,2|0,0:0|0:0,0:0:0:0:
60,227,81707,6,0,P|30:262|77:251,1,120.000004577637,2|8,0:0|0:3,0:0:0:0:
101,235,81969,1,8,0:3:0:0:
101,235,82056,2,0,B|112:129,1,103.999995239258,14|0,0:3|0:0,0:0:0:0:
157,40,82405,6,0,P|199:27|240:42,1,80,14|0,0:3|0:0,0:0:0:0:
347,138,82754,2,0,P|308:127|264:140,1,80,10|8,0:0|0:3,0:0:0:0:
203,184,83015,1,8,0:3:0:0:
204,192,83102,2,0,P|208:229|213:281,1,80,10|8,0:3|0:3,0:0:0:0:
222,367,83451,1,8,0:0:0:0:
376,255,83626,6,0,P|441:257|472:296,1,80,10|0,0:3|0:0,0:0:0:0:
472,355,83974,1,8,0:3:0:0:
296,302,84149,2,0,L|288:220,1,80,8|8,0:0|0:3,0:0:0:0:
281,142,84411,1,8,0:3:0:0:
281,133,84498,2,0,P|315:118|359:133,1,80,10|10,0:3|0:3,0:0:0:0:
418,207,84847,1,10,0:0:0:0:
342,384,85021,1,10,0:0:0:0:
342,384,85108,1,8,0:0:0:0:
342,384,85195,6,0,L|248:379,1,80,10|0,0:3|0:0,0:0:0:0:
111,297,85544,2,0,L|193:289,1,80,10|8,0:0|0:3,0:0:0:0:
290,181,85893,1,10,0:3:0:0:
186,86,86067,5,8,0:0:0:0:
151,65,86155,1,8,0:0:0:0:
111,62,86242,1,8,0:0:0:0:
74,78,86329,1,8,0:0:0:0:
53,112,86416,1,14,0:0:0:0:
53,112,86765,5,10,0:0:0:0:
145,265,86940,2,0,L|134:164,1,95.9999970703126,10|2,0:0|0:0,0:0:0:0:
12,299,87288,2,0,P|12:376|90:332,1,191.999994140625,14|0,0:0|0:0,0:0:0:0:
