osu file format v14

[General]
AudioFilename: audio.mp3
AudioLeadIn: 0
PreviewTime: 51707
Countdown: 0
SampleSet: Soft
StackLeniency: 0.4
Mode: 0
LetterboxInBreaks: 0
WidescreenStoryboard: 1

[Editor]
Bookmarks: 39149
DistanceSpacing: 1.3
BeatDivisor: 4
GridSize: 8
TimelineZoom: 1.8

[Metadata]
Title:Act! Addict! Actors! (TV Size)
TitleUnicode:Act! Addict! Actors! (TV Size)
Artist:A3ders!
ArtistUnicode:A3ders!
Creator:arronchu1207
Version:Hard
Source:A3! SEASON SPRING & SUMMER
Tags:anime op opening japanese エースリー 佐久間 咲也 Sakuma Sakuya 酒井広大 Sakai Koudai 皇天馬 Sumeragi Tenma 江口拓也 Eguchi Takuya 摂津万里 Settsu Banri 沢城千春 Sawashiro Chiharu 月岡紬 Tsukioka Tsumugi 田丸篤志 Tamaru Atsushi ANIMATION PROJECT MANKAI Theatre Stage Liber Progressive Animation Works P.A.Works Studio 3Hz Pony Canyon Entertainment Incorporated Inc. mobile game jpop pop j-pop
BeatmapID:2322193
BeatmapSetID:1111424

[Difficulty]
HPDrainRate:4
CircleSize:3.8
OverallDifficulty:6
ApproachRate:8
SliderMultiplier:1.4
SliderTickRate:1

[Events]
//Background and Video events
Video,0,"op.mp4"
0,0,"ex.jpg",0,0
//Break Periods
//Storyboard Layer 0 (Background)
//Storyboard Layer 1 (Fail)
//Storyboard Layer 2 (Pass)
//Storyboard Layer 3 (Foreground)
//Storyboard Layer 4 (Overlay)
//Storyboard Sound Samples

[TimingPoints]
-617,348.837209302326,4,2,1,50,1,0
778,-100,4,2,1,50,0,0
2173,-100,4,2,1,50,0,0
4092,-200,4,2,1,50,0,0
4964,-100,4,2,1,50,0,0
5661,348.837209302326,4,2,1,70,1,0
8451,-100,4,2,1,70,0,0
14033,-100,4,2,1,60,0,0
22405,-100,4,2,1,70,0,0
25195,-100,4,2,1,60,0,0
33567,-100,4,2,1,70,0,0
35661,-100,4,2,1,50,0,0
36358,-100,4,2,1,60,0,0
37056,-100,4,2,1,70,0,0
38277,-100,4,2,1,50,0,0
39149,-133.333333333333,4,2,1,60,0,0
41591,-133.333333333333,4,2,2,60,0,0
41940,-133.333333333333,4,2,1,60,0,0
47172,-133.333333333333,4,2,2,60,0,0
47521,-100,4,2,1,70,0,0
47870,-100,4,2,1,40,0,0
48219,-100,4,2,1,50,0,0
48567,-100,4,2,1,60,0,0
48916,-100,4,2,1,50,0,0
50137,-100,4,2,1,70,0,0
52405,-100,4,2,1,50,0,0
54498,-100,4,2,1,80,0,1
62870,-100,4,2,1,60,0,1
64265,-100,4,2,1,80,0,1
69672,-83.3333333333333,4,2,1,80,0,1
71067,-100,4,2,1,80,0,1
76823,-100,4,2,1,60,0,0
79091,-100,4,2,1,70,0,0
86416,-100,4,2,1,80,0,0

[Colours]
Combo1 : 63,63,63
Combo2 : 255,38,38
Combo3 : 255,128,0
Combo4 : 203,156,99

[HitObjects]
254,38,778,6,0,P|278:23|323:22,1,70,2|2,0:0|0:0,0:0:0:0:
386,81,1126,2,0,P|386:109|367:145,1,70,2|2,0:0|0:0,0:0:0:0:
277,163,1475,2,0,L|282:233,1,70,2|2,0:0|0:0,0:0:0:0:
363,274,1824,2,0,L|360:344,1,70,2|2,0:0|0:0,0:0:0:0:
271,368,2173,6,0,P|209:370|159:315,1,140,10|0,0:3|0:0,0:0:0:0:
291,192,2871,2,0,L|296:121,2,70,2|2|0,0:0|0:0|0:0,0:0:0:0:
215,82,3394,2,0,P|254:40|339:42,1,140,10|0,0:3|0:0,0:0:0:0:
395,104,3917,1,0,0:0:0:0:
291,192,4092,6,0,B|197:217|209:146|115:186,1,175,14|0,0:3|0:0,0:0:0:0:
41,224,5138,2,0,P|38:181|31:139,2,70,10|10|10,0:0|0:0|0:0,0:0:0:0:
98,301,5661,5,10,0:0:0:0:
98,301,5835,1,10,0:0:0:0:
268,365,6184,1,10,0:0:0:0:
369,213,6533,1,10,0:0:0:0:
201,282,6881,6,0,P|148:278|99:207,1,140,10|8,0:0|0:3,0:0:0:0:
191,129,7405,2,0,P|193:169|184:199,1,70,10|8,0:0|0:3,0:0:0:0:
91,123,7754,2,0,P|85:93|90:55,1,70,10|8,0:0|0:3,0:0:0:0:
166,4,8102,2,0,L|238:11,1,70,10|8,0:3|0:0,0:0:0:0:
274,44,8364,1,8,0:0:0:0:
274,44,8451,6,0,L|417:34,2,140,14|10|10,0:0|0:0|0:3,0:0:0:0:
209,108,9323,2,0,P|202:150|211:180,1,70,8|8,0:3|0:0,0:0:0:0:
272,241,9672,6,0,P|324:227|400:264,1,140,10|10,0:3|0:3,0:0:0:0:
436,345,10195,1,8,0:0:0:0:
356,380,10370,1,2,0:0:0:0:
356,380,10457,1,8,0:0:0:0:
356,380,10544,2,0,L|285:373,1,70,10|10,0:3|0:3,0:0:0:0:
215,315,10893,2,0,L|144:322,1,70,10|2,0:0|0:0,0:0:0:0:
103,323,11155,1,8,0:0:0:0:
103,323,11242,6,0,P|125:270|105:192,2,140,14|10|10,0:3|0:0|0:3,0:0:0:0:
19,360,12114,2,0,P|9:316|15:293,1,70,8|8,0:3|0:0,0:0:0:0:
105,192,12463,6,0,L|91:40,1,140,14|10,0:0|0:3,0:0:0:0:
169,3,12986,1,10,0:0:0:0:
229,71,13161,1,8,0:3:0:0:
308,28,13335,2,0,P|344:25|384:43,1,70,10|10,0:0|0:0,0:0:0:0:
410,66,13597,1,8,0:0:0:0:
410,66,13684,2,0,L|405:107,3,35,10|0|0|8,0:0|0:0|0:0|0:0,0:0:0:0:
379,138,14033,6,0,L|386:211,1,70,12|0,0:3|0:0,0:0:0:0:
449,271,14381,2,0,P|394:245|313:287,1,140,8|0,0:0|0:0,0:0:0:0:
272,348,14905,1,10,0:3:0:0:
191,306,15079,2,0,L|197:237,1,70,10|0,0:0|0:0,0:0:0:0:
265,175,15428,5,10,0:3:0:0:
226,94,15602,1,2,0:0:0:0:
226,94,15777,1,10,0:0:0:0:
143,131,15951,2,0,P|79:136|30:71,1,140,10|8,0:3|0:3,0:0:0:0:
117,45,16474,1,10,0:0:0:0:
117,45,16649,1,2,0:0:0:0:
143,131,16823,6,0,L|130:271,1,140,10|8,0:3|0:0,0:0:0:0:
200,329,17347,2,0,P|250:299|333:324,1,140,2|10,0:0|0:3,0:0:0:0:
400,369,17870,2,0,P|415:338|413:299,1,70,8|2,0:0|0:0,0:0:0:0:
356,232,18219,5,8,0:3:0:0:
425,173,18393,1,0,0:0:0:0:
425,173,18567,1,8,0:0:0:0:
370,99,18742,2,0,L|224:111,1,140,8|8,0:3|0:3,0:0:0:0:
171,40,19265,2,0,P|137:47|96:37,1,70,8|2,0:0|0:0,0:0:0:0:
66,22,19527,1,0,0:0:0:0:
66,22,19614,6,0,P|73:91|79:162,1,140,14|8,0:3|0:0,0:0:0:0:
145,224,20137,2,0,P|84:198|22:240,1,140,0|8,0:0|0:3,0:0:0:0:
70,313,20661,2,0,P|62:356|75:386,1,70,10|0,0:0|0:0,0:0:0:0:
152,340,21009,5,10,0:3:0:0:
239,380,21184,1,2,0:0:0:0:
239,380,21358,1,10,0:0:0:0:
227,289,21533,2,0,P|268:265|359:294,1,140,10|10,0:3|0:3,0:0:0:0:
402,364,22056,2,0,L|470:352,1,70,8|10,0:0|0:3,0:0:0:0:
507,268,22405,6,0,P|512:222|504:201,1,70,14|0,0:0|0:0,0:0:0:0:
419,166,22754,2,0,P|413:195|422:237,1,70,8|8,0:0|0:3,0:0:0:0:
491,107,23102,2,0,P|468:87|428:74,1,70,8|8,0:0|0:3,0:0:0:0:
359,133,23451,2,0,P|381:152|421:165,1,70,8|10,0:0|0:3,0:0:0:0:
503,200,23800,5,10,0:0:0:0:
473,288,23974,1,10,0:3:0:0:
473,288,24149,1,10,0:3:0:0:
389,251,24323,2,0,P|344:231|262:269,1,140,14|2,0:0|0:0,0:0:0:0:
215,342,24847,1,2,0:0:0:0:
139,297,25021,1,8,0:3:0:0:
139,297,25108,1,8,0:3:0:0:
139,297,25195,6,0,L|144:226,1,70,14|0,0:3|0:0,0:0:0:0:
92,151,25544,1,8,0:0:0:0:
92,151,25719,2,0,P|141:183|239:152,1,140,0|10,0:0|0:3,0:0:0:0:
255,87,26242,2,0,L|332:98,1,70,8|0,0:0|0:0,0:0:0:0:
414,84,26591,5,10,0:3:0:0:
387,173,26765,1,2,0:0:0:0:
387,173,26940,1,10,0:0:0:0:
473,200,27114,2,0,P|499:251|482:334,1,140,10|0,0:3|0:0,0:0:0:0:
401,368,27637,2,0,P|368:355|320:347,1,70,10|2,0:0|0:0,0:0:0:0:
248,379,27986,6,0,P|242:299|234:222,1,140,10|8,0:3|0:0,0:0:0:0:
150,208,28509,2,0,P|134:171|138:134,1,70,2|0,0:0|0:0,0:0:0:0:
166,55,28858,2,0,P|205:40|232:43,1,70,10|8,0:3|0:0,0:0:0:0:
314,93,29207,1,2,0:0:0:0:
314,93,29381,6,0,L|384:88,2,70,8|0|8,0:3|0:0|0:0,0:0:0:0:
245,154,29905,2,0,P|239:205|281:283,1,140,8|8,0:3|0:3,0:0:0:0:
368,298,30428,2,0,P|376:333|364:368,1,70,8|8,0:0|0:3,0:0:0:0:
326,384,30690,1,8,0:3:0:0:
326,384,30777,6,0,L|175:369,1,140,14|8,0:3|0:0,0:0:0:0:
95,359,31300,2,0,P|110:316|83:221,1,140,2|8,0:0|0:3,0:0:0:0:
24,160,31823,2,0,P|16:126|21:90,1,70,10|0,0:0|0:0,0:0:0:0:
88,30,32172,5,10,0:0:0:0:
159,94,32347,1,10,0:3:0:0:
159,94,32521,1,10,0:3:0:0:
224,31,32695,2,0,P|277:22|342:77,1,140,14|8,0:0|0:3,0:0:0:0:
348,164,33219,1,8,0:0:0:0:
253,183,33393,1,8,0:0:0:0:
253,183,33480,1,8,0:0:0:0:
253,183,33567,6,0,L|262:108,1,70,8|0,0:0|0:0,0:0:0:0:
317,258,33916,2,0,L|308:333,1,70,8|8,0:0|0:3,0:0:0:0:
227,368,34265,1,8,0:0:0:0:
173,294,34440,1,8,0:3:0:0:
106,355,34614,2,0,P|70:360|24:331,1,70,8|8,0:0|0:3,0:0:0:0:
85,268,34963,6,0,P|73:233|76:200,1,70,10|8,0:0|0:3,0:0:0:0:
149,146,35312,2,0,P|161:111|158:72,1,70,10|8,0:0|0:3,0:0:0:0:
225,15,35661,2,0,L|295:9,1,70,10|8,0:3|0:3,0:0:0:0:
360,71,36009,2,0,L|430:79,1,70,10|8,0:3|0:3,0:0:0:0:
500,189,36358,6,0,P|512:258|483:324,1,140,14|8,0:0|0:0,0:0:0:0:
402,352,36881,1,8,0:0:0:0:
402,352,37056,2,0,L|331:343,1,70,10|8,0:0|0:0,0:0:0:0:
247,376,37405,1,8,0:0:0:0:
177,268,37579,6,0,P|134:237|41:259,1,140,14|8,0:0|0:0,0:0:0:0:
19,281,38015,1,8,0:0:0:0:
19,281,38102,2,0,P|13:242|15:212,1,70,8|8,0:0|0:3,0:0:0:0:
61,133,38451,2,0,P|67:94|65:64,2,70,8|8|8,0:3|0:3|0:3,0:0:0:0:
61,133,39149,6,0,P|113:109|161:128,1,105.000004005432,6|2,0:0|0:0,0:0:0:0:
215,174,39672,2,0,L|320:166,1,105.000004005432,10|0,0:3|0:0,0:0:0:0:
373,107,40195,1,2,0:0:0:0:
442,144,40370,2,0,P|448:173|446:197,1,52.5000020027161,10|0,0:3|0:0,0:0:0:0:
386,247,40719,2,0,P|380:276|379:299,1,52.5000020027161,10|0,0:3|0:0,0:0:0:0:
440,355,41067,1,10,0:3:0:0:
440,355,41242,2,0,P|398:343|348:373,1,105.000004005432,10|8,0:0|0:0,0:0:0:0:
348,372,41940,6,0,L|291:366,1,52.5000020027161,10|0,0:3|0:0,0:0:0:0:
221,358,42288,1,2,0:0:0:0:
221,358,42463,2,0,P|238:305|230:254,1,105.000004005432,10|0,0:3|0:0,0:0:0:0:
190,195,42986,1,0,0:0:0:0:
190,195,43161,2,0,L|137:197,1,52.5000020027161,10|0,0:3|0:0,0:0:0:0:
82,141,43509,2,0,L|30:138,1,52.5000020027161,10|2,0:3|0:0,0:0:0:0:
16,64,43858,1,8,0:3:0:0:
16,64,44033,2,0,P|13:35|19:8,2,52.5000020027161,10|8|2,0:0|0:3|0:0,0:0:0:0:
16,64,44730,6,0,L|12:120,1,52.5000020027161,14|0,0:3|0:0,0:0:0:0:
58,186,45079,1,2,0:0:0:0:
58,186,45254,2,0,L|62:242,1,52.5000020027161,10|8,0:3|0:0,0:0:0:0:
85,313,45602,2,0,L|80:355,2,26.2500010013581,0|8|8,0:0|0:0|0:0,0:0:0:0:
154,275,45951,2,0,P|189:267|205:269,1,52.5000020027161,10|0,0:3|0:0,0:0:0:0:
259,326,46300,2,0,P|285:328|313:322,1,52.5000020027161,10|0,0:3|0:0,0:0:0:0:
381,284,46649,1,10,0:3:0:0:
381,284,46823,2,0,P|371:236|382:179,1,105.000004005432,10|8,0:0|0:0,0:0:0:0:
443,132,47347,1,0,0:0:0:0:
356,72,47521,6,0,L|205:83,1,140,6|8,0:0|0:3,0:0:0:0:
136,126,48044,1,8,0:0:0:0:
136,126,48219,2,0,P|124:90|127:58,2,70,8|8|8,0:0|0:0|0:0,0:0:0:0:
213,191,48742,1,2,0:0:0:0:
213,191,48829,1,2,0:0:0:0:
213,191,48916,6,0,P|224:223|222:258,1,70,6|0,0:0|0:0,0:0:0:0:
183,341,49265,2,0,L|110:332,1,70,0|8,0:0|0:3,0:0:0:0:
76,314,49527,1,8,0:3:0:0:
76,314,49614,2,0,L|36:319,2,35,8|8|8,0:3|0:3|0:3,0:0:0:0:
128,239,49963,1,8,0:3:0:0:
16,186,50137,6,0,P|-1:138|27:56,1,140,14|8,0:0|0:3,0:0:0:0:
108,11,50661,2,0,L|177:16,1,70,10|8,0:0|0:3,0:0:0:0:
235,86,51009,2,0,L|305:80,1,70,10|8,0:0|0:3,0:0:0:0:
389,114,51358,2,0,P|397:74|389:43,1,70,10|8,0:0|0:3,0:0:0:0:
309,177,51707,5,10,0:0:0:0:
309,177,52405,6,0,P|312:128|392:117,1,140,8|8,0:3|0:3,0:0:0:0:
365,294,53102,2,0,L|373:367,1,70,8|8,0:3|0:3,0:0:0:0:
281,373,53451,2,0,L|273:303,1,70,8|8,0:3|0:3,0:0:0:0:
209,238,53800,1,8,0:3:0:0:
148,306,53974,1,8,0:0:0:0:
148,306,54062,1,8,0:0:0:0:
148,306,54149,2,0,L|103:301,3,35,8|8|8|8,0:0|0:0|0:0|0:0,0:0:0:0:
67,296,54498,6,0,P|88:246|74:158,1,140,10|14,0:0|0:0,0:0:0:0:
27,85,55021,1,0,0:0:0:0:
97,27,55195,1,10,0:3:0:0:
97,27,55370,2,0,L|167:31,1,70,10|10,0:3|0:0,0:0:0:0:
306,25,55719,6,0,P|294:69|317:160,1,140,14|8,0:3|0:3,0:0:0:0:
396,201,56242,2,0,L|467:193,1,70,8|0,0:0|0:0,0:0:0:0:
511,272,56591,1,10,0:3:0:0:
466,350,56765,1,10,0:3:0:0:
466,350,56940,1,10,0:0:0:0:
342,289,57114,6,0,P|286:278|220:333,1,140,14|8,0:3|0:3,0:0:0:0:
143,291,57637,1,10,0:0:0:0:
143,291,57812,2,0,L|149:212,1,70,8|8,0:3|0:3,0:0:0:0:
73,169,58161,2,0,L|68:97,1,70,10|8,0:3|0:0,0:0:0:0:
189,20,58509,6,0,P|241:17|291:81,1,140,14|8,0:3|0:3,0:0:0:0:
284,173,59033,1,8,0:0:0:0:
373,141,59207,1,8,0:3:0:0:
373,141,59294,1,8,0:0:0:0:
373,141,59381,2,0,P|409:139|443:148,1,70,10|8,0:0|0:3,0:0:0:0:
503,214,59730,1,10,0:0:0:0:
408,322,59905,6,0,B|386:291|348:289|348:289|318:311|267:309,1,140,14|8,0:3|0:3,0:0:0:0:
248,287,60341,1,8,0:3:0:0:
248,287,60428,2,0,P|260:246|258:217,1,70,12|0,0:0|0:0,0:0:0:0:
181,169,60777,1,10,0:3:0:0:
181,169,60951,2,0,P|140:181|111:179,1,70,10|10,0:3|0:0,0:0:0:0:
275,98,61300,6,0,P|327:89|399:143,1,140,14|8,0:3|0:3,0:0:0:0:
411,183,61736,1,8,0:3:0:0:
411,183,61823,2,0,L|405:262,1,70,12|0,0:0|0:0,0:0:0:0:
396,343,62172,2,0,B|322:350|340:311|260:324,1,140,10|8,0:3|0:0,0:0:0:0:
180,369,62695,1,8,0:3:0:0:
107,268,62870,6,0,L|112:199,1,70,10|8,0:0|0:3,0:0:0:0:
185,143,63219,2,0,L|180:74,1,70,8|8,0:0|0:3,0:0:0:0:
317,25,63567,2,0,P|359:24|386:34,1,70,10|8,0:0|0:3,0:0:0:0:
443,103,63916,2,0,P|444:145|434:172,1,70,10|8,0:0|0:3,0:0:0:0:
349,283,64265,6,0,L|278:274,1,70,10|8,0:0|0:3,0:0:0:0:
244,302,64527,1,8,0:3:0:0:
244,302,64614,2,0,L|173:311,1,70,10|8,0:0|0:3,0:0:0:0:
84,325,64963,1,10,0:3:0:0:
70,239,65137,1,8,0:0:0:0:
66,235,65224,1,8,0:0:0:0:
62,231,65312,2,0,P|55:209|58:184,3,35,10|8|8|8,0:0|0:0|0:0|0:0,0:0:0:0:
75,156,65661,6,0,P|136:178|205:142,1,140,10|14,0:0|0:0,0:0:0:0:
232,61,66184,1,0,0:0:0:0:
313,110,66358,1,10,0:3:0:0:
313,110,66533,2,0,L|393:103,1,70,10|10,0:3|0:0,0:0:0:0:
482,197,66881,6,0,P|497:242|458:320,1,140,14|8,0:3|0:3,0:0:0:0:
382,373,67405,2,0,L|310:362,1,70,10|0,0:0|0:0,0:0:0:0:
260,287,67754,1,10,0:3:0:0:
185,334,67928,1,10,0:3:0:0:
185,334,68102,1,10,0:0:0:0:
105,225,68277,6,0,P|97:162|155:118,1,140,14|8,0:3|0:3,0:0:0:0:
239,93,68800,1,10,0:0:0:0:
294,176,68974,1,8,0:3:0:0:
294,176,69062,1,8,0:3:0:0:
294,176,69149,2,0,L|363:170,1,70,8|10,0:3|0:3,0:0:0:0:
439,229,69498,1,8,0:0:0:0:
439,229,69672,6,0,P|446:271|435:311,1,83.9999974365235,14|0,0:3|0:0,0:0:0:0:
344,372,70021,2,0,L|258:362,1,83.9999974365235,14|0,0:3|0:0,0:0:0:0:
153,339,70370,2,0,P|146:297|155:256,1,83.9999974365235,14|0,0:3|0:0,0:0:0:0:
246,189,70719,2,0,L|289:195,3,41.9999987182618,10|8|8|8,0:0|0:0|0:0|0:0,0:0:0:0:
332,200,71067,6,0,P|355:154|333:55,1,140,12|8,0:0|0:3,0:0:0:0:
272,9,71591,2,0,L|202:12,1,70,8|8,0:0|0:3,0:0:0:0:
96,90,71940,2,0,L|165:97,1,70,8|10,0:0|0:3,0:0:0:0:
193,183,72288,1,10,0:0:0:0:
19,161,72463,6,0,P|1:127|13:28,1,140,6|10,0:0|0:0,0:0:0:0:
99,2,72986,1,8,0:0:0:0:
204,90,73161,2,0,L|184:231,1,140,6|8,0:0|0:3,0:0:0:0:
166,318,73684,2,0,P|210:335|237:330,1,70,10|8,0:0|0:3,0:0:0:0:
369,312,74033,6,0,L|446:318,1,70,14|8,0:0|0:3,0:0:0:0:
454,228,74381,2,0,L|383:224,1,70,10|10,0:0|0:3,0:0:0:0:
342,220,74643,1,8,0:3:0:0:
342,220,74730,2,0,P|333:178|338:147,1,70,10|10,0:0|0:3,0:0:0:0:
398,84,75079,1,8,0:0:0:0:
339,13,75254,1,10,0:3:0:0:
256,51,75428,6,0,L|186:46,1,70,8|8,0:0|0:3,0:0:0:0:
102,83,75777,2,0,P|93:120|100:153,1,70,14|10,0:0|0:3,0:0:0:0:
167,213,76126,1,8,0:0:0:0:
128,297,76300,1,10,0:3:0:0:
128,297,76387,1,8,0:0:0:0:
128,297,76474,1,8,0:0:0:0:
193,359,76649,1,10,0:3:0:0:
270,268,76823,5,6,0:0:0:0:
270,268,77521,2,0,P|302:266|342:274,2,70,2|2|0,0:0|0:0|0:0,0:0:0:0:
370,356,78044,2,0,P|410:327|421:238,1,140,10|0,0:3|0:0,0:0:0:0:
358,176,78567,1,0,0:0:0:0:
270,268,78742,2,0,P|196:270|121:274,1,140,10|10,0:3|0:0,0:0:0:0:
44,242,79265,2,0,P|25:202|30:155,1,70,10|10,0:0|0:0,0:0:0:0:
50,73,79614,5,10,0:0:0:0:
50,73,79788,1,10,0:0:0:0:
209,160,80137,1,10,0:0:0:0:
44,242,80486,1,10,0:0:0:0:
105,322,80661,5,8,0:3:0:0:
105,322,80748,1,8,0:3:0:0:
105,322,80835,2,0,P|167:338|230:297,1,140,14|0,0:0|0:0,0:0:0:0:
311,262,81358,2,0,P|330:223|330:195,1,70,2|0,0:0|0:0,0:0:0:0:
270,128,81707,2,0,P|251:89|251:61,1,70,2|8,0:0|0:3,0:0:0:0:
274,25,81969,1,8,0:3:0:0:
274,25,82056,2,0,L|200:35,1,70,14|0,0:3|0:0,0:0:0:0:
52,59,82405,6,0,P|39:108|74:191,2,140,14|10|10,0:3|0:0|0:3,0:0:0:0:
163,169,83277,2,0,P|164:202|146:242,1,70,8|8,0:3|0:0,0:0:0:0:
71,281,83626,2,0,P|144:276|196:328,1,140,10|8,0:3|0:3,0:0:0:0:
264,372,84149,1,8,0:0:0:0:
332,311,84323,1,8,0:3:0:0:
332,311,84411,1,8,0:3:0:0:
332,311,84498,2,0,P|344:277|334:237,1,70,10|10,0:3|0:3,0:0:0:0:
265,188,84847,2,0,P|259:153|268:120,1,70,10|10,0:0|0:0,0:0:0:0:
295,84,85108,1,8,0:0:0:0:
295,84,85195,6,0,L|222:88,1,70,10|0,0:3|0:0,0:0:0:0:
154,29,85544,2,0,L|82:23,1,70,10|8,0:0|0:3,0:0:0:0:
21,89,85893,1,10,0:3:0:0:
86,151,86067,2,0,P|92:171|90:192,3,35,8|8|8|8,0:0|0:0|0:0|0:0,0:0:0:0:
70,226,86416,1,14,0:0:0:0:
223,375,86765,5,10,0:0:0:0:
223,375,86940,2,0,P|256:384|294:377,1,70,10|2,0:0|0:0,0:0:0:0:
374,308,87288,1,14,0:0:0:0:
