osu file format v14

[General]
AudioFilename: audio.mp3
AudioLeadIn: 0
PreviewTime: 51707
Countdown: 0
SampleSet: Soft
StackLeniency: 0.2
Mode: 0
LetterboxInBreaks: 0
WidescreenStoryboard: 0

[Editor]
Bookmarks: 39149
DistanceSpacing: 1
BeatDivisor: 4
GridSize: 8
TimelineZoom: 1.8

[Metadata]
Title:Act! Addict! Actors! (TV Size)
TitleUnicode:Act! Addict! Actors! (TV Size)
Artist:A3ders!
ArtistUnicode:A3ders!
Creator:arronchu1207
Version:Blooming!
Source:A3! SEASON SPRING & SUMMER
Tags:anime op opening japanese エースリー 佐久間 咲也 Sakuma Sakuya 酒井広大 Sakai Koudai 皇天馬 Sumeragi Tenma 江口拓也 Eguchi Takuya 摂津万里 Settsu Banri 沢城千春 Sawashiro Chiharu 月岡紬 Tsukioka Tsumugi 田丸篤志 Tamaru Atsushi ANIMATION PROJECT MANKAI Theatre Stage Liber Progressive Animation Works P.A.Works Studio 3Hz Pony Canyon Entertainment Incorporated Inc. mobile game jpop pop j-pop
BeatmapID:2322191
BeatmapSetID:1111424

[Difficulty]
HPDrainRate:6
CircleSize:4.3
OverallDifficulty:8.6
ApproachRate:9.3
SliderMultiplier:1.8
SliderTickRate:1

[Events]
//Background and Video events
Video,0,"op.mp4"
0,0,"ex.jpg",0,0
//Break Periods
//Storyboard Layer 0 (Background)
//Storyboard Layer 1 (Fail)
//Storyboard Layer 2 (Pass)
//Storyboard Layer 3 (Foreground)
//Storyboard Layer 4 (Overlay)
//Storyboard Sound Samples

[TimingPoints]
-617,348.837209302326,4,2,1,60,1,0
603,-133.333333333333,4,2,1,50,0,0
778,-133.333333333333,4,2,1,60,0,0
4091,-222.222222222222,4,2,1,60,0,0
5051,-222.222222222222,4,2,1,5,0,0
5138,-100,4,2,1,70,0,0
5182,-100,4,2,1,5,0,0
5312,-100,4,2,1,70,0,0
5356,-100,4,2,1,5,0,0
5487,-100,4,2,1,70,0,0
5530,-100,4,2,1,5,0,0
5661,348.837209302326,4,2,1,70,1,0
7143,-100,4,2,1,5,0,0
7230,-100,4,2,1,70,0,0
8451,-100,4,2,1,70,0,0
12463,-76.9230769230769,4,2,1,70,0,0
13335,-83.3333333333333,4,2,1,50,0,0
13509,-90.9090909090909,4,2,1,60,0,0
13684,-100,4,2,1,70,0,0
14033,-133.333333333333,4,2,1,60,0,0
22405,-90.9090909090909,4,2,1,70,0,0
22666,-90.9090909090909,4,2,1,5,0,0
22754,-90.9090909090909,4,2,1,70,0,0
25195,-133.333333333333,4,2,1,60,0,0
33567,-133.333333333333,4,2,1,70,0,0
35661,-133.333333333333,4,2,1,50,0,0
36358,-133.333333333333,4,2,1,60,0,0
37056,-133.333333333333,4,2,1,70,0,0
37579,-100,4,2,1,70,0,0
38451,-133.333333333333,4,2,1,50,0,0
39062,-133.333333333333,4,2,1,5,0,0
39149,-133.333333333333,4,2,1,60,0,0
41416,-133.333333333333,4,2,2,60,0,0
41852,-133.333333333333,4,2,1,5,0,0
41940,-133.333333333333,4,2,1,60,0,0
44643,-133.333333333333,4,2,1,5,0,0
44730,-133.333333333333,4,2,1,60,0,0
46998,-133.333333333333,4,2,2,60,0,0
47172,-133.333333333333,4,2,1,60,0,0
47521,-133.333333333333,4,2,1,70,0,0
47783,-133.333333333333,4,2,1,5,0,0
47870,-133.333333333333,4,2,1,40,0,0
48219,-133.333333333333,4,2,1,50,0,0
48567,-133.333333333333,4,2,1,60,0,0
48916,-133.333333333333,4,2,1,50,0,0
49614,-100,4,2,1,60,0,0
50137,-100,4,2,1,70,0,0
51707,-200,4,2,1,70,0,0
52405,-133.333333333333,4,2,1,50,0,0
52579,-133.333333333333,4,2,1,5,0,0
52754,-133.333333333333,4,2,1,50,0,0
52928,-133.333333333333,4,2,1,5,0,0
53102,-100,4,2,1,70,0,0
54498,-100,4,2,1,80,0,1
54847,-62.5,4,2,1,80,0,1
55195,-100,4,2,1,80,0,1
57637,-76.9230769230769,4,2,1,80,0,1
57986,-100,4,2,1,80,0,1
59905,-125,4,2,1,80,0,1
60341,-76.9230769230769,4,2,1,80,0,1
61300,-125,4,2,1,80,0,1
61736,-76.9230769230769,4,2,1,80,0,1
62172,-100,4,2,1,80,0,1
62434,-100,4,2,1,5,0,1
62521,-100,4,2,1,80,0,1
62870,-100,4,2,1,60,0,1
63567,-100,4,2,1,70,0,1
64265,-100,4,2,1,80,0,1
64963,-76.9230769230769,4,2,1,60,0,1
65137,-76.9230769230769,4,2,1,70,0,1
65312,-100,4,2,1,80,0,1
66009,-62.5,4,2,1,80,0,1
66881,-100,4,2,1,80,0,1
68800,-76.9230769230769,4,2,1,80,0,1
69149,-100,4,2,1,80,0,1
69672,-76.9230769230769,4,2,1,80,0,1
69934,-76.9230769230769,4,2,1,5,0,1
70021,-76.9230769230769,4,2,1,80,0,1
70283,-76.9230769230769,4,2,1,5,0,1
70370,-76.9230769230769,4,2,1,80,0,1
70631,-76.9230769230769,4,2,1,5,0,1
70719,-76.9230769230769,4,2,1,80,0,1
71067,-100,4,2,1,80,0,1
73422,-100,4,2,1,5,0,1
73509,-100,4,2,1,80,0,1
76823,-125,4,2,1,60,0,0
79004,-125,4,2,1,5,0,0
79091,-100,4,2,1,70,0,0
79134,-100,4,2,1,5,0,0
79265,-100,4,2,1,70,0,0
79309,-100,4,2,1,5,0,0
79440,-100,4,2,1,70,0,0
79483,-100,4,2,1,5,0,0
79614,-100,4,2,1,70,0,0
80835,-125,4,2,1,60,0,0
81707,-76.9230769230769,4,2,1,70,0,0
82405,-100,4,2,1,70,0,0
86416,-83.3333333333333,4,2,1,80,0,0
87637,-100,4,2,1,5,0,0

[Colours]
Combo1 : 63,63,63
Combo2 : 255,38,38
Combo3 : 255,128,0
Combo4 : 203,156,99

[HitObjects]
167,141,638,6,0,L|126:147,2,27.0000010299683,2|2|2,0:0|0:0|0:0,0:0:0:0:
251,129,952,1,2,0:0:0:0:
211,263,1126,1,2,0:0:0:0:
126,254,1301,1,2,0:0:0:0:
251,129,1475,5,2,0:0:0:0:
277,210,1650,1,2,0:0:0:0:
126,254,1824,1,2,0:0:0:0:
100,173,1999,1,2,0:0:0:0:
277,210,2173,6,0,P|290:251|252:332,1,135.000005149842,10|0,0:3|0:0,0:0:0:0:
92,167,2871,1,2,0:0:0:0:
92,167,3045,2,0,L|160:174,1,67.5000025749208,2|0,0:0|0:0,0:0:0:0:
17,221,3394,2,0,P|1:159|34:94,1,135.000005149842,10|0,0:3|0:0,0:0:0:0:
120,45,3917,1,0,0:0:0:0:
159,173,4091,6,0,B|210:198|265:168|265:168|317:138|374:160,1,222.74999320221,14|0,0:3|0:0,0:0:0:0:
413,180,5138,6,0,L|417:207,1,22.5,10|0,0:0|0:0,0:0:0:0:
504,259,5313,6,0,L|500:286,1,22.5,10|0,0:0|0:0,0:0:0:0:
355,341,5487,6,0,L|359:368,1,22.5,10|0,0:0|0:0,0:0:0:0:
152,301,5661,5,10,0:0:0:0:
330,253,5835,1,10,0:0:0:0:
348,173,6184,5,10,0:0:0:0:
366,93,6533,5,10,0:0:0:0:
295,49,6881,6,0,P|250:47|194:113,1,135,10|0,0:0|0:0,0:0:0:0:
201,155,7230,1,8,0:3:0:0:
366,93,7405,2,0,P|378:47|365:1,1,90,10|8,0:0|0:3,0:0:0:0:
295,158,7754,6,0,L|301:252,1,90,10|8,0:0|0:3,0:0:0:0:
277,287,8015,1,8,0:3:0:0:
277,287,8102,2,0,P|322:273|365:287,1,90,10|8,0:3|0:0,0:0:0:0:
410,359,8364,1,8,0:0:0:0:
410,359,8451,6,0,L|500:348,1,90,14|0,0:0|0:0,0:0:0:0:
512,166,8800,2,0,L|423:152,1,90,10|8,0:0|0:3,0:0:0:0:
354,193,9062,1,8,0:3:0:0:
354,193,9149,2,0,P|366:151|354:105,1,90,10|8,0:3|0:3,0:0:0:0:
293,41,9498,1,8,0:0:0:0:
276,216,9672,6,0,P|307:262|386:270,1,135,10|0,0:3|0:0,0:0:0:0:
423,254,10021,1,10,0:3:0:0:
359,363,10195,2,0,P|313:351|262:346,1,90,8|2,0:0|0:0,0:0:0:0:
229,354,10457,1,8,0:0:0:0:
229,354,10544,5,10,0:3:0:0:
125,375,10719,1,10,0:3:0:0:
104,271,10893,1,10,0:0:0:0:
208,250,11067,1,2,0:0:0:0:
208,250,11155,1,8,0:0:0:0:
208,250,11242,6,0,L|301:256,1,90,14|0,0:3|0:0,0:0:0:0:
392,102,11591,2,0,L|298:107,1,90,10|8,0:0|0:3,0:0:0:0:
235,150,11852,1,8,0:3:0:0:
235,150,11940,2,0,P|245:104|230:58,1,90,10|8,0:3|0:3,0:0:0:0:
159,11,12288,1,8,0:0:0:0:
72,222,12463,6,0,B|114:189|166:196|166:196|195:233|248:230,1,175.499991966248,14|0,0:0|0:0,0:0:0:0:
308,197,12812,1,10,0:3:0:0:
439,254,12986,2,0,L|434:376,1,116.999994644165,10|8,0:0|0:3,0:0:0:0:
230,229,13335,2,0,L|227:170,1,53.9999983520508,10|0,0:0|0:0,0:0:0:0:
267,361,13509,1,10,0:0:0:0:
246,369,13596,1,8,0:0:0:0:
225,372,13683,1,10,0:0:0:0:
203,371,13771,1,8,0:0:0:0:
182,364,13857,1,10,0:0:0:0:
163,353,13945,1,8,0:0:0:0:
148,339,14033,6,0,P|142:302|152:268,1,67.5000025749208,12|0,0:3|0:0,0:0:0:0:
80,216,14381,2,0,P|86:179|76:144,1,67.5000025749208,8|0,0:0|0:0,0:0:0:0:
45,70,14730,1,0,0:0:0:0:
191,130,14905,1,10,0:3:0:0:
249,62,15079,2,0,L|317:59,1,67.5000025749208,10|0,0:0|0:0,0:0:0:0:
485,137,15428,5,10,0:3:0:0:
385,188,15602,1,2,0:0:0:0:
494,118,15777,1,10,0:0:0:0:
502,281,15951,2,0,P|448:266|376:303,1,135.000005149842,10|8,0:3|0:3,0:0:0:0:
346,384,16474,1,10,0:0:0:0:
246,302,16649,1,2,0:0:0:0:
354,207,16823,6,0,B|360:161|360:161|350:129|350:129|358:71,1,135.000005149842,10|8,0:3|0:0,0:0:0:0:
500,117,17347,2,0,P|460:118|426:123,1,67.5000025749208,2|0,0:0|0:0,0:0:0:0:
274,175,17695,2,0,P|234:174|200:169,1,67.5000025749208,10|8,0:3|0:0,0:0:0:0:
131,127,18044,1,2,0:0:0:0:
18,220,18219,6,0,L|25:293,1,67.5000025749208,8|0,0:3|0:0,0:0:0:0:
33,376,18567,1,8,0:0:0:0:
177,293,18742,2,0,B|245:281|239:334|323:316,1,135.000005149842,8|8,0:3|0:3,0:0:0:0:
348,215,19265,1,8,0:0:0:0:
461,263,19440,1,2,0:0:0:0:
461,263,19527,1,0,0:0:0:0:
461,263,19614,6,0,P|482:218|471:136,1,135.000005149842,14|8,0:3|0:0,0:0:0:0:
421,62,20137,2,0,B|379:79|379:79|270:63,1,135.000005149842,0|8,0:0|0:3,0:0:0:0:
152,19,20661,2,0,L|223:14,1,67.5000025749208,10|0,0:0|0:0,0:0:0:0:
198,140,21009,5,10,0:3:0:0:
82,89,21184,1,2,0:0:0:0:
215,148,21358,1,10,0:0:0:0:
106,265,21533,2,0,P|101:226|109:191,1,67.5000025749208,10|0,0:3|0:0,0:0:0:0:
235,236,21881,2,0,P|239:267|235:302,1,67.5000025749208,10|8,0:3|0:0,0:0:0:0:
150,369,22230,1,10,0:3:0:0:
321,343,22405,6,0,P|330:281|320:195,1,148.50000453186,14|0,0:0|0:0,0:0:0:0:
293,174,22754,1,8,0:0:0:0:
468,234,22928,1,8,0:3:0:0:
233,114,23102,5,8,0:0:0:0:
404,73,23277,1,8,0:3:0:0:
211,200,23451,5,8,0:0:0:0:
401,275,23625,1,10,0:3:0:0:
150,138,23800,5,10,0:0:0:0:
404,73,23974,1,10,0:3:0:0:
247,296,24149,1,10,0:3:0:0:
131,47,24323,1,14,0:0:0:0:
131,47,24672,6,0,L|135:12,4,24.7500007553101,2|2|2|2|2,0:0|0:0|0:0|0:0|0:0,0:0:0:0:
123,186,25021,1,8,0:3:0:0:
123,186,25108,1,8,0:3:0:0:
123,186,25195,6,0,P|154:196|191:193,1,67.5000025749208,14|0,0:3|0:0,0:0:0:0:
221,170,25457,1,2,0:0:0:0:
221,170,25544,2,0,L|288:174,1,67.5000025749208,8|0,0:0|0:0,0:0:0:0:
305,286,25893,1,0,0:0:0:0:
390,211,26067,2,0,P|395:178|388:135,1,67.5000025749208,10|8,0:3|0:0,0:0:0:0:
360,36,26416,1,0,0:0:0:0:
459,103,26591,5,10,0:3:0:0:
390,211,26765,1,2,0:0:0:0:
466,89,26940,1,10,0:0:0:0:
301,131,27114,2,0,P|257:124|165:115,1,135.000005149842,10|0,0:3|0:0,0:0:0:0:
99,217,27637,1,10,0:0:0:0:
157,284,27812,1,2,0:0:0:0:
277,244,27986,6,0,P|323:248|347:331,1,135.000005149842,10|8,0:3|0:0,0:0:0:0:
240,384,28509,2,0,L|234:315,1,67.5000025749208,2|0,0:0|0:0,0:0:0:0:
274,179,28858,2,0,P|283:214|273:253,1,67.5000025749208,10|8,0:3|0:0,0:0:0:0:
251,95,29207,1,2,0:0:0:0:
251,95,29381,6,0,B|324:78|315:133|397:114,1,135.000005149842,8|8,0:3|0:0,0:0:0:0:
503,159,29905,1,8,0:3:0:0:
503,159,30079,2,0,P|505:187|493:226,1,67.5000025749208,2|8,0:0|0:3,0:0:0:0:
439,300,30428,1,8,0:0:0:0:
334,239,30602,1,8,0:3:0:0:
334,239,30690,1,8,0:3:0:0:
334,239,30777,6,0,B|286:233|286:233|261:251|261:251|206:242,1,135.000005149842,14|8,0:3|0:0,0:0:0:0:
99,228,31300,2,0,P|74:169|92:102,1,135.000005149842,2|8,0:0|0:3,0:0:0:0:
234,156,31823,2,0,L|166:160,1,67.5000025749208,10|0,0:0|0:0,0:0:0:0:
251,60,32172,5,10,0:0:0:0:
330,211,32347,1,10,0:3:0:0:
240,51,32521,1,10,0:3:0:0:
412,141,32695,6,0,P|434:185|402:283,1,135.000005149842,14|8,0:0|0:3,0:0:0:0:
230,346,33219,1,8,0:0:0:0:
258,219,33393,1,8,0:0:0:0:
258,219,33480,1,8,0:0:0:0:
258,219,33567,6,0,P|290:213|331:210,1,67.5000025749208,8|0,0:0|0:0,0:0:0:0:
451,370,33916,1,8,0:0:0:0:
230,346,34091,1,8,0:3:0:0:
491,222,34265,5,8,0:0:0:0:
270,246,34440,1,8,0:3:0:0:
476,128,34614,5,8,0:0:0:0:
255,104,34789,1,8,0:3:0:0:
493,31,34963,6,0,L|420:39,1,67.5000025749208,10|8,0:0|0:3,0:0:0:0:
255,104,35312,2,0,L|328:112,1,67.5000025749208,10|8,0:0|0:3,0:0:0:0:
362,117,35573,1,8,0:3:0:0:
362,117,35661,1,10,0:3:0:0:
462,190,35835,1,8,0:3:0:0:
474,284,36009,1,10,0:3:0:0:
421,347,36184,1,8,0:3:0:0:
407,357,36358,6,0,P|362:327|305:336,1,101.250003862381,14|0,0:0|0:0,0:0:0:0:
281,356,36707,1,8,0:0:0:0:
328,178,36881,1,8,0:0:0:0:
156,204,37056,5,10,0:0:0:0:
379,276,37230,1,8,0:0:0:0:
224,70,37405,1,8,0:0:0:0:
107,313,37579,6,0,P|38:287|33:191,1,180,14|8,0:0|0:0,0:0:0:0:
70,162,38015,1,8,0:0:0:0:
70,162,38102,1,8,0:0:0:0:
216,137,38277,1,8,0:3:0:0:
316,256,38451,5,8,0:3:0:0:
400,286,38626,1,8,0:3:0:0:
469,230,38800,2,0,P|492:247|476:207,1,101.250003862381,8|0,0:3|0:0,0:0:0:0:
455,205,39149,6,0,L|460:128,1,67.5000025749208,6|0,0:0|0:0,0:0:0:0:
466,51,39498,1,2,0:0:0:0:
386,90,39672,1,10,0:3:0:0:
278,26,39847,2,0,P|234:29|206:33,1,67.5000025749208,8|0,0:0|0:0,0:0:0:0:
135,74,40195,1,2,0:0:0:0:
196,139,40370,6,0,L|192:209,1,67.5000025749208,10|0,0:3|0:0,0:0:0:0:
128,336,40719,2,0,L|124:268,1,67.5000025749208,10|0,0:3|0:0,0:0:0:0:
293,157,41067,1,10,0:3:0:0:
192,206,41242,1,10,0:0:0:0:
261,288,41416,2,0,L|265:321,2,22.5000008583069,8|8|8,0:0|0:0|0:0,0:0:0:0:
281,259,41591,2,0,P|333:248|388:261,1,101.250003862381,8|0,0:0|0:0,0:0:0:0:
449,290,41940,6,0,L|453:220,1,67.5000025749208,10|0,0:3|0:0,0:0:0:0:
508,156,42288,1,2,0:0:0:0:
460,79,42463,1,10,0:3:0:0:
349,143,42637,2,0,P|310:143|278:129,1,67.5000025749208,8|0,0:0|0:0,0:0:0:0:
224,52,42986,1,0,0:0:0:0:
142,113,43161,6,0,L|151:188,1,67.5000025749208,10|0,0:3|0:0,0:0:0:0:
64,289,43509,1,10,0:3:0:0:
64,289,43684,2,0,L|70:221,1,67.5000025749208,2|8,0:0|0:3,0:0:0:0:
243,179,44033,1,10,0:0:0:0:
173,298,44207,2,0,L|178:257,1,33.7500012874604,8|0,0:3|0:0,0:0:0:0:
257,344,44381,2,0,P|304:325|358:331,1,101.250003862381,2|0,0:0|0:0,0:0:0:0:
429,356,44730,6,0,P|440:319|442:289,1,67.5000025749208,14|0,0:3|0:0,0:0:0:0:
392,204,45079,1,2,0:0:0:0:
304,225,45254,1,10,0:3:0:0:
226,129,45428,2,0,L|229:58,1,67.5000025749208,8|0,0:0|0:0,0:0:0:0:
230,19,45690,1,8,0:0:0:0:
230,19,45777,1,8,0:0:0:0:
144,45,45951,6,0,P|106:48|76:41,1,67.5000025749208,10|0,0:3|0:0,0:0:0:0:
7,142,46300,2,0,P|43:133|75:136,1,67.5000025749208,10|0,0:3|0:0,0:0:0:0:
157,283,46649,1,10,0:3:0:0:
48,217,46823,1,10,0:0:0:0:
157,148,46998,2,0,L|160:117,2,22.5000008583069,8|8|8,0:0|0:0|0:0,0:0:0:0:
177,174,47172,2,0,P|220:184|250:179,1,67.5000025749208,8|0,0:0|0:0,0:0:0:0:
369,134,47521,6,0,P|417:134|455:167,1,101.250003862381,6|0,0:0|0:0,0:0:0:0:
459,247,47870,1,8,0:3:0:0:
351,217,48044,1,8,0:0:0:0:
456,168,48219,5,8,0:0:0:0:
326,218,48393,1,8,0:0:0:0:
372,41,48567,5,8,0:0:0:0:
250,262,48742,1,2,0:0:0:0:
250,262,48829,1,2,0:0:0:0:
250,262,48916,6,0,P|237:220|242:194,1,67.5000025749208,6|0,0:0|0:0,0:0:0:0:
372,41,49265,2,0,P|374:75|356:108,1,67.5000025749208,0|8,0:0|0:3,0:0:0:0:
288,133,49527,1,8,0:3:0:0:
288,133,49614,2,0,L|238:115,1,45,8|8,0:3|0:3,0:0:0:0:
152,75,49788,1,8,0:3:0:0:
298,11,49963,1,8,0:3:0:0:
122,154,50137,6,0,P|81:123|75:42,1,135,14|0,0:0|0:0,0:0:0:0:
97,11,50486,1,8,0:3:0:0:
238,104,50661,5,10,0:0:0:0:
212,287,50835,1,8,0:3:0:0:
357,73,51009,5,10,0:0:0:0:
338,321,51184,1,8,0:3:0:0:
477,40,51358,5,10,0:0:0:0:
463,348,51533,1,8,0:3:0:0:
275,30,51707,5,10,0:0:0:0:
269,11,52405,6,0,P|239:7|201:2,1,67.5000025749208,8|0,0:3|0:0,0:0:0:0:
347,84,52754,2,0,P|379:79|417:76,1,67.5000025749208,8|0,0:3|0:0,0:0:0:0:
255,178,53102,5,8,0:3:0:0:
148,140,53277,1,8,0:3:0:0:
230,276,53451,1,8,0:3:0:0:
337,238,53626,1,8,0:3:0:0:
233,371,53800,2,0,L|187:362,1,45,8|8,0:3|0:3,0:0:0:0:
37,347,53974,5,8,0:0:0:0:
30,315,54061,1,8,0:0:0:0:
34,286,54148,1,8,0:0:0:0:
46,256,54236,1,8,0:0:0:0:
55,228,54323,1,8,0:0:0:0:
59,196,54410,1,8,0:0:0:0:
53,168,54498,6,0,B|91:160|91:160|118:168|118:168|145:151|188:158,1,135,10|0,0:0|0:0,0:0:0:0:
328,155,54847,6,0,P|243:123|261:222,1,216,14|0,0:0|0:0,0:0:0:0:
326,240,55195,1,10,0:3:0:0:
484,87,55370,1,10,0:3:0:0:
262,29,55544,1,10,0:0:0:0:
451,245,55719,6,0,P|496:188|483:85,1,180,14|8,0:3|0:3,0:0:0:0:
361,0,56242,2,0,P|358:46|354:89,1,90,8|0,0:0|0:0,0:0:0:0:
175,125,56591,1,10,0:3:0:0:
267,1,56765,1,10,0:3:0:0:
363,175,56940,1,10,0:0:0:0:
89,158,57114,6,0,P|93:82|188:35,1,180,14|8,0:3|0:3,0:0:0:0:
258,78,57550,1,8,0:3:0:0:
258,85,57637,2,0,B|262:132|262:132|259:139|259:139|265:204,1,116.999994644165,10|8,0:0|0:3,0:0:0:0:
272,288,57899,1,8,0:3:0:0:
272,288,57986,1,8,0:3:0:0:
71,358,58161,1,10,0:3:0:0:
175,220,58335,1,8,0:0:0:0:
242,380,58509,6,0,B|332:400|321:337|426:358,1,180,14|8,0:3|0:3,0:0:0:0:
352,123,59033,2,0,P|333:165|342:212,1,90,8|8,0:0|0:3,0:0:0:0:
423,179,59294,1,8,0:0:0:0:
423,179,59381,2,0,L|524:165,1,90,10|8,0:0|0:3,0:0:0:0:
473,341,59730,1,10,0:0:0:0:
312,299,59905,6,0,P|272:265|190:297,1,144,14|8,0:3|0:3,0:0:0:0:
147,365,60341,1,8,0:3:0:0:
143,371,60428,6,0,B|90:362|90:362|77:355|77:355|15:345,1,116.999994644165,12|0,0:0|0:0,0:0:0:0:
4,187,60777,1,10,0:3:0:0:
101,96,60951,1,10,0:3:0:0:
277,207,61126,1,10,0:0:0:0:
381,30,61300,6,0,P|440:18|464:87,1,144,14|8,0:3|0:3,0:0:0:0:
410,150,61736,1,8,0:3:0:0:
410,157,61823,6,0,B|414:209|414:209|417:214|417:214|422:278,1,116.999994644165,12|0,0:0|0:0,0:0:0:0:
288,375,62172,2,0,P|245:377|190:306,1,135,10|0,0:3|0:0,0:0:0:0:
230,234,62521,2,0,P|277:241|323:245,1,90,8|8,0:0|0:3,0:0:0:0:
170,110,62870,5,10,0:0:0:0:
101,342,63044,1,8,0:3:0:0:
11,41,63219,5,8,0:0:0:0:
40,279,63393,1,8,0:3:0:0:
159,5,63567,5,10,0:0:0:0:
111,231,63742,1,8,0:3:0:0:
307,37,63916,5,10,0:0:0:0:
259,263,64091,1,8,0:3:0:0:
78,102,64265,5,10,0:0:0:0:
403,16,64440,1,8,0:3:0:0:
403,16,64527,1,8,0:3:0:0:
403,16,64614,5,10,0:0:0:0:
260,341,64788,1,8,0:3:0:0:
186,29,64963,6,0,P|179:52|175:91,1,58.4999973220826,10|8,0:3|0:3,0:0:0:0:
373,187,65137,2,0,P|373:167|361:126,1,58.4999973220826,8|8,0:0|0:0,0:0:0:0:
129,235,65312,5,10,0:0:0:0:
122,284,65399,1,8,0:0:0:0:
142,329,65486,1,8,0:0:0:0:
182,357,65573,1,8,0:0:0:0:
233,362,65661,6,0,B|270:366|270:366|297:353|297:353|328:368|368:353,1,135,10|0,0:0|0:0,0:0:0:0:
413,245,66009,6,0,P|414:320|332:261,1,216,14|0,0:0|0:0,0:0:0:0:
344,185,66358,1,10,0:3:0:0:
423,1,66533,1,10,0:3:0:0:
257,79,66707,1,10,0:0:0:0:
440,107,66881,6,0,B|349:114|363:54|264:74,1,180,14|8,0:3|0:3,0:0:0:0:
82,36,67405,2,0,P|123:22|173:18,1,90,10|0,0:0|0:0,0:0:0:0:
267,73,67754,1,10,0:3:0:0:
184,189,67928,1,10,0:3:0:0:
354,298,68102,1,10,0:0:0:0:
126,384,68277,6,0,P|82:384|25:274,1,180,14|8,0:3|0:3,0:0:0:0:
79,213,68713,1,8,0:0:0:0:
84,218,68800,2,0,B|127:215|127:215|133:219|133:219|203:215,1,116.999994644165,10|8,0:0|0:3,0:0:0:0:
283,211,69062,1,8,0:3:0:0:
283,211,69149,1,8,0:3:0:0:
147,89,69323,1,10,0:3:0:0:
109,304,69498,1,8,0:0:0:0:
151,68,69672,6,0,B|186:74|213:66|213:66|242:88|242:88|276:70|322:82,1,175.499991966248,14|0,0:3|0:0,0:0:0:0:
396,120,70021,2,0,B|434:169|406:229|406:229|378:213|346:221,1,175.499991966248,14|0,0:3|0:0,0:0:0:0:
266,200,70370,2,0,B|230:230|230:285|230:285|190:307|153:290,1,175.499991966248,14|0,0:3|0:0,0:0:0:0:
65,255,70719,1,10,0:0:0:0:
28,218,70806,1,8,0:0:0:0:
17,167,70893,1,8,0:0:0:0:
31,117,70980,1,8,0:0:0:0:
69,82,71067,6,0,B|108:76|134:92|134:92|166:82|166:82|201:105|249:91,1,180,12|8,0:0|0:3,0:0:0:0:
327,60,71504,1,8,0:3:0:0:
327,60,71591,2,0,P|334:95|313:150,1,90,8|8,0:0|0:3,0:0:0:0:
194,297,71940,5,8,0:0:0:0:
242,92,72114,1,10,0:3:0:0:
354,265,72288,1,10,0:0:0:0:
154,152,72463,6,0,L|143:59,1,90,6|0,0:0|0:0,0:0:0:0:
238,212,72812,1,10,0:0:0:0:
238,212,72899,1,8,0:0:0:0:
238,212,72986,1,8,0:0:0:0:
343,3,73161,6,0,L|339:99,1,90,6|0,0:0|0:0,0:0:0:0:
243,45,73509,1,8,0:3:0:0:
436,144,73684,2,0,P|451:92|430:47,1,90,10|8,0:0|0:3,0:0:0:0:
274,185,74033,5,14,0:0:0:0:
505,221,74207,1,8,0:3:0:0:
337,375,74381,5,10,0:0:0:0:
320,89,74556,1,10,0:3:0:0:
320,89,74643,1,8,0:3:0:0:
320,89,74730,5,10,0:0:0:0:
74,235,74905,1,10,0:3:0:0:
401,223,75079,5,8,0:0:0:0:
146,90,75254,1,10,0:3:0:0:
246,344,75428,5,8,0:0:0:0:
410,78,75602,1,8,0:3:0:0:
236,359,75777,6,0,L|231:270,1,90,14|10,0:0|0:3,0:0:0:0:
410,78,76126,2,0,P|428:118|422:162,1,90,8|10,0:0|0:3,0:0:0:0:
374,228,76387,1,8,0:0:0:0:
374,228,76474,1,8,0:0:0:0:
251,26,76649,1,10,0:3:0:0:
53,137,76823,5,6,0:0:0:0:
53,137,77521,5,2,0:0:0:0:
53,137,77695,2,0,L|48:65,1,72,2|0,0:0|0:0,0:0:0:0:
129,189,78044,2,0,P|98:221|-1:215,1,144,10|0,0:3|0:0,0:0:0:0:
53,137,78567,1,0,0:0:0:0:
217,206,78742,2,0,L|324:199,1,108,10|0,0:3|0:0,0:0:0:0:
359,196,79091,6,0,L|354:160,1,22.5,10|0,0:0|0:0,0:0:0:0:
491,258,79265,6,0,L|496:222,1,22.5,10|0,0:0|0:0,0:0:0:0:
322,329,79440,6,0,L|317:293,1,22.5,10|0,0:0|0:0,0:0:0:0:
448,384,79614,5,10,0:0:0:0:
387,84,79788,1,10,0:0:0:0:
310,60,80137,5,10,0:0:0:0:
234,86,80486,5,10,0:0:0:0:
164,190,80661,1,8,0:3:0:0:
164,190,80748,1,8,0:3:0:0:
164,190,80835,6,0,P|235:181|286:243,1,144,14|0,0:0|0:0,0:0:0:0:
145,346,81358,2,0,L|137:272,1,72,2|0,0:0|0:0,0:0:0:0:
283,229,81707,6,0,P|317:206|305:253,1,116.999994644165,2|8,0:0|0:3,0:0:0:0:
276,274,81969,1,8,0:3:0:0:
276,274,82056,2,0,B|353:254|358:315|446:293,1,175.499991966248,14|0,0:3|0:0,0:0:0:0:
512,233,82405,6,0,P|519:186|506:145,1,90,14|0,0:3|0:0,0:0:0:0:
263,0,82754,2,0,P|254:38|266:87,1,90,10|8,0:0|0:3,0:0:0:0:
340,130,83015,1,8,0:3:0:0:
340,130,83102,2,0,L|434:117,1,90,10|8,0:3|0:3,0:0:0:0:
494,31,83451,1,8,0:0:0:0:
458,237,83626,6,0,P|411:242|356:199,1,90,10|0,0:3|0:0,0:0:0:0:
340,130,83974,1,8,0:3:0:0:
229,224,84149,2,0,L|239:322,1,90,8|8,0:0|0:3,0:0:0:0:
165,366,84411,1,8,0:3:0:0:
165,366,84498,5,10,0:3:0:0:
56,324,84672,1,10,0:3:0:0:
98,215,84847,1,10,0:0:0:0:
207,257,85021,1,10,0:0:0:0:
207,257,85108,1,8,0:0:0:0:
207,257,85195,6,0,L|301:245,1,90,10|0,0:3|0:0,0:0:0:0:
480,133,85544,2,0,L|381:121,1,90,10|8,0:0|0:3,0:0:0:0:
296,245,85893,1,10,0:3:0:0:
465,368,86067,1,8,0:0:0:0:
481,331,86154,1,8,0:0:0:0:
482,292,86241,1,8,0:0:0:0:
467,255,86328,1,8,0:0:0:0:
439,227,86415,1,14,0:0:0:0:
424,222,86765,5,10,0:0:0:0:
156,249,86940,1,10,0:0:0:0:
298,32,87114,1,2,0:0:0:0:
347,286,87288,2,0,P|327:374|272:299,1,215.999993408203,14|0,0:0|0:0,0:0:0:0:
