osu file format v14

[General]
AudioFilename: audio.mp3
AudioLeadIn: 0
PreviewTime: -1
Countdown: 1
SampleSet: None
StackLeniency: 0.7
Mode: 0
LetterboxInBreaks: 0
WidescreenStoryboard: 0

[Editor]
Bookmarks: 41856,47438,53019
DistanceSpacing: 0.8
BeatDivisor: 4
GridSize: 16
TimelineZoom: 4.199998

[Metadata]
Title:Yosakura Fubuki
TitleUnicode:Yosakura Fubuki
Artist:A.saka
ArtistUnicode:A.saka
Creator:blueloniess
Version:bluelon
Source:
Tags:
BeatmapID:2100651
BeatmapSetID:1003671

[Difficulty]
HPDrainRate:5
CircleSize:4
OverallDifficulty:9
ApproachRate:9.6
SliderMultiplier:1.8
SliderTickRate:1

[Events]
//Background and Video events
//Break Periods
//Storyboard Layer 0 (Background)
//Storyboard Layer 1 (Fail)
//Storyboard Layer 2 (Pass)
//Storyboard Layer 3 (Foreground)
//Storyboard Sound Samples

[TimingPoints]
2787,348.837209302326,4,2,1,60,1,0
2787,-142.857142857143,4,2,1,60,0,0
13949,-100,4,2,1,60,0,0
25112,-66.6666666666667,4,2,1,60,0,0
27903,-55.5555555555556,4,2,1,60,0,0
28252,-66.6666666666667,4,2,1,60,0,0
41856,-50,4,2,1,60,0,0
47438,-100,4,2,1,60,0,0
106042,-66.6666666666667,4,2,1,60,0,0
117205,-50,4,2,1,60,0,0

[Colours]
Combo1 : 188,121,255
Combo2 : 126,190,254
Combo3 : 255,159,255
Combo4 : 255,91,173

[HitObjects]
139,185,2787,5,0,0:0:0:0:
63,159,2961,1,0,0:0:0:0:
63,79,3135,1,0,0:0:0:0:
139,55,3310,1,0,0:0:0:0:
186,119,3484,1,0,0:0:0:0:
233,185,3659,1,0,0:0:0:0:
310,160,3833,1,0,0:0:0:0:
309,79,4007,1,0,0:0:0:0:
233,55,4182,5,0,0:0:0:0:
186,119,4356,1,0,0:0:0:0:
233,185,4531,1,0,0:0:0:0:
310,160,4705,1,0,0:0:0:0:
357,226,4880,1,0,0:0:0:0:
310,288,5054,1,0,0:0:0:0:
233,265,5229,1,0,0:0:0:0:
233,185,5404,1,0,0:0:0:0:
310,160,5577,5,0,0:0:0:0:
357,226,5752,1,0,0:0:0:0:
404,288,5926,1,0,0:0:0:0:
481,265,6101,1,0,0:0:0:0:
481,185,6275,1,0,0:0:0:0:
404,160,6449,1,0,0:0:0:0:
357,226,6624,1,0,0:0:0:0:
404,288,6798,1,0,0:0:0:0:
481,265,6973,5,0,0:0:0:0:
481,185,7147,2,0,L|481:122,2,62.9999980773926
404,17,7670,5,0,0:0:0:0:
404,97,7845,2,0,L|403:159,2,62.9999980773926
357,226,8368,5,0,0:0:0:0:
271,266,8542,2,0,P|230:271|185:256,1,62.9999980773926
209,266,8891,2,0,P|168:261|123:276,1,62.9999980773926
147,265,9240,2,0,P|106:270|61:255,1,62.9999980773926
85,265,9589,1,0,0:0:0:0:
57,175,9763,5,0,0:0:0:0:
41,114,9938,2,0,P|54:143|56:174,1,62.9999980773926
11,217,10287,2,0,P|43:181|71:169,1,62.9999980773926
114,192,10635,2,0,P|66:181|42:163,1,62.9999980773926
3,28,10984,1,0,0:0:0:0:
167,65,11159,5,0,0:0:0:0:
167,65,11333,2,0,P|195:79|226:82,1,62.9999980773926
167,65,11682,2,0,P|165:33|152:5,1,62.9999980773926
167,65,12031,2,0,P|140:82|122:107,1,62.9999980773926
55,174,12380,1,0,0:0:0:0:
3,28,12554,5,0,0:0:0:0:
54,174,12728,2,0,P|82:188|114:192,2,62.9999980773926
167,65,13252,5,0,0:0:0:0:
254,175,13426,1,0,0:0:0:0:
254,175,13513,1,0,0:0:0:0:
254,175,13600,1,0,0:0:0:0:
333,11,13775,1,0,0:0:0:0:
441,106,13949,6,0,L|436:209,1,90
436,195,14211,1,0,0:0:0:0:
436,195,14298,1,0,0:0:0:0:
381,279,14473,1,0,0:0:0:0:
381,279,14560,1,0,0:0:0:0:
381,279,14647,2,0,P|430:295|479:285,1,90
436,195,14996,2,0,P|387:179|338:189,1,90
260,200,15345,6,0,L|255:303,1,90
256,290,15607,1,0,0:0:0:0:
256,290,15694,1,0,0:0:0:0:
200,373,15869,1,0,0:0:0:0:
200,373,15956,1,0,0:0:0:0:
200,373,16043,2,0,P|249:389|298:379,1,90
255,289,16392,2,0,P|206:273|157:283,1,90
90,322,16740,6,0,L|85:219,1,90
85,232,17002,1,0,0:0:0:0:
85,232,17089,1,0,0:0:0:0:
30,149,17264,1,0,0:0:0:0:
30,149,17351,1,0,0:0:0:0:
30,149,17438,2,0,P|79:133|128:143,1,90
85,233,17787,2,0,P|36:249|-13:239,1,90
116,138,18135,5,0,0:0:0:0:
260,200,18310,1,0,0:0:0:0:
260,200,18397,1,0,0:0:0:0:
260,200,18484,1,0,0:0:0:0:
168,278,18659,1,0,0:0:0:0:
214,100,18833,2,0,L|320:95,1,90
303,95,19095,1,0,0:0:0:0:
303,95,19182,1,0,0:0:0:0:
436,195,19356,1,0,0:0:0:0:
371,337,19531,6,0,P|362:293|363:249,1,90
363,248,19792,1,0,0:0:0:0:
363,248,19880,1,0,0:0:0:0:
464,115,20054,1,0,0:0:0:0:
489,279,20228,1,0,0:0:0:0:
489,279,20316,1,0,0:0:0:0:
489,279,20403,1,0,0:0:0:0:
318,177,20577,1,0,0:0:0:0:
476,108,20752,1,0,0:0:0:0:
363,248,20926,6,0,P|322:260|273:248,1,90
276,249,21187,1,0,0:0:0:0:
276,249,21275,1,0,0:0:0:0:
383,87,21449,1,0,0:0:0:0:
489,279,21624,1,0,0:0:0:0:
489,279,21711,1,0,0:0:0:0:
489,279,21798,1,0,0:0:0:0:
318,177,21973,1,0,0:0:0:0:
486,104,22147,1,0,0:0:0:0:
313,20,22321,6,0,L|213:17,1,90
223,17,22583,1,0,0:0:0:0:
223,17,22670,1,0,0:0:0:0:
52,107,22845,1,0,0:0:0:0:
117,19,23019,1,0,0:0:0:0:
175,119,23193,1,0,0:0:0:0:
119,264,23368,2,0,P|107:212|116:155,1,90
223,17,23717,5,0,0:0:0:0:
325,181,23891,1,0,0:0:0:0:
282,195,23978,1,0,0:0:0:0:
238,206,24066,1,0,0:0:0:0:
52,107,24240,1,0,0:0:0:0:
52,107,24327,1,0,0:0:0:0:
52,107,24414,5,0,0:0:0:0:
24,142,24501,1,0,0:0:0:0:
8,184,24588,1,0,0:0:0:0:
6,229,24675,1,0,0:0:0:0:
16,272,24762,1,0,0:0:0:0:
39,311,24850,1,0,0:0:0:0:
72,341,24937,1,0,0:0:0:0:
113,360,25024,1,0,0:0:0:0:
178,379,25112,5,0,0:0:0:0:
306,306,25287,2,0,L|322:216,1,67.5000025749208
386,258,25461,2,0,L|374:324,1,67.5000025749208
261,378,25635,1,0,0:0:0:0:
261,378,25723,1,0,0:0:0:0:
261,378,25810,2,0,P|225:328|262:229,1,135.000005149842
333,167,26071,1,0,0:0:0:0:
401,167,26159,2,0,L|482:167,1,67.5000025749208
491,103,26333,2,0,L|410:103,1,67.5000025749208
333,167,26507,6,0,P|269:146|230:54,1,135.000005149842
350,24,26769,1,0,0:0:0:0:
350,24,26856,2,0,L|317:93,1,67.5000025749208
234,258,27031,1,0,0:0:0:0:
234,258,27118,1,0,0:0:0:0:
234,258,27205,2,0,P|205:236|147:235,1,67.5000025749208
93,180,27380,2,0,P|126:165|156:116,1,67.5000025749208
232,91,27554,2,0,P|227:127|255:177,1,67.5000025749208
386,258,27728,5,0,0:0:0:0:
386,258,27816,1,0,0:0:0:0:
491,103,27903,6,0,B|442:43|379:70|379:70|342:153,1,161.999995056153
333,167,28164,1,0,0:0:0:0:
386,258,28252,2,0,L|467:258,1,67.5000025749208
474,321,28426,2,0,L|393:321,1,67.5000025749208
172,314,28600,5,0,0:0:0:0:
172,314,28688,1,0,0:0:0:0:
172,314,28775,2,0,L|67:323,1,67.5000025749208
51,216,28949,2,0,L|156:225,1,67.5000025749208
302,301,29124,2,0,L|285:389,1,67.5000025749208
234,258,29298,6,0,L|215:88,1,135.000005149842
118,221,29560,1,0,0:0:0:0:
172,314,29647,5,0,0:0:0:0:
172,314,29735,1,0,0:0:0:0:
172,314,29822,2,0,L|67:323,1,67.5000025749208
51,216,29996,2,0,L|156:225,1,67.5000025749208
386,258,30170,1,0,0:0:0:0:
386,224,30257,1,0,0:0:0:0:
386,189,30345,2,0,L|374:83,1,67.5000025749208
227,50,30519,2,0,P|274:71|285:137,1,67.5000025749208
84,138,30693,6,0,L|218:123,1,135.000005149842
378,121,30955,1,0,0:0:0:0:
239,204,31042,2,0,P|286:183|297:117,1,67.5000025749208
383,32,31217,1,0,0:0:0:0:
383,32,31304,1,0,0:0:0:0:
383,32,31391,2,0,P|359:8|326:0,1,67.5000025749208
171,17,31566,2,0,P|162:49|171:81,1,67.5000025749208
370,188,31740,6,0,L|378:116,1,67.5000025749208
246,271,31914,2,0,L|238:199,1,67.5000025749208
438,250,32089,6,0,L|303:235,1,135.000005149842
238,203,32350,1,0,0:0:0:0:
238,203,32438,2,0,P|261:178|293:170,1,67.5000025749208
445,182,32612,1,0,0:0:0:0:
445,182,32699,1,0,0:0:0:0:
445,182,32787,2,0,L|437:249,1,67.5000025749208
301,303,32961,2,0,P|268:294|245:270,1,67.5000025749208
445,112,33135,2,0,L|512:119,1,67.5000025749208
438,250,33310,2,0,L|370:242,1,67.5000025749208
259,78,33484,6,0,P|335:83|389:146,1,135.000005149842
292,170,33746,1,0,0:0:0:0:
292,170,33833,2,0,L|210:170,1,67.5000025749208
81,246,34007,1,0,0:0:0:0:
81,246,34095,1,0,0:0:0:0:
81,246,34182,2,0,L|184:246,1,67.5000025749208
245,270,34356,1,0,0:0:0:0:
245,270,34443,1,0,0:0:0:0:
198,384,34531,2,0,P|182:309|200:278,1,67.5000025749208
245,270,34705,2,0,P|317:293|335:324,1,67.5000025749208
399,317,34880,6,0,P|329:379|285:379,1,135.000005149842
292,170,35141,1,0,0:0:0:0:
323,157,35228,2,0,P|351:149|426:166,1,67.5000025749208
245,270,35403,1,0,0:0:0:0:
245,270,35490,1,0,0:0:0:0:
212,258,35577,6,0,P|138:249|111:271,1,67.5000025749208
62,163,35752,2,0,P|89:143|104:114,1,67.5000025749208
271,108,35926,2,0,P|273:141|291:169,1,67.5000025749208
198,384,36100,2,0,L|179:298,1,67.5000025749208
107,50,36275,5,0,0:0:0:0:
172,33,36362,1,0,0:0:0:0:
237,50,36449,1,0,0:0:0:0:
271,108,36537,1,0,0:0:0:0:
291,169,36624,2,0,L|297:265,1,67.5000025749208
418,356,36798,1,0,0:0:0:0:
418,356,36885,1,0,0:0:0:0:
472,315,36973,6,0,L|473:231,1,67.5000025749208
298,348,37147,1,0,0:0:0:0:
291,169,37321,2,0,L|292:85,1,67.5000025749208
389,150,37496,2,0,L|388:234,1,67.5000025749208
183,318,37670,5,0,0:0:0:0:
116,317,37757,1,0,0:0:0:0:
62,279,37844,1,0,0:0:0:0:
39,216,37931,1,0,0:0:0:0:
56,152,38019,2,0,L|73:85,1,67.5000025749208
166,26,38193,1,0,0:0:0:0:
166,26,38281,1,0,0:0:0:0:
291,101,38368,6,0,P|205:100|181:77,1,67.5000025749208
388,217,38542,1,0,0:0:0:0:
374,80,38717,2,0,L|366:-12,1,67.5000025749208
225,109,38891,2,0,L|219:176,1,67.5000025749208
265,346,39066,5,0,0:0:0:0:
327,366,39153,1,0,0:0:0:0:
387,339,39240,1,0,0:0:0:0:
411,278,39327,1,0,0:0:0:0:
388,217,39414,2,0,P|356:186|297:183,1,67.5000025749208
204,284,39589,2,0,P|193:326|220:379,1,67.5000025749208
387,339,39763,6,0,L|486:336,1,67.5000025749208
309,270,39938,1,0,0:0:0:0:
197,348,40112,2,0,L|296:345,1,67.5000025749208
119,279,40287,1,0,0:0:0:0:
119,279,40374,1,0,0:0:0:0:
218,176,40461,6,0,B|168:140|116:151|116:151|126:210,1,135.000005149842
119,279,40723,1,0,0:0:0:0:
197,348,40810,2,0,P|215:322|215:255,1,67.5000025749208
119,279,40984,1,0,0:0:0:0:
119,279,41071,1,0,0:0:0:0:
16,266,41159,6,0,P|13:297|45:352,1,67.5000025749208
197,348,41333,2,0,P|225:335|256:279,1,67.5000025749208
218,176,41507,2,0,P|192:157|129:158,1,67.5000025749208
62,0,41682,2,0,L|66:111,1,67.5000025749208
31,131,41856,6,0,B|131:144|93:65|218:96,1,180
310,116,42118,1,0,0:0:0:0:
310,116,42205,2,0,B|289:160|289:160|289:218,1,90
383,178,42380,2,0,B|404:134|404:134|404:76,1,90
262,26,42554,6,0,L|117:13,1,90
351,34,42728,2,0,L|206:21,1,90
200,210,42903,6,0,L|55:223,1,90
289,201,43077,2,0,L|199:209,1,90
404,92,43252,6,0,B|389:153|389:153|403:202|403:202|381:282,1,180
366,362,43513,1,0,0:0:0:0:
366,362,43600,2,0,L|455:370,1,90
289,201,43775,2,0,L|199:209,1,90
11,289,43949,2,0,L|100:297,2,90
199,209,44211,1,0,0:0:0:0:
199,209,44298,2,0,P|231:253|213:343,1,90
137,375,44473,2,0,P|105:331|123:241,1,90
75,145,44647,6,0,P|164:137|171:259,1,180
4,193,44909,1,0,0:0:0:0:
4,193,44996,2,0,L|-2:77,1,90
164,45,45170,2,0,L|159:134,1,90
235,287,45345,2,0,L|324:295,2,90
414,210,45606,1,0,0:0:0:0:
414,210,45693,2,0,P|446:254|428:344,1,90
137,375,45868,2,0,P|105:331|123:241,1,90
159,134,46042,6,0,L|371:143,1,180
414,210,46304,1,0,0:0:0:0:
414,210,46391,2,0,P|446:166|428:76,1,90
309,0,46566,2,0,P|277:44|295:134,1,90
414,210,46740,2,0,L|503:218,2,90
338,141,47002,1,0,0:0:0:0:
338,141,47089,2,0,L|248:149,1,90
235,287,47263,2,0,L|324:295,1,90
470,53,47438,5,0,0:0:0:0:
309,0,47612,1,0,0:0:0:0:
265,10,47699,1,0,0:0:0:0:
220,20,47787,1,0,0:0:0:0:
24,47,47961,1,0,0:0:0:0:
68,57,48048,1,0,0:0:0:0:
113,67,48136,1,0,0:0:0:0:
199,90,48310,1,0,0:0:0:0:
124,139,48484,5,0,0:0:0:0:
48,188,48659,1,0,0:0:0:0:
117,355,48833,5,0,0:0:0:0:
84,271,49007,1,0,0:0:0:0:
48,188,49182,1,0,0:0:0:0:
124,139,49356,1,0,0:0:0:0:
162,116,49443,1,0,0:0:0:0:
199,90,49531,1,0,0:0:0:0:
113,67,49705,1,0,0:0:0:0:
24,47,49880,1,0,0:0:0:0:
220,20,50054,1,0,0:0:0:0:
309,0,50228,5,0,0:0:0:0:
399,0,50403,1,0,0:0:0:0:
470,53,50577,1,0,0:0:0:0:
455,142,50752,1,0,0:0:0:0:
444,185,50839,1,0,0:0:0:0:
434,228,50926,1,0,0:0:0:0:
409,314,51100,1,0,0:0:0:0:
336,260,51275,1,0,0:0:0:0:
257,215,51449,1,0,0:0:0:0:
455,142,51624,5,0,0:0:0:0:
409,314,51798,1,0,0:0:0:0:
257,215,51973,1,0,0:0:0:0:
434,228,52147,1,0,0:0:0:0:
422,271,52234,1,0,0:0:0:0:
409,313,52321,1,0,0:0:0:0:
336,260,52496,1,0,0:0:0:0:
455,142,52670,1,0,0:0:0:0:
482,366,52845,1,0,0:0:0:0:
235,287,53019,5,0,0:0:0:0:
191,275,53106,1,0,0:0:0:0:
147,264,53193,1,0,0:0:0:0:
0,83,53368,1,0,0:0:0:0:
208,89,53543,1,0,0:0:0:0:
39,184,53717,1,0,0:0:0:0:
106,0,53891,1,0,0:0:0:0:
106,0,53978,1,0,0:0:0:0:
106,0,54066,1,0,0:0:0:0:
159,190,54240,1,0,0:0:0:0:
320,0,54414,5,0,0:0:0:0:
455,142,54589,1,0,0:0:0:0:
417,117,54676,1,0,0:0:0:0:
375,133,54763,1,0,0:0:0:0:
137,278,54938,5,0,0:0:0:0:
149,234,55025,1,0,0:0:0:0:
159,190,55112,1,0,0:0:0:0:
282,67,55287,1,0,0:0:0:0:
434,228,55461,1,0,0:0:0:0:
431,272,55548,1,0,0:0:0:0:
429,316,55635,1,0,0:0:0:0:
421,360,55723,1,0,0:0:0:0:
352,352,55810,5,0,0:0:0:0:
310,334,55897,1,0,0:0:0:0:
265,335,55984,1,0,0:0:0:0:
226,357,56071,1,0,0:0:0:0:
181,368,56159,1,0,0:0:0:0:
137,358,56246,1,0,0:0:0:0:
109,322,56333,1,0,0:0:0:0:
114,277,56420,1,0,0:0:0:0:
146,246,56507,6,0,L|169:273,1,22.5
179,216,56595,2,0,L|203:232,1,22.5
193,174,56682,2,0,L|234:184,1,22.5
182,131,56769,2,0,L|222:135,1,22.5
151,99,56856,2,0,L|187:93,1,22.5
108,89,56943,2,0,L|142:76,1,22.5
66,102,57031,2,0,L|81:69,1,22.5
36,135,57118,2,0,L|40:93,1,22.5
24,157,57205,5,0,0:0:0:0:
72,203,57292,1,0,0:0:0:0:
137,220,57379,1,0,0:0:0:0:
203,208,57466,1,0,0:0:0:0:
258,168,57553,1,0,0:0:0:0:
308,120,57641,1,0,0:0:0:0:
376,123,57728,1,0,0:0:0:0:
429,165,57815,1,0,0:0:0:0:
447,231,57902,5,0,0:0:0:0:
424,294,57989,1,0,0:0:0:0:
370,338,58077,1,0,0:0:0:0:
303,323,58164,1,0,0:0:0:0:
251,280,58251,1,0,0:0:0:0:
225,217,58338,1,0,0:0:0:0:
230,149,58425,1,0,0:0:0:0:
267,92,58513,1,0,0:0:0:0:
320,47,58600,5,0,0:0:0:0:
475,169,58775,1,0,0:0:0:0:
475,169,58862,1,0,0:0:0:0:
475,169,58949,2,0,L|497:112,1,45
337,218,59124,1,0,0:0:0:0:
433,287,59298,2,0,L|493:329,1,45
256,382,59473,2,0,L|256:303,1,45
79,287,59647,2,0,L|19:329,1,45
254,191,59821,1,0,0:0:0:0:
254,191,59996,5,0,0:0:0:0:
196,140,60083,1,0,0:0:0:0:
119,133,60170,1,0,0:0:0:0:
119,133,60257,1,0,0:0:0:0:
119,133,60345,2,0,L|116:197,1,45
39,58,60519,1,0,0:0:0:0:
144,18,60693,6,0,L|202:18,1,45
322,120,60868,2,0,L|264:120,1,45
463,26,61042,1,0,0:0:0:0:
463,26,61217,2,0,L|455:91,1,45
305,205,61391,5,0,0:0:0:0:
402,261,61478,1,0,0:0:0:0:
402,261,61566,2,0,P|416:212|412:185,1,45
335,77,61740,2,0,P|321:126|325:153,1,45
317,296,61914,1,0,0:0:0:0:
317,296,62002,1,0,0:0:0:0:
421,359,62089,2,0,P|444:334|474:325,1,45
415,218,62263,2,0,P|381:210|359:189,1,45
317,296,62438,2,0,P|327:328|319:358,1,45
183,367,62612,1,0,0:0:0:0:
78,311,62787,6,0,L|79:258,1,45
237,170,62961,2,0,L|236:223,1,45
15,190,63135,1,0,0:0:0:0:
49,120,63223,1,0,0:0:0:0:
119,89,63310,1,0,0:0:0:0:
192,109,63397,1,0,0:0:0:0:
237,170,63484,1,0,0:0:0:0:
265,240,63571,1,0,0:0:0:0:
309,303,63659,1,0,0:0:0:0:
382,322,63746,1,0,0:0:0:0:
452,293,63833,1,0,0:0:0:0:
486,224,63920,1,0,0:0:0:0:
459,152,64007,1,0,0:0:0:0:
383,134,64095,1,0,0:0:0:0:
383,134,64182,6,0,L|383:196,1,45
382,322,64356,1,0,0:0:0:0:
382,322,64443,1,0,0:0:0:0:
382,322,64531,1,0,0:0:0:0:
198,205,64705,1,0,0:0:0:0:
383,134,64880,5,0,0:0:0:0:
453,325,65054,1,0,0:0:0:0:
453,325,65141,1,0,0:0:0:0:
453,325,65228,1,0,0:0:0:0:
185,317,65403,1,0,0:0:0:0:
383,134,65577,5,0,0:0:0:0:
512,375,65752,1,0,0:0:0:0:
512,375,65839,1,0,0:0:0:0:
512,375,65926,1,0,0:0:0:0:
112,251,66100,1,0,0:0:0:0:
415,46,66275,5,0,0:0:0:0:
504,280,66449,1,0,0:0:0:0:
143,112,66624,1,0,0:0:0:0:
304,367,66798,1,0,0:0:0:0:
321,257,66973,5,0,0:0:0:0:
305,241,67060,1,0,0:0:0:0:
321,225,67147,1,0,0:0:0:0:
336,241,67234,1,0,0:0:0:0:
322,265,67321,5,0,0:0:0:0:
298,241,67408,1,0,0:0:0:0:
322,217,67495,1,0,0:0:0:0:
344,241,67582,1,0,0:0:0:0:
322,265,67670,5,0,0:0:0:0:
288,231,67757,1,0,0:0:0:0:
322,199,67844,1,0,0:0:0:0:
351,231,67931,1,0,0:0:0:0:
321,281,68019,5,0,0:0:0:0:
270,231,68106,1,0,0:0:0:0:
321,180,68193,1,0,0:0:0:0:
367,231,68280,1,0,0:0:0:0:
321,302,68368,5,0,0:0:0:0:
255,290,68455,1,0,0:0:0:0:
188,278,68542,1,0,0:0:0:0:
103,250,68630,5,0,0:0:0:0:
155,208,68717,1,0,0:0:0:0:
209,168,68804,1,0,0:0:0:0:
263,129,68891,1,0,0:0:0:0:
318,90,68978,1,0,0:0:0:0:
376,55,69066,5,0,0:0:0:0:
419,106,69153,1,0,0:0:0:0:
463,156,69240,1,0,0:0:0:0:
508,205,69327,1,0,0:0:0:0:
512,295,69414,2,0,L|511:362,1,45
359,285,69589,2,0,L|360:218,1,45
475,32,69763,5,0,0:0:0:0:
318,90,70112,2,0,P|268:66|202:75,1,90
196,89,70374,1,0,0:0:0:0:
103,157,70635,1,0,0:0:0:0:
104,152,70810,1,0,0:0:0:0:
104,152,70897,1,0,0:0:0:0:
104,152,70984,1,0,0:0:0:0:
48,43,71159,5,0,0:0:0:0:
137,31,71333,1,0,0:0:0:0:
233,66,71507,2,0,P|263:120|255:180,1,90
255,191,71769,1,0,0:0:0:0:
255,191,71856,1,0,0:0:0:0:
18,180,72031,1,0,0:0:0:0:
18,180,72205,2,0,P|67:156|133:165,1,90
96,291,72554,6,0,P|149:313|291:297,1,180
269,306,73077,1,0,0:0:0:0:
417,209,73252,2,0,P|362:183|355:271,1,180
354,270,73775,1,0,0:0:0:0:
496,264,73949,2,0,P|509:213|505:172,1,90
344,130,74298,2,0,P|327:195|429:181,1,180
416,208,74821,1,0,0:0:0:0:
387,70,74996,2,0,P|320:61|283:88,1,90
178,177,75345,5,0,0:0:0:0:
227,349,75693,2,0,L|228:259,1,90
280,160,75955,1,0,0:0:0:0:
280,160,76042,2,0,P|347:203|434:191,1,135
441,184,76391,1,0,0:0:0:0:
374,22,76566,1,0,0:0:0:0:
374,22,76653,1,0,0:0:0:0:
374,22,76740,5,0,0:0:0:0:
441,184,77089,2,0,L|435:339,1,135
432,353,77438,2,0,P|380:338|343:341,1,90
264,364,77699,1,0,0:0:0:0:
264,364,77787,2,0,P|201:367|159:345,1,90
176,357,78048,1,0,0:0:0:0:
176,357,78135,5,0,0:0:0:0:
167,312,78223,1,0,0:0:0:0:
135,280,78310,1,0,0:0:0:0:
92,266,78397,1,0,0:0:0:0:
48,276,78484,1,0,0:0:0:0:
20,311,78571,1,0,0:0:0:0:
18,356,78659,5,0,0:0:0:0:
29,336,78746,1,0,0:0:0:0:
40,316,78833,1,0,0:0:0:0:
51,296,78920,1,0,0:0:0:0:
62,276,79007,1,0,0:0:0:0:
73,256,79095,1,0,0:0:0:0:
84,236,79182,1,0,0:0:0:0:
92,215,79269,1,0,0:0:0:0:
100,194,79356,1,0,0:0:0:0:
108,173,79443,1,0,0:0:0:0:
116,151,79531,5,0,0:0:0:0:
148,108,79618,1,0,0:0:0:0:
197,86,79705,1,0,0:0:0:0:
249,98,79792,1,0,0:0:0:0:
283,140,79880,1,0,0:0:0:0:
282,193,79967,1,0,0:0:0:0:
249,235,80054,1,0,0:0:0:0:
195,233,80141,1,0,0:0:0:0:
149,204,80228,5,0,0:0:0:0:
170,197,80316,1,0,0:0:0:0:
191,190,80403,1,0,0:0:0:0:
212,183,80490,1,0,0:0:0:0:
233,177,80577,1,0,0:0:0:0:
254,171,80664,1,0,0:0:0:0:
275,164,80752,1,0,0:0:0:0:
296,158,80839,1,0,0:0:0:0:
359,113,80926,5,0,0:0:0:0:
367,135,81013,1,0,0:0:0:0:
369,158,81100,1,0,0:0:0:0:
366,181,81188,1,0,0:0:0:0:
435,180,81275,5,0,0:0:0:0:
431,203,81362,1,0,0:0:0:0:
421,224,81449,1,0,0:0:0:0:
407,243,81537,1,0,0:0:0:0:
473,273,81624,5,0,0:0:0:0:
459,291,81711,1,0,0:0:0:0:
439,305,81798,1,0,0:0:0:0:
418,314,81886,1,0,0:0:0:0:
476,366,81973,5,0,0:0:0:0:
445,381,82060,1,0,0:0:0:0:
409,384,82147,1,0,0:0:0:0:
374,381,82235,1,0,0:0:0:0:
301,348,82321,5,0,0:0:0:0:
301,348,83019,5,0,0:0:0:0:
245,277,83193,1,0,0:0:0:0:
201,265,83281,1,0,0:0:0:0:
155,274,83368,1,0,0:0:0:0:
67,365,83542,1,0,0:0:0:0:
192,377,83717,5,0,0:0:0:0:
238,202,83891,1,0,0:0:0:0:
47,281,84066,1,0,0:0:0:0:
165,298,84240,5,0,0:0:0:0:
93,57,84414,1,0,0:0:0:0:
77,99,84589,1,0,0:0:0:0:
63,141,84763,1,0,0:0:0:0:
359,190,84938,1,0,0:0:0:0:
261,40,85112,5,0,0:0:0:0:
134,339,85287,1,0,0:0:0:0:
405,298,85461,1,0,0:0:0:0:
448,288,85635,1,0,0:0:0:0:
492,279,85810,5,0,0:0:0:0:
368,47,85984,1,0,0:0:0:0:
384,381,86159,1,0,0:0:0:0:
491,32,86333,1,0,0:0:0:0:
58,88,86507,5,0,0:0:0:0:
61,133,86682,1,0,0:0:0:0:
64,177,86856,1,0,0:0:0:0:
67,221,87031,1,0,0:0:0:0:
98,352,87205,5,0,0:0:0:0:
336,173,87380,1,0,0:0:0:0:
277,363,87554,1,0,0:0:0:0:
146,93,87728,1,0,0:0:0:0:
459,230,87903,5,0,0:0:0:0:
433,192,88077,1,0,0:0:0:0:
404,156,88252,1,0,0:0:0:0:
212,25,88426,5,0,0:0:0:0:
181,57,88513,1,0,0:0:0:0:
166,99,88600,1,0,0:0:0:0:
172,143,88687,1,0,0:0:0:0:
193,183,88774,1,0,0:0:0:0:
202,224,88862,1,0,0:0:0:0:
192,268,88949,1,0,0:0:0:0:
167,305,89036,1,0,0:0:0:0:
129,328,89123,1,0,0:0:0:0:
85,337,89210,1,0,0:0:0:0:
4,316,89298,5,0,0:0:0:0:
30,134,89473,1,0,0:0:0:0:
352,210,89647,1,0,0:0:0:0:
192,268,89821,1,0,0:0:0:0:
284,47,89996,5,0,0:0:0:0:
328,42,90170,1,0,0:0:0:0:
372,38,90345,1,0,0:0:0:0:
416,34,90519,1,0,0:0:0:0:
438,341,90693,5,0,0:0:0:0:
392,341,90868,1,0,0:0:0:0:
92,341,91042,5,0,0:0:0:0:
137,341,91217,1,0,0:0:0:0:
470,201,91391,5,0,0:0:0:0:
439,168,91566,1,0,0:0:0:0:
160,88,91740,5,0,0:0:0:0:
155,260,91914,1,0,0:0:0:0:
362,356,92089,5,0,0:0:0:0:
373,98,92263,1,0,0:0:0:0:
328,89,92438,1,0,0:0:0:0:
283,81,92612,1,0,0:0:0:0:
283,81,92699,1,0,0:0:0:0:
283,81,92787,1,0,0:0:0:0:
40,202,92961,5,0,0:0:0:0:
54,159,93135,1,0,0:0:0:0:
67,116,93310,1,0,0:0:0:0:
283,81,93484,5,0,0:0:0:0:
431,222,93659,1,0,0:0:0:0:
412,235,93746,1,0,0:0:0:0:
390,241,93833,1,0,0:0:0:0:
367,238,93920,1,0,0:0:0:0:
328,299,94007,5,0,0:0:0:0:
309,285,94095,1,0,0:0:0:0:
291,264,94182,1,0,0:0:0:0:
275,236,94269,1,0,0:0:0:0:
274,200,94356,1,0,0:0:0:0:
290,163,94443,1,0,0:0:0:0:
325,134,94531,1,0,0:0:0:0:
372,122,94618,1,0,0:0:0:0:
423,136,94705,1,0,0:0:0:0:
459,181,94792,1,0,0:0:0:0:
473,242,94880,5,0,0:0:0:0:
270,361,95054,1,0,0:0:0:0:
25,277,95228,5,0,0:0:0:0:
241,217,95403,1,0,0:0:0:0:
461,258,95577,5,0,0:0:0:0:
446,300,95752,1,0,0:0:0:0:
469,338,95926,5,0,0:0:0:0:
481,380,96100,1,0,0:0:0:0:
165,306,96275,5,0,0:0:0:0:
176,66,96449,1,0,0:0:0:0:
478,175,96624,1,0,0:0:0:0:
434,185,96798,1,0,0:0:0:0:
390,195,96973,5,0,0:0:0:0:
461,13,97147,1,0,0:0:0:0:
187,138,97321,1,0,0:0:0:0:
270,381,97496,1,0,0:0:0:0:
372,117,97670,5,0,0:0:0:0:
111,37,97845,1,0,0:0:0:0:
68,23,98019,1,0,0:0:0:0:
17,168,98193,5,0,0:0:0:0:
40,154,98281,1,0,0:0:0:0:
70,146,98368,1,0,0:0:0:0:
104,156,98455,1,0,0:0:0:0:
134,183,98542,1,0,0:0:0:0:
159,220,98630,1,0,0:0:0:0:
202,242,98717,1,0,0:0:0:0:
255,236,98804,1,0,0:0:0:0:
304,204,98891,1,0,0:0:0:0:
338,151,98978,1,0,0:0:0:0:
329,83,99066,5,0,0:0:0:0:
309,71,99153,1,0,0:0:0:0:
287,64,99240,1,0,0:0:0:0:
264,63,99327,1,0,0:0:0:0:
247,2,99414,5,0,0:0:0:0:
227,12,99502,1,0,0:0:0:0:
210,26,99589,1,0,0:0:0:0:
198,45,99676,1,0,0:0:0:0:
135,21,99763,5,0,0:0:0:0:
132,43,99850,1,0,0:0:0:0:
135,65,99938,1,0,0:0:0:0:
145,84,100025,1,0,0:0:0:0:
71,117,100112,5,0,0:0:0:0:
91,140,100199,1,0,0:0:0:0:
128,155,100287,1,0,0:0:0:0:
177,156,100374,1,0,0:0:0:0:
232,139,100461,5,0,0:0:0:0:
426,81,100635,1,0,0:0:0:0:
350,366,100810,1,0,0:0:0:0:
244,233,100984,1,0,0:0:0:0:
509,141,101159,1,0,0:0:0:0:
496,184,101333,1,0,0:0:0:0:
484,227,101507,1,0,0:0:0:0:
188,328,101682,1,0,0:0:0:0:
413,369,101856,5,0,0:0:0:0:
264,136,102031,1,0,0:0:0:0:
36,355,102205,1,0,0:0:0:0:
27,310,102380,1,0,0:0:0:0:
109,61,102554,5,0,0:0:0:0:
405,271,102728,1,0,0:0:0:0:
482,70,102903,5,0,0:0:0:0:
65,186,103077,1,0,0:0:0:0:
187,334,103252,5,0,0:0:0:0:
203,292,103426,1,0,0:0:0:0:
220,250,103600,1,0,0:0:0:0:
288,25,103775,5,0,0:0:0:0:
330,11,103862,1,0,0:0:0:0:
375,13,103949,1,0,0:0:0:0:
416,30,104036,1,0,0:0:0:0:
449,61,104123,1,0,0:0:0:0:
469,101,104211,1,0,0:0:0:0:
473,145,104298,1,0,0:0:0:0:
220,250,104473,1,0,0:0:0:0:
352,118,104647,5,0,0:0:0:0:
416,341,104821,1,0,0:0:0:0:
397,327,104909,1,0,0:0:0:0:
374,325,104996,1,0,0:0:0:0:
352,332,105083,1,0,0:0:0:0:
352,265,105170,1,0,0:0:0:0:
329,269,105257,1,0,0:0:0:0:
310,281,105345,1,0,0:0:0:0:
279,313,105432,5,0,0:0:0:0:
246,281,105519,1,0,0:0:0:0:
241,236,105606,1,0,0:0:0:0:
254,193,105693,1,0,0:0:0:0:
290,152,105781,1,0,0:0:0:0:
341,115,105868,1,0,0:0:0:0:
412,116,105955,1,0,0:0:0:0:
482,155,106042,5,0,0:0:0:0:
447,232,106217,2,0,P|411:247|359:227,1,67.5000025749208
290,152,106391,2,0,P|214:127|147:165,1,135.000005149842
58,269,106653,1,0,0:0:0:0:
58,269,106740,2,0,L|45:182,1,67.5000025749208
25,86,106914,1,0,0:0:0:0:
25,86,107002,1,0,0:0:0:0:
25,86,107089,2,0,P|60:116|135:107,1,67.5000025749208
149,15,107263,2,0,P|110:23|67:73,1,67.5000025749208
165,146,107438,5,0,0:0:0:0:
291,22,107612,2,0,P|324:27|352:45,1,67.5000025749208
280,208,107787,2,0,P|263:135|303:85,1,135.000005149842
352,45,108048,1,0,0:0:0:0:
352,45,108135,2,0,L|447:45,1,67.5000025749208
481,169,108310,1,0,0:0:0:0:
481,169,108397,1,0,0:0:0:0:
481,169,108484,2,0,P|508:108|507:81,1,67.5000025749208
367,181,108659,2,0,L|383:265,1,67.5000025749208
408,381,108833,5,0,0:0:0:0:
293,309,109007,2,0,P|273:344|282:402,1,67.5000025749208
379,247,109182,2,0,P|324:209|232:226,1,135.000005149842
142,274,109531,1,0,0:0:0:0:
142,274,109618,1,0,0:0:0:0:
142,274,109705,2,0,P|114:246|111:176,1,67.5000025749208
0,115,109880,2,0,P|38:104|100:137,1,67.5000025749208,0|0,2:0|2:0,2:0:0:0:
249,85,110054,2,0,P|238:123|179:160,1,67.5000025749208,0|0,2:0|2:0,2:0:0:0:
147,30,110228,5,0,0:0:0:0:
401,66,110403,2,0,L|513:72,1,67.5000025749208
344,127,110577,2,0,P|318:59|349:1,1,135.000005149842
438,141,110839,1,0,0:0:0:0:
438,141,110926,2,0,P|421:188|380:205,1,67.5000025749208
360,269,111100,2,0,P|327:230|333:186,1,67.5000025749208
280,129,111275,2,0,P|329:120|364:147,1,67.5000025749208
467,273,111449,2,0,L|459:354,1,67.5000025749208
326,371,111624,5,0,0:0:0:0:
190,305,111798,2,0,P|153:290|84:317,1,67.5000025749208
65,384,111973,2,0,L|49:196,1,135.000005149842
55,152,112234,1,0,0:0:0:0:
55,152,112321,2,0,P|96:161|146:219,1,67.5000025749208
190,305,112496,2,0,P|177:264|202:192,1,67.5000025749208
280,129,112670,2,0,P|251:160|176:174,1,67.5000025749208
52,50,112845,2,0,L|174:50,1,67.5000025749208
201,86,113019,5,0,0:0:0:0:
325,215,113193,2,0,P|357:223|388:212,1,67.5000025749208
443,83,113368,2,0,P|359:88|353:161,1,135.000005149842
480,257,113630,1,0,0:0:0:0:
480,257,113717,2,0,L|472:338,1,67.5000025749208
348,369,113891,2,0,L|267:377,1,67.5000025749208
178,239,114066,2,0,L|259:247,1,67.5000025749208
12,327,114240,2,0,L|79:320,1,67.5000025749208
181,375,114414,5,0,0:0:0:0:
51,223,114589,2,0,P|34:186|54:123,1,67.5000025749208
167,102,114763,2,0,P|152:173|76:146,1,135.000005149842
151,20,115025,1,0,0:0:0:0:
151,20,115112,2,0,L|250:12,1,67.5000025749208
276,120,115287,2,0,L|343:125,1,67.5000025749208
412,5,115461,2,0,L|479:0,1,67.5000025749208
375,182,115635,2,0,P|343:122|352:83,1,67.5000025749208
450,96,115810,5,0,0:0:0:0:
480,257,115984,2,0,P|448:260|400:297,1,67.5000025749208
320,355,116159,2,0,P|291:301|311:215,1,135.000005149842
343,124,116420,1,0,0:0:0:0:
343,124,116507,2,0,P|300:119|238:148,1,67.5000025749208
153,150,116682,2,0,P|165:182|186:208,1,67.5000025749208
268,287,116856,2,0,P|289:261|301:229,1,67.5000025749208
197,23,117031,1,0,0:0:0:0:
197,23,117118,1,0,0:0:0:0:
197,23,117205,6,0,L|1:42,1,180
279,85,117467,1,0,0:0:0:0:
279,85,117554,2,0,P|299:43|282:-26,1,90
153,150,117728,2,0,P|150:194|170:234,1,90
368,263,117903,6,0,P|334:183|249:174,1,180
170,234,118164,1,0,0:0:0:0:
170,234,118252,2,0,P|126:256|53:237,1,90
17,40,118426,1,0,0:0:0:0:
17,40,118513,1,0,0:0:0:0:
102,7,118600,6,0,L|116:190,1,180
135,326,118862,1,0,0:0:0:0:
135,326,118949,2,0,P|183:302|278:314,1,90
450,343,119124,1,0,0:0:0:0:
450,343,119211,1,0,0:0:0:0:
450,343,119298,2,0,L|317:370,1,90
249,174,119473,2,0,L|292:45,1,90
439,126,119647,2,0,L|528:227,1,90
218,297,119821,1,0,0:0:0:0:
218,297,119909,1,0,0:0:0:0:
218,297,119996,6,0,P|125:255|134:152,1,180
277,88,120257,1,0,0:0:0:0:
277,88,120345,2,0,P|324:71|423:93,1,90
498,193,120519,2,0,L|479:308,1,90
310,384,120693,2,0,L|329:269,1,90
288,198,120868,2,0,P|241:215|142:193,1,90
0,41,121042,2,0,L|115:53,1,90
183,58,121217,1,0,0:0:0:0:
183,58,121304,1,0,0:0:0:0:
183,58,121391,6,0,L|398:72,1,180
512,104,121653,1,0,0:0:0:0:
512,104,121740,2,0,L|493:219,1,90
483,281,121914,1,0,0:0:0:0:
483,281,122002,2,0,P|453:255|380:252,1,90
209,305,122176,1,0,0:0:0:0:
209,305,122263,2,0,L|197:168,1,90
362,69,122438,2,0,P|347:115|281:139,1,90
50,124,122612,1,0,0:0:0:0:
50,124,122699,1,0,0:0:0:0:
50,124,122787,5,0,0:0:0:0:
183,58,122961,2,0,P|194:113|157:170,1,90
61,342,123135,2,0,L|51:218,1,90
50,124,123310,1,0,0:0:0:0:
50,124,123397,1,0,0:0:0:0:
126,223,123484,2,0,B|238:242|193:154|335:211,1,180
268,365,123746,1,0,0:0:0:0:
268,365,123833,2,0,L|256:257,1,90
458,220,124007,1,0,0:0:0:0:
458,220,124095,1,0,0:0:0:0:
458,220,124182,5,0,0:0:0:0:
382,384,124356,2,0,L|370:276,1,90
464,133,124531,2,0,P|447:232|408:256,1,90
381,77,124705,1,0,0:0:0:0:
381,77,124792,1,0,0:0:0:0:
381,77,124880,2,0,P|481:37|520:56,2,90
297,198,125141,1,0,0:0:0:0:
182,143,125228,2,0,P|169:100|181:57,1,90
275,101,125403,1,0,0:0:0:0:
275,101,125490,1,0,0:0:0:0:
275,101,125577,5,0,0:0:0:0:
52,51,125752,2,0,P|31:151|57:177,1,90
94,199,125926,2,0,P|138:196|173:169,1,90
109,116,126100,1,0,0:0:0:0:
109,116,126187,1,0,0:0:0:0:
4,238,126275,2,0,P|63:293|163:269,1,180
297,198,126537,1,0,0:0:0:0:
297,198,126624,2,0,L|285:316,1,90
277,384,126798,1,0,0:0:0:0:
277,384,126885,1,0,0:0:0:0:
277,384,126973,5,0,0:0:0:0:
245,352,127060,1,0,0:0:0:0:
202,336,127147,1,0,0:0:0:0:
157,329,127234,1,0,0:0:0:0:
113,341,127321,5,0,0:0:0:0:
145,297,127409,1,0,0:0:0:0:
157,244,127496,1,0,0:0:0:0:
144,191,127583,1,0,0:0:0:0:
109,150,127670,5,0,0:0:0:0:
96,220,127757,1,0,0:0:0:0:
152,265,127845,1,0,0:0:0:0:
221,245,127932,1,0,0:0:0:0:
252,180,128019,1,0,0:0:0:0:
314,144,128106,1,0,0:0:0:0:
384,156,128193,1,0,0:0:0:0:
431,211,128281,1,0,0:0:0:0:
418,281,128368,5,0,0:0:0:0:
418,281,128978,5,0,0:0:0:0:
