osu file format v14

[General]
AudioFilename: audio.mp3
AudioLeadIn: 0
PreviewTime: 82932
Countdown: 0
SampleSet: Soft
StackLeniency: 0.7
Mode: 0
LetterboxInBreaks: 0
WidescreenStoryboard: 0

[Editor]
Bookmarks: 36275,37321,106042
DistanceSpacing: 0.4
BeatDivisor: 4
GridSize: 16
TimelineZoom: 2.94768

[Metadata]
Title:Yosakura Fubuki
TitleUnicode:Yosakura Fubuki
Artist:A.saka
ArtistUnicode:A.saka
Creator:Crystar
Version:Cherry
Source:
Tags:
BeatmapID:1992790
BeatmapSetID:954537

[Difficulty]
HPDrainRate:7
CircleSize:4.8
OverallDifficulty:8
ApproachRate:9.6
SliderMultiplier:2
SliderTickRate:1

[Events]
//Background and Video events
0,0,"20180116000315_ZYPGF_meitu_1.jpg",0,0
//Break Periods
//Storyboard Layer 0 (Background)
//Storyboard Layer 1 (Fail)
//Storyboard Layer 2 (Pass)
//Storyboard Layer 3 (Foreground)
//Storyboard Sound Samples

[TimingPoints]
2787,348.837209302326,4,2,1,60,1,0
2787,-142.857142857143,4,2,1,60,0,0
9066,-125,4,2,1,60,0,0
13600,-200,4,2,1,60,0,0
13949,-100,4,2,1,60,0,0
14298,-125,4,2,1,60,0,0
14560,-100,4,2,1,60,0,0
15693,-125,4,2,1,60,0,0
15955,-100,4,2,1,60,0,0
19182,-52.6315789473684,4,2,1,60,0,0
19356,-66.6666666666667,4,2,1,60,0,0
19531,-83.3333333333333,4,2,1,70,0,0
23368,-83.3333333333333,4,2,1,70,0,0
23542,-55.5555555555556,4,2,1,70,0,0
23630,-55.5555555555556,4,2,1,70,0,0
23717,-83.3333333333333,4,2,1,70,0,0
24938,-62.5,4,2,1,60,0,0
25112,-74.0740740740741,4,2,1,80,0,0
25461,-100,4,2,1,60,0,0
25635,-74.0740740740741,4,2,1,60,0,0
25984,-66.6666666666667,4,2,1,60,0,0
26159,-133.333333333333,4,2,1,60,0,0
26507,-74.0740740740741,4,2,1,60,0,0
26856,-74.0740740740741,4,2,1,60,0,0
28949,-133.333333333333,4,2,1,60,0,0
29821,-74.0740740740741,4,2,1,60,0,0
30693,-133.333333333333,4,2,1,60,0,0
31740,-133.333333333333,4,2,1,60,0,0
32089,-74.0740740740741,4,2,1,60,0,0
33135,-133.333333333333,4,2,1,60,0,0
34531,-133.333333333333,4,2,1,60,0,0
34880,-74.0740740740741,4,2,1,60,0,0
36275,-74.0740740740741,4,2,1,60,0,0
37321,-133.333333333333,4,2,1,60,0,0
37670,-74.0740740740741,4,2,1,60,0,0
38019,-133.333333333333,4,2,1,60,0,0
38193,-74.0740740740741,4,2,1,60,0,0
38717,-133.333333333333,4,2,1,60,0,0
39066,-133.333333333333,4,2,1,60,0,0
39414,-133.333333333333,4,2,1,60,0,0
40984,-76.9230769230769,4,2,1,60,0,0
41159,-74.0740740740741,4,2,1,60,0,0
41856,-133.333333333333,4,2,1,60,0,0
42380,-74.0740740740741,4,2,1,60,0,0
42903,-133.333333333333,4,2,1,60,0,0
43252,-133.333333333333,4,2,1,60,0,0
43600,-74.0740740740741,4,2,1,60,0,0
44298,-133.333333333333,4,2,1,60,0,0
44647,-133.333333333333,4,2,1,60,0,0
45170,-74.0740740740741,4,2,1,60,0,0
45693,-133.333333333333,4,2,1,60,0,0
46042,-74.0740740740741,4,2,1,60,0,0
46391,-133.333333333333,4,2,1,60,0,0
46914,-71.4285714285714,4,2,1,100,0,0
47438,-111.111111111111,4,2,1,60,0,0
53019,-90.9090909090909,4,2,1,60,0,0
55810,-90.9090909090909,4,2,1,40,0,0
56159,-90.9090909090909,4,2,1,50,0,0
56507,-90.9090909090909,4,2,1,60,0,0
56856,-90.9090909090909,4,2,1,70,0,0
57205,-142.857142857143,4,2,1,70,0,0
57554,-71.4285714285714,4,2,1,70,0,0
57903,-100,4,2,1,70,0,0
58600,-62.5,4,2,1,70,0,0
59298,-52.6315789473684,4,2,1,60,0,0
59473,-66.6666666666667,4,2,1,60,0,0
59647,-100,4,2,1,70,0,0
59996,-62.5,4,2,1,70,0,0
60693,-52.6315789473684,4,2,1,60,0,0
60868,-66.6666666666667,4,2,1,60,0,0
61042,-100,4,2,1,60,0,0
61391,-62.5,4,2,1,60,0,0
62089,-52.6315789473684,4,2,1,60,0,0
62263,-66.6666666666667,4,2,1,60,0,0
62438,-100,4,2,1,70,0,0
62787,-62.5,4,2,1,60,0,0
64182,-50,4,2,1,70,0,0
64531,-71.4285714285714,4,2,1,70,0,0
64705,-100,4,2,1,60,0,0
64880,-50,4,2,1,70,0,0
65228,-71.4285714285714,4,2,1,60,0,0
65403,-100,4,2,1,60,0,0
65577,-45.4545454545455,4,2,1,70,0,0
66100,-33.3333333333333,4,2,1,60,0,0
66624,-100,4,2,1,60,0,0
67147,-71.4285714285714,4,2,1,60,0,0
67670,-71.4285714285714,4,2,1,70,0,0
68019,-50,4,2,1,60,0,0
68542,-71.4285714285714,4,2,1,60,0,0
69066,-83.3333333333333,4,2,1,70,0,0
69414,-83.3333333333333,4,2,1,60,0,0
69589,-45.4545454545455,4,2,1,60,0,0
69763,-125,4,2,1,60,0,0
71159,-111.111111111111,4,2,1,60,0,0
72903,-83.3333333333333,4,2,1,60,0,0
73949,-111.111111111111,4,2,1,60,0,0
75345,-125,4,2,1,60,0,0
76740,-111.111111111111,4,2,1,60,0,0
78135,-83.3333333333333,4,2,1,60,0,0
78659,-100,4,2,1,60,0,0
80926,-62.5,4,2,1,60,0,0
81275,-62.5,4,2,1,65,0,0
81624,-62.5,4,2,1,70,0,0
81973,-62.5,4,2,1,75,0,0
82147,-62.5,4,2,1,75,0,0
82845,-100,4,2,1,60,0,0
83717,-76.9230769230769,4,2,1,80,0,1
86159,-133.333333333333,4,2,1,60,0,0
86507,-76.9230769230769,4,2,1,60,0,0
87554,-100,4,2,1,60,0,0
106042,-74.0740740740741,4,2,1,60,0,0
106391,-133.333333333333,4,2,1,60,0,0
106653,-76.9230769230769,4,2,1,60,0,0
107089,-133.333333333333,4,2,1,60,0,0
107961,-74.0740740740741,4,2,1,60,0,0
109880,-133.333333333333,4,2,1,60,0,0
110228,-133.333333333333,4,2,1,60,0,0
110752,-74.0740740740741,4,2,1,60,0,0
115112,-74.0740740740741,4,2,1,60,0,0
116856,-100,4,2,1,60,0,0
117031,-74.0740740740741,4,2,1,60,0,0
123833,-133.333333333333,4,2,1,60,0,0
124182,-74.0740740740741,4,2,1,60,0,0
125228,-133.333333333333,4,2,1,60,0,0
125577,-74.0740740740741,4,2,1,60,0,0
126624,-133.333333333333,4,2,1,60,0,0
127147,-66.6666666666667,4,2,1,60,0,0

[Colours]
Combo1 : 188,121,255
Combo2 : 126,190,254
Combo3 : 255,159,255
Combo4 : 255,91,173

[HitObjects]
98,209,2787,6,0,P|143:205|168:180,1,69.9999978637696
96,274,3135,2,0,P|106:229|90:198,1,69.9999978637696
158,295,3484,2,0,P|119:271|84:277,1,69.9999978637696
197,243,3833,2,0,P|162:272|157:307,1,69.9999978637696
161,190,4182,6,0,P|178:231|210:247,1,69.9999978637696
232,179,4531,2,0,P|276:175|301:150,1,69.9999978637696
247,107,4880,2,0,P|257:63|240:32,1,69.9999978637696
183,74,5229,2,0,P|145:50|109:56,1,69.9999978637696
131,124,5577,6,0,P|97:152|91:188,1,69.9999978637696
94,69,5926,2,0,P|110:109|142:126,1,69.9999978637696
206,141,6275,2,0,P|249:138|275:112,1,69.9999978637696
203,207,6624,2,0,P|214:164|197:131,1,69.9999978637696
135,233,6973,5,0,0:0:0:0:
119,301,7147,1,0,0:0:0:0:
0,264,7321,2,0,P|47:262|74:249,1,69.9999978637696
232,367,7670,5,0,0:0:0:0:
216,299,7844,1,0,0:0:0:0:
288,317,8018,2,0,P|335:319|362:332,1,69.9999978637696
432,274,8368,5,0,0:0:0:0:
417,283,8542,1,0,0:0:0:0:
404,292,8717,1,0,0:0:0:0:
389,303,8891,1,0,0:0:0:0:
501,231,9066,5,0,0:0:0:0:
498,310,9240,1,0,0:0:0:0:
439,368,9414,1,0,0:0:0:0:
356,376,9589,1,0,0:0:0:0:
288,326,9763,6,0,P|248:324|186:349,1,80
62,269,10112,2,0,P|100:279|140:277,1,80
324,242,10461,2,0,P|284:240|222:265,1,80
98,185,10810,2,0,P|136:195|176:193,1,80
244,144,11159,5,0,0:0:0:0:
197,76,11333,1,0,0:0:0:0:
270,35,11507,2,0,L|369:43,1,80
512,109,11856,1,0,0:0:0:0:
441,72,12031,1,0,0:0:0:0:
377,119,12205,2,0,B|364:150|364:150|378:206,1,80
436,338,12554,5,0,0:0:0:0:
455,333,12728,1,0,0:0:0:0:
326,273,12903,1,0,0:0:0:0:
345,278,13077,1,0,0:0:0:0:
162,373,13252,5,0,0:0:0:0:
253,333,13426,1,0,0:0:0:0:
244,338,13513,1,0,0:0:0:0:
234,346,13600,6,0,L|243:278,1,50
297,55,13949,6,0,P|356:118|319:192,1,150
285,220,14298,2,0,L|177:232,1,80,8|0,0:0|0:0,0:0:0:0:
90,201,14560,6,0,L|140:196,1,50
71,328,14821,1,0,0:0:0:0:
3,295,14996,2,0,L|161:277,1,150,8|0,0:0|0:0,0:0:0:0:
197,193,15345,6,0,B|286:210|225:279|354:293,1,150
382,249,15693,2,0,L|396:148,1,80,8|0,0:0|0:0,0:0:0:0:
353,58,15955,2,0,L|345:107,1,50
502,71,16217,1,0,0:0:0:0:
479,0,16391,2,0,L|451:187,1,150,8|0,0:0|0:0,0:0:0:0:
512,249,16740,6,0,P|443:243|379:294,1,150
382,249,17089,1,8,0:0:0:0:
414,361,17263,1,0,0:0:0:0:
414,361,17350,1,0,0:0:0:0:
414,361,17438,2,0,P|350:361|314:294,1,100
153,321,17787,2,0,P|223:312|258:227,1,150,8|0,0:0|0:0,0:0:0:0:
213,186,18135,6,0,L|228:23,1,150
249,65,18484,1,8,0:0:0:0:
125,114,18659,1,0,0:0:0:0:
125,114,18746,1,0,0:0:0:0:
125,114,18833,6,0,B|95:156|95:156|112:230,1,100
147,266,19095,1,0,0:0:0:0:
147,266,19182,6,0,L|293:246,1,94.9999974632264,8|0,0:0|0:0,0:0:0:0:
341,176,19356,6,0,B|299:167|299:167|258:194,1,75.0000028610231,8|0,0:0|0:0,0:0:0:0:
292,300,19531,6,0,B|327:333|358:329|358:329|414:275|373:203,1,179.999994506836
340,175,19880,2,0,L|331:56,1,119.999996337891,8|0,0:0|0:0,0:0:0:0:
331,56,20141,1,0,0:0:0:0:
331,56,20228,1,0,0:0:0:0:
501,123,20403,1,0,0:0:0:0:
386,233,20577,2,0,P|319:250|273:201,1,119.999996337891,8|0,0:0|0:0,0:0:0:0:
217,129,20926,6,0,B|142:146|142:146|108:178|108:178|30:199,1,179.999994506836
6,140,21275,2,0,L|26:5,1,119.999996337891,8|0,0:0|0:0,0:0:0:0:
23,21,21537,1,0,0:0:0:0:
23,21,21624,1,0,0:0:0:0:
175,206,21798,1,0,0:0:0:0:
217,129,21973,6,0,P|142:125|91:227,1,179.999994506836,8|0,0:0|0:0,0:0:0:0:
97,240,22321,5,0,0:0:0:0:
335,228,22496,5,0,0:0:0:0:
335,228,22583,1,0,0:0:0:0:
335,228,22670,2,0,L|202:215,1,119.999996337891,8|0,0:0|0:0,0:0:0:0:
63,313,23019,2,0,B|126:322|126:322|177:278,1,119.999996337891
199,122,23368,6,0,B|299:145|239:211|343:229,1,179.999994506836,8|0,0:0|0:0,0:0:0:0:
356,215,23717,5,0,0:0:0:0:
168,252,23891,2,0,P|152:290|151:319,1,59.9999981689454
213,352,24066,1,8,0:0:0:0:
482,163,24240,6,0,L|422:173,1,59.9999981689454,2|0,0:0|0:0,0:0:0:0:
236,201,24414,2,0,L|356:215,1,119.999996337891,2|2,0:0|0:0,0:0:0:0:
442,295,24676,1,2,0:0:0:0:
430,305,24763,2,0,L|425:235,1,59.9999981689454,10|0,0:0|0:0,0:0:0:0:
347,28,24938,2,0,B|380:57|378:104|378:104|354:133,1,120,8|0,0:0|0:0,0:0:0:0:
327,140,25112,6,0,L|102:118,1,202.500000772476
158,138,25461,1,0,0:0:0:0:
64,47,25635,1,0,0:0:0:0:
42,72,25722,1,0,0:0:0:0:
28,100,25809,1,0,0:0:0:0:
37,132,25896,1,0,0:0:0:0:
47,165,25983,1,0,0:0:0:0:
99,356,26159,2,0,P|110:292|132:225,1,75.0000028610231
351,246,26507,5,0,0:0:0:0:
261,277,26682,1,0,0:0:0:0:
332,339,26856,1,0,0:0:0:0:
446,195,27031,1,0,0:0:0:0:
450,228,27118,1,0,0:0:0:0:
455,261,27205,1,0,0:0:0:0:
460,295,27292,1,0,0:0:0:0:
465,328,27379,1,0,0:0:0:0:
351,246,27554,6,0,L|268:232,1,67.5000002574921
159,179,27728,2,0,L|248:160,1,67.5000002574921
315,127,27903,5,0,0:0:0:0:
199,279,28077,1,0,0:0:0:0:
124,102,28252,1,0,0:0:0:0:
53,152,28426,1,0,0:0:0:0:
47,185,28513,1,0,0:0:0:0:
42,218,28600,1,0,0:0:0:0:
37,252,28687,1,0,0:0:0:0:
31,285,28774,1,0,0:0:0:0:
184,378,28949,2,0,P|172:323|170:284,1,75.0000028610231
421,196,29298,5,0,0:0:0:0:
335,219,29472,1,0,0:0:0:0:
254,179,29647,1,0,0:0:0:0:
380,63,29821,1,0,0:0:0:0:
380,63,29909,1,0,0:0:0:0:
380,63,29996,2,0,L|365:146,1,67.5000002574921
305,189,30170,6,0,B|348:154|389:151|389:151|441:189,1,135.000000514984
442,196,30403,2,0,L|488:185,2,45.0000001716614
362,333,30693,6,0,L|372:247,1,75.0000028610231
369,360,31042,1,0,0:0:0:0:
269,272,31217,1,0,0:0:0:0:
232,262,31304,1,0,0:0:0:0:
196,254,31391,1,0,0:0:0:0:
165,274,31478,1,0,0:0:0:0:
133,294,31565,1,0,0:0:0:0:
21,157,31740,2,0,P|77:183|95:185,1,75.0000028610231
366,90,32089,5,0,0:0:0:0:
282,49,32263,1,0,0:0:0:0:
204,103,32438,1,0,0:0:0:0:
339,209,32612,1,0,0:0:0:0:
369,200,32699,1,0,0:0:0:0:
402,193,32787,1,0,0:0:0:0:
432,187,32874,1,0,0:0:0:0:
463,180,32961,1,0,0:0:0:0:
279,371,33135,6,0,P|274:326|263:287,1,75.0000028610231
124,83,33484,6,0,P|100:153|99:170,1,75.0000028610231
156,63,33833,1,0,0:0:0:0:
156,210,34007,1,0,0:0:0:0:
190,223,34094,1,0,0:0:0:0:
227,217,34181,1,0,0:0:0:0:
256,194,34268,1,0,0:0:0:0:
271,160,34355,1,0,0:0:0:0:
412,115,34531,2,0,P|353:87|338:48,1,75.0000028610231
384,230,34880,5,0,0:0:0:0:
428,44,35054,1,0,0:0:0:0:
428,44,35141,1,0,0:0:0:0:
428,44,35228,2,0,L|269:55,1,135.000000514984
220,101,35490,1,0,0:0:0:0:
220,101,35577,6,0,B|182:106|182:106|146:88,1,67.5000002574921
48,43,35752,2,0,B|71:73|71:73|73:113,1,67.5000002574921
118,168,35926,2,0,L|110:216,2,33.750000128746
156,23,36100,1,0,0:0:0:0:
248,177,36275,6,0,B|361:130|327:256|492:175,1,202.500000772476
389,56,36624,2,0,P|395:129|439:115,1,135.000000514984
487,76,36886,1,0,0:0:0:0:
491,66,36973,6,0,L|504:-31,1,67.5000002574921
312,156,37147,2,0,L|327:259,1,67.5000002574921
468,340,37321,2,0,P|479:272|488:242,1,75.0000028610231
487,367,37670,5,0,0:0:0:0:
385,325,37845,1,0,0:0:0:0:
284,357,38019,2,0,P|246:359|181:371,1,75.0000028610231
185,380,38281,1,0,0:0:0:0:
190,353,38368,1,0,0:0:0:0:
195,326,38455,1,0,0:0:0:0:
200,299,38542,1,0,0:0:0:0:
93,189,38717,6,0,P|68:251|79:280,1,75.0000028610231
227,143,39066,2,0,P|206:78|208:47,1,75.0000028610231
321,242,39414,1,0,0:0:0:0:
364,85,39589,5,0,0:0:0:0:
400,77,39676,1,0,0:0:0:0:
436,87,39763,1,0,0:0:0:0:
462,113,39850,1,0,0:0:0:0:
474,148,39937,1,0,0:0:0:0:
512,252,40112,2,0,P|450:269|432:295,1,75.0000028610231
345,364,40461,6,0,P|291:351|263:308,1,75.0000028610231
285,232,40810,1,0,0:0:0:0:
136,263,40984,1,0,0:0:0:0:
136,263,41071,1,0,0:0:0:0:
136,263,41159,2,0,L|209:274,1,64.9999970245363
329,137,41333,2,0,P|265:196|185:174,1,135.000000514984
201,176,41566,2,0,L|213:119,2,45.0000001716614
136,263,41856,6,0,L|149:363,1,75.0000028610231
115,247,42205,1,0,0:0:0:0:
246,320,42380,1,0,0:0:0:0:
278,328,42467,1,0,0:0:0:0:
310,321,42554,1,0,0:0:0:0:
336,300,42641,1,0,0:0:0:0:
350,269,42728,1,0,0:0:0:0:
382,67,42903,2,0,L|307:76,1,75.0000028610231
229,146,43252,6,0,P|300:173|341:165,1,67.5000002574921
499,88,43600,2,0,P|414:80|366:128,1,135.000000514984
353,127,43862,1,0,0:0:0:0:
358,92,43949,1,0,0:0:0:0:
362,58,44037,1,0,0:0:0:0:
367,22,44124,1,0,0:0:0:0:
456,189,44298,2,0,L|466:285,1,75.0000028610231
289,384,44647,6,0,P|301:324|315:283,1,75.0000028610231
250,222,44996,1,0,0:0:0:0:
40,312,45170,1,0,0:0:0:0:
66,318,45257,1,0,0:0:0:0:
93,315,45345,1,0,0:0:0:0:
115,300,45432,1,0,0:0:0:0:
133,280,45519,1,0,0:0:0:0:
95,75,45693,6,0,P|84:109|99:149,1,75.0000028610231
202,198,46042,6,0,B|315:219|286:124|391:148,1,202.500000772476
350,298,46391,2,0,L|369:198,1,75.0000028610231
227,81,46653,1,0,0:0:0:0:
227,81,46740,2,0,L|240:150,1,37.5000014305115
165,265,46914,2,0,P|74:260|51:203,1,139.999995727539
30,208,47147,2,0,L|23:262,2,46.6666652425131
29,68,47438,5,0,0:0:0:0:
97,111,47612,6,0,P|163:100|198:59,1,89.9999972534181
26,144,47961,1,0,0:0:0:0:
21,158,48048,1,0,0:0:0:0:
22,177,48135,1,0,0:0:0:0:
93,188,48310,1,0,0:0:0:0:
95,202,48397,1,0,0:0:0:0:
102,212,48484,1,0,0:0:0:0:
175,201,48659,1,0,0:0:0:0:
343,16,48833,5,0,0:0:0:0:
278,55,49007,2,0,L|260:173,1,89.9999972534181
380,224,49356,1,0,0:0:0:0:
383,206,49443,1,0,0:0:0:0:
387,188,49531,1,0,0:0:0:0:
274,246,49705,1,0,0:0:0:0:
270,264,49793,1,0,0:0:0:0:
267,282,49880,1,0,0:0:0:0:
388,354,50054,1,0,0:0:0:0:
392,166,50228,5,0,0:0:0:0:
512,248,50403,2,0,L|403:239,1,89.9999972534181
236,142,50752,1,0,0:0:0:0:
253,136,50840,1,0,0:0:0:0:
270,130,50927,1,0,0:0:0:0:
274,246,51100,1,0,0:0:0:0:
270,264,51188,1,0,0:0:0:0:
267,282,51275,1,0,0:0:0:0:
154,236,51449,1,0,0:0:0:0:
80,380,51624,5,0,0:0:0:0:
16,336,51798,2,0,L|31:247,1,89.9999972534181
82,103,52147,1,0,0:0:0:0:
85,120,52234,1,0,0:0:0:0:
88,137,52321,1,0,0:0:0:0:
223,222,52496,1,0,0:0:0:0:
206,225,52583,1,0,0:0:0:0:
189,228,52670,1,0,0:0:0:0:
98,319,52845,1,0,0:0:0:0:
248,364,53019,5,0,0:0:0:0:
320,317,53193,2,0,L|446:329,1,110.000003356934
252,238,53542,1,0,0:0:0:0:
247,259,53630,1,0,0:0:0:0:
244,280,53717,1,0,0:0:0:0:
384,219,53891,1,0,0:0:0:0:
387,198,53978,1,0,0:0:0:0:
392,177,54066,1,0,0:0:0:0:
224,43,54240,1,0,0:0:0:0:
219,64,54328,1,0,0:0:0:0:
216,85,54415,1,0,0:0:0:0:
137,124,54589,6,0,P|46:125|2:162,1,110.000003356934
74,306,54938,1,0,0:0:0:0:
93,296,55025,1,0,0:0:0:0:
108,280,55112,1,0,0:0:0:0:
265,362,55287,1,0,0:0:0:0:
265,340,55374,1,0,0:0:0:0:
259,319,55461,1,0,0:0:0:0:
408,224,55636,1,0,0:0:0:0:
389,213,55723,1,0,0:0:0:0:
368,208,55810,6,0,L|365:138,3,55.0000016784668
271,237,56159,6,0,L|268:291,3,55.0000016784668
285,129,56507,6,0,L|282:59,3,55.0000016784668
188,158,56856,6,0,L|185:212,3,55.0000016784668
124,287,57205,5,0,0:0:0:0:
272,177,57554,1,0,0:0:0:0:
272,177,57641,1,0,0:0:0:0:
272,177,57728,1,0,0:0:0:0:
131,70,57903,1,0,0:0:0:0:
0,170,58252,1,0,0:0:0:0:
73,114,58600,6,0,B|186:97|186:97|231:153|217:157,1,160
188,231,58862,2,0,L|199:146,1,80
417,160,59124,1,0,0:0:0:0:
417,160,59211,1,0,0:0:0:0:
417,160,59298,6,0,B|315:180,1,94.9999974632264,8|0,0:0|0:0,0:0:0:0:
201,120,59473,6,0,L|274:106,1,75.0000028610231,8|0,0:0|0:0,0:0:0:0:
426,24,59647,6,8,B|366:34|366:34|329:20|329:20|248:33,1,150,8|0,0:0|0:0,0:0:0:0:
201,120,59996,6,0,B|175:139|152:149|152:149|90:114|124:33,1,160
132,20,60257,2,0,P|115:101|99:110,1,80
0,185,60519,5,0,0:0:0:0:
0,185,60606,1,0,0:0:0:0:
0,185,60693,6,0,L|151:197,1,94.9999974632264,8|0,0:0|0:0,0:0:0:0:
141,292,60868,6,0,P|209:253|248:259,1,75.0000028610231,8|0,0:0|0:0,0:0:0:0:
266,149,61042,6,0,B|326:179|289:231|389:257,1,150,8|0,0:0|0:0,0:0:0:0:
302,70,61391,2,0,P|234:60|181:167,1,160
160,137,61653,2,0,B|112:138|44:141|41:141,1,80
241,274,61914,1,0,0:0:0:0:
241,274,62002,1,0,0:0:0:0:
241,274,62089,6,0,P|248:172|266:117,1,94.9999974632264,8|0,0:0|0:0,0:0:0:0:
160,137,62263,2,0,P|145:63|124:20,1,75.0000028610231,8|0,0:0|0:0,0:0:0:0:
271,63,62438,2,0,B|355:51|323:132|446:118,1,150,8|0,0:0|0:0,0:0:0:0:
422,105,62787,5,0,0:0:0:0:
279,137,62961,1,0,0:0:0:0:
279,137,63048,1,0,0:0:0:0:
279,137,63135,2,0,L|150:155,1,80
367,172,63310,6,0,L|260:157,1,80,10|0,0:0|0:0,0:0:0:0:
302,1,63484,2,0,P|317:38|322:81,1,80,8|0,0:0|0:0,0:0:0:0:
346,248,63659,2,0,P|351:208|366:171,1,80
238,61,63833,1,8,0:0:0:0:
439,229,64007,1,8,0:0:0:0:
223,316,64182,6,0,B|89:284|154:378|8:340,1,200,6|0,0:0|0:0,0:0:0:0:
45,370,64443,1,0,0:0:0:0:
52,362,64531,2,0,L|64:273,1,69.9999978637696
152,180,64705,6,0,L|141:87,1,75
99,52,64880,6,0,B|57:112|57:112|219:139,1,200,12|0,0:0|0:0,0:0:0:0:
261,84,65141,1,0,0:0:0:0:
267,79,65228,2,0,L|359:67,1,69.9999978637696
396,142,65403,6,0,P|446:151|480:180,1,83.3333333333333
496,230,65577,6,0,B|451:156|479:64|479:64|432:142|351:143|351:143|424:116|484:182,1,440.000013427735,12|0,0:0|0:0,0:0:0:0:
510,91,66100,6,0,P|325:175|522:110,1,600.000022888185,12|0,0:0|0:0,0:0:0:0:
436,152,66624,6,0,B|342:167|394:103|267:115,1,150,4|0,0:0|0:0,0:0:0:0:
267,134,66973,1,8,0:0:0:0:
141,66,67147,1,0,0:0:0:0:
141,66,67234,1,0,0:0:0:0:
141,66,67321,6,0,L|70:75,1,69.9999978637696
0,33,67496,2,0,P|35:12|34:29,1,69.9999978637696,8|0,0:0|0:0,0:0:0:0:
78,156,67670,6,0,L|66:238,1,69.9999978637696
71,74,67845,2,0,L|59:156,1,69.9999978637696
0,220,68019,6,0,B|-16:268|-16:268|20:302,1,100,8|0,0:0|0:0,0:0:0:0:
102,311,68193,2,0,B|155:275|156:326|226:272,1,100
261,241,68368,1,8,0:0:0:0:
336,359,68542,5,8,0:0:0:0:
336,359,68630,1,8,0:0:0:0:
336,359,68717,2,0,L|345:282,1,69.9999978637696,8|0,0:0|0:0,0:0:0:0:
428,164,68891,1,0,0:0:0:0:
428,164,68978,1,0,0:0:0:0:
428,164,69066,6,0,L|412:273,1,59.9999981689454,8|0,0:0|0:0,0:0:0:0:
437,384,69240,6,0,L|445:324,1,59.9999981689454,8|0,0:0|0:0,0:0:0:0:
295,271,69414,2,0,L|376:279,1,59.9999981689454,8|0,0:0|0:0,0:0:0:0:
501,293,69589,2,0,B|383:288|447:367|315:346,1,165.000005035401
324,325,69763,6,0,L|269:321,1,40,4|0,0:0|0:0,0:0:0:0:
139,296,70112,6,0,L|84:292,1,40,4|0,0:0|0:0,0:0:0:0:
201,314,70374,6,0,L|146:310,1,40,4|0,0:0|0:0,0:0:0:0:
38,185,70810,6,0,B|116:194|59:134|171:150|172:150,1,120
172,166,71159,6,0,L|162:216,1,44.999998626709,4|0,0:0|0:0,0:0:0:0:
201,314,71507,2,0,L|191:364,1,44.999998626709,4|0,0:0|0:0,0:0:0:0:
228,266,71769,2,0,L|218:316,1,44.999998626709,4|0,0:0|0:0,0:0:0:0:
365,299,72205,6,0,P|415:299|440:258,1,89.9999972534181
445,251,72554,1,4,0:0:0:0:
328,136,73077,1,0,0:0:0:0:
405,170,73252,2,0,L|173:161,1,179.999994506836,4|0,0:0|0:0,0:0:0:0:
221,129,73600,6,0,P|265:169|235:248,1,119.999996337891,4|0,0:0|0:0,0:0:0:0:
111,360,73949,1,4,0:0:0:0:
125,289,74124,1,2,0:0:0:0:
140,214,74298,6,0,B|283:169|236:300|415:240,1,269.999991760254,4|0,0:0|0:0,0:0:0:0:
407,163,74996,2,0,P|338:181|316:256,1,134.999995880127
301,275,75345,6,0,L|306:334,1,40,4|0,0:0|0:0,0:0:0:0:
410,202,75693,2,0,L|406:162,1,40,4|0,0:0|0:0,0:0:0:0:
425,261,75955,2,0,L|421:221,1,40,4|0,0:0|0:0,0:0:0:0:
298,56,76391,2,0,L|160:84,1,120
151,91,76740,6,0,L|95:82,1,44.999998626709,4|0,0:0|0:0,0:0:0:0:
56,226,77089,2,0,L|100:233,1,44.999998626709,4|0,0:0|0:0,0:0:0:0:
0,202,77350,2,0,L|44:209,1,44.999998626709,4|0,0:0|0:0,0:0:0:0:
241,340,77612,5,0,0:0:0:0:
377,366,77787,1,0,0:0:0:0:
461,270,77961,1,0,0:0:0:0:
337,217,78135,5,0,0:0:0:0:
292,283,78310,1,0,0:0:0:0:
321,301,78397,1,0,0:0:0:0:
360,293,78484,1,0,0:0:0:0:
381,146,78659,6,0,B|469:156|430:222|524:227,1,150
512,208,79007,1,0,0:0:0:0:
360,293,79182,1,0,0:0:0:0:
457,381,79356,2,0,L|466:280,1,100
301,246,79705,5,0,0:0:0:0:
289,261,79792,1,0,0:0:0:0:
285,280,79880,1,0,0:0:0:0:
360,293,80054,6,0,B|274:270|301:352|184:313,1,150
93,365,80403,2,0,B|129:308|105:238|105:238|152:265|183:264,1,200
266,167,80926,5,0,0:0:0:0:
260,160,81013,1,0,0:0:0:0:
253,157,81100,1,0,0:0:0:0:
242,156,81188,1,0,0:0:0:0:
211,94,81275,5,0,0:0:0:0:
197,96,81362,1,0,0:0:0:0:
188,103,81449,1,0,0:0:0:0:
178,116,81537,1,0,0:0:0:0:
108,96,81624,5,0,0:0:0:0:
100,115,81711,1,0,0:0:0:0:
102,132,81798,1,0,0:0:0:0:
111,155,81886,1,0,0:0:0:0:
48,195,81973,5,0,0:0:0:0:
66,219,82060,1,0,0:0:0:0:
90,229,82147,1,0,0:0:0:0:
123,230,82235,1,0,0:0:0:0:
176,184,82321,5,0,0:0:0:0:
342,364,83019,5,0,0:0:0:0:
283,289,83193,2,0,L|274:223,2,50
355,378,83542,1,0,0:0:0:0:
389,290,83717,6,0,B|307:302|307:302|276:330|276:330|183:346,1,194.999991073609,6|0,0:0|0:0,0:0:0:0:
182,329,84066,1,0,0:0:0:0:
355,378,84240,1,0,0:0:0:0:
451,248,84414,1,10,0:0:0:0:
260,384,84589,5,0,0:0:0:0:
303,236,84763,1,0,0:0:0:0:
459,263,84938,1,0,0:0:0:0:
394,323,85112,5,8,0:0:0:0:
355,181,85287,1,0,0:0:0:0:
509,172,85461,1,0,0:0:0:0:
268,293,85635,1,0,0:0:0:0:
350,79,85810,5,8,0:0:0:0:
512,236,85984,1,0,0:0:0:0:
512,236,86071,1,0,0:0:0:0:
512,236,86159,2,0,L|393:222,1,112.500004291535,10|0,0:0|0:0,0:0:0:0:
381,199,86507,5,10,0:0:0:0:
268,293,86682,1,0,0:0:0:0:
411,350,86856,1,10,0:0:0:0:
512,236,87031,1,10,0:0:0:0:
268,293,87205,6,0,B|207:276|163:321|162:324|162:324|111:273|136:239,1,194.999991073609,8|0,0:0|0:0,0:0:0:0:
310,221,87554,6,0,P|351:267|339:328,1,100
234,166,87903,1,2,0:0:0:0:
310,107,88077,2,0,B|443:114|362:206|514:204,1,200,8|0,0:0|0:0,0:0:0:0:
485,198,88513,1,0,0:0:0:0:
493,174,88600,5,0,0:0:0:0:
467,176,88688,1,0,0:0:0:0:
448,193,88775,1,0,0:0:0:0:
442,217,88862,1,0,0:0:0:0:
459,252,88949,5,0,0:0:0:0:
466,291,89037,1,0,0:0:0:0:
445,325,89124,1,0,0:0:0:0:
409,343,89211,1,0,0:0:0:0:
344,306,89298,6,0,L|238:286,1,100,8|0,0:0|0:0,0:0:0:0:
55,357,89647,2,0,P|92:294|97:264,1,100
65,118,89996,2,0,B|177:91|142:188|264:157,1,200,10|0,0:0|0:0,0:0:0:0:
218,70,90519,1,0,0:0:0:0:
73,217,90693,1,8,0:0:0:0:
95,26,90868,1,0,0:0:0:0:
250,159,91042,1,0,0:0:0:0:
257,143,91391,5,8,0:0:0:0:
176,187,91566,2,0,L|96:193,2,50
357,242,91914,1,0,0:0:0:0:
246,217,92089,2,0,L|257:285,1,50,8|0,0:0|0:0,0:0:0:0:
272,338,92263,1,8,0:0:0:0:
278,326,92612,5,8,0:0:0:0:
278,326,92699,1,8,0:0:0:0:
278,326,92787,2,0,L|153:343,1,100
381,285,93135,2,0,L|364:410,1,100
296,220,93484,5,8,0:0:0:0:
395,175,93659,1,0,0:0:0:0:
412,174,93746,1,0,0:0:0:0:
428,173,93833,1,0,0:0:0:0:
331,97,94007,2,0,L|281:89,1,50
212,87,94182,5,8,0:0:0:0:
203,101,94269,2,0,L|194:161,1,50
121,154,94443,1,0,0:0:0:0:
107,167,94531,2,0,L|30:177,1,50
166,223,94705,2,0,L|173:272,1,50
253,299,94880,6,2,L|371:302,1,100,8|2,0:0|0:0,0:0:0:0:
375,369,95228,1,0,0:0:0:0:
241,287,95403,1,0,0:0:0:0:
261,208,95577,5,0,0:0:0:0:
191,352,95752,1,0,0:0:0:0:
7,270,95926,1,0,0:0:0:0:
158,278,96100,1,0,0:0:0:0:
106,341,96275,5,0,0:0:0:0:
0,170,96449,1,0,0:0:0:0:
166,64,96624,1,0,0:0:0:0:
103,12,96798,2,0,B|76:50|76:50|101:127,1,100
257,193,97147,6,0,L|311:180,2,50
47,286,97496,1,0,0:0:0:0:
110,238,97670,2,0,B|174:249|174:249|198:273|198:273|262:284,1,150
272,273,98019,1,0,0:0:0:0:
285,185,98193,1,0,0:0:0:0:
271,189,98281,1,0,0:0:0:0:
257,193,98368,5,0,0:0:0:0:
357,244,98542,1,0,0:0:0:0:
460,181,98717,2,0,B|423:149|423:149|334:166,1,100
296,306,99066,1,0,0:0:0:0:
385,236,99240,1,0,0:0:0:0:
371,240,99328,1,0,0:0:0:0:
357,244,99415,5,0,0:0:0:0:
485,287,99589,1,0,0:0:0:0:
471,291,99677,1,0,0:0:0:0:
457,295,99764,1,0,0:0:0:0:
512,136,99938,1,0,0:0:0:0:
498,140,100026,1,0,0:0:0:0:
484,144,100113,1,0,0:0:0:0:
470,148,100200,1,0,0:0:0:0:
456,152,100287,1,0,0:0:0:0:
316,118,100461,5,0,0:0:0:0:
391,255,100635,1,0,0:0:0:0:
409,90,100810,2,0,L|422:-16,1,100
202,182,101159,2,0,B|289:198|251:135|350:152,1,150
363,166,101507,5,0,0:0:0:0:
486,242,101682,1,0,0:0:0:0:
336,306,101856,1,0,0:0:0:0:
446,176,102031,1,0,0:0:0:0:
502,337,102205,1,0,0:0:0:0:
350,225,102380,1,0,0:0:0:0:
350,225,102467,1,0,0:0:0:0:
350,225,102554,6,0,L|230:238,1,100
206,352,102903,2,0,P|142:323|90:320,1,100
59,148,103252,1,0,0:0:0:0:
13,214,103426,6,0,P|79:228|131:127,1,150
126,163,103775,1,0,0:0:0:0:
127,177,103862,1,0,0:0:0:0:
128,192,103950,1,0,0:0:0:0:
129,206,104037,1,0,0:0:0:0:
130,220,104124,1,0,0:0:0:0:
202,101,104298,1,0,0:0:0:0:
44,210,104473,1,0,0:0:0:0:
210,297,104647,6,0,L|339:274,1,100
330,268,104909,2,0,L|320:334,1,50
418,211,105170,5,0,0:0:0:0:
399,195,105257,1,0,0:0:0:0:
379,179,105344,1,0,0:0:0:0:
411,302,105519,5,0,0:0:0:0:
434,296,105606,1,0,0:0:0:0:
459,292,105693,2,0,L|518:280,2,50
112,203,106042,6,0,B|227:175|178:270|315:243,1,202.500000772476
330,268,106391,2,0,P|323:191|329:164,1,75.0000028610231
346,175,106653,1,0,0:0:0:0:
330,268,106740,6,0,B|318:391|318:391|270:330,1,194.999991073609
139,281,107089,2,0,L|47:292,1,75.0000028610231
213,64,107438,5,0,0:0:0:0:
273,119,107612,1,0,0:0:0:0:
195,146,107787,1,0,0:0:0:0:
63,94,107961,6,0,L|156:86,1,67.5000002574921
340,113,108135,2,0,L|273:119,1,67.5000002574921
195,146,108310,1,0,0:0:0:0:
299,33,108484,1,0,0:0:0:0:
382,210,108659,1,0,0:0:0:0:
295,203,108833,6,0,P|374:120|460:169,1,202.500000772476
442,120,109182,1,0,0:0:0:0:
382,210,109356,6,0,P|374:259|375:299,1,67.5000002574921
477,354,109531,2,0,P|475:320|468:287,1,67.5000002574921
269,282,109705,1,0,0:0:0:0:
373,276,109880,6,0,L|288:271,1,75.0000028610231
32,195,110228,6,0,P|79:190|145:157,1,112.500004291535
191,113,110577,1,0,0:0:0:0:
269,282,110752,6,0,P|259:350|258:361,1,67.5000002574921
331,226,110926,2,0,P|326:192|321:159,1,67.5000002574921
411,276,111100,1,0,0:0:0:0:
246,197,111275,6,0,L|196:206,2,33.750000128746
404,172,111449,1,0,0:0:0:0:
331,226,111624,6,0,B|290:324|353:359|353:359|370:326|411:299,1,202.500000772476
419,334,111973,1,0,0:0:0:0:
236,296,112147,1,0,0:0:0:0:
203,289,112234,1,0,0:0:0:0:
170,297,112321,1,0,0:0:0:0:
143,317,112408,1,0,0:0:0:0:
126,346,112495,1,0,0:0:0:0:
212,380,112670,1,0,0:0:0:0:
191,175,112845,1,0,0:0:0:0:
212,380,113019,5,0,0:0:0:0:
91,278,113193,1,0,0:0:0:0:
310,256,113368,1,0,0:0:0:0:
212,380,113542,2,0,L|206:296,1,67.5000002574921
191,175,113717,2,0,L|185:91,1,67.5000002574921
193,207,113891,1,0,0:0:0:0:
108,56,114066,1,0,0:0:0:0:
282,129,114240,1,0,0:0:0:0:
74,162,114414,6,0,B|-3:232|42:304|42:304|96:289,1,202.500000772476
166,350,114763,2,0,B|243:280|198:208|198:208|144:223,1,202.500000772476
231,276,115112,1,0,0:0:0:0:
237,275,115199,1,0,0:0:0:0:
243,274,115287,1,0,0:0:0:0:
462,278,115461,2,0,L|316:256,1,135.000000514984
205,0,115810,6,0,B|282:37|266:92|266:92|234:129|251:177,1,202.500000772476
355,188,116159,2,0,B|388:130|388:130|306:145,1,135.000000514984
293,222,116420,1,0,0:0:0:0:
294,228,116508,1,0,0:0:0:0:
295,234,116595,1,0,0:0:0:0:
296,240,116682,6,0,L|304:303,1,37.5000014305115
217,344,116856,6,0,L|210:289,1,50
389,316,117031,6,0,L|397:387,1,67.5000002574921
113,337,117205,6,0,B|94:204|94:204|153:144|153:143,1,202.500000772476
63,77,117554,2,0,P|76:137|181:114,1,135.000000514984
196,106,117816,1,0,0:0:0:0:
204,104,117903,2,0,L|307:89,1,67.5000002574921
320,147,118077,2,0,L|423:132,1,67.5000002574921
436,190,118252,2,0,L|539:175,1,67.5000002574921
242,313,118426,1,0,0:0:0:0:
251,235,118600,6,0,B|290:239|327:276|327:276|298:406,1,202.500000772476
342,359,118949,2,0,L|371:219,1,135.000000514984
336,155,119211,1,0,0:0:0:0:
341,138,119298,6,0,L|359:59,1,67.5000002574921
465,190,119473,2,0,L|450:255,1,67.5000002574921
236,300,119647,2,0,L|250:234,1,67.5000002574921
351,384,119821,1,0,0:0:0:0:
236,300,119996,6,0,B|209:270|170:266|170:266|101:334|130:401,1,202.500000772476
209,197,120345,2,0,P|122:198|94:256,1,135.000000514984
48,296,120606,1,0,0:0:0:0:
48,296,120693,2,0,P|19:229|22:212,1,67.5000002574921
79,101,120868,2,0,P|99:127|108:159,1,67.5000002574921
236,300,121042,2,0,P|207:233|210:216,1,67.5000002574921
267,105,121217,2,0,P|287:131|296:163,1,67.5000002574921
354,336,121391,6,0,P|355:259|464:240,1,202.500000772476
424,306,121740,2,0,L|447:124,1,135.000000514984
401,113,122002,1,0,0:0:0:0:
413,101,122089,2,0,L|423:15,1,67.5000002574921
265,139,122263,2,0,L|257:206,1,67.5000002574921
358,302,122438,2,0,L|353:336,2,33.750000128746
406,231,122612,1,0,0:0:0:0:
208,267,122787,6,0,B|70:250|140:340|0:321,1,202.500000772476
55,346,123135,2,0,P|88:255|31:229,1,135.000000514984
5,258,123397,1,0,0:0:0:0:
72,239,123484,1,0,0:0:0:0:
90,172,123571,1,0,3:0:0:0:
41,124,123659,1,0,0:0:0:0:
179,354,123833,2,0,P|261:336|272:334,1,75.0000028610231
480,162,124182,6,0,B|346:187|424:79|273:121,1,202.500000772476
196,149,124531,2,0,B|224:176|224:176|212:73,1,135.000000514984
92,23,124793,1,0,0:0:0:0:
103,94,124880,1,0,0:0:0:0:
114,165,124967,1,0,0:0:0:0:
125,236,125054,1,0,0:0:0:0:
261,383,125228,2,0,P|270:346|282:311,1,75.0000028610231
437,97,125577,6,0,P|342:70|275:180,1,202.500000772476
330,212,125926,2,0,P|421:212|440:166,1,135.000000514984
406,94,126187,1,0,0:0:0:0:
328,115,126274,1,0,0:0:0:0:
349,194,126361,1,0,0:0:0:0:
427,173,126449,1,0,0:0:0:0:
232,365,126624,2,0,L|246:285,1,75.0000028610231
130,160,126973,5,0,0:0:0:0:
75,215,127147,6,0,B|74:253|74:253|125:226,1,75.0000028610231
109,84,127321,2,0,B|76:64|76:64|74:121,1,75.0000028610231
205,180,127496,2,0,B|238:161|238:161|189:131,1,75.0000028610231
113,158,127670,5,0,0:0:0:0:
142,158,127757,1,0,0:0:0:0:
117,168,127845,1,0,0:0:0:0:
138,147,127932,1,0,0:0:0:0:
127,172,128019,1,0,0:0:0:0:
127,142,128106,1,0,0:0:0:0:
138,168,128194,1,0,0:0:0:0:
117,147,128281,1,0,0:0:0:0:
130,160,128978,5,0,0:0:0:0:
