osu file format v14

[General]
AudioFilename: audio.mp3
AudioLeadIn: 0
PreviewTime: 83041
Countdown: 0
SampleSet: Soft
StackLeniency: 0.4
Mode: 0
LetterboxInBreaks: 0
WidescreenStoryboard: 1

[Editor]
Bookmarks: 14058,25221,36384,47547,58709,69872,83826,106151,129175
DistanceSpacing: 0.75
BeatDivisor: 4
GridSize: 16
TimelineZoom: 1.9

[Metadata]
Title:Yosakura Fubuki
TitleUnicode:夜桜吹雪
Artist:A.SAKA
ArtistUnicode:A.SAKA
Creator:MrMenda
Version:Future
Source:ステライツ - STELLIGHTS
Tags:Arcaea Celektus Lewski Lewdski -Jordan- Jory DeviousPanda
BeatmapID:1679698
BeatmapSetID:787959

[Difficulty]
HPDrainRate:6
CircleSize:4
OverallDifficulty:7.2
ApproachRate:9
SliderMultiplier:1.8
SliderTickRate:1

[Events]
//Background and Video events
0,0,"Yosakura fubuki Bg.jpg",0,0
//Break Periods
//Storyboard Layer 0 (Background)
//Storyboard Layer 1 (Fail)
//Storyboard Layer 2 (Pass)
//Storyboard Layer 3 (Foreground)
//Storyboard Sound Samples

[TimingPoints]
2896,348.837209302326,4,2,1,60,1,0
2896,-303.030303030303,4,2,1,60,0,0
9175,-434.782608695652,4,2,1,60,0,0
9872,-303.030303030303,4,2,1,60,0,0
14058,-117.647058823529,4,2,1,60,0,0
19639,-117.647058823529,4,2,1,70,0,0
19640,-100,4,2,1,70,0,0
21733,-133.333333333333,4,2,1,70,0,0
22779,-100,4,2,1,70,0,0
25220,-100,4,2,1,80,0,0
25221,-80,4,2,1,60,0,0
36383,-80,4,2,1,100,0,0
36384,-66.6666666666667,4,2,1,100,0,1
37430,-100,4,2,1,100,0,1
37779,-66.6666666666667,4,2,1,100,0,1
40221,-100,4,2,1,100,0,1
40570,-66.6666666666667,4,2,1,100,0,1
44407,-100,4,2,1,100,0,1
44756,-66.6666666666667,4,2,1,100,0,1
46151,-50,4,2,1,100,0,1
46675,-66.6666666666667,4,2,1,100,0,1
47546,-66.6666666666667,4,2,1,60,0,1
47547,-100,4,2,1,60,0,0
55918,-100,4,2,1,40,0,0
56267,-100,4,2,1,50,0,0
56615,-100,4,2,1,60,0,0
56964,-100,4,2,1,70,0,0
58709,-80,4,2,1,70,0,0
64465,-133.333333333333,4,2,1,70,0,0
67082,-100,4,2,1,70,0,0
69871,-100,4,2,1,60,0,0
69872,-80,4,2,1,60,0,0
72314,-100,4,2,1,60,0,0
75454,-80,4,2,1,60,0,0
78768,-100,4,2,1,60,0,0
81035,-80,4,2,1,60,0,0
81383,-80,4,2,1,65,0,0
81384,-86.9565217391304,4,2,1,65,0,0
81732,-86.9565217391304,4,2,1,70,0,0
81733,-95.2380952380952,4,2,1,70,0,0
82081,-95.2380952380952,4,2,1,75,0,0
82082,-105.263157894737,4,2,1,75,0,0
82429,-105.263157894737,4,2,1,80,0,0
82430,-181.818181818182,4,2,1,80,0,0
82953,-181.818181818182,4,2,1,60,0,0
83128,-100,4,2,1,60,0,0
83825,-100,4,2,1,80,0,0
83826,-80,4,2,1,80,0,0
106151,-80,4,2,1,80,0,0
107547,-66.6666666666667,4,2,1,80,0,0
107896,-80,4,2,1,80,0,0
110337,-66.6666666666667,4,2,1,80,0,0
111733,-80,4,2,1,80,0,0
117313,-80,4,2,1,100,0,0
117314,-66.6666666666667,4,2,1,100,0,1
118361,-100,4,2,1,100,0,1
118709,-66.6666666666667,4,2,1,100,0,1
121151,-100,4,2,1,100,0,1
121500,-66.6666666666667,4,2,1,100,0,1
125337,-100,4,2,1,100,0,1
125686,-66.6666666666667,4,2,1,100,0,1
127255,-66.6666666666667,4,2,1,60,0,1
127604,-66.6666666666667,4,2,1,70,0,1
127953,-66.6666666666667,4,2,1,80,0,1
128477,-57.1428571428571,4,2,1,80,0,0

[Colours]
Combo1 : 255,128,192
Combo2 : 128,128,192
Combo3 : 255,128,255
Combo4 : 128,128,255

[HitObjects]
61,205,2896,6,0,B|41:129|90:74|90:74|143:108|148:150,3,237.599999274902,6|2|2|2,0:0|0:0|0:0|0:0,0:0:0:0:
262,212,7779,5,2,0:0:0:0:
238,204,7954,1,0,0:0:0:0:
238,179,8128,1,0,0:0:0:0:
262,171,8302,1,2,0:3:0:0:
277,192,8477,6,0,B|326:200|419:150|419:150|371:161|330:145,3,237.599999274902,2|2|2|2,0:0|0:0|0:0|0:0,0:0:0:0:
155,68,13535,5,8,0:0:0:0:
155,68,13622,1,8,0:0:0:0:
155,68,13709,1,2,0:3:0:0:
155,68,13884,1,8,0:0:0:0:
33,201,14058,6,0,P|70:195|108:200,1,76.5000014591217,4|0,0:0|0:0,0:0:0:0:
190,257,14407,2,0,P|227:261|265:255,1,76.5000014591217,2|0,0:3|0:0,0:0:0:0:
229,98,14756,1,0,0:0:0:0:
228,183,14930,1,0,0:0:0:0:
313,184,15105,1,2,0:3:0:0:
314,99,15279,1,0,0:0:0:0:
438,255,15454,6,0,P|423:219|399:190,1,76.5000014591217,0|0,0:0|0:0,0:0:0:0:
355,345,15802,2,0,P|359:307|353:269,1,76.5000014591217,2|0,0:3|0:0,0:0:0:0:
112,277,16151,1,0,0:0:0:0:
272,311,16326,2,0,L|195:311,1,76.5000014591217,0|2,0:0|0:3,0:0:0:0:
355,345,16675,1,0,0:0:0:0:
267,107,16849,6,0,P|280:71|303:41,1,76.5000014591217,0|0,0:0|0:0,0:0:0:0:
494,56,17198,2,0,P|456:62|418:57,1,76.5000014591217,2|0,0:3|0:0,0:0:0:0:
346,148,17547,1,0,0:0:0:0:
271,196,17721,1,0,0:0:0:0:
267,107,17896,1,2,0:3:0:0:
192,155,18070,1,0,0:0:0:0:
110,39,18244,6,0,P|118:85|106:127,1,76.5000014591217,0|0,0:0|0:0,0:0:0:0:
27,240,18593,1,2,0:3:0:0:
32,152,18768,1,0,0:0:0:0:
166,251,18942,2,0,P|130:280|87:291,1,76.5000014591217,0|8,0:0|0:2,0:0:0:0:
84,296,19204,1,8,0:2:0:0:
84,296,19291,1,2,0:3:0:0:
84,296,19465,1,8,0:0:0:0:
244,349,19640,6,0,P|315:332|418:371,1,180,4|0,3:0|3:0,0:0:0:0:
422,248,20163,1,2,0:3:0:0:
251,207,20337,2,0,P|294:197|338:206,1,90,0|2,3:0|0:3,0:0:0:0:
422,248,20686,2,0,P|465:256|509:246,1,90,0|2,3:0|0:3,0:0:0:0:
251,207,21035,2,0,P|294:197|338:206,1,90,0|2,3:0|0:3,0:0:0:0:
509,246,21384,1,0,3:0:0:0:
461,158,21558,1,2,0:3:0:0:
490,62,21733,6,0,P|456:57|423:60,1,67.5000025749208,0|2,3:0|0:3,0:0:0:0:
345,118,22082,2,0,P|311:121|278:116,1,67.5000025749208,0|2,3:0|0:3,0:0:0:0:
132,55,22430,6,0,P|165:50|199:55,1,67.5000025749208,0|2,3:0|3:3,0:0:0:0:
82,183,22779,1,0,3:0:0:0:
32,112,22954,1,2,3:3:0:0:
166,175,23128,2,0,P|156:219|128:252,1,90,0|2,3:0|3:3,0:0:0:0:
6,336,23477,1,0,3:0:0:0:
93,329,23651,1,2,3:3:0:0:
267,329,23826,5,4,3:2:0:0:
221,197,24000,6,0,L|238:248,1,45,0|0,3:0|3:0,0:0:0:0:
267,344,24175,1,0,3:0:0:0:
335,169,24349,6,0,L|318:220,1,45,12|0,0:2|0:0,0:0:0:0:
266,363,24523,1,0,3:0:0:0:
453,346,24698,5,0,3:0:0:0:
427,337,24785,1,0,3:0:0:0:
427,310,24872,1,12,0:2:0:0:
453,302,24959,1,8,0:2:0:0:
468,324,25047,1,0,0:0:0:0:
443,169,25221,6,0,P|383:181|321:162,1,112.5,4|2,3:2|0:3,0:0:0:0:
283,68,25570,1,0,3:0:0:0:
213,139,25744,5,2,0:3:0:0:
213,139,25832,1,2,0:2:0:0:
123,92,26006,5,2,0:2:0:0:
123,92,26093,1,2,0:3:0:0:
31,221,26268,6,0,P|92:245|142:236,1,112.5,0|2,3:0|0:3,0:0:0:0:
118,349,26616,6,0,L|138:227,1,112.5,0|2,3:2|0:3,0:0:0:0:
228,375,26965,1,0,3:0:0:0:
290,271,27140,6,0,L|354:273,1,56.25,2|8,0:3|0:2,0:0:0:0:
467,353,27401,6,0,L|403:355,1,56.25,8|2,0:2|0:3,0:0:0:0:
290,271,27663,5,0,3:0:0:0:
467,353,27837,1,2,0:3:0:0:
465,245,28012,6,0,B|451:189|468:157|468:157|494:185,2,112.5,0|2|0,3:2|0:3|3:0,0:0:0:0:
291,161,28535,6,0,L|364:172,1,56.25,2|2,0:3|0:2,0:0:0:0:
469,157,28797,5,2,0:2:0:0:
483,173,28884,1,2,0:3:0:0:
320,260,29058,2,0,B|211:294|211:222|99:258,1,225,0|0,3:0|3:2,0:0:0:0:
28,374,29582,5,2,0:3:0:0:
28,374,29669,1,0,0:0:0:0:
28,374,29756,1,0,3:0:0:0:
178,336,29930,5,2,0:3:0:0:
114,342,30018,1,8,0:2:0:0:
50,250,30192,5,8,0:2:0:0:
99,257,30279,1,2,0:3:0:0:
183,166,30454,2,0,L|127:180,3,37.5,2|2|2|8,3:2|0:2|0:2|0:2,0:0:0:0:
130,52,30802,6,0,B|47:52|47:52|1:83,2,112.5,4|2|0,3:2|0:3|3:0,0:0:0:0:
305,114,31326,5,2,0:3:0:0:
305,114,31413,1,2,0:2:0:0:
207,114,31587,5,2,0:2:0:0:
207,114,31675,1,2,0:3:0:0:
382,52,31849,6,0,B|465:52|465:52|511:83,1,112.5,0|2,3:0|0:3,0:0:0:0:
481,175,32198,6,0,P|471:112|501:54,1,112.5,0|2,3:2|0:3,0:0:0:0:
389,213,32547,1,0,3:0:0:0:
305,114,32721,6,0,L|302:194,1,56.25,2|8,0:3|0:2,0:0:0:0:
175,234,32983,6,0,L|255:237,1,56.25,8|0,0:2|0:0,0:0:0:0:
305,114,33244,1,0,3:0:0:0:
175,234,33419,1,2,0:3:0:0:
318,288,33593,6,0,P|280:327|225:339,1,112.5,0|2,3:2|0:3,0:0:0:0:
175,234,33942,1,0,3:0:0:0:
323,195,34116,5,2,0:3:0:0:
323,195,34204,1,2,0:2:0:0:
195,109,34378,5,2,0:2:0:0:
195,109,34465,1,2,0:3:0:0:
33,236,34640,2,0,B|67:211|67:211|66:69,1,168.75,0|0,3:0|0:0,0:0:0:0:
11,30,34989,6,0,P|59:55|114:48,1,112.5,0|2,3:2|0:3,0:0:0:0:
158,21,35250,1,0,0:0:0:0:
158,21,35337,1,0,3:0:0:0:
268,57,35512,5,2,0:3:0:0:
274,86,35599,1,8,0:2:0:0:
375,154,35773,5,8,0:2:0:0:
369,183,35861,1,2,0:3:0:0:
293,281,36035,6,0,L|294:345,3,37.5,2|2|2|8,3:2|0:2|0:2|0:2,0:0:0:0:
404,363,36384,6,0,P|383:292|414:235,1,135.000005149842,4|8,3:2|1:2,0:0:0:0:
506,155,36733,1,0,3:0:0:0:
356,233,36907,5,8,1:2:0:0:
408,240,36994,1,2,0:2:0:0:
512,298,37169,5,0,0:2:0:0:
473,303,37256,1,8,1:2:0:0:
416,149,37430,6,0,L|524:156,1,90,0|8,3:0|1:2,0:0:0:0:
368,68,37779,6,0,B|315:112|328:162|328:162|308:138|285:121,1,135.000005149842,0|8,3:2|1:2,0:0:0:0:
255,216,38128,1,0,3:0:0:0:
168,59,38302,5,8,1:2:0:0:
175,110,38390,1,2,0:2:0:0:
310,142,38564,5,2,0:2:0:0:
271,134,38651,1,8,1:2:0:0:
416,149,38826,5,0,3:0:0:0:
255,216,39000,1,8,1:2:0:0:
394,322,39175,6,0,B|346:322|346:322|316:304|316:304|241:304,1,135.000005149842,0|8,3:2|1:2,0:0:0:0:
216,380,39523,1,0,3:0:0:0:
433,244,39698,5,8,1:2:0:0:
380,244,39785,1,2,0:2:0:0:
216,380,39959,5,2,0:2:0:0:
254,380,40047,1,8,1:2:0:0:
512,384,40221,2,0,P|503:339|510:295,1,90,0|8,3:0|1:2,0:0:0:0:
503,145,40570,6,0,L|365:144,1,135.000005149842,4|8,3:2|1:2,0:0:0:0:
343,177,40832,1,0,0:0:0:0:
343,177,40919,1,0,3:0:0:0:
139,15,41093,5,12,1:2:0:0:
156,50,41180,1,2,0:2:0:0:
84,177,41355,5,2,3:2:0:0:
110,167,41442,1,8,1:2:0:0:
244,133,41616,6,0,L|231:216,3,45.0000017166138,6|2|2|8,3:2|0:2|0:2|1:2,0:0:0:0:
150,295,41965,6,0,B|186:270|186:270|300:270,1,135.000005149842,4|8,3:2|1:2,0:0:0:0:
374,332,42314,1,0,3:0:0:0:
474,221,42489,5,8,1:2:0:0:
481,174,42576,1,2,0:2:0:0:
352,120,42750,5,2,0:2:0:0:
357,155,42837,1,8,1:2:0:0:
474,221,43012,5,0,3:0:0:0:
352,120,43186,1,8,1:2:0:0:
512,33,43361,6,0,B|444:57|444:9|376:33,1,135.000005149842,0|8,3:2|1:2,0:0:0:0:
271,88,43709,1,0,3:0:0:0:
102,16,43884,5,8,1:2:0:0:
111,63,43971,1,2,0:2:0:0:
197,142,44146,5,2,0:2:0:0:
190,177,44233,1,8,1:2:0:0:
136,310,44407,6,0,L|248:310,1,90,0|8,3:0|1:2,0:0:0:0:
73,239,44756,6,0,P|39:308|72:380,2,135.000005149842,0|8|0,3:2|1:2|3:0,0:0:0:0:
291,204,45279,5,8,1:2:0:0:
245,206,45366,1,2,0:2:0:0:
192,309,45541,5,2,0:2:0:0:
226,310,45628,1,8,1:2:0:0:
291,204,45802,5,0,3:0:0:0:
192,309,45977,1,8,1:2:0:0:
105,175,46151,6,0,B|58:113|84:67|84:67|121:62|164:113,1,180,0|2,3:2|0:3,0:0:0:0:
168,116,46413,1,0,0:0:0:0:
168,116,46500,1,0,3:0:0:0:
32,7,46675,5,2,0:3:0:0:
67,44,46762,1,8,1:2:0:0:
300,50,46936,5,0,3:0:0:0:
251,64,47023,1,2,0:3:0:0:
105,175,47198,6,0,P|135:211|145:231,3,45.0000017166138,2|2|2|8,3:2|0:2|0:2|3:2,0:0:0:0:
31,322,47547,5,4,3:2:0:0:
65,322,48070,1,8,0:3:0:0:
160,224,48768,1,8,0:3:0:0:
96,307,48942,5,8,0:3:0:0:
130,307,49465,1,8,0:3:0:0:
257,255,49814,1,8,0:3:0:0:
257,224,49989,1,8,0:3:0:0:
257,193,50163,1,8,0:3:0:0:
238,330,50337,5,8,0:3:0:0:
272,330,50861,1,8,0:3:0:0:
352,224,51558,1,8,0:3:0:0:
416,307,51733,5,8,0:3:0:0:
382,307,52256,1,8,0:3:0:0:
255,255,52605,1,8,0:3:0:0:
255,224,52779,1,8,0:3:0:0:
255,193,52954,1,8,0:3:0:0:
117,111,53128,6,0,P|160:124|203:111,1,90,4|2,3:2|0:0,0:0:0:0:
255,193,53477,1,8,0:1:0:0:
183,0,53651,2,0,P|162:-6|141:0,1,45,2|0,0:0|0:0,0:0:0:0:
256,48,54175,1,8,0:1:0:0:
255,193,54349,1,2,0:0:0:0:
394,111,54523,6,0,P|351:124|309:111,1,90,2|2,0:0|0:0,0:0:0:0:
255,193,54872,1,8,0:1:0:0:
328,0,55046,2,0,P|349:-6|371:0,1,45,2|0,0:0|0:0,0:0:0:0:
255,193,55396,1,8,0:1:0:0:
169,277,55570,5,8,0:1:0:0:
141,305,55657,1,8,0:1:0:0:
113,277,55744,1,2,0:0:0:0:
85,305,55832,1,8,0:1:0:0:
57,277,55919,5,8,0:1:0:0:
46,268,56006,1,8,0:1:0:0:
36,258,56093,1,8,0:1:0:0:
27,247,56180,1,8,0:1:0:0:
19,235,56268,1,8,0:1:0:0:
13,222,56355,1,8,0:1:0:0:
9,208,56442,1,8,0:1:0:0:
7,194,56529,1,8,0:1:0:0:
8,180,56616,2,0,P|11:160|20:142,14,22.5,8|0|8|0|8|0|8|0|8|0|8|0|8|0|8,0:1|0:0|0:1|0:0|0:1|0:0|0:1|0:0|0:1|0:0|0:1|0:0|0:1|0:0|0:1,0:0:0:0:
112,193,57314,6,0,P|155:200|200:192,1,90,6|0,0:2|0:0,0:0:0:0:
312,45,57663,2,0,P|282:78|267:120,1,90,2|0,0:2|0:0,0:0:0:0:
112,193,58012,6,0,P|155:185|200:192,1,90,2|0,0:2|0:0,0:0:0:0:
339,297,58361,2,0,P|310:263|294:221,1,90,2|0,0:2|0:0,0:0:0:0:
180,98,58709,5,6,3:2:0:0:
201,195,58884,1,2,0:2:0:0:
201,195,58971,1,2,0:2:0:0:
201,195,59058,1,2,3:3:0:0:
294,220,59233,1,2,0:2:0:0:
180,98,59407,5,2,3:2:0:0:
273,123,59582,1,2,0:2:0:0:
294,220,59756,1,2,3:3:0:0:
127,261,60105,5,2,3:2:0:0:
201,195,60279,1,2,0:2:0:0:
201,195,60366,1,2,0:2:0:0:
201,195,60454,1,2,3:3:0:0:
294,220,60628,1,2,0:2:0:0:
222,292,60802,5,2,3:2:0:0:
201,195,60977,1,2,0:2:0:0:
181,98,61151,1,2,3:3:0:0:
33,232,61500,5,2,3:2:0:0:
127,261,61675,1,2,0:2:0:0:
127,261,61762,1,2,0:2:0:0:
127,261,61849,1,2,3:3:0:0:
148,359,62023,1,2,0:2:0:0:
295,220,62198,5,2,3:2:0:0:
222,292,62372,1,2,0:2:0:0:
127,261,62547,1,2,3:3:0:0:
270,119,62896,5,2,3:2:0:0:
296,219,63070,1,2,0:2:0:0:
296,219,63157,1,2,0:2:0:0:
296,219,63244,1,2,3:3:0:0:
344,46,63419,5,2,0:2:0:0:
270,119,63593,1,2,3:2:0:0:
296,219,63768,1,2,0:2:0:0:
472,175,63942,5,2,3:3:0:0:
371,147,64116,1,2,0:2:0:0:
270,119,64291,5,6,3:2:0:0:
192,192,64465,2,0,L|128:192,2,33.7500012874604,0|0|2,0:0|0:0|3:3,0:0:0:0:
296,219,64814,1,0,0:0:0:0:
191,56,64989,5,2,3:2:0:0:
158,192,65163,2,0,L|94:192,2,33.7500012874604,0|0|2,0:0|0:0|3:3,0:0:0:0:
262,219,65512,1,0,0:0:0:0:
157,56,65686,5,6,3:2:0:0:
124,192,65861,2,0,L|60:192,2,33.7500012874604,0|0|2,0:0|0:0|3:3,0:0:0:0:
123,56,66209,5,6,0:2:0:0:
371,44,66558,1,2,0:0:0:0:
380,141,66733,1,2,3:3:0:0:
389,238,66907,1,2,0:0:0:0:
214,328,67082,6,0,L|115:331,2,90,6|0|2,3:2|0:0|3:3,0:0:0:0:
299,235,67605,2,0,L|398:238,2,90,2|0|0,0:2|3:0|0:0,0:0:0:0:
112,129,68128,1,2,3:2:0:0:
202,127,68302,1,2,0:2:0:0:
202,313,68477,5,2,3:2:0:0:
103,217,68651,1,2,0:2:0:0:
126,217,68739,1,2,0:2:0:0:
150,217,68826,1,2,3:3:0:0:
214,328,69000,1,2,0:2:0:0:
325,264,69175,5,2,3:2:0:0:
237,240,69349,1,2,0:3:0:0:
413,288,69523,1,2,3:2:0:0:
325,264,69698,1,2,0:2:0:0:
456,322,69872,6,0,P|452:233|545:193,1,168.75,14|0,3:2|0:0,0:0:0:0:
456,62,70221,2,0,P|452:151|507:187,1,112.5,10|0,3:2|0:0,0:0:0:0:
511,191,70483,1,10,3:2:0:0:
320,192,70919,1,10,3:2:0:0:
192,192,71093,1,2,3:2:0:0:
56,321,71268,6,0,P|64:241|0:191,1,168.75,2|0,3:2|0:0,0:0:0:0:
56,62,71616,2,0,P|64:142|8:188,1,112.5,2|0,3:3|0:0,0:0:0:0:
0,190,71878,1,2,3:3:0:0:
416,96,72314,6,0,L|288:96,2,90,2|2|2,0:2|3:2|3:2,0:0:0:0:
416,288,73186,2,0,L|288:288,1,90,0|0,0:0|3:0,0:0:0:0:
256,192,73709,1,2,3:3:0:0:
326,96,74058,5,0,3:0:0:0:
256,192,74233,1,0,0:0:0:0:
326,288,74407,1,2,3:3:0:0:
252,355,74930,1,2,0:0:0:0:
326,288,75105,2,0,P|344:225|325:190,1,90,2|2,3:3|0:0,0:0:0:0:
213,140,75454,6,0,P|174:81|221:-4,1,168.75,10|0,3:2|0:0,0:0:0:0:
315,19,75802,2,0,P|337:74|309:129,1,112.5,10|0,3:2|0:0,0:0:0:0:
254,71,76064,1,10,3:2:0:0:
297,235,76500,1,2,3:2:0:0:
297,235,76587,1,8,0:0:0:0:
297,235,76675,1,10,3:2:0:0:
297,235,76762,1,8,0:0:0:0:
297,235,76849,6,0,P|336:294|289:379,1,168.75,10|0,3:2|0:0,0:0:0:0:
195,356,77198,2,0,P|173:301|201:246,1,112.5,2|0,3:3|0:0,0:0:0:0:
256,304,77459,1,2,3:3:0:0:
128,204,77721,1,2,3:2:0:0:
192,254,77896,1,2,0:2:0:0:
111,365,78070,1,2,3:2:0:0:
47,315,78244,6,0,P|40:245|-15:174,1,112.5,2|2,3:2|0:0,0:0:0:0:
0,190,78506,1,2,0:0:0:0:
0,190,78593,1,2,3:3:0:0:
164,125,78768,6,0,B|144:113|131:85|131:85|118:161|153:208,2,180,0|2|0,0:0|0:0|0:0,0:0:0:0:
300,53,79640,2,0,P|256:63|213:52,1,90,2|2,3:2|0:0,0:0:0:0:
195,38,79901,1,2,0:0:0:0:
195,38,79989,1,2,3:3:0:0:
349,126,80163,6,0,B|368:114|381:86|381:86|394:162|359:209,2,180,0|2|2,0:0|0:0|0:0,0:0:0:0:
226,285,81035,6,0,B|254:247|241:171|241:171|228:199|209:210,1,168.75,2|0,3:2|0:0,0:0:0:0:
226,285,81384,6,0,B|266:299|329:266|329:266|301:263|285:249,1,155.250002961159,2|0,3:3|0:0,0:0:0:0:
226,285,81733,6,0,B|225:324|271:369|271:369|266:344|274:327,1,141.749995674133,2|0,3:2|0:0,0:0:0:0:
226,285,82082,6,0,B|191:295|166:347|166:347|186:336|203:337,1,128.249996575356,2|0,3:3|0:0,0:0:0:0:
226,285,82430,6,0,B|194:239|104:226|104:226|130:250|136:276,1,198.000006042481,6|2,3:2|0:0,0:0:0:0:
51,309,83302,1,2,0:0:0:0:
51,309,83390,1,2,0:0:0:0:
51,309,83477,1,10,0:2:0:0:
51,309,83651,1,2,0:0:0:0:
22,55,83826,6,0,P|77:35|136:61,1,112.5,4|2,3:2|0:3,0:0:0:0:
214,120,84175,2,0,P|269:140|328:114,1,112.5,8|2,3:2|0:3,0:0:0:0:
22,55,84523,1,0,3:0:0:0:
462,38,84872,5,8,3:2:0:0:
483,137,85047,1,2,0:3:0:0:
394,190,85221,1,0,3:0:0:0:
317,122,85396,1,2,0:3:0:0:
359,27,85570,1,8,3:2:0:0:
462,38,85919,6,0,P|493:82|484:137,1,112.5,0|2,3:0|0:3,0:0:0:0:
415,289,86268,1,8,3:2:0:0:
394,190,86442,1,2,0:3:0:0:
220,240,86616,2,0,B|281:267|311:260|311:260|288:236|286:216,1,112.5,0|2,3:0|0:3,0:0:0:0:
230,102,86965,2,0,B|176:141|167:170|167:170|199:162|217:171,1,112.5,8|2,3:2|0:3,0:0:0:0:
344,179,87314,5,0,3:0:0:0:
230,102,87663,1,8,3:2:0:0:
220,240,88012,1,0,3:0:0:0:
0,93,88535,5,2,0:3:0:0:
4,115,88622,1,2,0:0:0:0:
8,138,88709,1,2,3:2:0:0:
79,191,88884,5,2,0:3:0:0:
75,213,88971,1,2,0:0:0:0:
71,236,89058,1,8,3:2:0:0:
67,259,89233,1,2,0:3:0:0:
0,366,89407,6,0,P|54:355|109:366,1,112.5,4|2,3:2|0:3,0:0:0:0:
218,366,89756,2,0,P|181:323|163:270,1,112.5,8|2,3:2|0:3,0:0:0:0:
0,366,90105,1,0,3:0:0:0:
163,270,90454,5,8,3:2:0:0:
218,366,90628,1,2,0:3:0:0:
109,366,90802,1,0,3:0:0:0:
0,366,90977,1,2,0:3:0:0:
163,270,91151,1,8,3:2:0:0:
163,270,91500,5,0,3:0:0:0:
218,366,91675,1,2,0:3:0:0:
54,270,91849,1,8,3:2:0:0:
0,366,92023,1,2,0:3:0:0:
108,175,92198,2,0,B|132:148|154:144|154:144|251:151|348:242,1,225,0|8,3:0|3:2,0:0:0:0:
310,332,92721,5,2,0:3:0:0:
319,346,92808,1,0,0:0:0:0:
328,360,92896,2,0,P|395:353|453:286,1,112.5,0|0,3:0|0:0,0:0:0:0:
473,162,93244,1,8,3:2:0:0:
308,208,93419,1,2,0:3:0:0:
430,327,93593,5,0,3:2:0:0:
408,238,93768,1,2,3:3:0:0:
408,238,93855,1,0,0:0:0:0:
408,238,93942,1,8,3:2:0:0:
337,314,94116,1,2,3:3:0:0:
303,335,94204,1,0,0:0:0:0:
264,343,94291,1,0,3:2:0:0:
225,334,94378,1,0,0:0:0:0:
193,310,94465,5,2,3:3:0:0:
176,283,94552,1,0,0:0:0:0:
132,270,94640,5,8,3:2:0:0:
132,247,94727,1,0,3:0:0:0:
173,199,94814,5,2,3:3:0:0:
336,246,94989,6,0,B|362:276|362:276|397:219|379:121,1,168.75,4|0,3:2|0:0,0:0:0:0:
337,88,95337,1,8,3:2:0:0:
486,56,95512,1,2,0:3:0:0:
314,93,95686,2,0,P|262:110|166:81,1,112.5,0|2,3:0|0:3,0:0:0:0:
37,79,96035,5,8,3:2:0:0:
131,29,96209,1,2,0:3:0:0:
205,103,96384,1,0,3:0:0:0:
158,197,96558,1,2,0:3:0:0:
54,181,96733,1,8,3:2:0:0:
205,103,97082,5,0,3:0:0:0:
158,197,97256,1,2,0:3:0:0:
37,79,97430,1,8,3:2:0:0:
54,181,97605,1,2,0:3:0:0:
131,29,97779,1,0,3:0:0:0:
332,119,98302,6,0,L|392:123,1,56.25,2|0,0:3|0:0,0:0:0:0:
491,60,98477,2,0,P|469:130|493:184,1,112.5,0|2,3:2|3:3,0:0:0:0:
512,303,98826,1,8,3:2:0:0:
413,273,99000,1,2,3:3:0:0:
292,312,99175,6,0,B|266:328|266:328|168:308,1,112.5,6|2,3:2|0:3,0:0:0:0:
165,303,99436,1,0,0:0:0:0:
153,293,99523,1,0,0:0:0:0:
91,196,99698,1,2,0:3:0:0:
0,380,99872,2,0,B|29:351|29:351|30:271,1,112.5,0|2,0:0|0:3,0:0:0:0:
8,133,100221,1,0,3:0:0:0:
91,196,100396,1,2,3:3:0:0:
220,84,100570,6,0,P|155:77|99:119,1,112.5,4|2,3:2|0:3,0:0:0:0:
276,161,100919,2,0,P|314:108|306:39,1,112.5,8|2,3:2|0:3,0:0:0:0:
179,172,101268,1,0,3:0:0:0:
413,239,101616,5,8,3:2:0:0:
316,249,101791,1,2,0:3:0:0:
179,172,101965,1,0,3:0:0:0:
276,161,102140,1,2,0:3:0:0:
245,315,102314,1,8,3:2:0:0:
160,268,102663,5,0,3:0:0:0:
179,172,102837,1,2,0:3:0:0:
316,249,103012,1,8,3:2:0:0:
276,161,103186,1,2,0:3:0:0:
245,315,103361,6,0,B|230:337|233:359|233:359|323:395|417:334,1,225,0|8,3:0|3:2,0:0:0:0:
480,205,103884,1,2,0:3:0:0:
480,205,103971,1,0,0:0:0:0:
480,205,104058,2,0,L|414:210,1,56.25,0|0,3:0|0:0,0:0:0:0:
309,266,104233,1,2,0:3:0:0:
480,327,104407,1,8,3:2:0:0:
335,182,104582,1,2,0:3:0:0:
404,341,104756,5,0,3:2:0:0:
309,266,104930,2,0,L|252:261,2,56.25,2|0|8,3:3|0:0|3:2,0:0:0:0:
423,209,105279,2,0,L|479:204,2,56.25,2|0|0,3:3|0:0|3:2,0:0:0:0:
332,112,105628,1,2,3:3:0:0:
299,101,105715,1,0,0:0:0:0:
299,67,105802,1,8,3:2:0:0:
332,57,105889,1,0,3:0:0:0:
351,84,105977,1,2,3:3:0:0:
384,182,106151,6,0,P|324:194|262:175,1,112.5,4|2,3:2|0:3,0:0:0:0:
198,35,106500,1,0,3:0:0:0:
39,54,106674,5,2,0:3:0:0:
39,54,106762,1,2,0:2:0:0:
98,148,106936,5,2,0:2:0:0:
98,148,107023,1,2,0:3:0:0:
31,221,107198,2,0,P|92:245|142:236,1,112.5,0|2,3:0|0:3,0:0:0:0:
248,157,107547,6,0,B|222:184|222:184|222:293,1,135.000005149842,0|2,3:2|0:3,0:0:0:0:
218,384,107895,1,0,3:0:0:0:
302,216,108070,2,0,L|302:283,1,56.25,2|8,0:3|0:2,0:0:0:0:
401,384,108331,2,0,L|402:319,1,56.25,8|2,0:2|0:3,0:0:0:0:
402,229,108593,1,0,3:0:0:0:
303,352,108768,1,2,0:3:0:0:
494,260,108942,6,0,B|480:204|497:172|497:172|523:200,2,112.5,0|2|0,3:2|0:3|3:0,0:0:0:0:
320,175,109465,6,0,L|393:186,1,56.25,2|2,0:3|0:2,0:0:0:0:
487,301,109727,5,2,0:2:0:0:
494,260,109814,1,2,0:3:0:0:
320,175,109989,1,0,3:0:0:0:
498,172,110163,1,2,0:3:0:0:
352,70,110337,5,0,3:2:0:0:
410,238,110512,1,2,0:3:0:0:
410,238,110599,1,0,0:0:0:0:
410,238,110686,1,0,3:0:0:0:
231,104,110861,5,2,0:3:0:0:
275,89,110948,1,8,0:2:0:0:
353,164,111122,5,8,0:2:0:0:
320,175,111209,1,2,0:3:0:0:
257,288,111384,2,0,L|256:340,3,45.0000017166138,2|2|2|8,3:2|0:2|0:2|0:2,0:0:0:0:
71,233,111733,6,0,B|49:265|49:265|49:382,2,112.5,4|2|0,3:2|0:3|3:0,0:0:0:0:
126,296,112256,5,2,0:3:0:0:
126,332,112343,1,2,0:2:0:0:
33,161,112518,5,2,0:2:0:0:
10,187,112605,1,2,0:3:0:0:
176,223,112779,6,0,P|122:212|71:233,1,112.5,0|2,3:0|0:3,0:0:0:0:
176,223,113128,6,0,B|198:255|198:255|198:372,1,112.5,0|2,3:2|0:3,0:0:0:0:
49,338,113477,1,0,3:0:0:0:
265,203,113651,6,0,L|232:156,1,56.25,2|8,0:3|0:2,0:0:0:0:
329,280,113913,2,0,L|361:233,1,56.25,8|0,0:2|0:0,0:0:0:0:
405,358,114174,1,0,3:0:0:0:
229,282,114349,1,2,0:3:0:0:
315,114,114523,6,0,P|275:72|184:78,1,112.5,0|2,3:2|0:3,0:0:0:0:
82,111,114872,1,0,3:0:0:0:
233,161,115046,5,2,0:3:0:0:
233,161,115134,1,2,0:2:0:0:
319,12,115308,5,2,0:2:0:0:
319,12,115395,1,2,0:3:0:0:
439,183,115570,6,0,B|414:217|414:217|272:216,1,168.75,0|0,3:0|0:0,0:0:0:0:
233,161,115919,6,0,P|258:209|251:264,1,112.5,0|2,3:2|0:3,0:0:0:0:
224,308,116180,1,0,0:0:0:0:
224,308,116267,1,0,3:0:0:0:
108,369,116442,5,2,0:3:0:0:
79,363,116529,1,8,0:2:0:0:
0,281,116703,5,8,0:2:0:0:
29,275,116791,1,2,0:3:0:0:
195,160,116965,2,0,L|259:161,3,37.5,2|2|2|8,3:2|0:2|0:2|0:2,0:0:0:0:
108,21,117314,6,0,P|129:92|98:149,1,135.000005149842,4|8,3:2|1:2,0:0:0:0:
6,229,117663,1,0,3:0:0:0:
156,151,117837,5,8,1:2:0:0:
104,144,117924,1,2,0:2:0:0:
0,86,118099,5,0,0:2:0:0:
39,81,118186,1,8,1:2:0:0:
96,235,118361,6,0,L|-12:228,1,90,0|8,3:0|1:2,0:0:0:0:
144,316,118709,6,0,B|197:272|184:222|184:222|204:246|227:263,1,135.000005149842,0|8,3:2|1:2,0:0:0:0:
240,345,119058,1,0,3:0:0:0:
344,325,119232,5,8,1:2:0:0:
337,274,119320,1,2,0:2:0:0:
235,384,119494,5,2,0:2:0:0:
240,345,119582,1,8,1:2:0:0:
257,168,119756,5,0,3:0:0:0:
96,235,119930,1,8,1:2:0:0:
118,62,120105,6,0,B|166:62|166:62|196:80|196:80|271:80,1,135.000005149842,0|8,3:2|1:2,0:0:0:0:
355,80,120453,1,0,3:0:0:0:
79,140,120628,5,8,1:2:0:0:
132,140,120715,1,2,0:2:0:0:
216,4,120889,5,2,0:2:0:0:
254,4,120977,1,8,1:2:0:0:
0,0,121151,2,0,P|9:45|2:89,1,90,0|8,3:0|1:2,0:0:0:0:
9,239,121500,6,0,L|147:240,1,135.000005149842,4|8,3:2|1:2,0:0:0:0:
174,270,121762,1,0,0:0:0:0:
174,270,121849,1,0,3:0:0:0:
373,369,122023,5,12,1:2:0:0:
356,334,122110,1,2,0:2:0:0:
428,207,122285,5,2,3:2:0:0:
402,217,122372,1,8,1:2:0:0:
268,251,122546,6,0,L|281:168,3,45.0000017166138,6|2|2|8,3:2|0:2|0:2|1:2,0:0:0:0:
362,89,122895,6,0,B|326:114|326:114|212:114,1,135.000005149842,4|8,3:2|1:2,0:0:0:0:
138,52,123244,1,0,3:0:0:0:
38,163,123419,5,8,1:2:0:0:
31,210,123506,1,2,0:2:0:0:
63,95,123680,5,2,0:2:0:0:
68,130,123767,1,8,1:2:0:0:
160,264,123942,5,0,3:0:0:0:
31,210,124116,1,8,1:2:0:0:
0,351,124291,6,0,B|68:327|68:375|136:351,1,135.000005149842,0|8,3:2|1:2,0:0:0:0:
241,296,124639,1,0,3:0:0:0:
410,368,124814,5,8,1:2:0:0:
401,321,124901,1,2,0:2:0:0:
315,242,125076,5,2,0:2:0:0:
322,207,125163,1,8,1:2:0:0:
376,74,125337,6,0,L|264:74,1,90,0|8,3:0|1:2,0:0:0:0:
451,185,125686,6,0,B|468:195|487:193|487:193|508:155|469:103,2,135.000005149842,0|8|0,3:2|1:2|3:0,0:0:0:0:
221,180,126209,5,8,1:2:0:0:
267,178,126296,1,2,0:2:0:0:
152,220,126471,5,2,0:2:0:0:
186,219,126558,1,8,1:2:0:0:
320,75,126732,5,0,3:0:0:0:
221,180,126907,1,8,1:2:0:0:
102,30,127082,1,0,3:2:0:0:
0,231,127256,5,10,0:2:0:0:
45,251,127343,1,8,0:2:0:0:
94,242,127430,1,10,0:2:0:0:
127,190,127517,5,8,0:2:0:0:
172,171,127605,1,10,0:2:0:0:
221,180,127692,1,8,0:2:0:0:
253,218,127779,5,10,0:2:0:0:
279,232,127867,1,8,0:2:0:0:
307,249,127954,1,10,0:2:0:0:
339,268,128042,1,8,0:2:0:0:
373,288,128128,5,10,0:2:0:0:
416,283,128215,1,10,0:2:0:0:
455,256,128302,1,10,0:2:0:0:
475,209,128390,1,10,0:2:0:0:
