osu file format v14

[General]
AudioFilename: audio.mp3
AudioLeadIn: 0
PreviewTime: 83041
Countdown: 0
SampleSet: Soft
StackLeniency: 0.4
Mode: 0
LetterboxInBreaks: 0
WidescreenStoryboard: 1

[Editor]
DistanceSpacing: 1
BeatDivisor: 2
GridSize: 4
TimelineZoom: 1.9

[Metadata]
Title:Yosakura Fubuki
TitleUnicode:夜桜吹雪
Artist:A.SAKA
ArtistUnicode:A.SAKA
Creator:MrMenda
Version:DeviousPanda's Past
Source:ステライツ - STELLIGHTS
Tags:Arcaea Celektus Lewski Lewdski -Jordan- Jory DeviousPanda
BeatmapID:1716154
BeatmapSetID:787959

[Difficulty]
HPDrainRate:3
CircleSize:3
OverallDifficulty:3
ApproachRate:5
SliderMultiplier:1.1
SliderTickRate:1

[Events]
//Background and Video events
0,0,"Yosakura fubuki Bg.jpg",0,0
//Break Periods
//Storyboard Layer 0 (Background)
//Storyboard Layer 1 (Fail)
//Storyboard Layer 2 (Pass)
//Storyboard Layer 3 (Foreground)
//Storyboard Sound Samples

[TimingPoints]
2896,348.837209302326,4,2,1,60,1,0
2896,-125,4,2,1,60,0,0
14058,-100,4,2,1,60,0,0
19639,-100,4,2,1,70,0,0
25220,-100,4,2,1,80,0,0
25221,-90.9090909090909,4,2,1,60,0,1
36383,-90.9090909090909,4,2,1,100,0,1
47546,-90.9090909090909,4,2,1,60,0,1
47547,-100,4,2,1,60,0,0
55918,-100,4,2,1,40,0,0
56267,-100,4,2,1,50,0,0
56615,-100,4,2,1,60,0,0
56964,-100,4,2,1,70,0,0
69871,-100,4,2,1,60,0,0
81383,-100,4,2,1,65,0,0
81732,-100,4,2,1,70,0,0
82081,-100,4,2,1,75,0,0
82429,-100,4,2,1,80,0,0
82953,-100,4,2,1,60,0,0
83825,-100,4,2,1,80,0,0
83826,-90.9090909090909,4,2,1,80,0,1
105802,-100,4,2,1,80,0,0
106151,-90.9090909090909,4,2,1,80,0,1
117313,-90.9090909090909,4,2,1,100,0,1
127255,-90.9090909090909,4,2,1,60,0,1
127604,-90.9090909090909,4,2,1,70,0,1
127953,-90.9090909090909,4,2,1,80,0,1
128477,-100,4,2,1,80,0,0
132663,-100,4,2,1,80,0,0

[Colours]
Combo1 : 255,128,192
Combo2 : 128,128,192
Combo3 : 255,128,255
Combo4 : 128,128,255

[HitObjects]
401,176,2896,6,0,B|458:144|449:62|449:62|403:74|409:120,1,176,6|0,0:0|0:0,0:0:0:0:
358,246,4291,2,0,B|406:291|480:257|480:257|455:217|413:236,1,176,2|0,0:0|0:0,0:0:0:0:
277,226,5686,2,0,B|249:286|304:346|304:346|334:310|303:276,1,176,2|0,0:0|0:0,0:0:0:0:
270,144,7082,2,0,B|204:136|163:207|163:207|207:225|230:184,2,176,2|2|2,0:0|0:0|0:0,0:0:0:0:
351,112,8826,5,0,0:0:0:0:
351,112,9175,2,0,L|374:308,1,176,0|2,0:0|0:0,0:0:0:0:
286,252,10221,1,0,0:0:0:0:
286,252,10570,2,0,L|275:150,2,88,0|0|2,0:0|0:0|0:0,0:0:0:0:
211,298,11616,1,0,0:0:0:0:
211,298,11965,2,0,L|191:99,1,176,0|2,0:0|0:0,0:0:0:0:
119,85,13012,1,0,0:0:0:0:
52,142,13361,1,2,0:0:0:0:
63,229,13709,2,0,P|91:237|114:234,1,44,2|8,0:3|0:0,0:0:0:0:
134,224,14058,6,0,P|198:203|295:257,1,165,4|0,0:0|0:0,0:0:0:0:
294,295,14756,1,0,0:0:0:0:
479,175,15454,2,0,P|421:231|416:311,1,165,0|0,0:0|0:0,0:0:0:0:
451,353,16152,1,0,0:0:0:0:
379,144,16849,6,0,P|306:141|233:69,1,165,0|0,0:0|0:0,0:0:0:0:
244,27,17547,1,0,0:0:0:0:
120,208,18244,2,0,P|139:129|104:56,1,165,0|0,0:0|0:0,0:0:0:0:
51,44,18942,1,0,0:0:0:0:
0,141,19291,1,2,0:3:0:0:
41,243,19640,6,0,L|239:208,1,165,4|2,3:0|0:3,0:0:0:0:
252,190,20337,2,0,L|349:206,2,55,0|2|0,3:0|0:3|3:0,0:0:0:0:
221,84,21035,2,0,L|419:119,1,165,0|2,3:0|0:3,0:0:0:0:
436,98,21733,2,0,L|497:88,2,55,0|2|0,3:0|0:3|3:0,0:0:0:0:
405,203,22430,6,0,P|378:235|371:265,1,55,0|2,3:0|3:3,0:0:0:0:
328,278,22779,2,0,P|350:313|376:329,1,55,0|2,3:0|3:3,0:0:0:0:
376,374,23128,2,0,P|416:363|439:343,1,55,0|2,3:0|3:3,0:0:0:0:
482,358,23477,2,0,P|485:316|473:287,1,55,0|2,3:0|3:3,0:0:0:0:
499,252,23826,1,4,3:2:0:0:
374,141,24349,5,12,0:2:0:0:
325,115,24523,2,0,L|196:133,1,110,0|12,3:0|0:2,0:0:0:0:
162,114,25047,1,0,0:0:0:0:
162,114,25221,6,0,P|177:182|132:258,1,121.000003692627,4|0,3:2|3:0,0:0:0:0:
107,259,25744,2,0,L|191:248,1,60.5000018463135,2|0,0:3|3:0,0:0:0:0:
221,277,26093,2,0,L|292:269,1,60.5000018463135,2|0,0:3|3:0,0:0:0:0:
333,301,26442,1,2,0:3:0:0:
333,301,26616,6,0,L|359:163,1,121.000003692627,0|0,3:2|3:0,0:0:0:0:
332,125,27140,2,0,L|314:54,1,60.5000018463135,2|0,0:3|3:0,0:0:0:0:
277,20,27489,2,0,L|255:124,1,60.5000018463135,2|0,0:3|3:0,0:0:0:0:
218,118,27837,1,2,0:3:0:0:
218,118,28012,6,0,P|152:90|91:101,1,121.000003692627,0|0,3:2|3:0,0:0:0:0:
73,148,28535,2,0,L|83:215,1,60.5000018463135,2|0,0:3|3:0,0:0:0:0:
59,264,28884,2,0,L|69:331,1,60.5000018463135,2|0,0:3|3:0,0:0:0:0:
112,364,29233,1,2,0:3:0:0:
112,364,29407,6,0,P|184:341|252:359,1,121.000003692627,0|0,3:2|3:0,0:0:0:0:
274,308,29930,2,0,L|259:219,1,60.5000018463135,2|0,0:3|3:0,0:0:0:0:
288,192,30279,2,0,L|275:124,2,60.5000018463135,2|2|8,0:3|3:2|0:2,0:0:0:0:
341,219,30802,6,0,P|428:224|480:195,1,121.000003692627,4|0,3:2|3:0,0:0:0:0:
476,153,31326,1,2,0:3:0:0:
476,153,31500,2,0,L|455:64,1,60.5000018463135,0|2,3:0|0:3,0:0:0:0:
437,38,31849,2,0,L|416:127,1,60.5000018463135,0|2,3:0|0:3,0:0:0:0:
367,120,32198,6,0,P|300:117|235:158,1,121.000003692627,0|0,3:2|3:0,0:0:0:0:
218,190,32721,1,2,0:3:0:0:
218,190,32896,2,0,L|226:267,1,60.5000018463135,0|0,3:0|0:0,0:0:0:0:
265,294,33244,2,0,L|273:371,1,60.5000018463135,0|2,3:0|0:3,0:0:0:0:
217,382,33593,6,0,L|58:358,1,121.000003692627,0|0,3:2|3:0,0:0:0:0:
39,383,34116,1,2,0:3:0:0:
39,383,34291,2,0,L|21:310,1,60.5000018463135,0|2,3:0|0:3,0:0:0:0:
40,265,34640,2,0,L|22:192,1,60.5000018463135,0|2,3:0|0:3,0:0:0:0:
59,156,34989,6,0,P|73:102|146:55,1,121.000003692627,0|0,3:2|3:0,0:0:0:0:
181,66,35512,1,2,0:3:0:0:
181,66,35686,2,0,L|271:77,2,60.5000018463135,0|2|2,3:0|0:3|3:2,0:0:0:0:
254,162,36384,6,0,P|322:137|383:166,1,121.000003692627,4|0,3:2|3:0,0:0:0:0:
411,111,36907,1,8,1:2:0:0:
411,111,37082,2,0,P|455:167|447:234,1,121.000003692627,0|0,3:0|3:0,0:0:0:0:
508,245,37604,1,8,1:2:0:0:
508,245,37779,2,0,P|467:305|401:317,1,121.000003692627,0|0,3:2|3:0,0:0:0:0:
407,364,38302,1,8,1:2:0:0:
407,364,38477,2,0,P|337:344|317:312,2,60.5000018463135,0|8|0,3:0|1:2|3:0,0:0:0:0:
328,271,39175,6,0,L|352:95,1,121.000003692627,0|0,3:2|3:0,0:0:0:0:
387,108,39698,1,8,1:2:0:0:
387,108,39872,2,0,L|227:30,1,121.000003692627,0|0,3:0|3:0,0:0:0:0:
250,1,40396,1,8,1:2:0:0:
250,1,40570,2,0,L|126:129,1,121.000003692627,4|0,3:2|3:0,0:0:0:0:
105,98,41094,1,12,1:2:0:0:
105,98,41268,2,0,L|155:191,2,60.5000018463135,0|8|6,3:0|1:2|3:2,0:0:0:0:
67,213,41965,6,0,P|124:246|196:222,1,121.000003692627,4|0,3:2|3:0,0:0:0:0:
222,276,42489,1,8,1:2:0:0:
222,276,42663,2,0,P|270:231|270:156,1,121.000003692627,0|0,3:0|3:0,0:0:0:0:
330,148,43187,1,8,1:2:0:0:
330,148,43361,2,0,P|303:87|230:64,1,121.000003692627,0|0,3:2|3:0,0:0:0:0:
241,5,43884,1,8,1:2:0:0:
241,5,44058,2,0,P|175:11|146:41,2,60.5000018463135,0|8|0,3:0|1:2|3:0,0:0:0:0:
159,94,44756,6,0,L|187:253,1,121.000003692627,0|0,3:2|3:0,0:0:0:0:
154,268,45279,1,8,1:2:0:0:
154,268,45454,2,0,L|313:290,1,121.000003692627,0|0,3:0|3:0,0:0:0:0:
318,327,45976,1,8,1:2:0:0:
318,327,46151,2,0,L|388:181,1,121.000003692627,0|0,3:2|3:0,0:0:0:0:
424,189,46674,1,2,0:3:0:0:
424,189,46849,2,0,L|363:130,2,60.5000018463135,0|2|2,3:0|0:3|3:2,0:0:0:0:
480,166,47372,5,8,3:2:0:0:
480,166,47547,1,4,3:2:0:0:
402,66,48942,6,0,L|152:93,1,220,8|2,0:3|0:0,0:0:0:0:
76,60,49989,1,8,0:3:0:0:
0,139,50337,1,8,0:3:0:0:
0,139,51733,6,0,P|67:216|205:184,1,220,8|2,0:3|0:0,0:0:0:0:
251,127,52779,1,8,0:3:0:0:
344,184,53128,2,0,L|331:309,2,110,4|8|2,3:2|0:1|0:0,0:0:0:0:
419,36,54349,1,2,0:0:0:0:
419,36,54523,2,0,L|296:62,2,110,2|8|2,0:0|0:1|0:0,0:0:0:0:
478,129,55570,1,8,0:1:0:0:
427,226,55919,6,0,L|300:209,2,110,8|8|8,0:1|0:1|0:1,0:0:0:0:
467,328,56965,1,8,0:1:0:0:
371,382,57314,1,6,0:2:0:0:
228,263,58709,6,0,P|217:197|262:123,2,110,6|2|2,3:2|3:3|3:2,0:0:0:0:
269,300,59582,1,2,0:2:0:0:
269,300,59756,1,2,3:3:0:0:
329,208,60105,2,0,L|461:194,2,110,2|2|2,3:2|3:3|3:2,0:0:0:0:
282,178,60977,1,2,0:2:0:0:
282,178,61151,1,2,3:3:0:0:
206,98,61500,6,0,P|140:118|86:89,2,110,2|2|2,3:2|3:3|3:2,0:0:0:0:
230,48,62372,1,2,0:2:0:0:
230,48,62547,1,2,3:3:0:0:
316,115,62896,2,0,L|295:241,2,110,2|2|2,3:2|3:3|3:2,0:0:0:0:
360,82,63768,1,2,0:2:0:0:
360,82,63942,2,0,P|392:77|426:87,1,55,2|2,3:3|0:2,0:0:0:0:
457,115,64291,6,0,L|419:300,1,165,6|0,3:2|0:0,0:0:0:0:
458,319,64989,2,0,L|270:340,1,165,2|0,3:2|0:0,0:0:0:0:
264,383,65686,2,0,L|200:244,1,110,6|2,3:2|3:3,0:0:0:0:
173,250,66209,2,0,L|284:146,1,110,6|2,0:2|0:0,0:0:0:0:
269,121,66733,2,0,L|355:168,1,55,2|2,3:3|0:0,0:0:0:0:
371,154,67082,6,0,L|344:356,2,165,6|2|2,3:2|0:2|3:2,0:0:0:0:
409,114,68302,1,2,0:2:0:0:
409,114,68477,2,0,P|409:79|392:50,1,55,2|2,3:2|0:2,0:0:0:0:
355,29,68826,2,0,P|317:34|276:65,1,55,2|2,3:3|0:2,0:0:0:0:
277,90,69175,1,2,3:2:0:0:
277,90,69349,1,2,0:3:0:0:
302,138,69523,1,2,3:2:0:0:
302,138,69698,1,2,0:2:0:0:
275,186,69872,6,0,L|133:161,1,110,14|10,3:2|3:2,0:0:0:0:
93,205,70483,1,10,3:2:0:0:
186,298,70919,6,0,L|252:286,1,55,10|2,3:2|3:2,0:0:0:0:
290,310,71268,2,0,L|432:285,1,110,2|2,3:2|3:3,0:0:0:0:
472,328,71878,6,0,L|487:238,1,82.5,2|0,3:3|3:0,0:0:0:0:
510,197,72314,2,0,L|443:163,1,55,2|2,0:2|3:2,0:0:0:0:
434,123,72663,1,2,3:2:0:0:
269,139,73186,5,0,0:0:0:0:
269,139,73361,2,0,P|266:86|297:34,2,110,0|2|0,3:0|3:3|3:0,0:0:0:0:
283,248,74407,2,0,P|273:313|241:348,1,110,2|0,3:3|3:0,0:0:0:0:
201,378,74930,1,2,0:0:0:0:
201,378,75105,2,0,P|163:366|146:344,1,55,2|2,3:3|0:0,0:0:0:0:
158,300,75454,5,10,3:2:0:0:
215,206,75802,2,0,L|196:114,1,82.5,10|10,3:2|3:2,0:0:0:0:
246,57,76326,5,0,3:0:0:0:
246,57,76500,2,0,L|312:66,1,55,2|10,3:2|3:2,0:0:0:0:
350,41,76849,5,10,3:2:0:0:
410,132,77198,2,0,L|391:224,1,82.5,2|2,3:3|3:3,0:0:0:0:
426,288,77721,5,2,3:2:0:0:
426,288,77896,2,0,L|367:298,1,55,2|2,0:2|3:2,0:0:0:0:
335,338,78244,2,0,L|224:290,1,110,2|2,3:2|3:3,0:0:0:0:
178,287,78768,2,0,L|189:166,1,110,0|2,0:0|0:0,0:0:0:0:
204,68,79465,5,0,0:0:0:0:
204,68,79640,2,0,P|242:85|320:58,1,110,2|2,3:2|3:3,0:0:0:0:
355,95,80163,2,0,P|400:46|407:-8,1,110,0|2,0:0|0:0,0:0:0:0:
494,73,80861,5,2,0:0:0:0:
494,73,81035,2,0,L|471:197,1,110,2|2,3:2|3:3,0:0:0:0:
492,289,81733,2,0,L|366:305,1,110,2|2,3:2|3:3,0:0:0:0:
287,358,82430,2,0,L|209:198,2,165,6|8|10,3:2|0:0|0:2,0:0:0:0:
371,271,83826,6,0,P|378:218|347:147,1,121.000003692627,4|8,3:2|3:2,0:0:0:0:
301,126,84349,1,2,0:3:0:0:
301,126,84523,1,0,3:0:0:0:
372,28,84872,6,0,P|323:4|246:12,1,121.000003692627,8|0,3:2|3:0,0:0:0:0:
212,50,85395,1,2,0:3:0:0:
212,50,85569,1,8,3:2:0:0:
94,18,85919,6,0,L|104:91,1,60.5000018463135,0|2,3:0|0:3,0:0:0:0:
85,136,86268,2,0,L|95:209,1,60.5000018463135,8|2,3:2|0:3,0:0:0:0:
77,254,86616,6,0,P|121:279|150:278,1,60.5000018463135,0|2,3:0|0:3,0:0:0:0:
177,317,86965,2,0,P|214:282|222:254,1,60.5000018463135,8|2,3:2|0:3,0:0:0:0:
268,241,87314,2,0,P|253:186|193:140,2,121.000003692627,0|8|0,3:0|3:2|3:0,0:0:0:0:
327,69,88535,5,2,0:3:0:0:
327,69,88709,2,0,L|454:50,1,121.000003692627,2|8,3:2|3:2,0:0:0:0:
493,90,89233,1,2,0:3:0:0:
507,148,89407,6,0,P|498:193|437:246,1,121.000003692627,4|8,3:2|3:2,0:0:0:0:
387,223,89930,1,2,0:3:0:0:
387,223,90105,1,0,3:0:0:0:
410,341,90454,6,0,P|364:346|295:304,1,121.000003692627,8|0,3:2|3:0,0:0:0:0:
302,250,90977,1,2,0:3:0:0:
302,250,91152,1,8,3:2:0:0:
181,255,91500,6,0,P|190:207|214:183,1,60.5000018463135,0|2,3:0|0:3,0:0:0:0:
231,149,91849,2,0,P|222:101|198:77,1,60.5000018463135,8|2,3:2|0:3,0:0:0:0:
157,74,92198,2,0,L|24:96,1,121.000003692627,0|8,3:0|3:2,0:0:0:0:
18,213,92896,6,0,L|144:229,1,121.000003692627,0|8,3:0|3:2,0:0:0:0:
176,275,93419,1,2,0:3:0:0:
176,275,93593,1,0,3:2:0:0:
220,317,93768,6,0,P|220:353|206:379,2,60.5000018463135,2|8|2,3:3|3:2|3:3,0:0:0:0:
277,296,94291,2,0,P|311:307|331:328,2,60.5000018463135,0|0|8,3:2|0:0|3:2,0:0:0:0:
280,235,94814,1,2,3:3:0:0:
280,235,94989,6,0,P|293:170|340:137,1,121.000003692627,4|8,3:2|3:2,0:0:0:0:
391,163,95512,1,2,0:3:0:0:
391,163,95686,1,0,3:0:0:0:
368,43,96035,6,0,P|433:35|479:69,1,121.000003692627,8|0,3:2|3:0,0:0:0:0:
470,127,96558,1,2,0:3:0:0:
470,127,96732,1,8,3:2:0:0:
496,245,97082,6,0,L|413:230,1,60.5000018463135,0|2,3:0|0:3,0:0:0:0:
379,254,97430,2,0,L|296:239,1,60.5000018463135,8|2,3:2|0:3,0:0:0:0:
262,263,97779,6,0,P|187:264|130:298,1,121.000003692627,0|8,3:0|3:2,0:0:0:0:
86,292,98302,1,2,0:3:0:0:
86,292,98477,2,0,P|77:335|86:361,2,60.5000018463135,0|2|8,3:2|3:3|3:2,0:0:0:0:
10,197,99175,6,0,P|40:138|30:76,1,121.000003692627,6|0,3:2|0:0,0:0:0:0:
68,35,99698,1,2,0:3:0:0:
68,35,99872,2,0,P|99:51|134:47,1,60.5000018463135,0|2,0:0|0:3,0:0:0:0:
178,77,100221,2,0,P|202:52|209:17,1,60.5000018463135,0|2,3:0|3:3,0:0:0:0:
266,9,100570,6,0,L|397:34,1,121.000003692627,4|8,3:2|3:2,0:0:0:0:
443,15,101093,1,2,0:3:0:0:
443,15,101268,1,0,3:0:0:0:
491,125,101616,6,0,L|360:150,1,121.000003692627,8|0,3:2|3:0,0:0:0:0:
314,131,102139,1,2,0:3:0:0:
314,131,102314,1,8,3:2:0:0:
203,81,102663,6,0,P|192:118|198:148,1,60.5000018463135,0|2,3:0|0:3,0:0:0:0:
221,193,103012,2,0,P|232:230|226:260,1,60.5000018463135,8|2,3:2|0:3,0:0:0:0:
193,300,103361,1,0,3:0:0:0:
365,356,103884,6,0,L|342:229,1,121.000003692627,2|2,0:3|0:3,0:0:0:0:
368,181,104407,1,8,3:2:0:0:
368,181,104582,1,2,0:3:0:0:
394,126,104756,2,0,L|266:108,1,121.000003692627,0|8,3:2|3:2,0:0:0:0:
230,67,105279,1,2,3:3:0:0:
230,67,105454,2,0,L|173:183,1,121.000003692627,0|8,3:2|3:2,0:0:0:0:
145,292,106151,6,0,P|195:278|264:305,1,121.000003692627,4|0,3:2|3:0,0:0:0:0:
289,352,106675,2,0,L|282:268,1,60.5000018463135,2|0,0:3|3:0,0:0:0:0:
313,240,107023,2,0,L|306:156,1,60.5000018463135,2|0,0:3|3:0,0:0:0:0:
276,128,107372,1,2,0:3:0:0:
276,128,107547,6,0,P|206:158|142:138,1,121.000003692627,0|0,3:2|3:0,0:0:0:0:
112,117,108070,2,0,L|33:129,1,60.5000018463135,2|0,0:3|3:0,0:0:0:0:
6,163,108419,2,0,L|85:175,1,60.5000018463135,2|0,0:3|3:0,0:0:0:0:
101,220,108768,1,2,0:3:0:0:
101,220,108942,6,0,P|148:250|178:316,1,121.000003692627,0|0,3:2|3:0,0:0:0:0:
221,347,109465,2,0,L|301:358,1,60.5000018463135,2|0,0:3|3:0,0:0:0:0:
334,325,109814,2,0,L|414:336,1,60.5000018463135,2|0,0:3|3:0,0:0:0:0:
444,300,110163,1,2,0:3:0:0:
444,300,110337,6,0,L|418:171,1,121.000003692627,0|0,3:2|3:0,0:0:0:0:
446,126,110861,2,0,L|460:51,1,60.5000018463135,2|0,0:3|3:0,0:0:0:0:
406,33,111209,2,0,L|421:110,2,60.5000018463135,2|2|8,0:3|3:2|0:2,0:0:0:0:
345,43,111733,6,0,P|285:62|216:41,1,121.000003692627,4|0,3:2|3:0,0:0:0:0:
185,7,112256,1,2,0:3:0:0:
185,7,112430,2,0,L|199:81,1,60.5000018463135,0|2,3:0|0:3,0:0:0:0:
166,119,112779,2,0,L|180:193,1,60.5000018463135,0|2,3:0|0:3,0:0:0:0:
149,232,113128,6,0,L|288:268,1,121.000003692627,0|0,3:2|3:0,0:0:0:0:
325,250,113651,1,2,0:3:0:0:
325,250,113826,2,0,L|390:236,1,60.5000018463135,0|0,3:0|0:0,0:0:0:0:
427,280,114175,2,0,L|367:267,1,60.5000018463135,0|0,3:0|0:0,0:0:0:0:
336,318,114523,6,0,P|273:347|201:326,1,121.000003692627,0|0,3:2|3:0,0:0:0:0:
180,295,115047,1,2,0:3:0:0:
180,295,115221,2,0,L|195:222,1,60.5000018463135,0|2,3:0|0:3,0:0:0:0:
175,177,115570,2,0,L|190:104,1,60.5000018463135,0|2,3:0|0:3,0:0:0:0:
227,72,115919,6,0,P|277:56|350:77,1,121.000003692627,0|0,3:2|3:0,0:0:0:0:
383,115,116442,1,2,0:3:0:0:
383,115,116616,2,0,L|362:186,2,60.5000018463135,0|2|2,3:0|0:3|3:2,0:0:0:0:
471,197,117314,6,0,P|443:252|384:280,1,121.000003692627,4|0,3:2|3:0,0:0:0:0:
371,335,117837,1,8,1:2:0:0:
371,335,118012,2,0,P|310:325|265:277,1,121.000003692627,0|0,3:0|3:0,0:0:0:0:
209,283,118534,1,8,1:2:0:0:
209,283,118709,2,0,P|199:221|231:164,1,121.000003692627,0|0,3:2|3:0,0:0:0:0:
208,112,119232,1,8,1:2:0:0:
208,112,119407,2,0,P|236:92|280:89,2,60.5000018463135,0|8|0,3:0|1:2|3:0,0:0:0:0:
86,117,120105,6,0,L|104:260,1,121.000003692627,0|0,3:2|3:0,0:0:0:0:
68,288,120628,1,8,1:2:0:0:
68,288,120802,2,0,L|209:315,1,121.000003692627,0|0,3:0|3:0,0:0:0:0:
225,358,121326,1,8,1:2:0:0:
225,358,121500,2,0,L|294:231,1,121.000003692627,4|0,3:2|3:0,0:0:0:0:
340,230,122024,1,12,1:2:0:0:
340,230,122198,2,0,L|285:174,2,60.5000018463135,0|8|6,3:0|1:2|3:2,0:0:0:0:
369,112,122896,6,0,P|329:84|253:92,1,121.000003692627,4|0,3:2|3:0,0:0:0:0:
205,60,123419,1,8,1:2:0:0:
205,60,123593,2,0,P|166:89|150:164,1,121.000003692627,0|0,3:0|3:0,0:0:0:0:
104,200,124117,1,8,1:2:0:0:
104,200,124291,2,0,P|119:246|186:284,1,121.000003692627,0|0,3:2|3:0,0:0:0:0:
205,339,124815,1,0,0:0:0:0:
205,339,124989,2,0,P|247:337|276:309,2,60.5000018463135,0|0|0,3:0|0:0|3:0,0:0:0:0:
84,353,125686,6,0,L|112:216,1,121.000003692627,0|0,3:2|3:0,0:0:0:0:
77,181,126209,1,8,1:2:0:0:
77,181,126384,2,0,L|215:165,1,121.000003692627,0|0,3:0|3:0,0:0:0:0:
238,121,126907,1,8,1:2:0:0:
238,121,127082,2,0,L|261:178,1,60.5000018463135,0|10,3:2|0:2,0:0:0:0:
314,204,127430,2,0,L|266:243,1,60.5000018463135,10|10,0:2|0:2,0:0:0:0:
258,302,127779,2,0,L|205:269,1,60.5000018463135,10|10,0:2|0:2,0:0:0:0:
147,279,128128,2,0,L|161:219,1,60.5000018463135,10|10,0:2|0:2,0:0:0:0:
0,0,129087,5,2,0:0:0:0:
256,192,129349,12,0,132663,0:0:0:0:
