osu file format v14

[General]
AudioFilename: audio.mp3
AudioLeadIn: 0
PreviewTime: 83048
Countdown: 0
SampleSet: Normal
StackLeniency: 0.7
Mode: 1
LetterboxInBreaks: 0
WidescreenStoryboard: 1

[Editor]
Bookmarks: 25221,36384,47547,106151,117314
DistanceSpacing: 1
BeatDivisor: 4
GridSize: 4
TimelineZoom: 1.599999

[Metadata]
Title:Yosakura Fubuki
TitleUnicode:夜桜吹雪
Artist:A.SAKA
ArtistUnicode:A.SAKA
Creator:Alwaysyukaz
Version:Muzukashii
Source:ステライツ - STELLIGHTS -
Tags:arcaea japanese folk music 神楽ノ舞 kagura no mai C88 night sakura blizzard
BeatmapID:1801354
BeatmapSetID:859944

[Difficulty]
HPDrainRate:6
CircleSize:2
OverallDifficulty:5
ApproachRate:0
SliderMultiplier:1.4
SliderTickRate:1

[Events]
//Background and Video events
0,0,"BG.jpg",0,0
//Break Periods
//Storyboard Layer 0 (Background)
//Storyboard Layer 1 (Fail)
//Storyboard Layer 2 (Pass)
//Storyboard Layer 3 (Foreground)
//Storyboard Layer 4 (Overlay)
//Storyboard Sound Samples

[TimingPoints]
2816,348.837209302326,4,1,0,70,1,0
83746,-100,4,1,0,70,0,1
106071,-100,4,1,0,70,0,0
117234,-100,4,1,0,70,0,1
128397,-100,4,1,0,70,0,0

[HitObjects]
255,187,2816,5,12,0:0:0:0:
255,187,3164,5,8,0:0:0:0:
255,187,3513,5,0,0:0:0:0:
255,187,3688,5,0,0:0:0:0:
255,187,3862,5,8,0:0:0:0:
255,187,4211,5,0,0:0:0:0:
255,187,4560,5,0,0:0:0:0:
255,187,4908,5,8,0:0:0:0:
255,187,5083,5,8,0:0:0:0:
255,187,5257,5,0,0:0:0:0:
255,187,5606,5,8,0:0:0:0:
255,187,5955,5,8,0:0:0:0:
255,187,6304,5,0,0:0:0:0:
255,187,6478,5,0,0:0:0:0:
255,187,6652,5,8,0:0:0:0:
255,187,7001,5,0,0:0:0:0:
255,187,7350,5,0,0:0:0:0:
255,187,7699,5,8,0:0:0:0:
255,187,8222,1,8,0:0:0:0:
255,187,8396,5,8,0:0:0:0:
255,187,8746,5,0,0:0:0:0:
255,187,9095,5,8,0:0:0:0:
255,187,9444,5,0,0:0:0:0:
255,187,9618,5,0,0:0:0:0:
255,187,9793,5,8,0:0:0:0:
255,187,10141,5,0,0:0:0:0:
255,187,10490,5,0,0:0:0:0:
255,187,10839,5,8,0:0:0:0:
255,187,11013,5,8,0:0:0:0:
255,187,11188,5,0,0:0:0:0:
255,187,11536,5,8,0:0:0:0:
255,187,11885,5,8,0:0:0:0:
255,187,12234,5,0,0:0:0:0:
255,187,12409,5,0,0:0:0:0:
255,187,12583,1,8,0:0:0:0:
255,187,13281,5,8,0:0:0:0:
255,187,13455,1,8,0:0:0:0:
255,187,13542,1,8,0:0:0:0:
255,187,13629,1,8,0:0:0:0:
255,187,13804,1,0,0:0:0:0:
255,187,13978,1,12,0:0:0:0:
255,187,14327,1,8,0:0:0:0:
255,187,14502,1,8,0:0:0:0:
255,187,14676,1,0,0:0:0:0:
255,187,14850,1,0,0:0:0:0:
255,187,15025,1,8,0:0:0:0:
255,187,15374,1,8,0:0:0:0:
255,187,15722,1,0,0:0:0:0:
255,187,15897,1,8,0:0:0:0:
255,187,16071,1,8,0:0:0:0:
255,187,16246,1,0,0:0:0:0:
255,187,16420,1,0,0:0:0:0:
255,187,16769,1,8,0:0:0:0:
255,187,17118,1,8,0:0:0:0:
255,187,17292,1,8,0:0:0:0:
255,187,17467,1,0,0:0:0:0:
255,187,17641,1,0,0:0:0:0:
255,187,17816,1,8,0:0:0:0:
255,187,18164,1,8,0:0:0:0:
255,187,18513,1,0,0:0:0:0:
255,187,18688,1,8,0:0:0:0:
255,187,18862,1,0,0:0:0:0:
255,187,19036,1,8,0:0:0:0:
255,187,19124,1,8,0:0:0:0:
255,187,19211,1,8,0:0:0:0:
255,187,19385,1,8,0:0:0:0:
255,187,19560,1,4,0:0:0:0:
255,187,20257,1,8,0:0:0:0:
255,187,20432,1,8,0:0:0:0:
255,187,20606,1,0,0:0:0:0:
255,187,20955,1,8,0:0:0:0:
255,187,21304,1,8,0:0:0:0:
255,187,21478,1,8,0:0:0:0:
255,187,21653,1,0,0:0:0:0:
255,187,21827,1,0,0:0:0:0:
255,187,22002,1,8,0:0:0:0:
255,187,22350,1,8,0:0:0:0:
255,187,22699,1,0,0:0:0:0:
255,187,22874,1,8,0:0:0:0:
255,187,23048,1,8,0:0:0:0:
255,187,23222,1,0,0:0:0:0:
255,187,23397,1,0,0:0:0:0:
255,187,23746,1,12,0:0:0:0:
255,187,24095,1,8,0:0:0:0:
255,187,24269,1,4,0:0:0:0:
255,187,24792,1,8,0:0:0:0:
255,187,25141,1,12,0:0:0:0:
255,187,25316,1,0,0:0:0:0:
255,187,25490,1,8,0:0:0:0:
255,187,25839,1,0,0:0:0:0:
255,187,26013,1,0,0:0:0:0:
255,187,26188,1,8,0:0:0:0:
255,187,26536,1,0,0:0:0:0:
255,187,26711,1,0,0:0:0:0:
255,187,26885,1,8,0:0:0:0:
255,187,27060,1,8,0:0:0:0:
255,187,27147,1,8,0:0:0:0:
255,187,27234,1,8,0:0:0:0:
255,187,27409,1,8,0:0:0:0:
255,187,27583,1,0,0:0:0:0:
255,187,27932,1,0,0:0:0:0:
255,187,28106,1,0,0:0:0:0:
255,187,28281,1,8,0:0:0:0:
255,187,28629,1,0,0:0:0:0:
255,187,28978,1,8,0:0:0:0:
255,187,29327,1,8,0:0:0:0:
255,187,29502,1,0,0:0:0:0:
255,187,29589,1,0,0:0:0:0:
255,187,29676,1,0,0:0:0:0:
255,187,29850,1,8,0:0:0:0:
255,187,30374,1,8,0:0:0:0:
255,187,30722,1,4,0:0:0:0:
255,187,31071,1,8,0:0:0:0:
255,187,31420,1,0,0:0:0:0:
255,187,31595,1,8,0:0:0:0:
255,187,31769,1,8,0:0:0:0:
255,187,32118,1,8,0:0:0:0:
255,187,32292,1,0,0:0:0:0:
255,187,32467,1,8,0:0:0:0:
255,187,32641,1,8,0:0:0:0:
255,187,32728,1,8,0:0:0:0:
255,187,32816,1,8,0:0:0:0:
255,187,32990,1,8,0:0:0:0:
255,187,33164,1,0,0:0:0:0:
255,187,33513,1,0,0:0:0:0:
255,187,33862,1,8,0:0:0:0:
255,187,34036,1,0,0:0:0:0:
255,187,34211,1,0,0:0:0:0:
255,187,34560,1,8,0:0:0:0:
255,187,34909,1,0,0:0:0:0:
255,187,35083,1,8,0:0:0:0:
255,187,35170,1,8,0:0:0:0:
255,187,35257,1,8,0:0:0:0:
255,187,35432,1,0,0:0:0:0:
255,187,35955,1,0,0:0:0:0:
255,187,36304,1,12,0:0:0:0:
255,187,36478,1,0,0:0:0:0:
255,187,36653,1,8,0:0:0:0:
255,187,37002,1,0,0:0:0:0:
255,187,37176,1,0,0:0:0:0:
255,187,37350,1,8,0:0:0:0:
255,187,37699,1,0,0:0:0:0:
255,187,37874,1,8,0:0:0:0:
255,187,38048,1,8,0:0:0:0:
255,187,38222,1,8,0:0:0:0:
255,187,38310,1,8,0:0:0:0:
255,187,38397,1,8,0:0:0:0:
255,187,38571,1,8,0:0:0:0:
255,187,38746,1,0,0:0:0:0:
255,187,39095,1,0,0:0:0:0:
255,187,39269,1,0,0:0:0:0:
255,187,39443,1,8,0:0:0:0:
255,187,39792,1,0,0:0:0:0:
255,187,40141,1,8,0:0:0:0:
255,187,40490,1,4,0:0:0:0:
255,187,40664,1,0,0:0:0:0:
255,187,40752,1,0,0:0:0:0:
255,187,40839,1,0,0:0:0:0:
255,187,41013,1,12,0:0:0:0:
255,187,41536,1,12,0:0:0:0:
255,187,41885,1,4,0:0:0:0:
261,183,42060,1,8,0:0:0:0:
255,187,42234,1,0,0:0:0:0:
255,187,42583,1,0,0:0:0:0:
255,187,42757,1,0,0:0:0:0:
255,187,42932,1,8,0:0:0:0:
255,187,43281,1,8,0:0:0:0:
255,187,43455,1,0,0:0:0:0:
255,187,43629,1,0,0:0:0:0:
255,187,43804,1,8,0:0:0:0:
255,187,43891,1,8,0:0:0:0:
255,187,43978,1,8,0:0:0:0:
255,187,44153,1,8,0:0:0:0:
255,187,44327,1,0,0:0:0:0:
255,187,44676,1,8,0:0:0:0:
255,187,44851,1,0,0:0:0:0:
255,187,45025,1,0,0:0:0:0:
255,187,45374,1,0,0:0:0:0:
255,187,45722,1,8,0:0:0:0:
255,187,46071,1,0,0:0:0:0:
255,187,46246,1,8,0:0:0:0:
255,187,46333,1,8,0:0:0:0:
255,187,46420,1,8,0:0:0:0:
255,187,46595,1,0,0:0:0:0:
255,187,47118,1,0,0:0:0:0:
255,187,47467,1,12,0:0:0:0:
255,187,47816,1,0,0:0:0:0:
255,187,47990,1,0,0:0:0:0:
255,187,48164,1,8,0:0:0:0:
255,187,48513,1,8,0:0:0:0:
255,187,48688,1,0,0:0:0:0:
255,187,48862,1,0,0:0:0:0:
255,187,49036,1,8,0:0:0:0:
255,187,49385,1,8,0:0:0:0:
255,187,49560,1,0,0:0:0:0:
255,187,49909,1,0,0:0:0:0:
255,187,50083,1,8,0:0:0:0:
255,187,50257,1,8,0:0:0:0:
255,187,50432,1,0,0:0:0:0:
255,187,50781,1,8,0:0:0:0:
255,187,50955,1,0,0:0:0:0:
255,187,51304,1,8,0:0:0:0:
255,187,51478,1,0,0:0:0:0:
255,187,51653,1,0,0:0:0:0:
255,187,51827,1,8,0:0:0:0:
255,187,52176,1,8,0:0:0:0:
255,187,52350,1,0,0:0:0:0:
255,187,52525,1,8,0:0:0:0:
255,187,52612,1,8,0:0:0:0:
255,187,52699,1,8,0:0:0:0:
255,187,52874,1,8,0:0:0:0:
255,187,53048,1,4,0:0:0:0:
255,187,53397,1,8,0:0:0:0:
255,187,53746,1,0,0:0:0:0:
255,187,53920,1,8,0:0:0:0:
255,187,54095,1,8,0:0:0:0:
255,187,54443,1,0,0:0:0:0:
255,187,54792,1,8,0:0:0:0:
255,187,55141,1,0,0:0:0:0:
255,187,55316,1,8,0:0:0:0:
255,187,55490,1,8,0:0:0:0:
255,187,55577,1,8,0:0:0:0:
255,187,55664,1,8,0:0:0:0:
255,187,55839,1,0,0:0:0:0:
255,187,56188,1,0,0:0:0:0:
255,187,56362,1,0,0:0:0:0:
255,187,56536,1,8,0:0:0:0:
255,187,57234,1,4,0:0:0:0:
255,187,57583,1,8,0:0:0:0:
255,187,57757,1,0,0:0:0:0:
255,187,57932,1,8,0:0:0:0:
255,187,58281,1,0,0:0:0:0:
255,187,58629,1,12,0:0:0:0:
257,187,58978,1,0,0:0:0:0:
255,187,59327,1,8,0:0:0:0:
255,187,59502,1,8,0:0:0:0:
255,187,59676,1,0,0:0:0:0:
255,187,60025,1,0,0:0:0:0:
255,187,60199,1,8,0:0:0:0:
255,187,60374,1,8,0:0:0:0:
255,187,60722,1,8,0:0:0:0:
255,187,60897,1,0,0:0:0:0:
255,187,61071,1,8,0:0:0:0:
255,187,61420,1,0,0:0:0:0:
255,187,61769,1,8,0:0:0:0:
255,187,62118,1,8,0:0:0:0:
255,187,62292,1,8,0:0:0:0:
255,187,62467,1,0,0:0:0:0:
255,187,62816,1,8,0:0:0:0:
255,187,63164,1,0,0:0:0:0:
255,187,63339,1,0,0:0:0:0:
255,187,63513,1,8,0:0:0:0:
255,187,63688,1,8,0:0:0:0:
255,187,63862,1,0,0:0:0:0:
255,187,64036,1,0,0:0:0:0:
255,187,64211,1,12,0:0:0:0:
255,187,64560,1,8,0:0:0:0:
255,187,64734,1,0,0:0:0:0:
255,187,64909,1,8,0:0:0:0:
255,187,65257,1,0,0:0:0:0:
255,187,65432,1,0,0:0:0:0:
255,187,65606,1,12,0:0:0:0:
255,187,65781,1,0,0:0:0:0:
255,187,65955,1,0,0:0:0:0:
255,187,66129,1,12,0:0:0:0:
255,187,66478,1,0,0:0:0:0:
255,187,66653,1,8,0:0:0:0:
255,187,66827,1,8,0:0:0:0:
255,187,67002,1,4,0:0:0:0:
255,187,67350,1,0,0:0:0:0:
255,187,67525,1,8,0:0:0:0:
255,187,68048,1,0,0:0:0:0:
255,187,68222,1,8,0:0:0:0:
255,187,68397,1,0,0:0:0:0:
255,187,68571,1,8,0:0:0:0:
255,187,68659,1,8,0:0:0:0:
255,187,68746,1,8,0:0:0:0:
255,187,68920,1,0,0:0:0:0:
255,187,69095,1,8,0:0:0:0:
255,187,69443,1,0,0:0:0:0:
255,187,69618,1,0,0:0:0:0:
255,187,69792,1,12,0:0:0:0:
255,187,70141,1,8,0:0:0:0:
255,187,70403,1,0,0:0:0:0:
255,187,70839,1,0,0:0:0:0:
255,187,71013,1,0,0:0:0:0:
255,187,71188,1,8,0:0:0:0:
255,187,71536,1,8,0:0:0:0:
255,187,71798,1,0,0:0:0:0:
255,187,72234,1,8,0:0:0:0:
255,187,72409,1,0,0:0:0:0:
255,187,72583,1,8,0:0:0:0:
255,187,72932,1,0,0:0:0:0:
255,187,73106,1,0,0:0:0:0:
255,187,73281,1,8,0:0:0:0:
255,187,73629,1,0,0:0:0:0:
255,187,73978,1,0,0:0:0:0:
255,187,74153,1,8,0:0:0:0:
255,187,74327,1,8,0:0:0:0:
255,187,74850,1,0,0:0:0:0:
255,187,75025,1,8,0:0:0:0:
255,187,75199,1,8,0:0:0:0:
255,187,75374,1,0,0:0:0:0:
255,187,75722,1,8,0:0:0:0:
255,187,75984,1,0,0:0:0:0:
255,187,76420,1,8,0:0:0:0:
255,187,76595,1,0,0:0:0:0:
255,187,76769,1,0,0:0:0:0:
255,187,77118,1,8,0:0:0:0:
255,187,77379,1,0,0:0:0:0:
255,187,77641,1,0,0:0:0:0:
255,187,77816,1,8,0:0:0:0:
255,187,78164,1,8,0:0:0:0:
255,187,78339,1,0,0:0:0:0:
255,187,78513,1,0,0:0:0:0:
255,187,78688,1,8,0:0:0:0:
255,187,79036,1,0,0:0:0:0:
255,187,79385,1,8,0:0:0:0:
255,187,79560,1,8,0:0:0:0:
255,187,79734,1,0,0:0:0:0:
255,187,79909,1,0,0:0:0:0:
255,187,80083,1,8,0:0:0:0:
255,187,80432,1,8,0:0:0:0:
255,187,80781,1,8,0:0:0:0:
255,187,80955,1,0,0:0:0:0:
255,187,81304,1,8,0:0:0:0:
255,187,81653,1,0,0:0:0:0:
255,187,82002,1,0,0:0:0:0:
255,187,82350,1,12,0:0:0:0:
255,187,83048,1,8,0:0:0:0:
255,187,83397,1,8,0:0:0:0:
255,187,83571,1,8,0:0:0:0:
255,187,83746,1,4,0:0:0:0:
255,187,83920,1,8,0:0:0:0:
255,187,84095,1,0,0:0:0:0:
255,187,84182,1,0,0:0:0:0:
255,187,84269,1,0,0:0:0:0:
255,187,84443,1,8,0:0:0:0:
255,187,84792,1,8,0:0:0:0:
255,187,84879,1,8,0:0:0:0:
255,187,84967,1,8,0:0:0:0:
255,187,85141,1,0,0:0:0:0:
255,187,85316,1,8,0:0:0:0:
255,187,85490,1,8,0:0:0:0:
255,187,85839,1,8,0:0:0:0:
255,187,86013,1,8,0:0:0:0:
255,187,86188,1,0,0:0:0:0:
255,187,86362,1,0,0:0:0:0:
255,187,86536,1,8,0:0:0:0:
255,187,86885,1,8,0:0:0:0:
255,187,87060,1,0,0:0:0:0:
255,187,87234,1,8,0:0:0:0:
255,187,87409,1,0,0:0:0:0:
255,187,87583,1,0,0:0:0:0:
255,187,87932,1,8,0:0:0:0:
255,187,88455,1,8,0:0:0:0:
255,187,88542,1,8,0:0:0:0:
255,187,88629,1,8,0:0:0:0:
255,187,88804,1,0,0:0:0:0:
255,187,88891,1,0,0:0:0:0:
255,187,88978,1,0,0:0:0:0:
255,187,89153,1,0,0:0:0:0:
255,187,89327,1,12,0:0:0:0:
255,187,89502,1,0,0:0:0:0:
255,187,89676,1,8,0:0:0:0:
255,187,89850,1,8,0:0:0:0:
255,187,90025,1,0,0:0:0:0:
255,187,90374,1,8,0:0:0:0:
255,187,90548,1,8,0:0:0:0:
255,187,90722,1,0,0:0:0:0:
255,187,90810,1,0,0:0:0:0:
255,187,90897,1,0,0:0:0:0:
255,187,91071,1,8,0:0:0:0:
255,187,91420,1,8,0:0:0:0:
255,187,91769,1,0,0:0:0:0:
255,187,91943,1,0,0:0:0:0:
255,187,92118,1,8,0:0:0:0:
255,187,92292,1,8,0:0:0:0:
255,187,92641,1,8,0:0:0:0:
255,187,92728,1,8,0:0:0:0:
255,187,92816,1,8,0:0:0:0:
255,187,92990,1,0,0:0:0:0:
255,187,93164,1,8,0:0:0:0:
255,187,93339,1,8,0:0:0:0:
255,187,93513,1,0,0:0:0:0:
255,187,93862,1,0,0:0:0:0:
255,187,94037,1,8,0:0:0:0:
255,187,94124,1,8,0:0:0:0:
255,187,94211,1,8,0:0:0:0:
255,187,94909,1,4,0:0:0:0:
255,187,95257,1,8,0:0:0:0:
255,187,95432,1,0,0:0:0:0:
255,187,95606,1,8,0:0:0:0:
238,209,95955,1,8,0:0:0:0:
238,209,96129,1,0,0:0:0:0:
238,209,96304,1,8,0:0:0:0:
238,209,96478,1,8,0:0:0:0:
238,209,96653,1,0,0:0:0:0:
238,209,97002,1,8,0:0:0:0:
238,209,97350,1,8,0:0:0:0:
238,209,97525,1,0,0:0:0:0:
238,209,97699,1,8,0:0:0:0:
238,209,98222,1,8,0:0:0:0:
238,209,98310,1,8,0:0:0:0:
238,209,98397,1,8,0:0:0:0:
238,209,98571,1,8,0:0:0:0:
238,209,98746,1,0,0:0:0:0:
238,209,98920,1,0,0:0:0:0:
238,209,99095,1,12,0:0:0:0:
238,209,99443,1,0,0:0:0:0:
238,209,99618,1,8,0:0:0:0:
238,209,99792,1,8,0:0:0:0:
238,209,100141,1,8,0:0:0:0:
238,209,100316,1,8,0:0:0:0:
238,209,100490,1,4,0:0:0:0:
238,209,100839,1,8,0:0:0:0:
238,209,101013,1,0,0:0:0:0:
238,209,101188,1,8,0:0:0:0:
238,209,101536,1,8,0:0:0:0:
238,209,101711,1,0,0:0:0:0:
238,209,101885,1,0,0:0:0:0:
238,209,102060,1,8,0:0:0:0:
238,209,102234,1,0,0:0:0:0:
238,209,102583,1,0,0:0:0:0:
238,209,102757,1,8,0:0:0:0:
238,209,102845,1,8,0:0:0:0:
238,209,102932,1,8,0:0:0:0:
238,209,103106,1,0,0:0:0:0:
238,209,103281,1,8,0:0:0:0:
238,209,103804,1,8,0:0:0:0:
238,209,103891,1,8,0:0:0:0:
238,209,103978,1,8,0:0:0:0:
238,209,104153,1,0,0:0:0:0:
238,209,104327,1,8,0:0:0:0:
238,209,104502,1,8,0:0:0:0:
238,209,104676,1,0,0:0:0:0:
238,209,105025,1,8,0:0:0:0:
238,209,105199,1,0,0:0:0:0:
238,209,105374,1,0,0:0:0:0:
238,209,105548,1,8,0:0:0:0:
248,192,105635,1,8,0:0:0:0:
238,209,105722,1,8,0:0:0:0:
255,187,106071,1,12,0:0:0:0:
255,187,106246,1,0,0:0:0:0:
255,187,106420,1,8,0:0:0:0:
255,187,106769,1,0,0:0:0:0:
255,187,106943,1,0,0:0:0:0:
255,187,107118,1,8,0:0:0:0:
255,187,107466,1,0,0:0:0:0:
255,187,107641,1,0,0:0:0:0:
255,187,107815,1,8,0:0:0:0:
255,187,107990,1,8,0:0:0:0:
255,187,108077,1,8,0:0:0:0:
255,187,108164,1,8,0:0:0:0:
255,187,108339,1,8,0:0:0:0:
255,187,108513,1,0,0:0:0:0:
255,187,108862,1,0,0:0:0:0:
255,187,109036,1,0,0:0:0:0:
255,187,109211,1,8,0:0:0:0:
255,187,109559,1,0,0:0:0:0:
255,187,109908,1,8,0:0:0:0:
255,187,110257,1,8,0:0:0:0:
255,187,110432,1,0,0:0:0:0:
255,187,110519,1,0,0:0:0:0:
255,187,110606,1,0,0:0:0:0:
255,187,110780,1,8,0:0:0:0:
255,187,111304,1,8,0:0:0:0:
255,187,111652,1,4,0:0:0:0:
255,187,112001,1,8,0:0:0:0:
255,187,112350,1,0,0:0:0:0:
255,187,112525,1,8,0:0:0:0:
255,187,112699,1,8,0:0:0:0:
255,187,113048,1,8,0:0:0:0:
255,187,113222,1,0,0:0:0:0:
255,187,113397,1,8,0:0:0:0:
255,187,113571,1,8,0:0:0:0:
255,187,113658,1,8,0:0:0:0:
255,187,113746,1,8,0:0:0:0:
255,187,113920,1,8,0:0:0:0:
255,187,114094,1,0,0:0:0:0:
255,187,114443,1,0,0:0:0:0:
255,187,114792,1,8,0:0:0:0:
255,187,114966,1,0,0:0:0:0:
255,187,115141,1,0,0:0:0:0:
255,187,115490,1,8,0:0:0:0:
255,187,115839,1,0,0:0:0:0:
255,187,116013,1,8,0:0:0:0:
255,187,116100,1,8,0:0:0:0:
255,187,116187,1,8,0:0:0:0:
255,187,116362,1,0,0:0:0:0:
255,187,116885,1,0,0:0:0:0:
255,187,117234,1,12,0:0:0:0:
255,187,117408,1,0,0:0:0:0:
255,187,117583,1,8,0:0:0:0:
255,187,117932,1,0,0:0:0:0:
255,187,118106,1,0,0:0:0:0:
255,187,118280,1,8,0:0:0:0:
255,187,118629,1,0,0:0:0:0:
255,187,118804,1,8,0:0:0:0:
255,187,118978,1,8,0:0:0:0:
255,187,119152,1,8,0:0:0:0:
255,187,119240,1,8,0:0:0:0:
255,187,119327,1,8,0:0:0:0:
255,187,119501,1,8,0:0:0:0:
255,187,119676,1,0,0:0:0:0:
255,187,120025,1,0,0:0:0:0:
255,187,120199,1,0,0:0:0:0:
255,187,120373,1,8,0:0:0:0:
255,187,120722,1,0,0:0:0:0:
255,187,121071,1,8,0:0:0:0:
255,187,121420,1,4,0:0:0:0:
255,187,121594,1,0,0:0:0:0:
255,187,121682,1,0,0:0:0:0:
255,187,121769,1,0,0:0:0:0:
255,187,121943,1,12,0:0:0:0:
255,187,122466,1,8,0:0:0:0:
255,187,122816,1,4,0:0:0:0:
255,187,122990,1,8,0:0:0:0:
255,187,123164,1,0,0:0:0:0:
255,187,123513,1,0,0:0:0:0:
255,187,123687,1,0,0:0:0:0:
255,187,123862,1,8,0:0:0:0:
255,187,124211,1,8,0:0:0:0:
255,187,124385,1,0,0:0:0:0:
255,187,124559,1,0,0:0:0:0:
255,187,124734,1,8,0:0:0:0:
255,187,124821,1,8,0:0:0:0:
255,187,124908,1,8,0:0:0:0:
255,187,125083,1,8,0:0:0:0:
255,187,125257,5,0,0:0:0:0:
255,187,125606,1,8,0:0:0:0:
255,187,125781,1,0,0:0:0:0:
255,187,125955,1,0,0:0:0:0:
255,187,126304,1,0,0:0:0:0:
255,187,126652,1,8,0:0:0:0:
255,187,127001,5,8,0:0:0:0:
255,187,127176,1,8,0:0:0:0:
255,187,127263,5,8,0:0:0:0:
255,187,127350,1,8,0:0:0:0:
255,187,127525,1,0,0:0:0:0:
255,187,127699,1,8,0:0:0:0:
255,187,127874,1,0,0:0:0:0:
255,187,128048,1,0,0:0:0:0:
255,187,128135,1,0,0:0:0:0:
255,187,128222,1,0,0:0:0:0:
255,187,128397,1,8,0:0:0:0:
255,187,129007,5,8,0:0:0:0:
