osu file format v14

[General]
AudioFilename: audio.mp3
AudioLeadIn: 0
PreviewTime: 83048
Countdown: 0
SampleSet: Normal
StackLeniency: 0.7
Mode: 1
LetterboxInBreaks: 0
WidescreenStoryboard: 1

[Editor]
Bookmarks: 25221,47547,106151
DistanceSpacing: 1
BeatDivisor: 4
GridSize: 4
TimelineZoom: 1.099998

[Metadata]
Title:Yosakura Fubuki
TitleUnicode:夜桜吹雪
Artist:A.SAKA
ArtistUnicode:A.SAKA
Creator:Alwaysyukaz
Version:Futsuu
Source:ステライツ - STELLIGHTS -
Tags:arcaea japanese folk music 神楽ノ舞 kagura no mai C88 night sakura blizzard
BeatmapID:1802428
BeatmapSetID:859944

[Difficulty]
HPDrainRate:7
CircleSize:2
OverallDifficulty:4
ApproachRate:0
SliderMultiplier:1.4
SliderTickRate:1

[Events]
//Background and Video events
0,0,"BG.jpg",0,0
//Break Periods
//Storyboard Layer 0 (Background)
//Storyboard Layer 1 (Fail)
//Storyboard Layer 2 (Pass)
//Storyboard Layer 3 (Foreground)
//Storyboard Layer 4 (Overlay)
//Storyboard Sound Samples

[TimingPoints]
2816,348.837209302326,4,1,0,70,1,0
83746,-100,4,1,0,70,0,1
106071,-100,4,1,0,70,0,0
117234,-100,4,1,0,70,0,1
128397,-100,4,1,0,70,0,0

[HitObjects]
255,187,2816,5,12,0:0:0:0:
255,187,3513,1,0,0:0:0:0:
255,187,3862,5,8,0:0:0:0:
255,187,4211,5,0,0:0:0:0:
262,182,4909,1,0,0:0:0:0:
255,187,5606,5,8,0:0:0:0:
255,187,6304,1,0,0:0:0:0:
255,187,6652,5,8,0:0:0:0:
255,187,7001,5,0,0:0:0:0:
255,187,7699,1,8,0:0:0:0:
255,187,8396,5,8,0:0:0:0:
255,187,9095,5,0,0:0:0:0:
255,187,9443,5,0,0:0:0:0:
255,187,9792,1,8,0:0:0:0:
255,187,10491,5,0,0:0:0:0:
255,187,11188,1,8,0:0:0:0:
255,187,11885,1,0,0:0:0:0:
255,187,12234,5,0,0:0:0:0:
255,187,12583,5,8,0:0:0:0:
255,187,13281,5,8,0:0:0:0:
255,187,13455,1,8,0:0:0:0:
255,187,13629,1,8,0:0:0:0:
255,187,13978,1,12,0:0:0:0:
255,187,14327,1,8,0:0:0:0:
255,187,14676,1,0,0:0:0:0:
255,187,15025,1,8,0:0:0:0:
255,187,15374,1,0,0:0:0:0:
255,187,16071,1,8,0:0:0:0:
255,187,16420,1,0,0:0:0:0:
255,187,16769,1,8,0:0:0:0:
255,187,17467,1,8,0:0:0:0:
255,187,17816,1,0,0:0:0:0:
255,187,17990,1,8,0:0:0:0:
266,181,18164,1,8,0:0:0:0:
255,187,18513,1,0,0:0:0:0:
255,187,18862,1,8,0:0:0:0:
255,187,19211,1,8,0:0:0:0:
255,187,19560,1,4,0:0:0:0:
255,187,20257,1,8,0:0:0:0:
255,187,20606,1,8,0:0:0:0:
255,187,20955,1,0,0:0:0:0:
255,187,21304,1,0,0:0:0:0:
255,187,21653,1,8,0:0:0:0:
255,187,22002,1,0,0:0:0:0:
255,187,22176,1,0,0:0:0:0:
255,187,22350,1,8,0:0:0:0:
255,187,22699,1,8,0:0:0:0:
255,187,23048,1,0,0:0:0:0:
255,187,23746,1,12,0:0:0:0:
255,187,24269,1,4,0:0:0:0:
255,187,24792,1,8,0:0:0:0:
255,187,25141,1,12,0:0:0:0:
255,187,25490,1,0,0:0:0:0:
255,187,25839,1,0,0:0:0:0:
255,187,26014,1,0,0:0:0:0:
255,187,26188,1,8,0:0:0:0:
255,187,26536,1,8,0:0:0:0:
255,187,26885,1,0,0:0:0:0:
255,187,27234,1,8,0:0:0:0:
255,187,27932,1,0,0:0:0:0:
255,187,28106,1,0,0:0:0:0:
255,187,28281,1,8,0:0:0:0:
255,187,28629,1,0,0:0:0:0:
255,187,28978,1,8,0:0:0:0:
255,187,29327,1,0,0:0:0:0:
255,187,29676,1,0,0:0:0:0:
255,187,29850,1,8,0:0:0:0:
255,187,30722,1,4,0:0:0:0:
255,187,31071,1,8,0:0:0:0:
255,187,31420,1,0,0:0:0:0:
255,187,31595,1,8,0:0:0:0:
255,187,31769,1,8,0:0:0:0:
255,187,32118,1,0,0:0:0:0:
255,187,32467,1,8,0:0:0:0:
255,187,32816,1,8,0:0:0:0:
255,187,33513,1,0,0:0:0:0:
255,187,33862,1,8,0:0:0:0:
255,187,34036,1,0,0:0:0:0:
255,187,34211,1,0,0:0:0:0:
255,187,34560,1,8,0:0:0:0:
255,187,34909,1,0,0:0:0:0:
255,187,35257,1,0,0:0:0:0:
255,187,35432,1,8,0:0:0:0:
255,187,36304,1,12,0:0:0:0:
255,187,36653,1,0,0:0:0:0:
255,187,36827,1,8,0:0:0:0:
255,187,37176,1,8,0:0:0:0:
255,187,37350,1,0,0:0:0:0:
255,187,37699,1,8,0:0:0:0:
255,187,38048,1,0,0:0:0:0:
255,187,38397,1,0,0:0:0:0:
255,187,38746,1,8,0:0:0:0:
255,187,39095,1,0,0:0:0:0:
255,187,39443,1,8,0:0:0:0:
255,187,39618,1,0,0:0:0:0:
255,187,39967,1,0,0:0:0:0:
255,187,40141,1,8,0:0:0:0:
255,187,40490,1,4,0:0:0:0:
255,187,40839,1,0,0:0:0:0:
255,187,41013,1,12,0:0:0:0:
255,187,41885,1,4,0:0:0:0:
255,187,42234,1,8,0:0:0:0:
255,187,42408,1,0,0:0:0:0:
255,187,42757,1,0,0:0:0:0:
255,187,42932,1,8,0:0:0:0:
255,187,43281,1,8,0:0:0:0:
255,187,43629,1,0,0:0:0:0:
255,187,43978,1,8,0:0:0:0:
255,187,44676,1,8,0:0:0:0:
255,187,45025,1,8,0:0:0:0:
255,187,45199,1,0,0:0:0:0:
255,187,45548,1,0,0:0:0:0:
255,187,45722,1,8,0:0:0:0:
255,187,46071,1,0,0:0:0:0:
255,187,46420,1,0,0:0:0:0:
255,187,46595,1,8,0:0:0:0:
255,187,47467,1,12,0:0:0:0:
255,187,48164,1,8,0:0:0:0:
255,187,48513,1,8,0:0:0:0:
255,187,48862,1,0,0:0:0:0:
255,187,49560,1,8,0:0:0:0:
255,187,49909,1,0,0:0:0:0:
255,187,50257,1,8,0:0:0:0:
255,187,50955,1,8,0:0:0:0:
255,187,51653,1,0,0:0:0:0:
255,187,52002,1,8,0:0:0:0:
255,187,52350,1,0,0:0:0:0:
255,187,52524,1,8,0:0:0:0:
255,187,52699,1,8,0:0:0:0:
255,187,53048,1,4,0:0:0:0:
255,187,53746,1,0,0:0:0:0:
255,187,54095,1,8,0:0:0:0:
255,187,54443,1,0,0:0:0:0:
255,187,55141,1,8,0:0:0:0:
255,187,55490,1,8,0:0:0:0:
255,187,55664,1,8,0:0:0:0:
255,187,55839,1,0,0:0:0:0:
255,187,56188,1,0,0:0:0:0:
255,187,56536,1,8,0:0:0:0:
255,187,57234,1,4,0:0:0:0:
255,187,57932,1,8,0:0:0:0:
255,187,58281,1,0,0:0:0:0:
255,187,58629,1,12,0:0:0:0:
255,187,59327,1,8,0:0:0:0:
255,187,59676,1,0,0:0:0:0:
255,187,60025,1,0,0:0:0:0:
255,187,60374,1,8,0:0:0:0:
255,187,60722,1,0,0:0:0:0:
255,187,60897,1,8,0:0:0:0:
255,187,61071,1,8,0:0:0:0:
255,187,61420,1,0,0:0:0:0:
255,187,62118,1,8,0:0:0:0:
255,187,62467,1,8,0:0:0:0:
255,187,62816,1,0,0:0:0:0:
255,187,63164,1,0,0:0:0:0:
255,187,63513,1,8,0:0:0:0:
255,187,63862,1,0,0:0:0:0:
255,187,64036,1,0,0:0:0:0:
255,187,64211,1,12,0:0:0:0:
255,187,64909,1,8,0:0:0:0:
255,187,65257,1,0,0:0:0:0:
255,187,65606,1,12,0:0:0:0:
255,187,65955,1,0,0:0:0:0:
255,187,66129,1,12,0:0:0:0:
255,187,66478,1,0,0:0:0:0:
255,187,66653,1,8,0:0:0:0:
255,187,67002,1,4,0:0:0:0:
255,187,67350,1,0,0:0:0:0:
255,187,67525,1,8,0:0:0:0:
246,187,68048,1,0,0:0:0:0:
255,187,68397,1,0,0:0:0:0:
255,187,68746,1,8,0:0:0:0:
255,187,69095,1,8,0:0:0:0:
255,187,69443,1,0,0:0:0:0:
255,187,69618,1,0,0:0:0:0:
255,187,69792,1,12,0:0:0:0:
255,187,70141,1,8,0:0:0:0:
260,198,70403,1,0,0:0:0:0:
255,187,70839,1,0,0:0:0:0:
255,187,71188,1,8,0:0:0:0:
255,187,71536,1,8,0:0:0:0:
255,187,71798,1,0,0:0:0:0:
255,187,72234,1,8,0:0:0:0:
255,187,72409,1,8,0:0:0:0:
255,187,72583,1,8,0:0:0:0:
255,187,73106,1,0,0:0:0:0:
255,187,73281,1,8,0:0:0:0:
255,187,73629,1,0,0:0:0:0:
255,187,73978,1,0,0:0:0:0:
255,187,74327,1,8,0:0:0:0:
255,187,75025,1,8,0:0:0:0:
255,187,75374,1,0,0:0:0:0:
255,187,75722,1,8,0:0:0:0:
255,187,75984,1,0,0:0:0:0:
255,187,76420,1,8,0:0:0:0:
255,187,76595,1,0,0:0:0:0:
255,187,76769,1,0,0:0:0:0:
255,187,77118,1,8,0:0:0:0:
255,187,77379,1,0,0:0:0:0:
255,187,77816,1,8,0:0:0:0:
255,187,78164,1,8,0:0:0:0:
255,187,78513,1,0,0:0:0:0:
255,187,78688,1,8,0:0:0:0:
255,187,79036,1,0,0:0:0:0:
255,187,79385,1,8,0:0:0:0:
255,187,79560,1,8,0:0:0:0:
255,187,79909,1,0,0:0:0:0:
255,187,80083,1,8,0:0:0:0:
255,187,80432,1,8,0:0:0:0:
255,187,80781,1,8,0:0:0:0:
255,187,80955,1,0,0:0:0:0:
255,187,81304,1,8,0:0:0:0:
255,187,81653,1,0,0:0:0:0:
255,187,82002,1,0,0:0:0:0:
255,187,82350,1,12,0:0:0:0:
255,187,83048,1,8,0:0:0:0:
255,187,83746,1,4,0:0:0:0:
255,187,84095,1,0,0:0:0:0:
255,187,84269,1,0,0:0:0:0:
255,187,84443,1,8,0:0:0:0:
255,187,84792,1,8,0:0:0:0:
255,187,85141,1,0,0:0:0:0:
255,187,85316,1,8,0:0:0:0:
255,187,85490,1,8,0:0:0:0:
255,187,85839,1,8,0:0:0:0:
255,187,86188,1,0,0:0:0:0:
255,187,86536,1,8,0:0:0:0:
255,187,86885,1,8,0:0:0:0:
255,187,87060,1,8,0:0:0:0:
255,187,87234,1,8,0:0:0:0:
255,187,87583,1,0,0:0:0:0:
255,187,87932,1,8,0:0:0:0:
255,187,88629,1,8,0:0:0:0:
255,187,88978,1,0,0:0:0:0:
255,187,89327,1,12,0:0:0:0:
255,187,89676,1,0,0:0:0:0:
255,187,89850,1,0,0:0:0:0:
255,187,90025,1,8,0:0:0:0:
255,187,90374,1,0,0:0:0:0:
255,187,90722,1,0,0:0:0:0:
255,187,90897,1,8,0:0:0:0:
255,187,91071,1,8,0:0:0:0:
255,187,91420,1,8,0:0:0:0:
255,187,91769,1,0,0:0:0:0:
255,187,92118,1,8,0:0:0:0:
255,187,92292,1,8,0:0:0:0:
255,187,92641,1,0,0:0:0:0:
255,187,92816,1,0,0:0:0:0:
255,187,93164,1,8,0:0:0:0:
255,187,93513,1,0,0:0:0:0:
255,187,93862,1,0,0:0:0:0:
255,187,94211,1,8,0:0:0:0:
255,187,94909,1,4,0:0:0:0:
255,187,95257,1,8,0:0:0:0:
255,187,95606,1,8,0:0:0:0:
238,209,95955,1,0,0:0:0:0:
238,209,96304,1,8,0:0:0:0:
238,209,96478,1,8,0:0:0:0:
238,209,96653,1,0,0:0:0:0:
238,209,97002,1,8,0:0:0:0:
238,209,97350,1,0,0:0:0:0:
238,209,97699,1,8,0:0:0:0:
238,209,98222,1,8,0:0:0:0:
238,209,98571,1,0,0:0:0:0:
238,209,98746,1,0,0:0:0:0:
238,209,99095,1,12,0:0:0:0:
238,209,99792,1,8,0:0:0:0:
386,149,100141,1,8,0:0:0:0:
238,209,100490,1,4,0:0:0:0:
238,209,100839,1,8,0:0:0:0:
238,209,101013,1,8,0:0:0:0:
238,209,101188,1,8,0:0:0:0:
238,209,101536,1,8,0:0:0:0:
238,209,101885,1,0,0:0:0:0:
238,209,102060,1,8,0:0:0:0:
238,209,102234,1,0,0:0:0:0:
238,209,102583,1,0,0:0:0:0:
238,209,102932,1,8,0:0:0:0:
238,209,103281,1,8,0:0:0:0:
238,209,103978,1,8,0:0:0:0:
238,209,104327,1,8,0:0:0:0:
238,209,104502,1,8,0:0:0:0:
238,209,104676,1,0,0:0:0:0:
238,209,105025,1,8,0:0:0:0:
255,187,105374,1,0,0:0:0:0:
255,187,106071,1,12,0:0:0:0:
255,187,106420,1,8,0:0:0:0:
255,187,106769,1,0,0:0:0:0:
255,187,106944,1,0,0:0:0:0:
255,187,107118,1,8,0:0:0:0:
255,187,107466,1,0,0:0:0:0:
255,187,107816,1,8,0:0:0:0:
255,187,108164,1,8,0:0:0:0:
255,187,108513,1,8,0:0:0:0:
255,187,108862,1,0,0:0:0:0:
255,187,109036,1,0,0:0:0:0:
255,187,109211,1,8,0:0:0:0:
255,187,109560,1,0,0:0:0:0:
255,187,109908,1,8,0:0:0:0:
255,187,110257,1,0,0:0:0:0:
255,187,110606,1,0,0:0:0:0:
255,187,110780,1,8,0:0:0:0:
255,187,111652,1,4,0:0:0:0:
255,187,112001,1,8,0:0:0:0:
255,187,112350,1,0,0:0:0:0:
255,187,112525,1,8,0:0:0:0:
255,187,112699,1,8,0:0:0:0:
255,187,113048,1,0,0:0:0:0:
255,187,113397,1,0,0:0:0:0:
255,187,113746,1,8,0:0:0:0:
255,187,114094,1,0,0:0:0:0:
255,187,114443,1,8,0:0:0:0:
255,187,114792,1,8,0:0:0:0:
255,187,114966,1,0,0:0:0:0:
255,187,115141,1,0,0:0:0:0:
255,187,115490,1,8,0:0:0:0:
255,187,115839,1,0,0:0:0:0:
255,187,116187,1,0,0:0:0:0:
255,187,116362,1,8,0:0:0:0:
255,187,117234,1,12,0:0:0:0:
255,187,117583,1,0,0:0:0:0:
255,187,117757,1,8,0:0:0:0:
255,187,118106,1,8,0:0:0:0:
255,187,118280,1,0,0:0:0:0:
255,187,118629,1,8,0:0:0:0:
255,187,118978,1,0,0:0:0:0:
255,187,119327,1,0,0:0:0:0:
255,187,119676,1,8,0:0:0:0:
255,187,120025,1,0,0:0:0:0:
255,187,120373,1,8,0:0:0:0:
255,187,120548,1,0,0:0:0:0:
255,187,120897,1,0,0:0:0:0:
255,187,121071,1,8,0:0:0:0:
255,187,121420,1,4,0:0:0:0:
255,187,121769,1,0,0:0:0:0:
255,187,121943,1,12,0:0:0:0:
255,187,122815,1,4,0:0:0:0:
255,187,123164,1,0,0:0:0:0:
255,187,123338,1,8,0:0:0:0:
255,187,123687,1,8,0:0:0:0:
255,187,123862,1,0,0:0:0:0:
255,187,124211,1,0,0:0:0:0:
255,187,124560,1,8,0:0:0:0:
255,187,124908,1,8,0:0:0:0:
255,187,125257,5,0,0:0:0:0:
255,187,125606,1,8,0:0:0:0:
255,187,125955,1,8,0:0:0:0:
255,187,126129,1,0,0:0:0:0:
255,187,126478,1,0,0:0:0:0:
255,187,126652,1,8,0:0:0:0:
255,187,127001,5,0,0:0:0:0:
255,187,127350,5,0,0:0:0:0:
255,187,127699,1,8,0:0:0:0:
255,187,127874,1,0,0:0:0:0:
255,187,128048,1,0,0:0:0:0:
255,187,128397,1,8,0:0:0:0:
255,187,129007,5,8,0:0:0:0:
