osu file format v14

[General]
AudioFilename: audio.mp3
AudioLeadIn: 0
PreviewTime: 23233
Countdown: 0
SampleSet: Soft
StackLeniency: 0.7
Mode: 0
LetterboxInBreaks: 0
WidescreenStoryboard: 0

[Editor]
DistanceSpacing: 0.4
BeatDivisor: 4
GridSize: 8
TimelineZoom: 3.499999

[Metadata]
Title:Nanatsu Hiiragisuikou
TitleUnicode:七つ柊水光
Artist:A.SAKA
ArtistUnicode:A.SAKA
Creator:Hollow Wings
Version:Gleam
Source:
Tags:Houshou Hari Houshou_Hari Pata-Mon SuperBox 木製みゅーと mokuse mute 神楽ノ花 kagura no hana FA Featured Artist electronic instrumental
BeatmapID:3369471
BeatmapSetID:1650533

[Difficulty]
HPDrainRate:7
CircleSize:5
OverallDifficulty:8.5
ApproachRate:9.5
SliderMultiplier:1.7
SliderTickRate:1

[Events]
//Background and Video events
0,0,"BG.jpg",0,0
//Break Periods
//Storyboard Layer 0 (Background)
//Storyboard Layer 1 (Fail)
//Storyboard Layer 2 (Pass)
//Storyboard Layer 3 (Foreground)
//Storyboard Layer 4 (Overlay)
//Storyboard Sound Samples

[TimingPoints]
-678,352.941176470588,4,2,1,60,1,0
733,352.941176470588,4,2,1,60,1,0
733,-200,4,2,1,60,0,0
12027,-133.333333333333,4,2,1,70,0,0
17674,-133.333333333333,4,3,1,70,0,0
21909,-80,4,3,1,80,0,0
23321,-50,4,3,1,100,0,1
33732,-66.6666666666667,4,3,1,90,0,0
34615,-50,4,3,1,100,0,1
45909,-100,4,3,1,60,0,0
57203,-80,4,3,1,70,0,0
68497,-66.6666666666667,4,3,1,80,0,1
68674,-66.6666666666667,4,3,1,80,0,0
79791,-66.6666666666667,4,3,1,80,0,1
79968,-66.6666666666667,4,3,1,80,0,0
88262,-80,4,3,1,70,0,0
93909,-100,4,2,1,80,0,0
105203,-80,4,2,1,90,0,0
116497,-133.333333333333,4,3,1,80,0,0
117909,-100,4,3,1,70,0,0
119321,-57.1428571428571,4,3,1,90,0,1
129732,-80,4,3,1,80,0,0
130615,-57.1428571428571,4,3,1,90,0,1
141732,-57.1428571428571,4,3,1,90,0,0
141909,-50,4,3,1,100,0,1
152321,-66.6666666666667,4,3,1,90,0,0
153203,-50,4,3,1,100,0,1
164497,-133.333333333333,4,3,1,60,0,0
172262,504.201680672269,4,3,1,60,1,0
173270,-200,4,3,1,50,0,0

[Colours]
Combo1 : 102,204,0
Combo2 : 117,186,255
Combo3 : 0,145,206
Combo4 : 255,255,106
Combo5 : 252,201,24
Combo6 : 173,255,91

[HitObjects]
158,337,380,5,0,0:0:0:0:
260,281,557,1,0,0:0:0:0:
380,290,733,5,2,0:1:0:0:
384,305,909,1,0,0:0:0:0:
388,320,1085,1,0,0:0:0:0:
392,335,1262,1,2,3:2:0:0:
419,352,1791,6,0,L|377:361,1,42.5,0|2,0:0|3:2,0:0:0:0:
414,198,2144,2,0,P|439:231|451:272,1,85,2|0,3:2|0:0,0:0:0:0:
419,352,2674,1,2,3:2:0:0:
419,352,3203,1,0,0:0:0:0:
303,298,3380,1,2,3:2:0:0:
180,332,3556,6,0,P|161:294|154:252,1,85,2|0,0:1|0:0,0:0:0:0:
117,269,4615,2,0,L|121:227,1,42.5,0|2,0:0|3:2,0:0:0:0:
104,23,4968,5,2,3:2:0:0:
97,136,5144,1,0,0:0:0:0:
148,221,5321,1,0,0:0:0:0:
228,240,5497,2,0,L|312:230,1,85,2|0,3:2|0:0,0:0:0:0:
478,210,6027,1,0,0:0:0:0:
389,199,6203,1,0,0:0:0:0:
308,158,6380,5,2,0:1:0:0:
40,192,6909,1,2,3:2:0:0:
308,226,7438,1,0,0:0:0:0:
204,233,7615,1,2,3:2:0:0:
120,293,7791,6,0,P|106:333|103:376,1,85,2|0,3:2|0:0,0:0:0:0:
28,93,8497,2,0,L|38:134,1,42.5
293,84,8850,2,0,L|282:42,1,42.5,0|2,0:0|3:2,0:0:0:0:
52,21,9203,5,2,0:1:0:0:
416,192,9732,1,2,3:2:0:0:
52,363,10262,2,0,L|13:346,1,42.5,0|2,0:0|3:2,0:0:0:0:
29,257,10615,1,2,3:2:0:0:
93,297,10791,1,0,0:0:0:0:
156,257,10968,1,0,0:0:0:0:
275,361,11144,2,0,P|284:320|284:278,1,85,2|2,3:2|3:2,0:0:0:0:
265,279,11674,1,2,0:0:0:0:
364,224,11850,1,2,3:2:0:0:
479,248,12027,6,0,P|487:279|489:311,1,63.7500024318696,2|0,0:1|0:0,0:0:0:0:
482,336,12380,1,4,0:1:0:0:
476,355,12556,2,0,L|348:359,1,127.500004863739,2|0,3:2|0:0,0:0:0:0:
275,361,13085,2,0,P|260:332|236:311,1,63.7500024318696,2|0,3:2|0:0,0:0:0:0:
49,356,13438,6,0,L|176:351,1,127.500004863739,2|0,3:2|0:0,0:0:0:0:
175,273,13968,1,2,3:2:0:0:
107,243,14144,2,0,P|79:258|58:282,1,63.7500024318696,2|2,3:2|0:1,0:0:0:0:
119,225,14497,1,2,3:2:0:0:
148,106,14674,1,2,3:2:0:0:
49,28,14850,6,0,L|176:32,1,127.500004863739,2|4,3:2|0:1,0:0:0:0:
211,158,15380,2,0,P|231:98|203:42,1,127.500004863739,2|0,3:2|0:0,0:0:0:0:
135,168,15909,2,0,L|147:105,1,63.7500024318696,2|0,3:2|0:0,0:0:0:0:
354,31,16262,5,2,3:2:0:0:
307,162,16438,1,0,0:0:0:0:
213,192,16615,1,2,3:2:0:0:
135,168,16791,2,0,L|152:294,1,127.500004863739,2|2,3:2|0:1,0:0:0:0:
25,358,17321,1,2,3:2:0:0:
157,321,17497,1,2,3:2:0:0:
308,360,17674,6,0,P|302:328|303:296,1,63.7500024318696,2|0,0:2|0:0,0:0:0:0:
504,282,18027,2,0,P|509:313|508:345,1,63.7500024318696,2|2,0:0|0:2,0:0:0:0:
284,283,18380,2,0,P|278:251|279:219,1,63.7500024318696,2|0,0:0|0:0,0:0:0:0:
470,74,18732,1,2,0:2:0:0:
456,226,18909,1,0,0:0:0:0:
343,329,19085,6,0,P|318:350|288:358,2,63.7500024318696,2|0|2,0:0|0:0|0:0,0:0:0:0:
377,198,19615,2,0,L|381:262,1,63.7500024318696,2|2,0:2|0:0,0:0:0:0:
335,65,19968,2,0,L|339:129,1,63.7500024318696
348,289,20321,1,2,0:2:0:0:
212,212,20497,5,2,0:0:0:0:
137,221,20674,1,0,0:0:0:0:
61,231,20850,1,2,0:0:0:0:
195,367,21027,1,0,0:0:0:0:
193,226,21203,5,2,0:0:0:0:
118,235,21380,1,0,0:0:0:0:
42,245,21556,1,2,0:0:0:0:
239,92,21732,1,2,0:1:0:0:
22,24,21909,5,10,0:0:0:0:
194,91,22085,1,2,0:0:0:0:
21,159,22262,1,10,0:0:0:0:
193,226,22438,1,2,0:0:0:0:
14,367,22615,1,10,0:0:0:0:
26,356,22703,1,2,0:0:0:0:
105,358,22791,1,2,0:0:0:0:
117,347,22880,1,2,0:0:0:0:
84,273,22968,1,10,0:0:0:0:
96,262,23056,1,2,0:0:0:0:
175,264,23144,1,2,0:0:0:0:
187,253,23232,1,2,0:0:0:0:
151,158,23321,5,6,0:2:0:0:
169,56,23497,1,2,0:0:0:0:
340,135,23674,2,0,B|210:116|210:116|237:143,1,170,8|0,0:0|0:0,0:0:0:0:
292,200,23938,1,2,0:0:0:0:
298,215,24027,1,2,0:0:0:0:
438,316,24115,1,2,0:0:0:0:
431,331,24203,1,2,0:0:0:0:
346,359,24380,2,0,B|338:323|338:323|396:203,1,170,10|2,0:0|0:1,0:0:0:0:
479,182,24644,1,2,0:0:0:0:
474,165,24732,5,2,0:0:0:0:
441,14,24909,1,2,0:0:0:0:
330,113,25085,2,0,B|196:125|196:125|161:117,1,170,10|2,0:0|0:0,0:0:0:0:
71,20,25350,1,2,0:0:0:0:
86,27,25438,1,2,0:0:0:0:
32,136,25527,1,2,0:0:0:0:
19,147,25615,1,2,0:0:0:0:
100,235,25791,1,10,0:0:0:0:
53,329,25968,1,2,0:0:0:0:
40,340,26056,1,2,0:0:0:0:
120,310,26144,5,6,0:0:0:0:
254,368,26321,1,2,0:0:0:0:
277,100,26497,2,0,B|248:241|248:241|233:262,1,170,10|0,0:0|0:0,0:0:0:0:
216,183,26762,1,2,0:0:0:0:
232,179,26850,1,2,0:0:0:0:
296,308,26938,1,2,0:0:0:0:
312,309,27027,1,2,0:0:0:0:
435,365,27203,2,0,B|464:224|464:224|478:202,1,170,10|2,0:0|0:1,0:0:0:0:
491,99,27468,1,2,0:0:0:0:
486,115,27556,5,2,0:0:0:0:
256,32,27732,1,2,0:0:0:0:
26,115,27909,1,10,0:0:0:0:
256,198,28085,1,2,0:0:0:0:
239,200,28174,1,2,0:0:0:0:
188,251,28262,5,2,0:0:0:0:
191,370,28438,1,2,0:0:0:0:
371,326,28615,1,10,0:0:0:0:
307,219,28791,1,2,0:0:0:0:
323,219,28880,1,2,0:0:0:0:
394,223,28968,5,2,0:0:0:0:
301,352,29144,1,2,0:0:0:0:
474,361,29321,2,0,B|492:320|492:320|499:195,1,170,10|0,0:0|0:0,0:0:0:0:
412,138,29585,1,2,0:0:0:0:
415,154,29674,1,2,0:0:0:0:
323,186,29762,1,2,0:0:0:0:
319,202,29850,1,2,0:0:0:0:
335,353,30027,1,10,0:0:0:0:
207,362,30203,1,2,0:1:0:0:
193,372,30291,1,2,0:0:0:0:
151,317,30380,5,2,0:0:0:0:
23,326,30556,1,2,0:0:0:0:
106,109,30732,2,0,B|87:149|87:149|80:274,1,170,10|0,0:0|0:0,0:0:0:0:
132,210,30997,1,2,0:0:0:0:
115,205,31085,1,2,0:0:0:0:
21,62,31174,1,2,0:0:0:0:
37,60,31262,1,2,0:0:0:0:
283,143,31438,2,0,P|288:61|352:9,1,170,10|2,0:0|0:0,0:0:0:0:
245,111,31703,1,2,0:0:0:0:
250,126,31791,5,2,0:0:0:0:
390,70,31968,1,2,0:0:0:0:
481,184,32144,2,0,L|311:180,1,170,10|0,0:0|0:0,0:0:0:0:
297,257,32409,1,2,0:0:0:0:
313,259,32497,1,2,0:0:0:0:
495,364,32585,1,2,0:0:0:0:
478,365,32674,1,2,0:0:0:0:
367,343,32850,1,10,0:0:0:0:
438,297,33027,1,2,0:0:0:0:
436,280,33115,1,2,0:0:0:0:
380,247,33203,5,2,0:0:0:0:
253,360,33380,1,0,0:0:0:0:
107,271,33556,1,10,0:0:0:0:
315,90,33732,2,0,P|274:135|214:122,1,127.500004863739,10|2,0:0|0:0,0:0:0:0:
315,90,34085,1,10,0:0:0:0:
145,106,34262,1,2,0:0:0:0:
139,94,34350,1,2,0:0:0:0:
198,46,34438,1,10,0:0:0:0:
23,17,34615,5,6,0:2:0:0:
156,56,34791,1,2,0:0:0:0:
50,241,34968,2,0,B|58:115|58:115|70:72,1,170,10|0,0:0|0:0,0:0:0:0:
90,155,35232,1,2,0:0:0:0:
98,169,35321,1,2,0:0:0:0:
69,320,35409,1,2,0:0:0:0:
61,335,35497,1,2,0:0:0:0:
136,249,35674,2,0,P|213:232|254:301,1,170,10|2,0:0|0:1,0:0:0:0:
174,304,35938,1,2,0:0:0:0:
188,294,36027,5,2,0:0:0:0:
358,363,36203,1,2,0:0:0:0:
259,326,36380,2,0,B|384:335|384:335|429:330,1,170,10|0,0:0|0:0,0:0:0:0:
480,214,36644,1,2,0:0:0:0:
477,230,36732,1,2,0:0:0:0:
335,257,36821,1,2,0:0:0:0:
329,241,36909,1,2,0:0:0:0:
474,37,37085,1,10,0:0:0:0:
249,104,37262,1,2,0:0:0:0:
264,114,37350,1,2,0:0:0:0:
313,57,37438,5,6,0:0:0:0:
176,136,37615,1,2,0:0:0:0:
12,32,37791,2,0,P|72:85|149:58,1,170,10|0,0:0|0:0,0:0:0:0:
97,120,38056,1,2,0:0:0:0:
95,136,38144,1,2,0:0:0:0:
242,182,38232,1,2,0:0:0:0:
243,198,38321,1,2,0:0:0:0:
151,380,38497,2,0,L|172:211,1,170,10|2,0:0|0:1,0:0:0:0:
271,362,38762,1,2,0:0:0:0:
256,368,38850,5,2,0:0:0:0:
136,192,39027,1,2,0:0:0:0:
256,16,39203,1,10,0:0:0:0:
376,192,39380,1,2,0:0:0:0:
360,199,39468,1,2,0:0:0:0:
398,260,39556,5,2,0:0:0:0:
256,224,39732,1,2,0:0:0:0:
114,260,39909,1,10,0:0:0:0:
136,192,40085,1,2,0:0:0:0:
152,199,40174,1,2,0:0:0:0:
256,152,40262,5,2,0:0:0:0:
288,289,40438,1,2,0:0:0:0:
512,182,40615,2,0,B|384:204|384:204|343:205,1,170,10|0,0:0|0:0,0:0:0:0:
269,137,40880,1,2,0:0:0:0:
252,135,40968,1,2,0:0:0:0:
213,251,41056,1,2,0:0:0:0:
196,251,41144,1,2,0:0:0:0:
109,94,41321,1,10,0:0:0:0:
85,284,41497,1,2,0:1:0:0:
68,288,41585,1,2,0:0:0:0:
38,352,41674,5,2,0:0:0:0:
57,209,41850,1,2,0:0:0:0:
287,344,42027,2,0,B|161:303|161:303|123:299,1,170,10|0,0:0|0:0,0:0:0:0:
217,366,42291,1,2,0:0:0:0:
233,366,42380,1,2,0:0:0:0:
473,297,42468,1,2,0:0:0:0:
488,291,42556,1,2,0:0:0:0:
281,78,42732,1,10,0:0:0:0:
226,275,42909,1,2,0:0:0:0:
209,278,42997,1,2,0:0:0:0:
151,340,43085,5,2,0:0:0:0:
290,312,43262,1,2,0:0:0:0:
186,109,43438,2,0,L|211:300,1,170,10|0,0:0|0:0,0:0:0:0:
235,191,43703,1,2,0:0:0:0:
218,189,43791,1,2,0:0:0:0:
238,25,43880,1,2,0:0:0:0:
254,26,43968,1,2,0:0:0:0:
394,181,44144,1,10,0:0:0:0:
405,76,44321,1,2,0:0:0:0:
389,82,44409,1,2,0:0:0:0:
448,133,44497,5,2,0:0:0:0:
437,334,44674,1,2,0:0:0:0:
241,164,44850,1,10,0:0:0:0:
312,355,45027,2,0,B|336:312|336:312|305:195,1,170,2|2,0:0|0:0,0:0:0:0:
437,334,45380,2,0,B|400:301|400:301|393:180,1,170,2|10,0:0|0:0,0:0:0:0:
312,355,45732,1,2,0:0:0:0:
210,357,45909,5,6,0:2:0:0:
127,336,46085,1,2,0:0:0:0:
78,265,46262,1,8,0:0:0:0:
65,181,46438,1,2,0:0:0:0:
97,101,46615,1,2,0:0:0:0:
168,55,46791,1,2,0:0:0:0:
252,48,46968,1,8,0:0:0:0:
332,75,47144,1,2,0:0:0:0:
333,88,47232,1,2,0:0:0:0:
383,145,47321,5,2,0:0:0:0:
369,228,47497,1,2,0:0:0:0:
298,276,47674,1,8,0:0:0:0:
213,284,47850,1,2,0:0:0:0:
139,240,48027,1,2,0:0:0:0:
124,156,48203,1,2,0:0:0:0:
178,90,48380,1,8,0:0:0:0:
262,95,48556,1,2,0:0:0:0:
255,106,48644,1,2,0:0:0:0:
193,136,48732,5,2,0:0:0:0:
164,215,48909,1,2,0:0:0:0:
239,255,49085,1,8,0:0:0:0:
313,214,49262,1,2,0:0:0:0:
329,130,49438,1,2,0:0:0:0:
282,59,49615,1,2,0:0:0:0:
197,49,49791,1,8,0:0:0:0:
120,84,49968,1,2,0:0:0:0:
118,97,50056,1,2,0:0:0:0:
86,159,50144,5,2,0:0:0:0:
83,243,50321,1,2,0:0:0:0:
123,317,50497,1,8,0:0:0:0:
202,346,50674,1,2,0:0:0:0:
287,343,50850,1,2,0:0:0:0:
363,306,51027,1,2,0:0:0:0:
412,236,51203,1,8,0:0:0:0:
409,224,51291,1,2,0:0:0:0:
430,157,51380,1,2,0:0:0:0:
424,145,51468,1,2,0:0:0:0:
404,72,51556,5,6,0:2:0:0:
383,154,51732,1,2,0:0:0:0:
318,209,51909,1,8,0:0:0:0:
233,205,52085,1,2,0:0:0:0:
178,139,52262,1,2,0:0:0:0:
172,54,52438,1,2,0:0:0:0:
102,5,52615,1,8,0:0:0:0:
20,28,52791,1,2,0:0:0:0:
12,40,52880,1,2,0:0:0:0:
5,114,52968,5,2,0:0:0:0:
50,185,53144,1,2,0:0:0:0:
128,217,53321,1,8,0:0:0:0:
211,203,53497,1,2,0:0:0:0:
275,146,53674,1,2,0:0:0:0:
353,112,53850,1,2,0:0:0:0:
431,146,54027,1,8,0:0:0:0:
468,221,54203,1,2,0:0:0:0:
470,234,54291,1,2,0:0:0:0:
454,309,54380,5,2,0:0:0:0:
432,227,54556,1,2,0:0:0:0:
357,186,54732,1,8,0:0:0:0:
273,202,54909,1,2,0:0:0:0:
219,268,55085,1,2,0:0:0:0:
191,348,55262,1,2,0:0:0:0:
111,379,55438,1,8,0:0:0:0:
27,362,55615,1,2,0:0:0:0:
25,349,55703,1,2,0:0:0:0:
11,277,55791,5,2,0:0:0:0:
55,205,55968,1,2,0:0:0:0:
139,191,56144,1,8,0:0:0:0:
289,267,56321,2,0,P|250:250|216:226,1,85,2|2,0:0|0:0,0:0:0:0:
444,228,56674,2,0,P|413:256|374:271,1,85,2|8,0:0|0:0,0:0:0:0:
440,304,56938,1,2,0:0:0:0:
441,291,57027,1,2,0:0:0:0:
498,164,57203,6,0,P|489:89|478:43,1,106.25,6|2,0:2|0:0,0:0:0:0:
385,15,57556,2,0,L|414:59,1,53.125,8|0,0:0|0:0,0:0:0:0:
311,33,57732,1,2,0:0:0:0:
274,110,57909,1,2,0:0:0:0:
203,156,58085,1,2,0:0:0:0:
118,146,58262,1,8,0:0:0:0:
73,73,58438,1,2,0:0:0:0:
73,57,58527,1,2,0:0:0:0:
132,10,58615,5,2,0:0:0:0:
190,71,58791,1,2,0:0:0:0:
203,156,58968,1,8,0:0:0:0:
166,232,59144,1,2,0:0:0:0:
96,280,59321,2,0,P|112:331|148:369,1,106.25,2|2,0:0|0:0,0:0:0:0:
233,370,59674,1,8,0:0:0:0:
271,293,59850,1,2,0:0:0:0:
263,279,59938,1,2,0:0:0:0:
345,247,60027,6,0,P|393:228|446:229,1,106.25,2|2,0:0|0:0,0:0:0:0:
475,310,60380,1,8,0:0:0:0:
390,321,60556,1,2,0:0:0:0:
345,247,60732,1,2,0:0:0:0:
394,177,60909,1,2,0:0:0:0:
469,139,61085,1,8,0:0:0:0:
462,53,61262,1,2,0:0:0:0:
455,38,61350,1,2,0:0:0:0:
381,16,61438,6,0,P|371:68|351:117,1,106.25,2|2,0:0|0:0,0:0:0:0:
200,268,61791,2,0,P|156:297|107:318,1,106.25,8|2,0:0|0:0,0:0:0:0:
33,176,62144,2,0,P|85:180|136:196,1,106.25,2|2,0:0|0:0,0:0:0:0:
301,295,62497,2,0,P|335:335|359:382,1,106.25,8|2,0:0|0:0,0:0:0:0:
412,375,62762,1,2,0:0:0:0:
408,322,62850,6,0,P|444:284|494:265,1,106.25,6|2,0:2|0:0,0:0:0:0:
474,182,63203,1,8,0:0:0:0:
390,167,63380,1,2,0:0:0:0:
318,213,63556,1,2,0:0:0:0:
301,295,63732,1,2,0:0:0:0:
242,357,63909,1,8,0:0:0:0:
157,362,64085,1,2,0:0:0:0:
144,353,64174,1,2,0:0:0:0:
87,295,64262,5,2,0:0:0:0:
80,210,64438,1,2,0:0:0:0:
136,146,64615,1,8,0:0:0:0:
220,137,64791,1,2,0:0:0:0:
273,70,64968,2,0,P|238:30|188:15,1,106.25,2|2,0:0|0:0,0:0:0:0:
118,63,65321,1,8,0:0:0:0:
136,146,65497,1,2,0:0:0:0:
132,161,65585,1,2,0:0:0:0:
157,235,65674,6,0,P|141:284|148:337,1,106.25,2|2,0:0|0:0,0:0:0:0:
226,371,66027,1,8,0:0:0:0:
300,329,66203,1,2,0:0:0:0:
293,244,66380,1,2,0:0:0:0:
233,183,66556,1,2,0:0:0:0:
225,98,66732,1,8,0:0:0:0:
277,30,66909,1,2,0:0:0:0:
293,27,66997,1,2,0:0:0:0:
218,82,67085,6,0,P|267:98|304:136,1,106.25,2|2,0:0|0:0,0:0:0:0:
388,145,67438,2,0,L|401:93,1,53.125,2|2,0:0|0:0,0:0:0:0:
437,9,67615,1,2,0:0:0:0:
442,24,67703,1,2,0:0:0:0:
509,50,67791,2,0,L|469:88,1,53.125,2|0,0:0|0:0,0:0:0:0:
458,159,67968,2,0,L|482:206,1,53.125,2|0,0:0|0:0,0:0:0:0:
432,258,68144,1,10,0:0:0:0:
435,268,68232,1,10,0:0:0:0:
480,369,68321,1,10,0:0:0:0:
471,363,68409,1,10,0:0:0:0:
400,336,68497,5,6,0:2:0:0:
312,344,68674,1,2,0:0:0:0:
224,352,68850,2,0,L|96:352,1,127.500004863739,10|0,0:0|0:0,0:0:0:0:
40,304,69115,1,2,0:0:0:0:
40,288,69203,1,2,0:0:0:0:
96,248,69291,1,2,0:0:0:0:
96,232,69380,1,2,0:0:0:0:
40,184,69556,1,10,0:0:0:0:
96,136,69732,1,2,0:0:0:0:
96,120,69821,1,2,0:0:0:0:
40,72,69909,5,2,0:0:0:0:
112,128,70085,1,2,0:0:0:0:
176,72,70262,2,0,B|256:40|256:40|297:40,1,127.500004863739,10|2,0:0|0:0,0:0:0:0:
360,80,70527,1,2,0:0:0:0:
376,80,70615,1,2,0:0:0:0:
432,40,70703,1,2,0:0:0:0:
448,40,70791,1,2,0:0:0:0:
480,104,70968,2,0,L|480:232,1,127.500004863739,10|2,0:0|0:0,0:0:0:0:
448,296,71232,1,2,0:0:0:0:
448,312,71321,5,2,0:0:0:0:
400,232,71497,1,2,0:0:0:0:
352,312,71674,2,0,L|272:212,1,127.500004863739,10|0,0:0|0:0,0:0:0:0:
328,160,71938,1,2,0:0:0:0:
328,144,72027,1,2,0:0:0:0:
272,96,72115,1,2,0:0:0:0:
272,80,72203,1,2,0:0:0:0:
216,24,72380,2,0,L|88:24,1,127.500004863739,10|2,0:0|0:0,0:0:0:0:
8,24,72644,1,2,0:0:0:0:
24,24,72732,5,2,0:0:0:0:
24,184,72909,1,2,0:0:0:0:
64,104,73085,2,0,L|192:104,1,127.500004863739,10|2,0:0|0:0,0:0:0:0:
160,176,73350,1,2,0:0:0:0:
176,176,73438,1,2,0:0:0:0:
240,232,73527,1,2,0:0:0:0:
224,232,73615,1,2,0:0:0:0:
120,296,73703,1,2,0:0:0:0:
136,296,73791,1,10,0:0:0:0:
152,296,73880,1,2,0:0:0:0:
168,296,73968,1,2,0:0:0:0:
208,360,74056,1,2,0:0:0:0:
224,360,74144,5,6,0:2:0:0:
344,352,74321,1,2,0:0:0:0:
456,344,74497,2,0,B|472:280|472:280|457:220,1,127.500004863739,10|0,0:0|0:0,0:0:0:0:
400,184,74762,1,2,0:0:0:0:
408,168,74850,1,2,0:0:0:0:
472,128,74938,1,2,0:0:0:0:
464,112,75027,1,2,0:0:0:0:
408,64,75203,2,0,L|280:64,1,127.500004863739,10|2,0:0|0:0,0:0:0:0:
216,24,75468,1,2,0:0:0:0:
224,16,75556,5,2,0:0:0:0:
136,120,75732,1,2,0:0:0:0:
15,40,75909,2,0,P|70:61|59:119,1,127.500004863739,10|0,0:0|0:0,0:0:0:0:
96,184,76174,1,2,0:0:0:0:
88,200,76262,1,2,0:0:0:0:
16,256,76350,1,2,0:0:0:0:
24,272,76438,1,2,0:0:0:0:
160,376,76615,2,0,P|105:354|116:296,1,127.500004863739,10|2,0:0|0:0,0:0:0:0:
184,264,76880,1,2,0:0:0:0:
176,248,76968,5,2,0:0:0:0:
256,344,77144,1,2,0:0:0:0:
336,248,77321,2,0,B|392:320|392:320|428:320,1,127.500004863739,10|0,0:0|0:0,0:0:0:0:
440,232,77585,1,2,0:0:0:0:
432,248,77674,1,2,0:0:0:0:
376,176,77762,1,2,0:0:0:0:
384,192,77850,1,2,0:0:0:0:
472,88,78027,1,10,0:0:0:0:
336,40,78203,1,2,0:0:0:0:
344,56,78291,1,2,0:0:0:0:
400,104,78380,5,2,0:0:0:0:
256,72,78556,1,2,0:0:0:0:
304,216,78732,2,0,B|248:144|248:144|211:144,1,127.500004863739,10|2,0:0|0:0,0:0:0:0:
160,96,78997,1,2,0:0:0:0:
152,112,79085,1,2,0:0:0:0:
104,176,79174,1,2,0:0:0:0:
96,160,79262,1,2,0:0:0:0:
16,64,79350,1,2,0:0:0:0:
24,80,79438,1,10,0:0:0:0:
32,96,79527,1,2,0:0:0:0:
40,112,79615,1,2,0:0:0:0:
16,320,79791,5,6,0:2:0:0:
112,192,79968,1,2,0:0:0:0:
168,344,80144,2,0,B|256:344|256:344|231:313,1,127.500004863739,10|0,0:0|0:0,0:0:0:0:
304,272,80409,1,2,0:0:0:0:
288,272,80497,1,2,0:0:0:0:
368,352,80585,1,2,0:0:0:0:
352,352,80674,1,2,0:0:0:0:
456,368,80850,1,10,0:0:0:0:
496,224,81027,1,2,0:0:0:0:
480,224,81115,1,2,0:0:0:0:
448,296,81203,5,2,0:0:0:0:
424,168,81380,1,2,0:0:0:0:
448,40,81556,2,0,L|320:40,1,127.500004863739,10|0,0:0|0:0,0:0:0:0:
352,120,81821,1,2,0:0:0:0:
336,120,81909,1,2,0:0:0:0:
248,80,81997,1,2,0:0:0:0:
232,80,82085,1,2,0:0:0:0:
144,32,82262,2,0,L|16:32,1,127.500004863739,10|2,0:0|0:0,0:0:0:0:
48,104,82527,1,2,0:0:0:0:
56,120,82615,5,2,0:0:0:0:
168,120,82791,1,2,0:0:0:0:
112,215,82968,2,0,P|57:245|49:306,1,127.500004863739,10|0,0:0|0:0,0:0:0:0:
112,360,83232,1,2,0:0:0:0:
112,344,83321,1,2,0:0:0:0:
160,272,83409,1,2,0:0:0:0:
160,288,83497,1,2,0:0:0:0:
216,360,83674,1,10,0:0:0:0:
272,272,83850,1,2,0:0:0:0:
272,288,83938,1,2,0:0:0:0:
328,360,84027,5,2,0:0:0:0:
440,360,84203,1,2,0:0:0:0:
384,272,84380,2,0,B|376:208|376:208|383:145,1,127.500004863739,10|2,0:0|0:0,0:0:0:0:
472,136,84644,1,2,0:0:0:0:
464,120,84732,1,2,0:0:0:0:
472,8,84821,1,2,0:0:0:0:
464,24,84909,1,2,0:0:0:0:
384,72,84997,1,2,0:0:0:0:
368,72,85085,1,10,0:0:0:0:
192,72,85262,1,2,0:0:0:0:
208,72,85350,1,2,0:0:0:0:
128,72,85438,5,6,0:2:0:0:
72,192,85615,1,2,0:0:0:0:
15,311,85791,2,0,P|76:309|106:255,1,127.500004863739,10|0,0:0|0:0,0:0:0:0:
176,272,86056,1,2,0:0:0:0:
192,272,86144,1,2,0:0:0:0:
320,216,86232,1,2,0:0:0:0:
312,232,86321,1,2,0:0:0:0:
264,296,86497,1,10,0:0:0:0:
288,376,86674,1,2,0:0:0:0:
304,368,86762,1,2,0:0:0:0:
264,296,86850,5,2,0:0:0:0:
480,376,87027,1,2,0:0:0:0:
424,223,87203,2,0,B|416:320|416:320|391:300,1,127.500004863739,10|0,0:0|0:0,0:0:0:0:
328,232,87468,1,2,0:0:0:0:
336,248,87556,1,2,0:0:0:0:
256,192,87644,1,2,0:0:0:0:
256,208,87732,1,2,0:0:0:0:
200,128,87909,1,10,0:0:0:0:
184,40,88085,1,2,0:0:0:0:
168,48,88174,1,2,0:0:0:0:
256,8,88262,5,2,0:0:0:0:
312,128,88438,1,2,0:0:0:0:
392,23,88615,2,0,B|416:72|416:72|436:23,1,106.25,10|0,0:0|0:0,0:0:0:0:
448,144,88968,1,2,0:0:0:0:
504,264,89144,1,2,0:0:0:0:
376,176,89321,1,10,0:0:0:0:
256,80,89497,1,2,0:0:0:0:
240,88,89585,1,2,0:0:0:0:
200,144,89674,5,2,0:0:0:0:
24,112,89850,1,2,0:0:0:0:
192,160,90027,2,0,L|88:182,1,106.25,10|2,0:0|0:0,0:0:0:0:
32,352,90380,1,2,0:0:0:0:
328,256,90644,5,2,0:0:0:0:
312,248,90732,1,10,0:0:0:0:
168,344,90909,1,2,0:0:0:0:
184,328,90997,1,2,0:0:0:0:
224,248,91085,5,2,0:0:0:0:
368,352,91262,1,2,0:0:0:0:
216,264,91438,2,0,L|112:286,1,106.25,10|0,0:0|0:0,0:0:0:0:
360,224,91791,1,2,0:0:0:0:
224,248,91968,1,2,0:0:0:0:
488,176,92144,1,10,0:0:0:0:
368,208,92321,1,2,0:0:0:0:
360,224,92409,1,2,0:0:0:0:
408,288,92497,5,2,0:0:0:0:
408,288,92674,1,2,0:0:0:0:
408,288,92850,1,2,0:0:0:0:
408,288,93027,2,0,L|395:236,1,53.125,2|0,0:0|0:0,0:0:0:0:
384,120,93203,2,0,L|371:171,1,53.125,2|0,0:0|0:0,0:0:0:0:
328,264,93380,2,0,L|315:212,1,53.125,2|0,0:0|0:0,0:0:0:0:
256,184,93556,1,6,0:2:0:0:
208,224,93644,1,2,0:0:0:0:
152,192,93732,1,2,0:2:0:0:
88,208,93821,1,2,0:0:0:0:
24,192,93909,5,6,3:2:0:0:
176,280,94085,1,8,0:1:0:0:
32,360,94262,1,8,0:1:0:0:
40,344,94350,1,8,0:1:0:0:
56,288,94438,2,0,L|98:288,1,42.5,2|8,3:2|0:1,0:0:0:0:
200,344,94615,1,0,0:0:0:0:
88,208,94791,1,8,0:1:0:0:
256,184,94968,1,2,3:2:0:0:
280,296,95144,1,8,0:1:0:0:
288,280,95232,1,8,0:1:0:0:
328,240,95321,5,2,3:2:0:0:
456,360,95497,1,8,0:1:0:0:
448,344,95585,1,8,0:1:0:0:
472,296,95674,1,8,0:1:0:0:
464,280,95762,1,0,0:0:0:0:
432,208,95850,2,0,L|389:208,1,42.5,2|0,3:2|0:0,0:0:0:0:
328,168,96027,1,8,0:1:0:0:
464,144,96203,1,2,3:2:0:0:
456,128,96291,1,0,0:0:0:0:
408,104,96380,1,8,0:1:0:0:
496,48,96556,1,8,0:1:0:0:
488,32,96644,1,0,0:0:0:0:
440,8,96732,5,2,3:2:0:0:
304,72,96909,1,8,0:1:0:0:
312,56,96997,1,8,0:1:0:0:
360,32,97085,1,8,0:1:0:0:
232,40,97262,2,0,L|218:80,1,42.5,2|0,3:2|0:0,0:0:0:0:
168,96,97438,1,8,0:1:0:0:
160,112,97527,1,0,0:0:0:0:
112,88,97615,1,8,0:1:0:0:
112,232,97791,1,2,3:2:0:0:
32,104,97968,1,8,0:1:0:0:
40,120,98056,1,0,0:0:0:0:
80,152,98144,5,8,0:1:0:0:
72,168,98232,1,8,0:1:0:0:
24,192,98321,1,2,3:2:0:0:
72,304,98497,1,8,0:1:0:0:
64,288,98585,1,8,0:1:0:0:
16,256,98674,2,0,L|16:298,1,42.5,2|0,3:2|0:0,0:0:0:0:
32,360,98850,1,8,0:1:0:0:
160,288,99027,1,8,0:1:0:0:
170,301,99115,1,0,0:0:0:0:
214,327,99203,1,6,3:2:0:0:
230,322,99291,1,2,0:3:0:0:
276,344,99380,1,2,0:3:0:0:
291,351,99468,1,2,0:3:0:0:
341,305,99556,5,6,3:2:0:0:
499,363,99732,1,8,0:1:0:0:
427,208,99909,1,8,0:1:0:0:
411,200,99997,1,0,0:0:0:0:
360,200,100085,2,0,L|340:238,1,42.5,2|0,3:2|0:0,0:0:0:0:
272,240,100262,1,8,0:1:0:0:
256,232,100350,1,8,0:1:0:0:
208,208,100438,1,8,0:1:0:0:
232,376,100615,1,2,3:2:0:0:
120,248,100791,1,8,0:1:0:0:
104,240,100880,1,8,0:1:0:0:
56,216,100968,5,2,3:2:0:0:
24,112,101144,1,8,0:1:0:0:
40,104,101232,1,8,0:1:0:0:
56,56,101321,1,8,0:1:0:0:
72,64,101409,1,8,0:1:0:0:
120,88,101497,2,0,L|162:88,1,42.5,2|0,3:2|0:0,0:0:0:0:
200,24,101674,1,8,0:1:0:0:
168,160,101850,1,2,3:2:0:0:
184,168,101938,1,8,0:1:0:0:
224,128,102027,1,2,3:2:0:0:
328,152,102203,1,8,0:1:0:0:
344,160,102291,1,8,0:1:0:0:
384,120,102380,5,2,3:2:0:0:
488,16,102556,1,8,0:1:0:0:
472,24,102644,1,8,0:1:0:0:
416,16,102732,1,8,0:1:0:0:
408,32,102821,1,0,0:0:0:0:
432,80,102909,2,0,L|472:93,1,42.5,2|0,3:2|0:0,0:0:0:0:
448,160,103085,1,8,0:1:0:0:
440,176,103174,1,8,0:1:0:0:
464,224,103262,2,0,L|504:237,1,42.5,8|0,0:1|0:1,0:0:0:0:
480,304,103438,1,2,3:2:0:0:
472,320,103527,1,0,0:0:0:0:
416,328,103615,1,8,0:1:0:0:
400,336,103703,1,0,0:0:0:0:
336,304,103791,5,8,0:1:0:0:
320,296,103880,1,8,0:1:0:0:
256,304,103968,1,2,3:2:0:0:
128,360,104144,1,8,0:1:0:0:
144,352,104232,1,0,0:0:0:0:
176,312,104321,2,0,L|182:270,1,42.5,2|0,3:2|0:0,0:0:0:0:
248,224,104497,1,2,3:2:0:0:
176,72,104674,1,8,0:1:0:0:
168,88,104762,1,8,0:1:0:0:
96,112,104850,1,6,3:2:0:0:
104,128,104938,1,2,0:3:0:0:
176,160,105027,1,2,0:3:0:0:
144,368,105203,5,6,3:2:0:0:
184,176,105380,1,8,0:1:0:0:
32,48,105556,1,8,0:1:0:0:
40,64,105644,1,8,0:1:0:0:
32,136,105732,2,0,L|25:188,1,53.125,2|0,3:2|0:0,0:0:0:0:
88,224,105909,1,8,0:1:0:0:
296,192,106085,1,8,0:1:0:0:
432,40,106262,1,2,3:2:0:0:
416,48,106350,1,8,0:1:0:0:
464,104,106438,1,8,0:1:0:0:
480,112,106527,1,8,0:1:0:0:
440,168,106615,5,2,3:2:0:0:
344,24,106791,1,8,0:1:0:0:
192,104,106968,1,8,0:1:0:0:
184,88,107056,1,8,0:1:0:0:
176,24,107144,2,0,L|127:44,1,53.125,2|0,3:2|0:0,0:0:0:0:
120,112,107321,1,8,0:1:0:0:
256,248,107497,1,8,0:1:0:0:
264,232,107585,1,8,0:1:0:0:
320,280,107674,1,2,3:2:0:0:
336,272,107762,1,8,0:1:0:0:
360,344,107850,1,8,0:1:0:0:
376,344,107938,1,0,0:0:0:0:
448,320,108027,5,2,3:2:0:0:
264,216,108203,1,8,0:1:0:0:
96,344,108380,1,8,0:1:0:0:
80,352,108468,1,8,0:1:0:0:
24,320,108556,2,0,L|32:264,1,53.125,2|0,3:2|0:0,0:0:0:0:
96,248,108732,1,8,0:1:0:0:
296,288,108909,1,8,0:1:0:0:
280,296,108997,1,8,0:1:0:0:
264,216,109085,1,2,3:2:0:0:
248,216,109174,1,8,0:1:0:0:
272,136,109262,1,8,0:1:0:0:
256,128,109350,1,8,0:1:0:0:
208,48,109438,5,2,3:2:0:0:
224,56,109527,1,8,0:1:0:0:
304,40,109615,1,8,0:1:0:0:
104,168,109791,1,8,0:1:0:0:
120,168,109880,1,8,0:1:0:0:
152,112,109968,2,0,L|144:59,1,53.125,2|0,3:2|0:0,0:0:0:0:
88,24,110144,1,8,0:1:0:0:
136,312,110321,1,8,0:1:0:0:
120,312,110409,1,8,0:1:0:0:
40,280,110497,1,6,3:2:0:0:
56,280,110585,1,8,0:1:0:0:
112,240,110674,1,8,0:1:0:0:
16,344,110850,5,6,3:2:0:0:
224,352,111027,1,8,0:1:0:0:
360,192,111203,1,8,0:1:0:0:
352,208,111291,1,8,0:1:0:0:
416,232,111380,2,0,L|430:283,1,53.125,2|0,3:2|0:0,0:0:0:0:
400,344,111556,1,8,0:1:0:0:
472,192,111732,1,8,0:1:0:0:
464,176,111821,1,8,0:1:0:0:
424,128,111909,1,2,0:2:0:0:
432,112,111997,1,8,0:1:0:0:
488,80,112085,1,2,3:2:0:0:
352,128,112262,5,2,3:2:0:0:
320,336,112438,1,8,0:1:0:0:
152,200,112615,1,8,0:1:0:0:
136,208,112703,1,8,0:1:0:0:
80,176,112791,2,0,L|94:124,1,53.125,2|0,3:2|0:0,0:0:0:0:
48,80,112968,1,8,0:1:0:0:
224,64,113144,1,8,0:1:0:0:
208,64,113232,1,8,0:1:0:0:
216,128,113321,1,2,3:2:0:0:
200,136,113409,1,8,0:1:0:0:
232,192,113497,1,8,0:1:0:0:
224,208,113585,1,0,0:0:0:0:
240,288,113674,5,2,3:2:0:0:
272,8,113850,1,8,0:1:0:0:
320,272,114027,1,2,3:2:0:0:
304,264,114115,1,8,0:1:0:0:
304,136,114203,2,0,L|309:188,1,53.125
352,360,114380,1,2,3:2:0:0:
376,184,114556,1,8,0:1:0:0:
384,200,114644,1,8,0:1:0:0:
400,312,114732,1,2,3:2:0:0:
416,304,114821,1,8,0:1:0:0:
448,240,114909,1,8,0:1:0:0:
464,248,114997,1,0,0:0:0:0:
469,116,115085,5,2,3:2:0:0:
453,116,115174,1,8,0:1:0:0:
304,48,115262,1,8,0:1:0:0:
320,48,115350,1,8,0:1:0:0:
256,232,115438,1,2,3:2:0:0:
232,224,115527,1,8,0:1:0:0:
48,272,115615,1,8,0:1:0:0:
56,248,115703,1,8,0:1:0:0:
120,80,115791,2,0,L|105:57,15,26.5625,2|0|0|0|8|0|0|0|2|0|0|0|8|0|0|0,3:2|0:0|0:0|0:0|0:1|0:0|0:0|0:0|3:2|0:0|0:0|0:0|0:1|0:0|0:0|0:0,0:0:0:0:
120,80,116497,6,0,L|120:176,1,95.6250036478044,2|0,2:0|0:0,0:0:0:0:
40,288,116850,2,0,L|96:240,1,63.7500024318696,8|0,0:0|0:0,0:0:0:0:
72,240,117115,1,0,0:0:0:0:
192,144,117203,6,0,L|192:240,1,95.6250036478044,10|0,0:0|0:0,0:0:0:0:
144,288,117556,1,0,0:0:0:0:
128,304,117644,1,0,0:0:0:0:
184,376,117732,2,0,L|184:344,1,31.8750012159348,10|0,0:0|0:0,0:0:0:0:
328,160,118085,6,0,L|312:200,1,42.5
328,272,118262,2,0,L|376:341,1,85,2|0,0:0|0:0,0:0:0:0:
448,312,118527,1,2,0:2:0:0:
456,328,118615,5,10,0:0:0:0:
408,208,118791,2,0,L|407:251,1,42.5,2|2,0:2|0:2,0:0:0:0:
480,144,118968,1,8,0:0:0:0:
464,160,119056,1,2,0:0:0:0:
344,120,119144,1,8,0:0:0:0:
328,128,119232,1,8,0:0:0:0:
256,24,119321,5,6,0:2:0:0:
109,54,119497,1,2,0:0:0:0:
19,173,119674,2,0,P|71:223|144:235,1,148.750001418591,10|0,0:0|0:0,0:0:0:0:
86,174,119938,1,10,0:0:0:0:
95,194,120027,1,2,0:0:0:0:
36,324,120115,1,10,0:0:0:0:
32,346,120203,1,2,0:0:0:0:
219,293,120380,2,0,P|291:304|344:355,1,148.750001418591,10|2,0:0|0:1,0:0:0:0:
499,362,120644,1,10,0:0:0:0:
479,351,120732,5,2,0:0:0:0:
322,367,120909,1,2,0:0:0:0:
460,278,121085,2,0,B|467:174|467:174|453:131,1,148.750001418591,10|2,0:0|0:0,0:0:0:0:
490,18,121350,1,10,0:0:0:0:
468,23,121438,1,2,0:0:0:0:
388,146,121527,1,10,0:0:0:0:
365,146,121615,1,2,0:0:0:0:
284,32,121791,1,10,0:0:0:0:
254,308,121968,1,2,0:0:0:0:
267,290,122056,1,10,0:0:0:0:
332,267,122144,5,6,0:0:0:0:
184,330,122321,1,2,0:0:0:0:
293,199,122497,2,0,P|220:201|166:251,1,148.750001418591,10|2,0:0|0:0,0:0:0:0:
108,336,122762,1,10,0:0:0:0:
108,358,122850,1,2,0:0:0:0:
267,290,122938,1,10,0:0:0:0:
260,268,123027,1,2,0:0:0:0:
32,348,123203,2,0,L|33:199,1,148.750001418591,10|2,0:0|0:1,0:0:0:0:
13,89,123468,1,10,0:0:0:0:
20,109,123556,5,2,0:0:0:0:
256,56,123732,1,10,0:0:0:0:
256,32,123821,1,2,0:0:0:0:
486,115,123909,1,10,0:0:0:0:
255,191,124085,2,0,B|228:81|228:81|256:100,1,148.750001418591,10|0,0:0|0:0,0:0:0:0:
304,262,124438,1,2,0:0:0:0:
325,255,124527,1,2,0:0:0:0:
369,183,124615,1,10,0:0:0:0:
440,316,124791,1,2,0:0:0:0:
461,323,124880,1,10,0:0:0:0:
235,300,124968,5,6,0:2:0:0:
127,353,125144,1,2,0:0:0:0:
13,315,125321,2,0,B|6:220|6:220|20:168,1,148.750001418591,10|2,0:0|0:0,0:0:0:0:
28,65,125585,1,10,0:0:0:0:
37,85,125674,1,2,0:0:0:0:
86,200,125762,1,10,0:0:0:0:
78,221,125850,1,2,0:0:0:0:
179,21,126027,1,10,0:0:0:0:
101,126,126203,1,2,0:1:0:0:
122,131,126291,1,10,0:0:0:0:
185,220,126380,5,2,0:0:0:0:
305,158,126556,1,2,0:0:0:0:
440,172,126732,2,0,B|459:212|459:212|464:316,1,148.750001418591,10|2,0:0|0:0,0:0:0:0:
359,364,126997,1,10,0:0:0:0:
376,359,127085,1,2,0:0:0:0:
391,238,127174,1,10,0:0:0:0:
375,236,127262,1,2,0:0:0:0:
103,372,127438,2,0,P|44:330|31:259,1,148.750001418591,10|2,0:0|0:0,0:0:0:0:
116,253,127703,1,10,0:0:0:0:
124,274,127791,5,2,0:0:0:0:
70,98,127968,1,2,0:0:0:0:
46,241,128144,2,0,L|193:224,1,148.750001418591,10|2,0:0|0:0,0:0:0:0:
320,171,128409,1,10,0:0:0:0:
298,176,128497,1,2,0:0:0:0:
208,333,128585,1,10,0:0:0:0:
230,336,128674,1,2,0:0:0:0:
117,204,128850,1,10,0:0:0:0:
137,15,129027,1,2,0:0:0:0:
135,37,129115,1,10,0:0:0:0:
70,98,129203,5,2,0:0:0:0:
248,352,129380,1,10,0:0:0:0:
442,98,129556,1,10,0:0:0:0:
256,32,129732,2,0,L|256:138,1,106.25,10|2,0:0|0:0,0:0:0:0:
442,98,130085,5,10,0:0:0:0:
327,173,130262,1,2,0:0:0:0:
332,149,130350,1,2,0:0:0:0:
442,98,130438,1,10,0:0:0:0:
256,32,130615,5,6,0:2:0:0:
168,156,130791,1,2,0:0:0:0:
48,235,130968,2,0,B|32:205|32:205|24:91,1,148.750001418591,10|2,0:0|0:0,0:0:0:0:
188,28,131232,1,10,0:0:0:0:
190,50,131321,1,2,0:0:0:0:
123,245,131409,1,10,0:0:0:0:
128,223,131497,1,2,0:0:0:0:
342,24,131674,2,0,B|454:33|454:33|489:41,1,148.750001418591,10|2,0:0|0:1,0:0:0:0:
396,70,131938,1,10,0:0:0:0:
399,91,132027,5,2,0:0:0:0:
320,268,132203,1,2,0:0:0:0:
484,371,132380,2,0,B|372:362|372:362|336:353,1,148.750001418591,10|2,0:0|0:0,0:0:0:0:
223,344,132644,1,10,0:0:0:0:
202,351,132732,1,2,0:0:0:0:
59,293,132821,1,10,0:0:0:0:
43,309,132909,1,2,0:0:0:0:
131,166,133085,1,10,0:0:0:0:
118,366,133262,1,2,0:0:0:0:
121,343,133350,1,10,0:0:0:0:
195,271,133438,5,6,0:0:0:0:
7,163,133615,1,2,0:0:0:0:
188,49,133791,2,0,B|200:162|200:162|214:193,1,148.750001418591,10|2,0:0|0:0,0:0:0:0:
274,64,134056,1,10,0:0:0:0:
260,81,134144,1,2,0:0:0:0:
472,34,134232,1,10,0:0:0:0:
451,41,134321,1,2,0:0:0:0:
405,259,134497,2,0,L|411:110,1,148.750001418591,10|2,0:0|0:1,0:0:0:0:
480,214,134762,1,10,0:0:0:0:
475,192,134850,5,2,0:0:0:0:
256,32,135027,1,10,0:0:0:0:
256,56,135115,1,2,0:0:0:0:
37,192,135203,1,10,0:0:0:0:
256,128,135380,2,0,B|272:241|272:241|259:208,1,148.750001418591,10|0,0:0|0:0,0:0:0:0:
387,229,135732,1,10,0:0:0:0:
409,224,135821,1,2,0:0:0:0:
481,287,135909,1,10,0:0:0:0:
356,314,136085,1,2,0:0:0:0:
334,310,136174,1,10,0:0:0:0:
229,362,136262,5,6,0:2:0:0:
116,202,136438,1,2,0:0:0:0:
30,380,136615,2,0,B|141:336|141:336|160:314,1,148.750001418591,10|2,0:0|0:0,0:0:0:0:
22,175,136880,1,10,0:0:0:0:
29,196,136968,1,2,0:0:0:0:
98,306,137056,1,10,0:0:0:0:
92,328,137144,1,2,0:0:0:0:
170,79,137321,1,10,0:0:0:0:
12,23,137497,1,2,0:1:0:0:
33,30,137585,1,10,0:0:0:0:
101,106,137674,5,2,0:0:0:0:
290,76,137850,1,2,0:0:0:0:
467,96,138027,2,0,B|366:124|366:124|330:149,1,148.750001418591,10|0,0:0|0:0,0:0:0:0:
352,317,138291,1,10,0:0:0:0:
357,295,138380,1,2,0:0:0:0:
412,159,138468,1,10,0:0:0:0:
409,138,138556,1,2,0:0:0:0:
477,365,138732,1,10,0:0:0:0:
261,242,138909,1,2,0:0:0:0:
281,249,138997,1,10,0:0:0:0:
362,216,139085,5,2,0:0:0:0:
237,358,139262,1,2,0:0:0:0:
173,175,139438,2,0,B|248:246|248:246|267:287,1,148.750001418591,10|2,0:0|0:0,0:0:0:0:
124,230,139703,1,10,0:0:0:0:
108,213,139791,1,2,0:0:0:0:
22,365,139880,1,10,0:0:0:0:
42,355,139968,1,2,0:0:0:0:
237,358,140144,1,10,0:0:0:0:
54,165,140321,1,2,0:0:0:0:
72,153,140409,1,10,0:0:0:0:
27,25,140497,5,6,0:2:0:0:
78,293,140674,1,8,0:0:0:0:
291,114,140850,1,6,0:2:0:0:
197,98,141027,1,8,0:0:0:0:
215,288,141203,1,6,0:2:0:0:
415,342,141380,1,8,0:0:0:0:
448,45,141556,2,0,L|480:21,7,37.1875003546476,6|8|8|8|8|8|8|8,0:2|0:0|0:0|0:0|0:0|0:0|0:0|0:0,0:0:0:0:
443,70,141909,5,6,0:2:0:0:
327,281,142085,1,2,0:0:0:0:
343,41,142262,2,0,B|217:24|217:24|174:28,1,170,10|0,0:0|0:0,0:0:0:0:
42,22,142527,1,10,0:0:0:0:
52,45,142615,1,10,0:2:0:0:
217,124,142703,1,10,0:0:0:0:
233,104,142791,1,2,0:0:0:0:
170,370,142968,1,10,0:0:0:0:
4,233,143144,1,2,0:1:0:0:
29,236,143232,1,10,0:0:0:0:
63,304,143321,5,2,0:0:0:0:
247,132,143497,1,2,0:0:0:0:
497,174,143674,2,0,B|366:184|366:184|327:179,1,170,10|2,0:0|0:0,0:0:0:0:
404,142,143938,1,10,0:0:0:0:
415,118,144027,1,10,0:2:0:0:
246,226,144115,1,10,0:0:0:0:
223,238,144203,1,10,0:2:0:0:
474,354,144380,1,10,0:0:0:0:
313,84,144556,1,2,0:0:0:0:
332,100,144644,1,10,0:0:0:0:
229,124,144732,5,6,0:0:0:0:
40,381,144909,1,2,0:0:0:0:
135,132,145085,2,0,B|175:126|175:126|298:166,1,170,10|0,0:0|0:0,0:0:0:0:
503,143,145350,1,10,0:0:0:0:
480,155,145438,1,10,0:2:0:0:
293,372,145527,1,10,0:0:0:0:
318,373,145615,1,2,0:0:0:0:
147,152,145791,1,10,0:0:0:0:
390,51,145968,1,2,0:1:0:0:
376,73,146056,1,10,0:0:0:0:
448,94,146144,5,2,0:0:0:0:
42,358,146321,2,0,L|124:340,1,85,2|2,0:0|0:0,0:0:0:0:
243,32,146497,5,10,0:0:0:0:
239,58,146585,1,2,0:0:0:0:
243,352,146674,1,10,0:0:0:0:
239,326,146762,1,2,0:0:0:0:
273,262,146850,5,2,0:0:0:0:
87,95,147027,2,0,L|100:12,1,85,10|2,0:2|0:0,0:0:0:0:
316,199,147203,5,2,0:0:0:0:
319,174,147291,1,2,0:0:0:0:
189,115,147380,1,10,0:2:0:0:
166,104,147468,1,10,0:0:0:0:
42,204,147556,5,6,0:2:0:0:
247,182,147732,1,2,0:0:0:0:
387,344,147909,2,0,B|329:231|329:231|338:189,1,170,10|0,0:0|0:0,0:0:0:0:
495,169,148174,1,10,0:0:0:0:
469,173,148262,1,10,0:2:0:0:
263,92,148350,1,10,0:0:0:0:
287,98,148438,1,2,0:0:0:0:
490,25,148615,1,10,0:0:0:0:
408,218,148791,1,2,0:1:0:0:
390,200,148880,1,10,0:0:0:0:
292,206,148968,5,2,0:0:0:0:
104,341,149144,1,2,0:0:0:0:
7,134,149321,2,0,B|85:224|85:224|108:268,1,170,10|0,0:0|0:0,0:0:0:0:
261,371,149585,1,10,0:0:0:0:
252,346,149674,1,10,0:2:0:0:
165,219,149762,1,10,0:0:0:0:
176,196,149850,1,2,0:0:0:0:
30,366,150027,1,10,0:0:0:0:
73,66,150203,1,2,0:0:0:0:
63,42,150291,1,10,0:0:0:0:
142,14,150380,5,2,0:0:0:0:
256,192,150556,1,2,0:0:0:0:
370,14,150732,2,0,B|256:72|256:72|287:99,1,170,10|2,0:0|0:0,0:0:0:0:
399,98,150997,1,10,0:0:0:0:
373,95,151085,1,2,0:0:0:0:
303,251,151174,1,10,0:0:0:0:
280,260,151262,1,2,0:0:0:0:
481,76,151438,1,10,0:0:0:0:
464,344,151615,1,2,0:0:0:0:
442,329,151703,1,10,0:0:0:0:
393,260,151791,5,2,0:0:0:0:
171,98,151968,1,10,0:0:0:0:
256,360,152144,1,10,0:0:0:0:
341,98,152321,2,0,B|324:193|324:193|329:224,1,127.500004863739,10|2,0:0|0:0,0:0:0:0:
118,260,152674,1,10,0:2:0:0:
121,241,152762,1,2,0:0:0:0:
240,140,152850,1,2,0:0:0:0:
249,123,152938,1,2,0:0:0:0:
408,90,153027,1,10,0:2:0:0:
362,372,153203,5,6,0:2:0:0:
196,208,153380,1,2,0:0:0:0:
4,341,153556,2,0,B|125:335|125:335|172:322,1,170,10|0,0:0|0:0,0:0:0:0:
330,299,153821,1,10,0:0:0:0:
304,296,153909,1,10,0:2:0:0:
488,180,153997,1,10,0:0:0:0:
493,204,154085,1,2,0:0:0:0:
122,253,154262,1,10,0:0:0:0:
393,23,154438,1,2,0:1:0:0:
381,45,154527,1,10,0:0:0:0:
297,23,154615,5,2,0:0:0:0:
60,63,154791,1,2,0:0:0:0:
297,117,154968,2,0,B|178:68|178:68|137:60,1,170,10|0,0:0|0:0,0:0:0:0:
25,145,155232,1,10,0:0:0:0:
50,149,155321,1,10,0:2:0:0:
295,191,155409,1,10,0:0:0:0:
272,203,155497,1,10,0:2:0:0:
105,368,155674,1,10,0:0:0:0:
60,63,155850,1,2,0:0:0:0:
40,46,155938,1,10,0:0:0:0:
137,60,156027,5,6,0:0:0:0:
171,288,156203,1,2,0:0:0:0:
392,348,156380,2,0,B|285:284|285:284|241:270,1,170,10|2,0:0|0:0,0:0:0:0:
212,132,156644,1,10,0:0:0:0:
210,157,156732,1,10,0:2:0:0:
332,42,156821,1,10,0:0:0:0:
321,65,156909,1,2,0:0:0:0:
323,276,157085,1,10,0:0:0:0:
493,19,157262,1,2,0:1:0:0:
472,34,157350,1,10,0:0:0:0:
490,107,157438,5,2,0:0:0:0:
52,123,157615,2,0,L|134:143,1,85,2|2,0:0|0:0,0:0:0:0:
455,184,157791,5,10,0:0:0:0:
431,195,157880,1,2,0:0:0:0:
111,221,157968,1,10,0:0:0:0:
135,226,158056,1,2,0:0:0:0:
204,264,158144,5,2,0:0:0:0:
343,116,158321,2,0,L|423:88,1,85,10|2,0:2|0:0,0:0:0:0:
339,355,158497,5,10,0:0:0:0:
321,337,158585,1,2,0:0:0:0:
305,208,158674,1,10,0:2:0:0:
279,208,158762,1,2,0:0:0:0:
196,95,158850,5,6,0:2:0:0:
185,339,159027,1,2,0:0:0:0:
22,214,159203,2,0,B|65:218|65:218|180:269,1,170,10|2,0:0|0:0,0:0:0:0:
38,302,159468,1,10,0:0:0:0:
62,293,159556,1,2,0:0:0:0:
184,187,159644,1,10,0:0:0:0:
206,199,159732,1,2,0:0:0:0:
495,204,159909,1,10,0:2:0:0:
276,18,160085,1,2,0:1:0:0:
279,43,160174,1,10,0:0:0:0:
336,91,160262,5,2,0:0:0:0:
209,268,160438,1,2,0:0:0:0:
15,366,160615,2,0,B|106:282|106:282|123:239,1,170,10|2,0:0|0:0,0:0:0:0:
118,353,160880,5,10,0:0:0:0:
93,345,160968,1,2,0:0:0:0:
394,31,161056,1,10,0:0:0:0:
419,39,161144,1,2,0:0:0:0:
332,358,161321,5,10,0:0:0:0:
180,26,161497,1,10,0:2:0:0:
188,49,161585,1,10,0:0:0:0:
256,128,161674,5,2,0:0:0:0:
67,22,161850,1,2,0:0:0:0:
474,152,162027,2,0,B|346:166|346:166|310:187,1,170,10|2,0:0|0:0,0:0:0:0:
412,199,162291,1,10,0:0:0:0:
401,222,162380,1,2,0:0:0:0:
227,280,162468,1,10,0:0:0:0:
236,303,162556,1,2,0:0:0:0:
91,34,162732,1,10,0:0:0:0:
29,343,162909,1,2,0:0:0:0:
53,349,162997,1,10,0:0:0:0:
68,271,163085,5,2,0:0:0:0:
180,26,163262,1,2,0:0:0:0:
340,250,163438,1,2,0:0:0:0:
140,242,163615,1,2,0:0:0:0:
409,192,163791,1,2,0:0:0:0:
417,216,163880,1,2,0:0:0:0:
256,215,163968,1,2,0:0:0:0:
240,235,164056,1,2,0:0:0:0:
93,169,164144,2,0,L|142:161,7,42.5,2|2|2|2|2|2|2|2,0:0|0:0|0:0|0:0|0:0|0:0|0:0|0:0,0:0:0:0:
64,186,164497,5,6,0:2:0:0:
346,76,165027,1,0,0:0:0:0:
427,112,165203,1,0,0:0:0:0:
462,193,165380,1,0,0:0:0:0:
404,261,165556,1,0,0:0:0:0:
315,272,165732,1,0,0:0:0:0:
236,313,165909,5,2,0:1:0:0:
121,71,166438,1,0,0:0:0:0:
121,160,166615,1,0,0:0:0:0:
196,207,166791,1,0,0:0:0:0:
267,153,166968,1,0,0:0:0:0:
347,189,167144,2,0,P|362:218|370:249,1,63.7500024318696
36,362,167850,5,0,0:0:0:0:
124,359,168027,1,0,0:0:0:0:
150,273,168203,1,0,0:0:0:0:
225,226,168380,1,0,0:0:0:0:
214,137,168556,1,0,0:0:0:0:
160,209,168732,5,2,0:1:0:0:
403,99,169262,1,0,0:0:0:0:
94,44,169791,5,0,0:0:0:0:
232,103,169968,1,0,0:0:0:0:
352,191,170144,1,0,0:0:0:0:
85,218,170674,5,0,0:0:0:0:
135,144,170850,1,0,0:0:0:0:
156,230,171027,1,0,0:0:0:0:
229,281,171203,1,0,0:0:0:0:
317,270,171380,1,0,0:0:0:0:
264,341,171556,1,2,0:1:0:0:
304,76,172085,1,0,0:0:0:0:
226,34,172262,5,0,0:0:0:0:
134,201,172514,1,0,0:0:0:0:
264,341,172766,1,0,0:0:0:0:
438,260,173018,1,0,0:0:0:0:
414,70,173270,1,0,0:0:0:0:
