osu file format v14

[General]
AudioFilename: audio.mp3
AudioLeadIn: 0
PreviewTime: 84877
Countdown: 0
SampleSet: Soft
StackLeniency: 0.2
Mode: 0
LetterboxInBreaks: 0
WidescreenStoryboard: 1

[Editor]
DistanceSpacing: 0.7
BeatDivisor: 4
GridSize: 32
TimelineZoom: 2.1

[Metadata]
Title:Nanatsu Myoukakitsubata
TitleUnicode:七つ明杜若
Artist:A.SAKA
ArtistUnicode:A.SAKA
Creator:August
Version:Easy
Source:
Tags:hakurei reimu kaguya_sama 博麗霊夢 asaka instrumental electronic featured artist fa mpg mappers' guild folk 斑鳩ノ杜 ikaruga no mori 木製みゅーと mokusei mute c96 comiket 96
BeatmapID:3894107
BeatmapSetID:1889202

[Difficulty]
HPDrainRate:2.8
CircleSize:2.8
OverallDifficulty:3
ApproachRate:4
SliderMultiplier:0.9
SliderTickRate:1

[Events]
//Background and Video events
0,0,"reimu.jpg",0,0
//Break Periods
2,86305,94877
//Storyboard Layer 0 (Background)
//Storyboard Layer 1 (Fail)
//Storyboard Layer 2 (Pass)
//Storyboard Layer 3 (Foreground)
//Storyboard Layer 4 (Overlay)
//Storyboard Sound Samples

[TimingPoints]
1862,357.142857142857,4,2,2,65,1,0
10433,374.999999999999,4,2,2,65,1,0
11932,379.746835443038,4,2,2,65,1,0
13450,357.142857142857,4,2,2,50,1,0
13450,-100,4,2,2,50,0,0
23449,-100,4,2,2,40,0,0
24699,-100,4,2,2,45,0,0
24878,-100,4,2,2,65,0,0
29342,-100,4,2,2,70,0,0
30592,-100,4,2,2,80,0,0
31128,-100,4,2,2,70,0,0
31307,-100,4,2,2,65,0,0
33449,-100,4,2,2,60,0,0
34164,-100,4,2,2,70,0,0
34878,-100,4,2,2,80,0,0
35949,-100,4,2,2,81,0,0
36039,-100,4,2,2,82,0,0
36128,-100,4,2,2,83,0,0
36217,-100,4,2,2,84,0,0
36307,-100,4,2,2,65,0,0
46307,-100,4,2,2,70,0,0
47378,-100,4,2,2,75,0,0
47735,-100,4,2,2,65,0,0
53449,-100,4,2,2,70,0,0
54164,-100,4,2,2,80,0,0
55592,-100,4,2,2,85,0,0
56307,-100,4,2,2,70,0,0
59164,-100,4,2,2,55,0,0
62021,-100,4,2,2,70,0,0
64878,-100,4,2,2,55,0,0
67735,-100,4,2,2,70,0,0
72021,-100,4,2,2,55,0,0
72199,-100,4,2,2,60,0,0
72378,-100,4,2,2,65,0,0
72557,-100,4,2,2,75,0,0
73449,-100,4,2,2,80,0,0
76307,-100,4,2,2,70,0,0
77021,-100,4,2,2,75,0,0
77735,355.029585798817,4,2,2,80,1,0
77735,-100,4,2,2,80,0,0
78445,359.281437125748,4,2,2,80,1,0
78804,-100,4,2,2,60,0,0
79163,357.142857142857,4,2,2,60,1,0
79163,-100,4,2,2,50,0,0
83805,-100,4,2,2,40,0,0
83984,-100,4,2,2,45,0,0
84163,-100,4,2,2,50,0,0
84341,-100,4,2,2,55,0,0
84520,-100,4,2,2,60,0,0
84788,-100,4,2,2,5,0,0
84877,-100,4,2,2,40,0,0
87734,-100,4,2,2,55,0,0
88448,-100,4,2,2,40,0,0
93448,-100,4,2,2,55,0,0
94163,-100,4,2,2,40,0,0
96305,-100,4,2,2,50,0,0
101305,-100,4,2,2,54,0,0
101484,-100,4,2,2,58,0,0
101662,-100,4,2,2,62,0,0
101841,-100,4,2,2,66,0,0
102020,-100,4,2,2,45,0,0
103448,-100,4,2,2,65,0,0
104877,-100,4,2,2,80,0,0
105591,-100,4,2,2,85,0,0
106305,356.083086053412,4,2,2,85,1,0
106305,-100,4,2,2,80,0,0
107373,-100,4,2,2,50,0,0
107729,357.142857142857,4,2,2,50,1,0
107729,-100,4,2,2,75,0,0
110586,-100,4,2,2,80,0,0
110854,-100,4,2,2,65,0,0
111389,-100,4,2,2,75,0,0
111657,-100,4,2,2,65,0,0
112014,-100,4,2,2,75,0,0
112282,-100,4,2,2,65,0,0
113443,-100,4,2,2,75,0,0
116300,-100,4,2,2,80,0,0
116479,-100,4,2,2,60,0,0
117371,-100,4,2,2,70,0,0
117907,-100,4,2,2,60,0,0
118443,-100,4,2,2,65,0,0
119157,-100,4,2,2,80,0,0
122014,355.029585798816,4,2,2,80,1,0
122014,-100,4,2,2,70,0,0
123079,363.636363636364,4,2,2,70,1,0
123442,357.142857142857,4,2,2,70,1,0
123442,-100,4,2,2,65,0,0
124870,357.142857142857,4,2,2,65,1,0
124870,-100,4,2,2,75,0,0
125048,-100,4,2,2,50,0,0
126298,-100,4,2,2,60,0,0
127727,-100,4,2,2,75,0,0
128441,-100,4,2,2,85,0,0
129870,-100,4,2,2,80,0,0
130584,361.44578313253,4,2,2,80,1,0
132029,357.142857142857,4,2,2,35,1,0
135600,355.029585798816,4,2,2,35,1,0
136310,357.142857142857,4,2,2,35,1,0
137560,-100,4,2,2,20,0,0
137738,-100,4,2,2,45,0,0
138988,-100,4,2,2,20,0,0
139167,357.142857142857,4,2,2,50,1,0
139167,-100,4,2,2,50,0,0
139256,-100,4,2,2,35,0,0
142024,359.281437125748,4,2,2,30,1,0

[Colours]
Combo1 : 175,0,234
Combo2 : 251,172,205
Combo3 : 231,91,247
Combo4 : 255,26,31

[HitObjects]
192,288,13450,6,0,B|256:305|256:305|298:251,1,135,4|0,0:0|0:3,0:0:0:0:
256,171,14342,2,0,P|231:134|229:89,1,90,2|2,0:0|0:0,0:0:0:0:
311,51,15057,2,0,P|338:15|380:1,1,90,2|2,0:0|0:0,0:0:0:0:
440,68,15771,1,2,0:0:0:0:
395,146,16128,1,2,0:0:0:0:
440,224,16485,2,0,B|469:260|456:309|456:309|416:343|362:318,1,180,2|2,0:0|0:0,0:0:0:0:
285,349,17557,6,0,P|240:346|200:364,2,90,2|2|2,0:0|0:0|0:0,0:0:0:0:
395,146,19164,2,0,B|313:160|343:113|266:126,1,135,8|2,0:1|0:0,0:0:0:0:
211,54,20057,1,2,0:0:0:0:
126,84,20414,1,2,0:0:0:0:
109,172,20771,2,0,P|86:239|29:282,2,135,2|0|2,0:0|0:0|0:0,0:0:0:0:
126,84,22199,6,0,P|166:102|194:147,1,90,2|2,0:0|0:0,0:0:0:0:
256,201,22914,1,2,0:0:0:0:
321,139,23271,2,0,L|371:139,1,45,2|2,0:0|0:0,0:0:0:0:
255,351,24878,6,0,P|197:320|130:324,1,135,4|0,0:0|0:0,0:0:0:0:
62,383,25771,2,0,P|42:344|44:299,1,90,2|2,0:0|0:0,0:0:0:0:
108,236,26485,2,0,P|128:196|126:151,1,90,2|2,0:0|0:0,0:0:0:0:
62,88,27199,1,0,0:0:0:0:
183,29,27735,6,0,B|236:83|308:53|308:53|355:79|347:127,1,225,0|0,3:0|0:0,0:0:0:0:
418,181,28985,1,2,0:0:0:0:
489,237,29342,2,0,P|482:280|448:308,1,90,2|2,0:0|0:3,0:0:0:0:
398,383,30057,1,2,0:3:0:0:
346,308,30414,6,0,B|298:287|306:235|306:235|302:185|251:168|251:168|322:107,1,270,2|2,0:3|0:0,0:0:0:0:
174,0,32199,2,0,L|98:64,1,90
105,148,32914,2,0,L|181:212,1,90
256,192,33449,12,4,36307,3:2:0:0:
370,241,37735,6,0,B|414:175|353:105|353:105|271:134|280:217|280:217|285:260|266:281,1,360,2|2,3:2|3:2,0:0:0:0:
179,298,39521,1,8,0:2:0:0:
90,316,39878,2,0,P|66:279|56:235,1,90,0|8,3:0|0:0,0:0:0:0:
0,165,40592,1,0,3:2:0:0:
56,94,40949,2,0,P|140:66|230:68,1,180,10|10,0:2|0:2,0:0:0:0:
299,126,42021,6,0,B|348:129|374:169|374:169|479:165|496:59|496:59|451:41|409:71,1,360,2|2,3:2|3:2,0:0:0:0:
230,68,44164,1,2,3:2:0:0:
211,151,44521,1,10,0:0:0:0:
274,213,44878,2,0,L|340:291,1,90,2|8,3:2|0:0,0:0:0:0:
302,366,45592,2,0,L|200:383,1,90,2|8,3:2|0:0,0:0:0:0:
155,313,46307,2,0,L|190:216,1,90,2|8,3:2|0:0,0:0:0:0:
274,213,47021,1,2,3:2:0:0:
304,128,47378,1,10,0:2:0:0:
334,43,47735,6,0,B|242:18|255:92|161:69,2,180,6|0|2,3:2|3:0|3:2,0:0:0:0:
508,88,49878,2,0,P|508:132|486:170,1,90,2|10,3:2|0:0,0:0:0:0:
443,249,50592,2,0,B|351:273|364:199|270:222,1,180,2|0,3:2|3:0,0:0:0:0:
202,165,51664,1,8,0:0:0:0:
157,243,52021,2,0,P|180:280|218:304,1,90,2|8,3:2|0:0,0:0:0:0:
292,355,52735,2,0,P|336:358|377:341,1,90,2|10,3:2|0:0,0:0:0:0:
256,192,53449,12,2,54878,3:2:0:0:
256,192,56307,5,4,3:2:0:0:
416,100,57021,1,0,3:0:0:0:
412,192,57378,1,2,3:3:0:0:
408,284,57735,1,0,3:0:0:0:
256,180,58449,1,0,3:0:0:0:
95,99,59164,6,0,P|130:71|172:54,1,90,2|0,3:2|3:0,0:0:0:0:
256,18,59878,2,0,L|256:288,1,270,0|0,3:1|3:0,0:0:0:0:
346,288,61307,2,0,L|346:187,1,90,0|0,3:0|3:0,0:0:0:0:
256,180,62021,5,0,3:0:0:0:
96,100,62735,1,0,3:0:0:0:
100,192,63092,1,2,3:0:0:0:
104,284,63449,1,0,3:0:0:0:
256,180,64164,1,0,3:0:0:0:
416,99,64878,6,0,P|381:71|339:54,1,90,2|0,3:2|3:0,0:0:0:0:
256,18,65592,2,0,L|256:206,1,180,0|0,3:1|3:0,0:0:0:0:
99,288,67021,2,0,B|85:235|113:249|97:189,1,90,0|8,3:0|0:1,0:0:0:0:
22,153,67735,6,0,P|-4:117|0:73,1,90,4|2,3:2|3:2,0:0:0:0:
56,4,68449,1,2,3:2:0:0:
146,4,68807,1,2,3:2:0:0:
235,4,69164,6,0,P|261:39|257:83,1,90,2|2,3:2|3:2,0:0:0:0:
201,153,69878,1,2,3:2:0:0:
111,153,70235,1,2,3:2:0:0:
22,153,70592,6,0,P|-4:117|0:73,1,90,2|2,3:2|3:2,0:0:0:0:
56,4,71307,1,2,3:2:0:0:
146,4,71664,1,2,3:2:0:0:
235,4,72021,5,2,3:2:0:0:
248,138,72557,2,0,B|256:191|204:208|259:209|266:265,1,135,8|8,0:1|3:1,0:0:0:0:
256,192,73449,12,4,79164,0:0:0:0:
136,245,80591,6,0,B|273:279|169:197|302:230,1,180,2|0,0:0|0:0,0:0:0:0:
359,301,81663,1,0,0:0:0:0:
413,230,82020,2,0,P|434:190|439:145,1,90,2|0,0:0|0:0,0:0:0:0:
359,104,82734,1,0,0:0:0:0:
359,14,83091,1,0,0:0:0:0:
449,14,83448,5,2,0:0:0:0:
256,320,84877,1,4,0:0:0:0:
256,64,96305,6,0,B|184:81|199:-6|109:11|102:40|124:68,1,180,4|2,3:2|3:2,0:0:0:0:
6,202,97734,2,0,B|77:184|62:272|152:254|159:225|137:197,1,180,2|2,3:2|3:2,0:0:0:0:
256,64,99163,2,0,B|327:81|312:-6|402:11|409:40|387:68,1,180,2|2,3:2|3:2,0:0:0:0:
506,202,100591,2,0,B|434:184|449:272|359:254|352:225|374:197,1,180,2|2,3:2|3:2,0:0:0:0:
256,192,102020,12,4,106305,3:2:0:0:
320,128,107729,6,0,P|363:117|400:92,2,90,2|10|0,3:2|0:0|3:0,0:1:0:0:
256,192,108800,1,10,0:0:0:0:
192,128,109157,2,0,P|161:95|121:75,2,90,0|10|0,3:1|0:0|3:0,0:0:0:0:
256,192,110229,1,10,0:0:0:0:
209,267,110586,6,0,B|142:252|141:196|90:217,2,135,4|0|0,3:2|3:0|0:1,0:0:0:0:
303,267,112014,2,0,B|370:252|371:196|422:217,2,135,4|0|0,3:2|3:0|3:0,0:0:0:0:
255,343,113443,6,0,P|214:359|169:361,1,90,6|10,3:2|0:0,0:1:0:0:
97,307,114157,1,0,3:0:0:0:
91,217,114514,1,10,0:0:0:0:
124,133,114871,6,0,P|168:131|210:115,1,90,0|10,3:1|0:0,0:0:0:0:
295,84,115586,1,0,3:0:0:0:
339,5,115943,1,10,0:0:0:0:
421,43,116300,5,4,3:2:0:0:
487,160,116836,1,4,3:2:0:0:
397,259,117371,1,4,3:2:0:0:
276,204,117907,2,0,L|142:222,1,135,4|0,3:2|3:0,0:0:0:0:
0,332,119157,6,0,P|38:355|82:363,1,90,6|10,3:2|0:0,0:1:0:0:
167,342,119871,1,0,3:0:0:0:
217,267,120229,1,10,0:0:0:0:
303,289,120586,1,0,3:1:0:0:
366,226,120943,1,10,0:0:0:0:
342,139,121300,2,0,P|302:121|257:116,1,90,0|10,3:0|0:0,0:0:0:0:
193,180,122014,6,0,P|106:185|44:124,1,180,0|0,3:1|3:0,0:0:0:0:
35,35,123079,1,10,0:0:0:0:
126,35,123442,2,0,P|191:92|193:179,1,180,0|0,3:1|3:0,0:0:0:0:
257,242,124513,1,10,0:0:0:0:
321,305,124870,1,4,3:2:0:0:
256,192,125584,12,4,129155,3:2:0:0:
256,128,130584,5,4,0:0:0:0:
