osu file format v14

[General]
AudioFilename: audio.mp3
AudioLeadIn: 0
PreviewTime: 128746
Countdown: 0
SampleSet: Soft
StackLeniency: 0.4
Mode: 0
LetterboxInBreaks: 0
WidescreenStoryboard: 1

[Editor]
Bookmarks: 747,11413,22080,40580,54080,64746,86080,96746,107413,128746,150080,159605
DistanceSpacing: 0.7
BeatDivisor: 4
GridSize: 16
TimelineZoom: 4.799998

[Metadata]
Title:Nanatsu Koyoto
TitleUnicode:七つ紅葉灯
Artist:A.SAKA
ArtistUnicode:A.SAKA
Creator:Imakuri
Version:Sakura Heaven
Source:ステライツ - STELLIGHTS
Tags:oriental asian ataraxia pachiru regraz kowari deppyforce mafumafu instrumental electronic video game
BeatmapID:2110791
BeatmapSetID:972793

[Difficulty]
HPDrainRate:7
CircleSize:4
OverallDifficulty:8
ApproachRate:9
SliderMultiplier:1.9
SliderTickRate:1

[Events]
//Background and Video events
0,0,"bg1.jpg",0,0
//Break Periods
2,86208,87241
2,88874,89908
2,91541,92574
2,94208,95241
//Storyboard Layer 0 (Background)
//Storyboard Layer 1 (Fail)
//Storyboard Layer 2 (Pass)
//Storyboard Layer 3 (Foreground)
//Storyboard Layer 4 (Overlay)
//Storyboard Sound Samples

[TimingPoints]
675,333.333333333333,4,2,10,60,1,0
22008,-83.3333333333333,4,2,20,70,0,0
35008,-66.6666666666667,4,2,20,70,0,0
35174,-57.1428571428571,4,2,20,70,0,0
35341,-83.3333333333333,4,2,20,70,0,0
41841,-62.5,4,2,20,70,0,0
42091,-62.5,4,2,20,5,0,0
42174,-62.5,4,2,20,70,0,0
42674,-62.5,4,2,20,50,0,0
43341,-133.333333333333,4,2,20,100,0,0
43591,-133.333333333333,4,3,10,55,0,0
43674,-100,4,2,20,70,0,0
47841,-74.0740740740741,4,2,20,70,0,0
48174,-58.8235294117647,4,2,20,70,0,0
48674,-100,4,2,20,70,0,0
53008,-76.9230769230769,4,2,20,70,0,0
53341,-62.5,4,2,20,70,0,0
54008,-100,4,2,20,70,0,0
58508,-74.0740740740741,4,2,20,70,0,0
58841,-58.8235294117647,4,2,20,70,0,0
59341,-100,4,2,20,70,0,0
60674,-62.5,4,2,20,70,0,0
61008,-76.9230769230769,4,2,20,70,0,0
61341,-100,4,2,20,70,0,0
61674,-100,4,2,20,70,0,0
64674,-100,4,2,25,70,0,0
85341,-100,4,2,20,45,0,0
86008,-100,4,2,10,50,0,0
96674,-100,4,2,10,70,0,0
97341,-133.333333333333,4,2,10,60,0,0
97591,-133.333333333333,4,2,10,5,0,0
97674,-100,4,2,10,60,0,0
97924,-100,4,2,10,5,0,0
98008,-100,4,2,10,60,0,0
98674,-133.333333333333,4,2,10,60,0,0
99008,-100,4,2,10,60,0,0
99258,-100,4,2,10,5,0,0
99341,-100,4,2,10,70,0,0
109174,-100,4,2,10,85,0,0
109424,-100,4,2,10,5,0,0
109508,-100,4,2,10,85,0,0
110008,-100,4,2,10,70,0,0
111841,-100,4,2,10,85,0,0
112091,-100,4,2,10,5,0,0
112174,-100,4,2,10,85,0,0
112674,-100,4,2,10,70,0,0
114508,-100,4,2,10,85,0,0
114758,-100,4,2,10,5,0,0
114841,-100,4,2,10,85,0,0
115341,-100,4,2,10,70,0,0
117174,-100,4,2,10,85,0,0
118008,-100,4,2,10,70,0,0
120091,-100,4,2,10,5,0,0
120174,-100,4,2,10,70,0,0
120924,-100,4,2,10,5,0,0
121008,-100,4,2,10,70,0,0
121424,-100,4,2,10,5,0,0
121508,-100,4,2,10,70,0,0
122758,-100,4,2,10,5,0,0
122841,-100,4,2,10,70,0,0
128674,-76.9230769230769,4,2,20,85,0,1
129424,-76.9230769230769,4,2,20,85,0,1
129508,-76.9230769230769,4,2,20,85,0,1
130758,-76.9230769230769,4,2,20,85,0,1
130841,-76.9230769230769,4,2,20,85,0,1
132091,-76.9230769230769,4,2,20,85,0,1
132174,-76.9230769230769,4,2,20,85,0,1
133424,-76.9230769230769,4,2,20,85,0,1
133508,-76.9230769230769,4,2,20,85,0,1
134758,-76.9230769230769,4,2,20,85,0,1
134841,-76.9230769230769,4,2,20,85,0,1
136091,-76.9230769230769,4,2,20,85,0,1
136174,-76.9230769230769,4,2,20,85,0,1
137424,-76.9230769230769,4,2,20,85,0,1
137508,-76.9230769230769,4,2,20,85,0,1
140091,-76.9230769230769,4,2,20,85,0,1
140174,-76.9230769230769,4,2,20,85,0,1
141424,-76.9230769230769,4,2,20,85,0,1
141508,-76.9230769230769,4,2,20,85,0,1
142758,-76.9230769230769,4,2,20,85,0,1
142841,-76.9230769230769,4,2,20,85,0,1
150008,-133.333333333333,4,2,10,45,0,0
150010,363.636363636364,4,2,10,45,1,0
151434,363.636363636364,4,2,10,45,1,0
151641,363.636363636364,4,2,10,45,1,0
152487,363.636363636364,4,2,10,45,1,0
152736,363.636363636364,4,2,10,45,1,0
153405,545.454545454546,4,2,10,45,1,0
153643,566.037735849057,4,2,10,45,1,0
153906,588.235294117647,4,2,1,45,1,0
154163,612.244897959184,4,2,1,45,1,0
154436,638.297872340426,4,2,1,45,1,0
154715,600,4,2,1,45,1,0
155352,600,4,2,1,45,1,0
155689,600,4,2,1,45,1,0
155689,-80,4,2,1,45,0,0
158989,-80,4,2,1,5,0,0

[Colours]
Combo1 : 209,105,193
Combo2 : 254,137,192
Combo3 : 128,128,192
Combo4 : 251,179,189
SliderTrackOverride : 218,218,218

[HitObjects]
147,61,675,5,0,3:1:0:0:
64,71,841,1,0,3:2:0:0:
38,148,1008,1,8,0:0:0:0:
107,199,1174,2,0,P|118:231|120:246,1,47.5,0|0,3:0|3:0,0:0:0:0:
101,322,1341,5,0,3:0:0:0:
182,336,1508,1,0,3:2:0:0:
230,270,1674,1,8,0:0:0:0:
312,258,1841,1,0,0:0:0:0:
440,351,2008,5,0,3:0:0:0:
380,295,2174,1,0,3:0:0:0:
413,219,2341,1,8,0:0:0:0:
496,230,2508,2,0,P|498:196|497:171,1,47.5,0|0,3:0|3:0,0:0:0:0:
481,111,2674,5,0,3:0:0:0:
419,58,2841,1,0,3:0:0:0:
344,96,3008,1,8,0:0:0:0:
306,105,3091,1,0,3:2:0:0:
267,105,3174,1,0,3:2:0:0:
230,96,3258,1,0,3:2:0:0:
202,70,3341,5,0,3:0:0:0:
275,32,3508,1,0,3:2:0:0:
306,105,3674,1,8,0:0:0:0:
202,70,3841,2,0,L|142:74,1,47.5,0|0,3:0|3:0,0:0:0:0:
60,77,4008,5,0,3:0:0:0:
7,161,4174,1,0,3:2:0:0:
60,242,4341,1,8,0:0:0:0:
153,217,4508,1,0,3:0:0:0:
153,217,4591,1,0,3:0:0:0:
153,217,4674,6,0,P|164:171|156:124,1,95,0|8,3:0|0:0,0:0:0:0:
59,313,5008,1,8,0:0:0:0:
52,171,5174,1,8,0:0:0:0:
151,301,5341,2,0,B|199:317|199:317|250:304,1,95,0|8,3:0|3:2,0:0:0:0:
358,245,5674,1,8,0:0:0:0:
342,215,5758,1,0,3:0:0:0:
308,218,5841,1,0,3:0:0:0:
301,257,5924,1,0,3:0:0:0:
336,272,6008,5,4,3:2:0:0:
417,263,6174,1,0,3:2:0:0:
452,190,6341,1,8,0:0:0:0:
436,110,6508,2,0,P|413:106|387:91,1,47.5,0|0,3:0|3:0,0:0:0:0:
325,60,6674,5,0,3:0:0:0:
248,33,6841,1,0,3:2:0:0:
190,90,7008,1,8,0:0:0:0:
109,102,7174,1,0,3:2:0:0:
11,14,7341,5,0,3:0:0:0:
92,23,7508,1,0,3:2:0:0:
109,102,7674,1,8,0:0:0:0:
35,143,7841,2,0,P|29:166|29:195,1,47.5,0|0,3:0|3:0,0:0:0:0:
53,264,8008,5,0,3:0:0:0:
115,318,8174,1,0,3:0:0:0:
176,263,8341,1,8,0:0:0:0:
211,244,8424,1,0,3:0:0:0:
248,235,8508,1,0,3:0:0:0:
287,236,8591,1,0,3:0:0:0:
324,247,8674,5,0,3:0:0:0:
335,166,8841,1,0,3:2:0:0:
341,83,9008,1,8,0:0:0:0:
267,119,9174,2,0,P|234:126|215:126,1,47.5,0|0,3:0|3:0,0:0:0:0:
114,103,9341,5,0,3:0:0:0:
204,40,9508,1,0,3:2:0:0:
267,119,9674,1,8,0:0:0:0:
141,219,9841,1,0,3:0:0:0:
176,245,9924,1,8,3:2:0:0:
211,269,10008,6,0,L|319:276,1,95,0|8,3:0|0:0,0:0:0:0:
228,350,10341,2,0,L|126:354,1,95,8|0,0:0|3:0,0:0:0:0:
24,273,10674,1,0,3:0:0:0:
128,280,10841,1,8,3:2:0:0:
88,168,11008,1,8,0:0:0:0:
104,197,11091,1,0,3:0:0:0:
138,194,11174,1,0,3:0:0:0:
145,156,11258,1,8,3:2:0:0:
110,141,11341,5,4,3:2:0:0:
170,45,11508,1,2,0:0:0:0:
193,38,11591,1,2,0:0:0:0:
222,37,11674,1,10,0:0:0:0:
121,49,11841,5,2,3:2:0:0:
140,29,11924,1,2,0:2:0:0:
168,18,12008,1,0,3:2:0:0:
326,111,12174,1,0,3:2:0:0:
197,109,12341,1,8,0:0:0:0:
337,26,12508,1,0,0:0:0:0:
252,181,12674,5,0,3:2:0:0:
360,274,12841,1,2,3:2:0:0:
392,269,12924,1,2,3:2:0:0:
417,253,13008,1,2,3:2:0:0:
332,295,13174,5,2,0:0:0:0:
367,300,13258,1,2,0:0:0:0:
407,290,13341,1,2,3:2:0:0:
252,181,13508,2,0,L|197:184,1,47.5
307,129,13674,2,0,L|360:124,1,47.5,8|0,3:2|3:2,0:0:0:0:
237,111,13841,2,0,L|233:59,1,47.5,0|0,3:2|3:2,0:0:0:0:
322,202,14008,5,0,3:0:0:0:
236,325,14174,1,2,0:0:0:0:
200,327,14258,1,2,0:0:0:0:
166,329,14341,1,10,0:0:0:0:
105,227,14508,5,2,0:0:0:0:
141,231,14591,1,2,0:0:0:0:
172,235,14674,1,2,3:2:0:0:
307,129,14841,1,0,3:2:0:0:
249,249,15008,1,8,0:0:0:0:
226,73,15174,1,0,3:0:0:0:
322,202,15341,6,0,P|371:215|427:193,1,95,0|2,3:0|0:0,0:0:0:0:
308,66,15674,1,10,3:2:0:0:
267,69,15758,1,2,3:2:0:0:
226,73,15841,1,2,3:2:0:0:
366,140,16008,1,2,3:2:0:0:
282,28,16174,5,2,3:2:0:0:
241,31,16258,1,2,0:2:0:0:
200,35,16341,1,10,0:2:0:0:
159,38,16424,1,2,3:2:0:0:
119,42,16508,1,2,3:2:0:0:
78,45,16591,1,2,3:2:0:0:
37,46,16674,6,0,B|1:111|48:180|48:180|47:148|67:118,1,190,4|8,0:1|0:0,0:0:0:0:
129,178,17174,1,2,3:2:0:0:
129,178,17258,1,2,3:2:0:0:
129,178,17341,1,2,3:2:0:0:
203,219,17508,1,0,3:0:0:0:
148,283,17674,1,10,3:2:0:0:
235,321,17841,1,2,3:2:0:0:
235,321,17924,1,2,3:2:0:0:
235,321,18008,6,0,B|358:282|310:352|436:310,1,190,4|8,3:2|0:0,0:0:0:0:
499,274,18508,1,2,3:2:0:0:
499,274,18591,1,2,3:2:0:0:
499,274,18674,1,2,3:2:0:0:
508,188,18841,1,0,3:0:0:0:
503,109,19008,1,10,3:2:0:0:
503,109,19091,1,2,3:2:0:0:
503,109,19174,1,2,3:2:0:0:
461,33,19341,6,0,L|359:40,1,95,4|0,0:0|0:0,0:0:0:0:
310,90,19591,1,2,3:2:0:0:
310,90,19674,2,0,P|301:142|316:184,1,95,10|0,3:2|0:0,0:0:0:0:
371,248,20008,1,14,3:2:0:0:
317,325,20174,2,0,P|291:325|258:317,1,47.5,2|10,0:2|0:2,0:0:0:0:
219,246,20341,2,0,P|189:248|162:257,1,47.5,2|0,3:2|3:2,0:0:0:0:
105,313,20508,1,10,3:2:0:0:
77,231,20674,6,0,P|89:191|77:131,1,95,12|10,0:0|0:0,0:0:0:0:
80,139,20924,1,2,3:2:0:0:
80,139,21008,1,10,3:2:0:0:
136,58,21174,1,10,0:0:0:0:
216,109,21341,1,14,0:0:0:0:
245,106,21424,1,10,0:0:0:0:
274,104,21508,1,10,0:0:0:0:
303,101,21591,1,10,0:0:0:0:
331,98,21674,5,10,0:0:0:0:
306,139,21758,1,10,0:0:0:0:
313,186,21841,1,10,0:0:0:0:
346,220,21924,1,10,0:0:0:0:
390,226,22008,5,4,3:2:0:0:
209,299,22174,1,2,0:0:0:0:
168,295,22258,1,2,0:0:0:0:
129,291,22341,1,10,0:0:0:0:
274,356,22508,2,0,P|297:308|280:250,1,113.999996520996,2|0,0:0|0:0,0:0:0:0:
130,122,22841,5,2,0:0:0:0:
112,197,23008,1,10,0:2:0:0:
188,176,23174,1,2,0:3:0:0:
130,122,23341,5,0,3:0:0:0:
264,75,23508,1,2,0:0:0:0:
311,77,23591,1,2,0:0:0:0:
356,81,23674,1,10,0:0:0:0:
460,174,23841,2,0,P|476:208|446:295,1,113.999996520996,2|0,0:3|0:0,0:0:0:0:
265,268,24174,2,0,P|236:263|190:275,1,56.9999982604981,2|2,0:3|0:0,0:0:0:0:
341,224,24341,2,0,P|368:230|405:222,1,56.9999982604981,10|2,0:2|0:0,0:0:0:0:
334,302,24508,2,0,P|330:325|339:366,1,56.9999982604981,2|2,0:3|0:0,0:0:0:0:
269,187,24674,5,0,0:0:0:0:
128,77,24841,1,2,0:0:0:0:
83,60,24924,1,2,0:0:0:0:
34,63,25008,1,10,0:0:0:0:
89,162,25174,2,0,P|147:167|199:136,1,113.999996520996,2|0,0:0|0:0,0:0:0:0:
238,33,25508,1,2,0:0:0:0:
268,226,25674,1,10,0:0:0:0:
364,100,25841,1,2,0:3:0:0:
364,100,26174,5,2,0:2:0:0:
315,106,26258,1,2,0:0:0:0:
267,112,26341,1,10,0:0:0:0:
424,156,26508,2,0,P|445:97|422:40,1,113.999996520996,2|0,0:3|0:3,0:0:0:0:
348,220,26841,2,0,P|352:256|369:283,1,56.9999982604981,2|0,0:3|0:3,0:0:0:0:
448,299,27008,2,0,P|479:286|498:247,1,56.9999982604981,10|0,0:0|0:3,0:0:0:0:
475,175,27174,2,0,P|434:155|406:159,1,56.9999982604981,2|2,0:3|0:0,0:0:0:0:
348,220,27341,5,4,3:2:0:0:
255,310,27508,1,2,0:0:0:0:
206,312,27591,1,2,0:0:0:0:
158,314,27674,1,10,0:0:0:0:
57,237,27841,2,0,P|45:177|64:118,1,113.999996520996,2|0,0:0|0:0,0:0:0:0:
233,43,28174,1,2,0:0:0:0:
206,111,28341,1,10,0:0:0:0:
162,54,28508,1,2,0:3:0:0:
233,43,28674,5,0,3:0:0:0:
397,259,28841,1,2,0:0:0:0:
412,214,28924,1,2,0:0:0:0:
401,166,29008,1,10,0:0:0:0:
348,315,29174,2,0,P|389:335|455:306,1,113.999996520996,2|0,0:3|0:0,0:0:0:0:
313,217,29508,2,0,P|285:207|253:211,1,56.9999982604981,2|0,0:3|0:0,0:0:0:0:
201,286,29674,2,0,P|202:314|224:345,1,56.9999982604981,10|0,0:0|0:0,0:0:0:0:
310,354,29841,2,0,P|348:312|349:302,1,56.9999982604981,2|0,0:3|0:0,0:0:0:0:
216,338,30008,5,0,3:0:0:0:
218,204,30174,1,2,0:2:0:0:
182,193,30258,1,2,0:3:0:0:
142,182,30341,1,10,0:2:0:0:
41,249,30508,2,0,P|103:274|153:251,1,113.999996520996,2|0,0:3|0:3,0:0:0:0:
142,81,30841,1,2,0:3:0:0:
182,193,31008,1,10,0:0:0:0:
225,305,31174,1,2,0:3:0:0:
225,305,31258,1,2,0:3:0:0:
225,305,31341,5,0,3:0:0:0:
331,256,31508,1,2,0:3:0:0:
425,324,31674,1,10,0:0:0:0:
429,299,31758,1,2,0:0:0:0:
434,274,31841,1,2,0:3:0:0:
331,256,32008,1,8,0:0:0:0:
439,246,32174,5,10,0:0:0:0:
439,193,32258,1,2,0:3:0:0:
417,145,32341,1,2,0:0:0:0:
378,110,32424,1,2,0:3:0:0:
328,94,32508,1,2,0:3:0:0:
276,100,32591,1,2,0:3:0:0:
231,127,32674,5,6,3:2:0:0:
176,301,32841,1,2,0:0:0:0:
175,254,32924,1,2,0:0:0:0:
173,205,33008,1,10,0:0:0:0:
124,357,33174,2,0,P|183:376|236:349,1,113.999996520996,2|0,0:0|0:0,0:0:0:0:
64,90,33508,5,2,0:0:0:0:
117,142,33674,1,10,0:0:0:0:
131,69,33841,1,2,0:3:0:0:
64,90,34008,5,0,3:0:0:0:
179,269,34174,1,2,0:0:0:0:
226,281,34258,1,2,0:0:0:0:
271,266,34341,1,10,0:0:0:0:
121,214,34508,2,0,P|101:269|123:327,1,113.999996520996,2|2,0:3|0:0,0:0:0:0:
248,135,34841,2,0,L|254:67,1,56.9999982604981,2|0,0:3|0:0,0:0:0:0:
342,154,35008,2,0,L|333:236,1,71.2500027179719,10|0,0:2|0:0,0:0:0:0:
422,296,35174,2,0,L|428:209,1,83.1250007927418,2|0,0:3|0:0,0:0:0:0:
508,268,35341,5,2,0:3:0:0:
352,164,35508,1,2,0:0:0:0:
352,164,35591,1,2,0:0:0:0:
352,164,35674,1,10,0:0:0:0:
289,311,35841,2,0,P|233:343|153:271,1,170.999994781494,2|0,0:3|0:0,0:0:0:0:
228,264,36174,1,0,0:3:0:0:
188,32,36341,1,10,0:0:0:0:
100,192,36508,1,2,0:3:0:0:
100,192,36591,1,8,0:0:0:0:
100,192,36674,5,0,3:2:0:0:
256,156,36841,1,10,0:0:0:0:
92,100,37008,1,2,0:3:0:0:
128,116,37091,1,2,0:0:0:0:
168,104,37174,1,2,0:3:0:0:
256,156,37341,5,2,0:0:0:0:
416,252,37508,1,2,0:3:0:0:
380,236,37591,1,2,0:3:0:0:
340,248,37674,2,0,P|288:276|276:292,1,56.9999982604981,10|0,0:2|0:3,0:0:0:0:
226,330,37841,2,0,P|202:350|150:366,1,56.9999982604981,2|0,0:3|0:0,0:0:0:0:
100,328,38008,6,0,L|96:172,1,113.999996520996,4|0,3:2|0:0,0:0:0:0:
137,50,38341,1,10,0:2:0:0:
280,176,38508,1,2,0:2:0:0:
236,192,38591,1,2,0:2:0:0:
196,176,38674,1,2,0:3:0:0:
292,48,38841,6,0,L|352:52,1,56.9999982604981,2|2,0:0|0:0,0:0:0:0:
454,121,39008,2,0,L|394:125,1,56.9999982604981,8|0,0:0|0:0,0:0:0:0:
280,176,39174,2,0,L|356:184,1,56.9999982604981,2|0,0:3|0:0,0:0:0:0:
400,248,39341,6,0,B|416:296|392:336|392:336|376:288,1,113.999996520996,2|0,3:2|0:0,0:0:0:0:
280,176,39674,1,8,0:0:0:0:
198,329,39841,1,2,0:3:0:0:
150,336,39924,1,2,0:2:0:0:
112,305,40008,1,2,0:3:0:0:
91,204,40174,6,0,L|86:143,1,56.9999982604981,2|0,0:3|0:0,0:0:0:0:
79,70,40341,2,0,L|73:5,1,56.9999982604981,10|2,0:0|0:0,0:0:0:0:
155,78,40508,2,0,L|159:139,1,56.9999982604981,2|0,0:3|0:0,0:0:0:0:
164,216,40674,5,2,3:2:0:0:
255,277,40841,1,2,0:3:0:0:
255,277,40924,1,2,0:0:0:0:
255,277,41008,1,10,0:0:0:0:
348,216,41174,1,2,0:3:0:0:
387,135,41341,6,0,P|391:90|380:60,1,56.9999982604981,2|2,0:0|0:3,0:0:0:0:
439,205,41508,2,0,B|462:187|470:144,1,56.9999982604981,2|2,0:0|0:3,0:0:0:0:
426,294,41674,2,0,P|468:292|489:279,1,56.9999982604981,10|2,0:0|0:3,0:0:0:0:
341,267,41841,2,0,P|341:314|353:342,1,76,2|2,0:3|0:3,0:0:0:0:
387,135,42008,6,0,P|391:90|377:53,1,76,8|0,0:0|0:0,0:0:0:0:
345,0,42174,1,8,0:0:0:0:
305,162,42341,1,8,0:0:0:0:
470,137,42508,1,8,0:0:0:0:
354,52,42674,6,0,L|345:1,14,38,0|0|0|0|0|0|0|0|0|0|0|0|0|0|0,3:2|3:2|3:2|3:2|3:2|3:2|3:2|3:2|3:2|3:2|3:2|3:2|3:2|3:2|3:2,3:2:0:0:
280,71,43341,6,0,L|161:68,1,106.875004076958,2|0,0:2|2:2,0:0:0:0:
133,66,43674,6,0,P|146:117|121:174,1,95,4|2,0:1|0:0,0:0:0:0:
113,190,43924,1,2,0:0:0:0:
93,225,44008,1,2,0:0:0:0:
211,338,44174,1,2,0:0:0:0:
211,298,44258,1,2,0:0:0:0:
210,259,44341,1,10,0:0:0:0:
286,179,44508,1,2,0:3:0:0:
309,211,44591,1,2,0:0:0:0:
327,238,44674,6,0,B|366:233|366:233|389:219|389:219|435:214,1,95,0|0,3:2|0:0,0:0:0:0:
493,289,45008,1,8,0:2:0:0:
486,122,45174,1,2,0:0:0:0:
450,104,45258,1,2,0:0:0:0:
408,107,45341,1,2,0:0:0:0:
285,21,45508,1,2,0:0:0:0:
255,48,45591,1,2,0:0:0:0:
259,88,45674,1,10,0:0:0:0:
315,172,45841,1,2,0:3:0:0:
259,88,46008,6,0,P|220:93|162:54,1,95,4|0,3:1|0:0,0:0:0:0:
79,23,46341,1,8,0:2:0:0:
56,192,46508,1,2,0:0:0:0:
61,152,46591,1,2,0:0:0:0:
66,112,46674,1,2,0:0:0:0:
160,285,46841,1,2,0:0:0:0:
156,245,46924,1,2,0:0:0:0:
152,204,47008,1,10,0:0:0:0:
217,96,47174,1,2,0:3:0:0:
289,262,47341,5,2,3:2:0:0:
374,36,47508,2,0,L|366:98,1,47.5,2|2,0:3|0:3,0:0:0:0:
351,171,47674,1,10,0:0:0:0:
439,81,47841,6,0,L|429:154,1,64.1250002446175,2|2,0:3|0:3,0:0:0:0:
412,246,48008,1,2,0:0:0:0:
505,116,48174,6,0,L|495:200,1,80.750001540184,2|2,0:3|0:3,0:0:0:0:
477,317,48341,1,8,0:0:0:0:
351,171,48508,1,2,0:3:0:0:
292,341,48674,6,0,B|241:323|256:360|169:335,1,95,4|0,3:1|0:0,0:0:0:0:
67,147,49008,1,8,0:0:0:0:
140,296,49174,1,2,0:0:0:0:
172,271,49258,1,2,0:0:0:0:
212,269,49341,1,2,0:0:0:0:
351,171,49508,1,2,0:3:0:0:
311,170,49591,1,2,0:0:0:0:
279,145,49674,1,10,0:0:0:0:
158,81,49841,1,2,0:3:0:0:
176,116,49924,1,2,0:0:0:0:
168,156,50008,6,0,L|148:252,1,95,0|0,3:2|0:0,0:0:0:0:
237,336,50258,1,2,0:3:0:0:
237,336,50341,2,0,L|256:229,1,95,10|0,0:0|0:0,0:0:0:0:
291,152,50591,1,2,0:3:0:0:
291,152,50674,2,0,P|337:137|391:161,1,95,2|0,0:0|0:0,0:0:0:0:
453,263,51008,5,10,0:2:0:0:
426,292,51091,1,2,0:3:0:0:
386,302,51174,1,2,0:2:0:0:
346,291,51258,1,2,0:2:0:0:
322,274,51341,6,0,L|319:375,1,95,4|0,3:1|0:0,0:0:0:0:
249,203,51674,1,10,0:0:0:0:
67,300,51841,1,2,0:3:0:0:
106,297,51924,1,2,0:3:0:0:
146,295,52008,6,0,L|254:288,1,95,2|0,0:3|0:0,0:0:0:0:
100,213,52341,1,10,0:0:0:0:
239,27,52508,1,2,0:2:0:0:
241,66,52591,1,2,0:2:0:0:
243,108,52674,6,0,L|249:221,1,95,2|0,0:3|0:0,0:0:0:0:
314,70,52924,1,2,0:3:0:0:
314,70,53008,6,0,L|322:202,1,123.499994346619,10|2,0:2|0:3,0:0:0:0:
384,29,53258,1,2,0:0:0:0:
384,29,53341,6,0,L|394:185,1,152,2|2,0:3|0:2,0:0:0:0:
309,305,53591,1,0,0:0:0:0:
309,305,53674,6,0,P|290:310|304:256,2,114,6|2|2,0:2|0:3|0:2,0:0:0:0:
230,360,54008,6,0,P|196:313|194:264,1,95,4|0,0:0|0:0,0:0:0:0:
244,106,54341,1,8,0:2:0:0:
100,188,54508,1,2,0:3:0:0:
140,185,54591,1,2,0:0:0:0:
180,182,54674,1,10,0:0:0:0:
229,357,54841,1,2,0:3:0:0:
189,354,54924,1,2,0:0:0:0:
148,350,55008,1,10,0:2:0:0:
40,223,55174,1,2,0:3:0:0:
28,185,55258,1,2,0:0:0:0:
42,146,55341,6,0,L|47:42,1,95
120,260,55674,1,8,0:0:0:0:
172,102,55841,1,2,0:3:0:0:
176,142,55924,1,2,0:0:0:0:
180,182,56008,1,2,0:0:0:0:
280,50,56174,1,2,0:3:0:0:
278,91,56258,1,2,0:0:0:0:
276,131,56341,1,10,0:0:0:0:
365,316,56508,1,2,0:3:0:0:
281,224,56674,6,0,B|339:206|325:245|390:216,1,95,4|0,0:0|0:0,0:0:0:0:
436,133,57008,1,8,0:0:0:0:
301,293,57174,1,2,0:3:0:0:
287,331,57258,1,2,0:0:0:0:
300,369,57341,1,2,0:0:0:0:
352,158,57508,1,2,0:3:0:0:
363,120,57591,1,2,0:0:0:0:
347,83,57674,1,10,0:0:0:0:
206,154,57841,1,2,0:3:0:0:
273,2,58008,5,2,0:3:0:0:
83,77,58174,2,0,L|149:70,1,47.5,2|2,0:3|0:3,0:0:0:0:
207,61,58341,1,10,0:0:0:0:
352,158,58508,6,0,L|272:156,1,64.1250002446175,2|2,0:3|0:3,0:0:0:0:
206,154,58674,1,2,0:0:0:0:
107,282,58841,6,0,L|208:272,1,80.750001540184,2|2,0:3|0:3,0:0:0:0:
298,265,59008,1,10,0:0:0:0:
217,351,59174,1,2,0:0:0:0:
51,332,59341,6,0,P|31:285|47:237,1,95,6|0,0:0|0:0,0:0:0:0:
145,50,59674,1,8,0:0:0:0:
194,233,59841,1,2,0:3:0:0:
198,193,59924,1,2,0:0:0:0:
201,153,60008,1,2,0:0:0:0:
301,254,60174,1,2,0:3:0:0:
305,295,60258,1,2,0:0:0:0:
309,336,60341,1,10,0:0:0:0:
360,163,60508,1,2,0:3:0:0:
360,163,60591,1,2,0:0:0:0:
360,163,60674,6,0,L|281:32,1,152
311,239,60924,1,2,0:3:0:0:
324,250,61008,6,0,L|452:228,1,123.499994346619,10|0,0:0|0:0,0:0:0:0:
263,151,61258,1,2,0:3:0:0:
252,157,61341,6,0,L|222:249,1,95,2|0,0:0|0:0,0:0:0:0:
80,150,61674,1,10,0:2:0:0:
78,122,61758,1,2,0:3:0:0:
75,94,61841,1,2,0:2:0:0:
72,66,61924,1,2,0:2:0:0:
67,37,62008,6,0,B|153:11|123:60|216:31,1,142.5,4|0,0:0|0:0,0:0:0:0:
237,22,62341,1,2,0:0:0:0:
275,26,62424,1,2,0:3:0:0:
304,53,62508,1,2,0:0:0:0:
307,93,62591,1,2,0:3:0:0:
279,125,62674,5,8,0:0:0:0:
226,243,62841,1,0,0:0:0:0:
351,334,63008,1,2,0:0:0:0:
311,338,63091,1,2,0:3:0:0:
269,341,63174,1,2,0:0:0:0:
226,345,63258,1,2,0:3:0:0:
183,349,63341,5,10,0:0:0:0:
287,39,63508,1,10,0:0:0:0:
226,243,63674,1,10,0:0:0:0:
131,42,63841,1,10,0:0:0:0:
301,266,64008,1,10,0:0:0:0:
217,85,64174,1,10,0:0:0:0:
148,270,64341,1,10,0:0:0:0:
282,169,64508,1,10,0:0:0:0:
333,162,64591,1,10,0:0:0:0:
373,191,64674,6,0,P|322:188|268:158,1,95,6|0,0:0|0:0,0:0:0:0:
199,92,65008,1,8,0:0:0:0:
118,171,65174,1,0,0:3:0:0:
270,273,65341,2,0,L|276:164,1,95,2|0,0:2|0:0,0:0:0:0:
126,271,65674,2,0,L|135:373,1,95,10|0,0:0|0:0,0:0:0:0:
167,214,66008,6,0,P|124:201|75:223,1,95,2|0,3:2|0:0,0:0:0:0:
134,361,66341,1,8,0:0:0:0:
270,273,66508,1,0,0:0:0:0:
405,359,66674,2,0,L|417:260,1,95,2|0,0:2|0:0,0:0:0:0:
288,45,67008,2,0,L|304:157,1,95,10|0,0:0|0:0,0:0:0:0:
345,223,67341,5,2,3:2:0:0:
373,115,67508,1,0,0:0:0:0:
261,202,67674,1,10,0:0:0:0:
292,332,67841,1,0,0:0:0:0:
104,196,68008,5,2,0:0:0:0:
220,278,68174,1,0,0:0:0:0:
56,274,68341,1,10,0:0:0:0:
186,181,68508,1,0,0:0:0:0:
136,357,68674,6,0,P|146:287|136:242,1,95,2|0,3:2|0:0,0:0:0:0:
49,45,69008,2,0,P|39:115|49:160,1,95,8|0,0:0|0:0,0:0:0:0:
269,165,69341,1,2,0:0:0:0:
151,91,69508,1,0,0:0:0:0:
261,244,69674,1,10,0:0:0:0:
295,239,69758,1,0,0:0:0:0:
330,218,69841,1,0,0:0:0:0:
346,177,69924,1,0,0:0:0:0:
342,134,70008,6,0,P|349:175|381:219,1,95,6|0,0:0|0:0,0:0:0:0:
512,327,70341,1,8,0:0:0:0:
473,179,70508,1,0,0:0:0:0:
337,364,70674,2,0,L|327:259,1,95,2|0,0:0|0:0,0:0:0:0:
169,92,71008,2,0,L|164:192,1,95,10|0,0:0|0:0,0:0:0:0:
126,32,71341,6,0,P|157:19|220:37,1,95,2|0,3:2|0:0,0:0:0:0:
363,201,71674,1,8,0:0:0:0:
201,237,71841,1,0,0:0:0:0:
421,94,72008,2,0,P|345:95|325:84,1,95,2|0,0:0|0:0,0:0:0:0:
141,179,72341,2,0,P|197:154|235:161,1,95,10|0,0:0|0:0,0:0:0:0:
353,326,72674,5,2,3:2:0:0:
313,145,72841,1,0,0:0:0:0:
438,270,73008,1,10,0:0:0:0:
445,123,73174,1,0,0:0:0:0:
298,221,73341,5,2,0:0:0:0:
484,203,73508,1,0,0:0:0:0:
275,71,73674,1,10,0:0:0:0:
393,184,73841,1,0,0:0:0:0:
232,161,74008,6,0,B|180:146|200:183|125:165,1,95,2|0,3:2|0:0,0:0:0:0:
43,317,74341,2,0,B|95:302|75:339|150:321,1,95,10|0,0:0|0:0,0:0:0:0:
255,262,74674,1,2,0:0:0:0:
393,325,74841,1,8,0:0:0:0:
395,285,74924,1,8,0:0:0:0:
397,245,75008,1,10,0:0:0:0:
400,205,75091,1,8,0:0:0:0:
402,165,75174,1,8,0:0:0:0:
404,125,75258,1,8,0:0:0:0:
406,85,75341,6,0,L|305:94,1,95,6|0,0:0|0:0,0:0:0:0:
102,42,75674,1,8,0:0:0:0:
231,168,75841,1,0,0:0:0:0:
57,104,76008,2,0,P|116:114|155:95,1,95,2|0,0:0|0:0,0:0:0:0:
272,232,76341,2,0,P|216:242|179:222,1,95,10|0,0:0|0:0,0:0:0:0:
347,180,76674,6,0,L|345:294,1,95,2|0,3:2|0:0,0:0:0:0:
453,371,77008,1,8,0:0:0:0:
491,234,77174,1,0,0:0:0:0:
393,129,77341,2,0,P|344:110|296:134,1,95,2|0,0:0|0:0,0:0:0:0:
139,311,77674,2,0,P|188:330|236:306,1,95,10|0,0:0|0:0,0:0:0:0:
221,72,78008,5,2,3:2:0:0:
345,274,78174,1,0,0:0:0:0:
184,260,78341,1,10,0:0:0:0:
347,180,78508,1,0,0:0:0:0:
185,165,78674,5,2,0:0:0:0:
307,50,78841,1,0,0:0:0:0:
264,238,79008,1,10,0:0:0:0:
143,42,79174,1,0,0:0:0:0:
71,214,79341,6,0,L|66:104,1,95,2|0,3:2|0:0,0:0:0:0:
184,260,79674,2,0,L|186:152,1,95,8|0,0:0|0:0,0:0:0:0:
230,44,80008,1,2,0:0:0:0:
338,112,80174,1,0,0:0:0:0:
446,42,80341,1,10,0:0:0:0:
464,78,80424,1,0,0:0:0:0:
470,118,80508,1,0,0:0:0:0:
460,157,80591,1,0,0:0:0:0:
436,189,80674,6,0,L|436:294,1,95,6|0,0:0|0:0,0:0:0:0:
286,352,81008,1,8,0:0:0:0:
429,366,81174,1,0,0:0:0:0:
288,262,81341,2,0,B|241:245|241:245|193:264,1,95,2|0,0:0|0:0,0:0:0:0:
23,346,81674,2,0,B|70:368|70:368|126:343,1,95,10|0,0:0|0:0,0:0:0:0:
199,261,82008,6,0,P|216:205|193:157,1,95,2|0,3:2|0:0,0:0:0:0:
28,50,82341,1,8,0:0:0:0:
101,216,82508,1,0,0:0:0:0:
174,53,82674,2,0,L|273:56,1,95,2|0,0:0|0:0,0:0:0:0:
429,173,83008,2,0,L|322:181,1,95,10|0,0:0|0:0,0:0:0:0:
230,122,83341,5,10,3:2:0:0:
381,300,83508,1,8,0:0:0:0:
362,43,83674,1,10,0:0:0:0:
228,230,83841,1,8,0:0:0:0:
422,372,84008,5,10,3:2:0:0:
334,180,84174,1,8,0:0:0:0:
222,342,84341,1,10,0:0:0:0:
276,90,84508,1,8,0:0:0:0:
231,229,84674,6,0,B|145:268|145:197|45:245,1,190,10|8,3:2|0:0,0:0:0:0:
105,316,85174,1,2,3:2:0:0:
187,156,85341,2,0,L|192:128,14,23.75,0|0|0|0|0|0|0|0|0|0|0|0|0|0|0,3:0|3:0|3:0|3:0|3:0|3:0|3:0|3:0|3:0|3:0|3:0|3:0|3:0|3:0|3:0,2:2:0:0:
205,56,86008,5,6,0:0:0:0:
218,39,87841,5,2,0:0:0:0:
412,199,88174,1,2,0:0:0:0:
389,279,88341,1,2,0:0:0:0:
310,252,88508,1,2,0:0:0:0:
334,174,88674,5,2,0:2:0:0:
334,175,90508,5,2,0:2:0:0:
153,267,90841,1,2,0:2:0:0:
100,205,91008,1,2,0:2:0:0:
136,133,91174,1,2,0:2:0:0:
74,83,91341,5,2,0:2:0:0:
71,81,93174,5,2,0:2:0:0:
272,46,93508,1,2,0:2:0:0:
340,89,93674,1,2,0:2:0:0:
267,126,93841,1,2,0:2:0:0:
340,89,94008,5,2,0:2:0:0:
340,86,95841,5,2,0:2:0:0:
399,273,96174,1,2,0:2:0:0:
319,283,96341,1,2,0:2:0:0:
239,292,96508,1,2,0:2:0:0:
156,300,96674,5,2,0:2:0:0:
78,201,97008,1,8,0:0:0:0:
81,182,97091,1,0,3:0:0:0:
85,163,97174,1,0,3:0:0:0:
202,78,97341,2,0,P|207:119|260:109,1,106.875004076958,2|0,0:2|0:0,0:0:0:0:
261,39,97674,2,0,B|331:62|331:18|413:41,1,142.5,8|0,0:1|0:0,0:0:0:0:
460,72,98008,5,2,3:2:0:0:
402,192,98341,1,8,0:2:0:0:
397,213,98424,1,0,3:0:0:0:
405,232,98508,1,0,3:0:0:0:
419,333,98674,2,0,P|379:317|345:320,1,71.2500027179719,2|0,0:2|0:0,0:0:0:0:
283,351,99008,1,0,3:2:0:0:
208,299,99174,1,0,3:2:0:0:
103,354,99341,5,2,0:2:0:0:
54,240,99674,1,0,3:0:0:0:
59,215,99757,1,0,3:0:0:0:
54,196,99841,1,8,0:0:0:0:
153,161,100008,1,2,0:0:0:0:
236,64,100174,5,2,0:0:0:0:
231,89,100258,1,0,3:0:0:0:
236,108,100341,1,8,0:1:0:0:
246,207,100508,1,0,3:0:0:0:
251,233,100591,1,0,3:0:0:0:
244,257,100674,1,2,0:0:0:0:
338,322,100841,5,0,3:0:0:0:
373,318,100924,1,0,3:0:0:0:
408,314,101008,1,10,0:2:0:0:
472,220,101174,1,2,0:0:0:0:
368,156,101341,5,0,3:0:0:0:
365,141,101424,1,0,3:0:0:0:
362,128,101508,1,0,3:0:0:0:
358,115,101591,1,0,3:0:0:0:
355,100,101674,5,8,3:1:0:0:
316,74,101758,1,2,3:2:0:0:
270,76,101841,1,2,3:2:0:0:
236,108,101924,1,2,3:2:0:0:
230,149,102008,5,4,3:2:0:0:
146,345,102341,1,8,0:0:0:0:
29,249,102508,1,2,3:2:0:0:
29,222,102591,1,2,3:2:0:0:
28,196,102674,1,0,3:0:0:0:
112,13,102841,1,2,3:2:0:0:
188,190,103008,1,8,0:1:0:0:
29,97,103174,1,2,0:3:0:0:
212,73,103341,5,0,3:0:0:0:
322,234,103674,1,8,0:0:0:0:
398,58,103841,1,2,3:2:0:0:
416,81,103924,1,2,3:2:0:0:
413,110,104008,1,2,3:2:0:0:
413,264,104174,1,2,0:0:0:0:
322,139,104341,1,8,0:1:0:0:
468,187,104508,1,2,3:3:0:0:
322,234,104674,5,4,3:2:0:0:
236,242,104841,1,0,3:0:0:0:
48,162,105008,5,8,0:1:0:0:
134,153,105174,1,0,3:0:0:0:
150,335,105341,5,8,0:1:0:0:
142,247,105508,1,0,3:0:0:0:
221,59,105674,5,8,0:1:0:0:
229,145,105841,1,0,3:0:0:0:
400,350,106008,5,8,3:1:0:0:
236,242,106174,1,0,3:2:0:0:
449,291,106341,5,8,3:1:0:0:
213,362,106508,1,0,3:2:0:0:
304,267,106674,5,8,0:1:0:0:
311,245,106758,1,8,0:1:0:0:
315,223,106841,1,8,0:1:0:0:
315,200,106924,1,8,0:1:0:0:
310,178,107008,1,8,0:1:0:0:
303,156,107091,1,8,0:1:0:0:
300,133,107174,1,8,0:1:0:0:
302,111,107258,1,8,0:1:0:0:
307,86,107341,6,0,L|416:78,1,95,4|0,0:2|0:0,0:0:0:0:
487,175,107674,2,0,L|383:170,1,95,8|0,0:2|0:0,0:0:0:0:
264,12,108008,1,0,3:0:0:0:
401,79,108174,1,0,0:0:0:0:
218,154,108341,2,0,P|165:170|124:149,1,95,8|0,0:2|0:0,0:0:0:0:
173,4,108674,6,0,B|171:33|171:33|177:67|177:67|173:106,1,95,0|0,3:2|0:0,0:0:0:0:
154,254,109008,1,8,0:2:0:0:
322,207,109174,2,0,B|314:242|314:242|327:310|327:310|312:355,1,142.5,2|0,0:0|0:0,0:0:0:0:
245,347,109508,2,0,L|239:280,1,47.5,2|0,0:0|0:0,0:0:0:0:
154,301,109674,2,0,L|154:240,1,47.5,10|0,0:2|0:0,0:0:0:0:
62,350,109841,2,0,L|68:283,1,47.5,2|0,0:0|0:0,0:0:0:0:
322,207,110008,6,0,L|427:200,1,95,2|0,3:2|0:0,0:0:0:0:
338,94,110341,2,0,L|228:91,1,95,8|0,0:0|0:0,0:0:0:0:
94,151,110674,1,0,3:0:0:0:
249,183,110841,1,0,0:0:0:0:
142,69,111008,1,8,0:0:0:0:
159,230,111174,1,0,3:0:0:0:
243,91,111341,6,0,L|338:94,1,95,0|0,3:2|0:0,0:0:0:0:
416,199,111674,1,8,0:0:0:0:
384,17,111841,2,0,L|227:20,1,142.5,2|0,3:2|0:0,0:0:0:0:
162,28,112174,2,0,P|144:45|133:67,1,47.5,2|0,0:0|0:0,0:0:0:0:
199,178,112341,2,0,P|179:155|159:142,1,47.5,2|0,0:0|0:0,0:0:0:0:
37,140,112508,2,0,P|64:137|102:120,1,47.5,10|0,0:2|0:0,0:0:0:0:
162,28,112674,6,0,P|208:20|253:39,1,95,6|0,0:0|0:0,0:0:0:0:
454,225,113008,2,0,P|408:233|363:214,1,95,8|0,0:0|0:0,0:0:0:0:
330,81,113341,1,0,3:0:0:0:
411,152,113508,1,0,3:0:0:0:
297,177,113674,2,0,L|189:186,1,95,8|0,0:0|0:0,0:0:0:0:
41,66,114008,6,0,L|149:70,1,95,0|0,3:2|0:0,0:0:0:0:
16,183,114341,1,8,0:0:0:0:
130,353,114508,2,0,B|154:282|154:282|139:216,1,142.5,2|0,3:2|0:0,0:0:0:0:
64,237,114841,2,0,L|74:286,1,47.5,2|0,3:2|0:0,0:0:0:0:
131,354,115008,2,0,L|178:347,1,47.5,10|0,0:0|0:0,0:0:0:0:
251,297,115174,2,0,L|311:302,1,47.5,2|0,3:2|0:0,0:0:0:0:
366,261,115341,6,0,P|374:205|349:149,1,95,2|0,3:2|3:0,0:0:0:0:
216,201,115674,1,8,0:2:0:0:
179,94,115841,1,0,3:0:0:0:
226,99,115924,1,0,3:0:0:0:
274,103,116008,2,0,L|369:96,1,95,8|0,0:1|0:1,0:0:0:0:
453,142,116341,1,8,0:2:0:0:
481,243,116508,1,0,3:0:0:0:
481,243,116591,1,0,3:0:0:0:
481,243,116674,5,8,0:1:0:0:
313,277,116841,1,0,3:0:0:0:
468,343,117008,1,8,0:1:0:0:
380,202,117174,1,0,3:0:0:0:
369,363,117341,1,8,0:1:0:0:
224,319,117508,1,2,0:2:0:0:
215,288,117591,1,2,0:2:0:0:
212,256,117674,1,8,0:1:0:0:
218,225,117758,1,2,0:2:0:0:
224,194,117841,1,2,0:2:0:0:
221,162,117924,1,2,0:2:0:0:
211,133,118008,6,0,B|166:117|166:117|114:134,1,95,4|0,0:0|0:0,0:0:0:0:
51,222,118341,2,0,B|96:238|96:238|148:221,1,95,8|0,0:0|0:0,0:0:0:0:
307,132,118674,2,0,P|325:77|322:28,1,95,0|0,3:0|0:0,0:0:0:0:
421,131,119008,2,0,P|421:187|439:229,1,95,8|0,0:0|0:0,0:0:0:0:
485,354,119341,5,0,3:0:0:0:
330,257,119508,1,0,3:0:0:0:
509,271,119674,1,8,0:0:0:0:
343,336,119841,2,0,B|257:360|288:310|198:337,1,142.5,2|0,0:0|0:0,0:0:0:0:
132,348,120174,1,2,0:0:0:0:
64,201,120341,1,10,0:0:0:0:
234,220,120508,1,2,0:0:0:0:
117,257,120674,6,0,P|139:205|86:127,1,142.5,0|0,3:0|0:0,0:0:0:0:
64,201,121008,1,8,0:0:0:0:
177,28,121174,2,0,P|170:80|240:134,1,142.5,2|0,0:0|0:0,0:0:0:0:
243,60,121508,1,0,3:0:0:0:
377,15,121674,6,0,B|394:68|394:68|365:153,1,142.5,10|0,0:0|0:0,0:0:0:0:
335,214,122008,1,0,3:0:0:0:
365,381,122174,1,0,3:0:0:0:
254,254,122341,1,8,0:0:0:0:
490,249,122508,2,0,B|440:256|440:256|410:296|410:296|346:312,1,142.5,2|0,0:0|0:0,0:0:0:0:
299,326,122841,1,2,0:0:0:0:
126,347,123008,1,2,0:0:0:0:
97,344,123091,1,2,0:0:0:0:
67,343,123174,1,2,0:0:0:0:
37,340,123258,1,2,0:0:0:0:
9,338,123341,6,0,L|26:229,1,95,4|0,3:2|0:0,0:0:0:0:
114,138,123674,1,8,0:0:0:0:
189,224,123841,2,0,P|256:220|285:195,1,95,2|0,0:0|3:0,0:0:0:0:
265,29,124174,1,2,3:2:0:0:
212,129,124341,1,10,0:0:0:0:
269,18,124508,1,2,0:0:0:0:
218,147,124674,6,0,P|271:147|330:142,1,95,2|0,3:2|0:0,0:0:0:0:
423,28,125008,1,8,0:0:0:0:
476,140,125174,2,0,P|488:185|474:243,1,95,2|0,3:0|3:0,3:0:0:0:
357,328,125508,1,2,3:2:0:0:
358,169,125674,1,10,0:0:0:0:
459,335,125841,1,2,0:0:0:0:
286,236,126008,6,0,L|176:241,1,95,8|2,0:1|0:0,0:0:0:0:
175,262,126258,1,2,0:0:0:0:
182,292,126341,1,8,0:1:0:0:
370,232,126508,1,2,0:0:0:0:
235,128,126674,2,0,L|174:140,1,47.5,8|0,0:1|0:0,0:0:0:0:
264,43,126841,2,0,L|215:8,1,47.5,2|0,0:2|0:0,0:0:0:0:
349,40,127008,2,0,L|382:-2,1,47.5,2|0,0:0|0:0,0:0:0:0:
378,123,127174,2,0,L|439:135,1,47.5,2|0,0:0|0:0,0:0:0:0:
309,186,127341,5,8,0:1:0:0:
351,357,127508,1,0,3:0:0:0:
378,123,127674,1,8,0:1:0:0:
355,338,127841,1,2,0:0:0:0:
459,104,128008,1,2,0:0:0:0:
429,283,128174,5,2,1:2:0:0:
395,265,128258,1,2,1:2:0:0:
359,254,128341,1,2,1:2:0:0:
322,261,128424,1,2,1:2:0:0:
287,277,128508,1,2,1:2:0:0:
250,281,128591,1,2,1:2:0:0:
213,274,128674,5,4,1:0:0:0:
121,128,128841,1,2,0:0:0:0:
164,103,128924,1,2,0:0:0:0:
214,104,129008,1,10,0:0:0:0:
458,35,129174,6,0,P|430:91|310:68,1,185.249991519928
379,31,129508,1,0,0:0:0:0:
512,106,129674,1,8,0:0:0:0:
383,184,129841,1,2,0:3:0:0:
379,31,130008,5,0,1:0:0:0:
470,179,130174,1,2,0:0:0:0:
494,223,130258,1,2,0:0:0:0:
474,268,130341,1,10,0:0:0:0:
279,292,130508,6,0,B|191:324|197:252|92:303,1,185.249991519928,2|0,0:3|0:0,0:0:0:0:
159,370,130841,2,0,P|204:322|207:300,1,61.7499971733095,2|2,0:3|0:3,0:0:0:0:
239,213,131008,2,0,P|240:166|221:133,1,61.7499971733095,10|0,0:0|0:0,0:0:0:0:
159,63,131174,2,0,P|134:53|98:53,1,61.7499971733095,2|2,0:3|0:3,0:0:0:0:
265,70,131341,5,0,1:0:0:0:
71,194,131508,1,2,0:0:0:0:
120,191,131591,1,2,0:0:0:0:
169,187,131674,1,10,0:0:0:0:
358,251,131841,6,0,P|313:202|377:112,1,185.249991519928,2|0,0:2|0:0,0:0:0:0:
385,184,132174,1,2,0:2:0:0:
265,332,132341,1,10,0:2:0:0:
232,151,132508,1,2,0:3:0:0:
260,360,132674,5,0,1:0:0:0:
444,220,132841,1,2,0:3:0:0:
407,252,132924,1,2,0:0:0:0:
358,251,133008,1,10,0:0:0:0:
241,18,133174,2,0,B|248:83|248:83|231:124|231:124|240:198,1,185.249991519928,2|0,0:3|0:0,0:0:0:0:
251,266,133508,1,2,0:3:0:0:
330,129,133674,2,0,P|321:79|324:58,1,61.7499971733095,10|0,0:0|0:0,0:0:0:0:
152,119,133841,2,0,P|161:169|158:190,1,61.7499971733095,2|2,0:3|0:3,0:0:0:0:
134,280,134008,5,4,1:2:0:0:
30,187,134174,1,2,0:0:0:0:
18,141,134258,1,2,0:0:0:0:
45,104,134341,1,10,0:0:0:0:
63,307,134508,6,0,P|144:356|206:297,1,185.249991519928,2|0,0:0|0:0,0:0:0:0:
134,280,134841,1,2,0:0:0:0:
258,192,135008,1,10,0:0:0:0:
279,351,135174,1,2,0:3:0:0:
164,159,135341,5,0,1:0:0:0:
405,273,135508,1,2,0:0:0:0:
355,269,135591,1,2,0:0:0:0:
306,265,135674,1,10,0:0:0:0:
255,85,135841,6,0,L|441:73,1,185.249991519928,2|0,0:3|0:0,0:0:0:0:
511,68,136174,1,2,0:3:0:0:
375,8,136341,2,0,L|314:12,1,61.7499971733095,10|0,0:0|0:0,0:0:0:0:
325,150,136508,2,0,L|387:146,1,61.7499971733095,2|0,0:3|0:0,0:0:0:0:
511,68,136674,5,0,1:0:0:0:
483,221,136841,1,2,0:3:0:0:
452,258,136924,1,2,0:0:0:0:
405,273,137008,1,10,0:0:0:0:
256,332,137174,6,0,P|286:273|207:197,1,185.249991519928,2|0,0:0|0:0,0:0:0:0:
209,273,137508,1,2,0:3:0:0:
135,122,137674,1,10,0:0:0:0:
46,283,137841,1,2,0:0:0:0:
25,238,137924,1,2,0:0:0:0:
44,192,138008,5,0,1:0:0:0:
135,122,138174,1,2,0:0:0:0:
255,83,138341,1,10,0:0:0:0:
275,82,138424,1,2,0:0:0:0:
299,81,138508,1,2,0:0:0:0:
464,139,138674,5,2,0:0:0:0:
409,150,138758,1,2,0:0:0:0:
382,198,138841,1,2,0:3:0:0:
397,251,138924,1,2,0:3:0:0:
434,293,139008,2,0,P|453:252|448:222,1,61.7499971733095,10|10,0:0|0:0,0:0:0:0:
409,150,139174,2,0,P|381:112|349:102,1,61.7499971733095,2|2,1:3|1:3,0:0:0:0:
275,84,139341,5,4,1:2:0:0:
166,286,139508,1,2,0:0:0:0:
175,237,139591,1,2,0:0:0:0:
152,193,139674,1,10,0:0:0:0:
32,125,139841,6,0,P|104:136|144:27,1,185.249991519928,2|0,0:3|0:0,0:0:0:0:
80,68,140174,1,2,0:2:0:0:
216,141,140341,1,8,0:0:0:0:
82,221,140508,1,2,0:3:0:0:
216,24,140674,5,0,1:0:0:0:
320,270,140841,1,2,1:2:0:0:
326,218,140924,1,2,0:2:0:0:
335,169,141008,1,10,0:2:0:0:
459,40,141174,6,0,B|395:46|395:46|345:69|345:69|274:74,1,185.249991519928,2|0,0:3|0:0,0:0:0:0:
207,62,141508,2,0,P|158:60|132:49,1,61.7499971733095,2|2,0:3|0:3,0:0:0:0:
54,53,141674,2,0,P|74:85|73:121,1,61.7499971733095,10|0,0:0|0:0,0:0:0:0:
121,194,141841,2,0,P|142:157|180:139,1,61.7499971733095,2|2,0:3|0:3,0:0:0:0:
308,310,142008,6,0,P|272:347|196:346,1,123.499994346619,0|2,1:0|0:0,0:0:0:0:
164,334,142258,1,2,0:0:0:0:
122,316,142341,1,10,0:0:0:0:
229,144,142508,6,0,B|191:218|230:269|230:269|246:239|232:218,1,185.249991519928,2|0,1:3|0:0,0:0:0:0:
232,219,142841,1,2,0:0:0:0:
203,349,143008,2,0,P|252:353|315:296,1,123.499994346619,2|0,1:3|0:0,0:0:0:0:
308,310,143258,1,2,0:0:0:0:
308,310,143341,5,0,1:0:0:0:
403,229,143508,1,0,1:0:0:0:
330,107,143674,1,10,0:0:0:0:
329,87,143758,1,2,0:0:0:0:
328,68,143841,1,2,0:3:0:0:
407,242,144008,1,2,1:2:0:0:
238,154,144174,1,2,1:2:0:0:
217,144,144258,1,2,1:2:0:0:
190,130,144341,2,0,L|126:136,1,61.7499971733095,2|0,1:3|0:0,0:0:0:0:
37,238,144508,2,0,L|110:241,1,61.7499971733095,2|2,1:2|1:2,0:0:0:0:
178,242,144674,5,4,1:0:0:0:
306,342,144841,1,0,1:0:0:0:
329,87,145008,1,8,0:0:0:0:
423,270,145174,1,2,0:0:0:0:
381,243,145258,1,2,0:0:0:0:
329,244,145341,1,2,1:3:0:0:
234,339,145508,6,0,L|238:273,1,61.7499971733095,2|0,1:3|0:0,0:0:0:0:
329,87,145674,2,0,L|325:160,1,61.7499971733095,8|0,0:0|0:0,0:0:0:0:
128,135,145841,2,0,L|197:140,1,61.7499971733095,2|0,1:3|0:0,0:0:0:0:
255,192,146008,5,2,1:3:0:0:
236,14,146174,1,2,1:3:0:0:
407,81,146341,1,10,0:0:0:0:
129,135,146508,1,2,1:3:0:0:
178,128,146591,1,2,0:0:0:0:
218,98,146674,1,2,1:2:0:0:
41,109,146841,6,0,L|43:185,1,61.7499971733095,2|2,1:3|1:3,0:0:0:0:
134,342,147008,2,0,L|136:265,1,61.7499971733095,8|0,0:0|0:0,0:0:0:0:
54,122,147174,2,0,L|56:198,1,61.7499971733095,2|0,1:3|1:0,0:0:0:0:
148,352,147341,5,2,1:3:0:0:
353,323,147508,1,2,1:3:0:0:
347,269,147591,1,2,1:2:0:0:
338,215,147674,1,10,1:2:0:0:
196,27,147841,1,2,1:3:0:0:
270,260,148008,1,2,1:3:0:0:
418,18,148174,1,8,1:2:0:0:
156,185,148341,1,8,1:2:0:0:
413,214,148508,1,2,1:3:0:0:
186,40,148674,5,10,1:2:0:0:
339,286,148841,1,10,1:2:0:0:
157,233,149008,1,10,1:2:0:0:
306,120,149174,1,10,1:2:0:0:
426,221,149341,5,10,0:0:0:0:
409,165,149424,1,10,0:0:0:0:
364,126,149508,1,10,0:0:0:0:
306,120,149591,1,10,0:0:0:0:
260,156,149674,1,10,0:0:0:0:
229,206,149758,1,10,0:0:0:0:
179,236,149841,1,10,0:0:0:0:
121,229,149924,1,10,0:0:0:0:
81,186,150010,5,4,0:0:0:0:
347,48,151434,1,2,0:0:0:0:
355,73,151524,1,2,0:0:0:0:
353,99,151641,1,2,0:0:0:0:
279,202,152277,1,2,0:0:0:0:
254,328,152487,6,0,P|277:262|277:193,1,130.625,2|2,0:0|0:0,0:0:0:0:
218,128,153189,1,2,0:0:0:0:
157,201,153405,5,2,0:0:0:0:
122,113,153643,1,2,0:0:0:0:
185,45,153906,2,0,L|274:48,1,83.125,2|0,0:0|0:0,0:0:0:0:
326,133,154436,2,0,L|418:124,1,83.125,2|0,0:0|0:0,0:0:0:0:
468,50,155015,1,2,0:0:0:0:
509,132,155352,1,2,0:0:0:0:
450,202,155689,6,0,L|458:246,2,39.5833333333333,2|2|2,0:0|0:0|0:0,0:0:0:0:
256,192,155989,12,0,158989,0:0:0:0:
