osu file format v14

[General]
AudioFilename: audio.mp3
AudioLeadIn: 0
PreviewTime: 22413
Countdown: 0
SampleSet: Soft
StackLeniency: 0.3
Mode: 0
LetterboxInBreaks: 0
WidescreenStoryboard: 1

[Editor]
Bookmarks: 65538,70640
DistanceSpacing: 0.9
BeatDivisor: 4
GridSize: 4
TimelineZoom: 1.7

[Metadata]
Title:Nanatsu Issenzakura
TitleUnicode:七つ一旋桜
Artist:A.SAKA
ArtistUnicode:A.SAKA
Creator:yf_bmp
Version:imouto's Extra
Source:
Tags:sakura seven rotating revolving rotate revolve cherry blossom 木製みゅーと Mokuse Mute 神楽ノ花 Kagura no Hana imoutosan Fushimi Rio Syameimaru-Aya Gust Moecho Pata-Mon
BeatmapID:1092646
BeatmapSetID:513731

[Difficulty]
HPDrainRate:8
CircleSize:3.8
OverallDifficulty:8
ApproachRate:9.3
SliderMultiplier:1.8
SliderTickRate:1

[Events]
//Background and Video events
0,0,"BG.jpg",0,0
//Break Periods
2,45025,55434
//Storyboard Layer 0 (Background)
//Storyboard Layer 1 (Fail)
//Storyboard Layer 2 (Pass)
//Storyboard Layer 3 (Foreground)
//Storyboard Sound Samples

[TimingPoints]
175,348.837209302326,4,2,15,45,1,0
523,-100,4,2,15,50,0,0
872,-100,4,2,15,55,0,0
1221,-100,4,2,15,60,0,0
2268,-100,4,2,15,55,0,0
2616,-100,4,2,15,50,0,0
2965,-100,4,2,15,45,0,0
3314,-100,4,2,15,50,0,0
3663,-100,4,2,15,55,0,0
4012,-100,4,2,15,60,0,0
5058,-100,4,2,15,55,0,0
5407,-100,4,2,15,50,0,0
5756,-100,4,2,15,45,0,0
6105,-100,4,2,15,50,0,0
6454,-100,4,2,15,55,0,0
6802,-100,4,2,15,60,0,0
7849,-100,4,2,15,55,0,0
8198,-100,4,2,15,50,0,0
8547,-100,4,2,15,45,0,0
8895,-100,4,2,15,50,0,0
9070,-100,4,2,15,55,0,0
9244,-100,4,2,15,60,0,0
9593,-100,4,2,15,55,0,0
9942,-100,4,2,15,50,0,0
10814,-200,4,2,15,55,0,0
11337,-200,4,2,15,60,0,0
16919,-200,4,2,15,70,0,0
18314,-200,4,2,15,60,0,0
19709,-200,4,2,15,50,0,0
21454,-200,4,2,15,55,0,0
21802,-200,4,2,15,60,0,0
22500,-100,4,2,16,80,0,1
30872,-100,4,2,16,60,0,1
32268,-100,4,2,16,70,0,0
33663,-100,4,2,16,80,0,1
44128,-100,4,2,15,30,0,1
44215,-100,4,2,15,35,0,1
44302,-100,4,2,15,40,0,1
44390,-100,4,2,15,50,0,1
44477,-100,4,2,15,60,0,1
44651,-100,4,2,15,70,0,1
44826,-200,4,2,15,60,0,0
64361,-133.333333333333,4,2,15,60,0,0
67151,-50,4,2,15,60,0,0
67413,-100,4,2,15,60,0,0
67675,-133.333333333333,4,2,15,60,0,0
68547,-50,4,2,15,60,0,0
68808,-100,4,2,15,60,0,0
69070,-133.333333333333,4,2,15,60,0,0
72733,-50,4,2,15,60,0,0
72994,-100,4,2,15,60,0,0
78314,-50,4,2,15,60,0,0
78576,-100,4,2,15,60,0,0
78837,-133.333333333333,4,2,15,60,0,0
79709,-50,4,2,15,60,0,0
79971,-100,4,2,15,60,0,0
80233,-133.333333333333,4,2,15,60,0,0
81105,-100,4,2,15,60,0,0
89477,-100,4,2,16,80,0,1
93663,-66.6666666666667,4,2,16,80,0,1
99244,-66.6666666666667,4,2,16,80,0,0
100640,-100,4,2,16,80,0,1
104826,-66.6666666666667,4,2,16,80,0,1
111628,-133.333333333333,4,2,16,70,0,0

[Colours]
Combo1 : 255,255,255
Combo2 : 128,255,128
Combo3 : 255,128,128
Combo4 : 128,128,255

[HitObjects]
104,312,175,5,0,0:0:0:0:
334,223,523,1,2,0:0:0:0:
308,187,698,1,0,0:0:0:0:
265,201,872,1,0,0:0:0:0:
265,246,1047,1,0,0:0:0:0:
308,260,1221,1,0,0:0:0:0:
153,69,1570,5,4,0:0:0:0:
308,260,1919,1,0,0:0:0:0:
334,223,2093,1,0,0:0:0:0:
308,187,2268,1,2,0:0:0:0:
265,201,2442,1,0,0:0:0:0:
265,246,2616,1,0,0:0:0:0:
400,39,2965,5,0,0:0:0:0:
265,246,3314,1,2,0:0:0:0:
308,260,3488,1,0,0:0:0:0:
334,223,3663,1,0,0:0:0:0:
308,187,3837,1,0,0:0:0:0:
265,201,4012,1,0,0:0:0:0:
504,264,4361,5,4,0:0:0:0:
265,201,4709,1,0,0:0:0:0:
308,187,4884,1,0,0:0:0:0:
334,223,5058,1,2,0:0:0:0:
308,260,5233,1,0,0:0:0:0:
265,246,5407,1,2,0:0:0:0:
265,201,5581,1,0,0:0:0:0:
380,280,5756,5,4,0:1:0:0:
221,62,6105,1,2,0:0:0:0:
194,99,6279,1,0,0:0:0:0:
221,134,6454,1,0,0:0:0:0:
264,121,6628,1,0,0:0:0:0:
263,77,6802,1,0,0:0:0:0:
108,296,7151,5,4,0:0:0:0:
263,77,7500,1,0,0:0:0:0:
221,62,7675,1,0,0:0:0:0:
194,99,7849,1,2,0:0:0:0:
221,134,8023,1,0,0:0:0:0:
264,121,8198,1,0,0:0:0:0:
8,42,8547,5,0,0:0:0:0:
264,121,8895,1,2,0:0:0:0:
263,77,9070,1,0,0:0:0:0:
221,62,9244,1,0,0:0:0:0:
196,99,9593,21,0,0:0:0:0:
221,134,9942,5,4,0:0:0:0:
194,172,10291,5,0,0:0:0:0:
152,160,10640,21,0,0:0:0:0:
153,113,10814,2,0,L|231:87,2,45
80,140,11337,6,0,L|37:154,2,45,2|0|0,0:0|0:0|0:0,0:0:0:0:
153,113,11861,1,0,0:0:0:0:
105,220,12035,6,0,L|74:280,2,45,2|0|0,0:0|0:0|0:0,0:0:0:0:
153,113,12558,1,0,0:0:0:0:
179,258,12733,21,4,0:0:0:0:
153,113,12907,1,0,0:0:0:0:
152,92,12994,1,0,0:0:0:0:
156,72,13081,1,2,0:0:0:0:
192,180,13256,1,0,0:0:0:0:
404,56,13430,5,2,0:0:0:0:
405,180,13605,1,0,0:0:0:0:
298,240,13779,1,0,0:0:0:0:
192,180,13954,1,0,0:0:0:0:
191,56,14128,6,0,L|239:83,1,45,2|0,0:0|0:0,0:0:0:0:
298,240,14477,2,0,L|346:267,1,45
152,78,14826,22,0,L|200:49,1,45,2|0,0:0|0:0,0:0:0:0:
259,262,15175,2,0,L|307:233,1,45
359,80,15523,5,4,0:0:0:0:
268,133,15698,1,0,0:0:0:0:
178,187,15872,1,2,0:0:0:0:
87,240,16047,1,0,0:0:0:0:
72,7,16221,5,0,0:0:0:0:
125,97,16395,1,0,0:0:0:0:
178,187,16570,1,2,0:0:0:0:
231,278,16744,1,0,0:0:0:0:
268,133,16919,5,4,0:1:0:0:
359,80,18314,1,0,0:0:0:0:
449,26,19709,5,0,0:0:0:0:
359,80,20407,1,0,0:0:0:0:
268,133,21105,5,4,1:0:0:0:
76,68,21279,1,2,0:0:0:0:
256,0,21454,5,0,0:0:0:0:
178,231,21628,1,2,0:0:0:0:
37,55,21802,5,4,0:1:0:0:
306,145,21977,1,0,0:0:0:0:
306,145,22064,1,2,0:0:0:0:
306,145,22151,1,2,0:0:0:0:
96,328,22326,1,2,0:0:0:0:
174,97,22500,5,4,0:1:0:0:
279,244,22675,1,0,0:0:0:0:
351,219,22762,1,0,0:0:0:0:
293,169,22849,1,0,0:0:0:0:
276,384,23023,1,0,0:0:0:0:
483,212,23198,5,8,0:0:0:0:
308,166,23372,1,0,0:0:0:0:
269,232,23459,1,0,0:0:0:0:
345,232,23547,1,0,0:0:0:0:
221,57,23721,1,0,0:0:0:0:
171,323,23895,5,4,0:0:0:0:
336,244,24070,1,0,0:0:0:0:
323,169,24157,1,0,0:0:0:0:
264,217,24244,1,0,0:0:0:0:
472,271,24419,1,0,0:0:0:0:
142,267,24593,5,8,0:0:0:0:
336,176,24768,1,0,0:0:0:0:
322,251,24855,1,8,0:0:0:0:
264,202,24942,1,0,0:0:0:0:
339,36,25116,1,8,0:0:0:0:
470,269,25291,5,0,0:0:0:0:
322,168,25465,1,0,0:0:0:0:
264,217,25552,1,0,0:0:0:0:
335,243,25640,1,0,0:0:0:0:
277,35,25814,1,0,0:0:0:0:
220,360,25988,5,8,0:0:0:0:
345,232,26163,1,0,0:0:0:0:
306,166,26250,1,0,0:0:0:0:
269,231,26337,1,0,0:0:0:0:
484,210,26512,1,0,0:0:0:0:
200,156,26686,5,4,0:0:0:0:
396,224,26861,2,0,L|440:240,1,45,8|0,0:0|0:0,0:0:0:0:
188,235,27035,21,8,0:0:0:0:
424,153,27209,2,0,L|476:134,1,45,8|0,0:0|0:0,0:0:0:0:
160,142,27384,5,4,0:1:0:0:
438,239,27558,1,8,0:0:0:0:
247,214,27733,21,8,0:0:0:0:
307,195,27820,1,0,0:0:0:0:
365,174,27907,1,8,0:0:0:0:
234,334,28081,5,4,0:1:0:0:
215,152,28256,1,0,0:0:0:0:
141,139,28343,1,0,0:0:0:0:
166,211,28430,1,0,0:0:0:0:
289,35,28605,1,0,0:0:0:0:
20,79,28779,5,8,0:0:0:0:
152,204,28954,1,0,0:0:0:0:
217,166,29041,1,0,0:0:0:0:
152,128,29128,1,0,0:0:0:0:
173,344,29302,1,0,0:0:0:0:
347,140,29477,5,4,0:0:0:0:
166,123,29651,1,0,0:0:0:0:
139,194,29738,1,0,0:0:0:0:
215,182,29826,1,0,0:0:0:0:
60,32,30000,1,0,0:0:0:0:
349,198,30175,5,8,0:0:0:0:
133,182,30349,1,0,0:0:0:0:
183,124,30436,1,8,0:0:0:0:
208,195,30523,1,0,0:0:0:0:
60,300,30698,1,10,0:0:0:0:
355,89,30872,5,0,1:0:0:0:
208,195,31047,1,0,0:0:0:0:
233,266,31134,1,0,0:0:0:0:
308,264,31221,1,0,0:0:0:0:
177,94,31395,1,0,0:0:0:0:
272,364,31570,5,8,1:2:0:0:
330,193,31744,1,0,0:0:0:0:
268,150,31831,1,8,0:0:0:0:
208,195,31919,1,0,0:0:0:0:
414,257,32093,1,8,0:0:0:0:
125,262,32268,5,0,1:0:0:0:
414,257,32442,21,8,0:0:0:0:
177,94,32616,5,0,1:0:0:0:
272,364,32791,5,8,0:0:0:0:
355,89,32965,21,12,0:1:0:0:
209,234,33140,37,8,0:0:0:0:
270,277,33227,1,0,0:0:0:0:
330,231,33314,1,8,0:0:0:0:
306,160,33401,1,0,0:0:0:0:
231,163,33488,1,8,0:0:0:0:
174,348,33663,5,4,0:1:0:0:
110,165,33837,1,0,0:0:0:0:
170,120,33925,1,0,0:0:0:0:
231,163,34012,1,2,0:0:0:0:
16,237,34186,1,0,0:0:0:0:
268,47,34361,5,8,0:0:0:0:
209,234,34535,1,0,0:0:0:0:
134,236,34622,1,0,0:0:0:0:
110,165,34709,1,2,0:0:0:0:
330,232,34884,1,0,0:0:0:0:
16,237,35058,5,4,0:0:0:0:
170,120,35233,1,0,0:0:0:0:
231,163,35320,1,0,0:0:0:0:
209,234,35407,1,2,0:0:0:0:
73,53,35581,1,0,0:0:0:0:
174,348,35756,5,8,0:0:0:0:
231,163,35930,1,8,0:0:0:0:
170,120,36018,1,8,0:0:0:0:
110,165,36105,1,2,0:0:0:0:
330,232,36279,1,8,0:0:0:0:
326,4,36454,5,0,0:0:0:0:
390,187,36628,1,0,0:0:0:0:
330,232,36715,1,0,0:0:0:0:
269,189,36802,1,2,0:0:0:0:
484,115,36977,1,0,0:0:0:0:
232,305,37151,5,8,0:0:0:0:
291,118,37326,1,0,0:0:0:0:
366,116,37413,1,0,0:0:0:0:
390,187,37500,1,2,0:0:0:0:
170,120,37675,1,0,0:0:0:0:
484,115,37849,5,4,0:0:0:0:
269,189,38023,2,0,L|206:210,1,45
356,160,38198,2,0,L|398:145,2,45,10|0|0,0:0|0:0|0:0,0:0:0:0:
212,288,38547,5,8,0:0:0:0:
292,48,38721,1,8,0:0:0:0:
356,296,38895,1,10,0:0:0:0:
364,328,38983,1,0,0:0:0:0:
372,360,39070,1,0,0:0:0:0:
356,160,39244,5,4,0:1:0:0:
161,163,39419,1,0,0:0:0:0:
139,234,39506,1,0,0:0:0:0:
200,277,39593,1,2,0:0:0:0:
197,47,39768,1,0,0:0:0:0:
105,349,39942,5,8,0:0:0:0:
259,233,40116,1,0,0:0:0:0:
235,162,40204,1,0,0:0:0:0:
161,163,40291,1,2,0:0:0:0:
298,346,40465,1,0,0:0:0:0:
197,47,40640,5,4,0:0:0:0:
139,234,40814,1,0,0:0:0:0:
199,277,40901,1,0,0:0:0:0:
259,233,40988,1,2,0:0:0:0:
43,165,41163,1,0,0:0:0:0:
357,160,41337,5,8,0:0:0:0:
199,277,41512,1,8,0:0:0:0:
139,233,41599,1,8,0:0:0:0:
161,162,41686,1,2,0:0:0:0:
357,160,41861,1,8,0:0:0:0:
260,233,42035,5,0,1:0:0:0:
318,46,42209,1,0,0:0:0:0:
257,3,42297,1,0,0:0:0:0:
197,47,42384,1,8,0:0:0:0:
260,233,42558,1,8,0:0:0:0:
318,46,42733,5,0,1:0:0:0:
381,232,42907,1,0,0:0:0:0:
321,276,42994,1,0,0:0:0:0:
260,233,43081,1,8,0:0:0:0:
318,46,43256,1,0,0:0:0:0:
252,308,43430,5,0,1:0:0:0:
197,47,43605,1,0,1:0:0:0:
416,340,43779,1,0,1:0:0:0:
44,212,43954,1,0,1:0:0:0:
448,136,44128,6,0,L|464:132,32,11.25
112,84,55988,5,0,0:0:0:0:
72,184,56163,1,0,0:0:0:0:
72,184,56250,2,0,L|144:168,1,67.5,0|2,0:0|0:0,0:0:0:0:
208,192,56686,1,2,0:0:0:0:
279,176,56861,1,0,0:0:0:0:
350,160,57035,1,2,0:0:0:0:
422,144,57209,1,0,0:0:0:0:
366,232,57384,5,0,0:0:0:0:
266,192,57558,1,0,0:0:0:0:
266,192,57645,2,0,L|282:264,1,67.5,0|2,0:0|0:0,0:0:0:0:
341,122,58081,5,6,0:0:0:0:
349,158,58169,1,0,0:0:0:0:
357,195,58256,1,0,0:0:0:0:
365,231,58343,1,2,0:0:0:0:
393,206,58430,21,0,0:0:0:0:
357,195,58518,1,0,0:0:0:0:
321,184,58605,1,2,0:0:0:0:
286,173,58692,1,0,0:0:0:0:
251,162,58779,5,0,0:0:0:0:
372,113,58954,1,2,0:0:0:0:
372,113,59041,2,0,L|301:90,1,67.5,0|2,0:0|0:0,0:0:0:0:
448,128,59477,1,2,0:0:0:0:
424,57,59651,1,0,0:0:0:0:
372,113,59826,1,2,0:0:0:0:
396,184,60000,1,0,0:0:0:0:
420,255,60175,5,0,0:0:0:0:
303,290,60349,1,0,0:0:0:0:
303,290,60436,2,0,L|368:311,1,67.5,0|2,0:0|0:0,0:0:0:0:
239,204,60872,21,4,0:0:0:0:
238,170,60959,1,0,0:0:0:0:
271,159,61047,1,0,0:0:0:0:
291,187,61134,1,2,0:0:0:0:
270,214,61221,5,0,0:0:0:0:
244,234,61308,1,0,0:0:0:0:
226,262,61395,1,2,0:0:0:0:
222,295,61483,1,0,0:0:0:0:
232,328,61570,5,0,0:0:0:0:
232,328,61744,1,0,0:0:0:0:
232,328,61919,1,0,0:0:0:0:
232,328,62093,1,0,0:0:0:0:
324,364,62268,22,0,B|420:348|420:348|460:380,1,135,0|0,1:0|0:0,0:0:0:0:
292,252,62965,5,0,0:0:0:0:
292,252,63140,1,0,0:0:0:0:
292,252,63314,1,0,0:0:0:0:
292,252,63488,1,0,0:0:0:0:
384,288,63663,6,0,B|480:272|480:272,1,90,0|0,1:0|0:0,0:0:0:0:
444,320,64099,1,2,0:0:0:0:
422,294,64186,1,2,0:0:0:0:
418,261,64273,1,2,0:0:0:0:
434,232,64361,22,0,P|482:222|522:250,1,101.250003862381
432,142,64709,2,0,P|383:132|343:160,1,101.250003862381,0|0,1:0|0:0,0:0:0:0:
434,232,65058,6,0,P|451:186|431:141,1,101.250003862381
376,288,65407,2,0,B|400:372|400:372|404:348,1,101.250003862381,0|0,1:0|0:0,0:0:0:0:
332,196,65756,5,0,1:0:0:0:
459,290,65930,1,0,0:0:0:0:
435,118,66105,21,0,1:0:0:0:
320,270,66279,1,0,0:0:0:0:
512,243,66454,5,0,1:0:0:0:
348,109,66628,1,0,1:0:0:0:
382,343,66802,5,0,1:0:0:0:
424,322,66890,1,0,1:0:0:0:
438,278,66977,1,0,1:0:0:0:
420,236,67064,1,0,1:0:0:0:
380,216,67151,6,0,B|286:228|319:270|348:303|405:140|217:165,1,180,4|0,1:0|0:0,0:0:0:0:
166,210,67413,2,0,P|203:233|247:232,1,90
324,100,67675,2,0,P|259:105|224:159,1,135.000005149842
224,159,68111,5,0,0:0:0:0:
224,159,68198,1,0,1:0:0:0:
272,16,68372,1,0,0:0:0:0:
368,168,68547,38,0,B|368:306|298:237|437:237,1,180
510,79,68808,2,0,P|466:79|424:64,1,90
512,250,69070,2,0,P|505:186|448:156,1,135.000005149842
447,155,69506,21,0,0:0:0:0:
447,155,69593,1,0,1:0:0:0:
328,64,69768,1,0,0:0:0:0:
416,232,69942,5,0,0:0:0:0:
273,122,70116,1,0,0:0:0:0:
273,122,70204,1,0,0:0:0:0:
273,122,70291,1,0,1:0:0:0:
384,308,70465,21,0,0:0:0:0:
217,180,70640,1,0,0:0:0:0:
416,232,70814,5,0,0:0:0:0:
416,232,70901,1,0,0:0:0:0:
416,232,70988,1,0,1:0:0:0:
273,122,71163,1,0,0:0:0:0:
273,122,71250,1,0,0:0:0:0:
273,122,71337,1,4,1:2:0:0:
447,155,71512,5,0,0:0:0:0:
328,64,71686,1,0,1:0:0:0:
447,155,71861,1,0,0:0:0:0:
428,7,72035,21,0,1:0:0:0:
317,149,72209,1,0,1:0:0:0:
241,36,72384,5,0,1:0:0:0:
408,164,72558,1,0,1:0:0:0:
168,68,72733,22,0,B|113:115|156:218|108:151|186:122|96:181|109:238,1,180,4|0,1:0|0:0,0:0:0:0:
144,312,72994,2,0,P|184:276|196:232,1,90
56,132,73256,2,0,B|100:152|116:180|116:180|136:124|136:124|156:136|168:156|168:156,1,180
246,310,73779,6,0,P|242:233|172:264,1,180
288,232,74302,1,0,0:0:0:0:
320,224,74390,1,0,0:0:0:0:
352,216,74477,1,0,1:0:0:0:
246,310,74651,1,0,0:0:0:0:
394,138,74826,5,0,0:0:0:0:
288,232,75000,1,0,0:0:0:0:
436,60,75175,5,0,1:0:0:0:
330,154,75349,1,0,0:0:0:0:
190,50,75523,21,4,0:1:0:0:
232,128,75698,1,0,0:0:0:0:
264,136,75785,1,0,0:0:0:0:
296,143,75872,1,0,0:0:0:0:
190,50,76047,5,0,2:0:0:0:
338,222,76221,1,0,0:0:0:0:
232,128,76395,1,0,0:0:0:0:
264,136,76483,1,0,0:0:0:0:
296,143,76570,1,0,1:0:0:0:
232,128,76744,5,0,1:0:0:0:
380,300,76919,1,0,0:0:0:0:
274,206,77093,21,0,1:0:0:0:
422,378,77268,1,0,0:0:0:0:
316,284,77442,5,0,1:0:0:0:
348,292,77529,1,0,0:0:0:0:
380,299,77616,1,0,1:0:0:0:
200,322,77791,5,0,1:0:0:0:
243,330,77878,1,0,1:0:0:0:
286,317,77965,1,0,1:0:0:0:
316,284,78052,1,0,1:0:0:0:
328,241,78140,1,0,1:0:0:0:
188,104,78314,6,0,B|160:220|280:232|244:280|196:176|280:140,1,180,4|0,1:0|0:0,0:0:0:0:
352,92,78576,2,0,P|288:104|260:128,1,90
397,283,78837,2,0,P|340:252|332:188,1,135
332,187,79273,5,0,0:0:0:0:
332,187,79361,1,0,1:0:0:0:
296,348,79535,1,0,0:0:0:0:
480,204,79709,38,0,B|504:216|528:168|392:200|336:184|352:152,1,180
276,132,79971,2,0,P|297:96|352:77,1,90
479,7,80233,2,0,P|474:72|418:105,1,135.000005149842
236,40,80756,21,0,1:0:0:0:
164,80,80930,1,0,0:0:0:0:
28,24,81105,5,4,1:0:0:0:
144,176,81279,1,0,0:0:0:0:
148,204,81366,1,0,0:0:0:0:
144,232,81454,1,0,1:0:0:0:
112,88,81628,21,0,0:0:0:0:
216,252,81802,1,0,0:0:0:0:
236,272,81890,1,0,0:0:0:0:
260,284,81977,1,0,0:0:0:0:
196,152,82151,5,0,1:0:0:0:
384,84,82326,1,0,0:0:0:0:
408,76,82413,1,0,0:0:0:0:
432,68,82500,5,4,1:0:0:0:
388,159,82675,1,0,0:0:0:0:
395,261,82849,1,0,0:0:0:0:
452,345,83023,1,0,0:0:0:0:
203,225,83198,21,0,0:0:0:0:
304,217,83373,1,0,0:0:0:0:
388,160,83547,1,0,1:0:0:0:
432,69,83721,1,0,1:0:0:0:
452,345,83895,5,4,1:0:0:0:
203,225,84070,2,0,L|146:198,2,45,0|0|0,0:0|0:0|1:0,0:0:0:0:
328,285,84419,5,0,0:0:0:0:
383,161,84593,1,0,0:0:0:0:
248,175,84768,1,0,0:0:0:0:
275,212,84855,1,0,0:0:0:0:
301,248,84942,1,0,1:0:0:0:
338,166,85116,1,0,0:0:0:0:
63,187,85291,21,0,0:0:0:0:
338,166,85466,2,0,L|400:160,2,45,0|0|0,0:0|0:0|1:0,0:0:0:0:
200,176,85814,5,0,0:0:0:0:
187,40,85988,1,0,0:0:0:0:
311,96,86163,5,0,0:0:0:0:
273,123,86250,1,0,0:0:0:0:
237,149,86337,1,0,1:0:0:0:
228,59,86512,1,0,0:0:0:0:
353,116,86686,5,0,1:0:0:0:
203,170,86861,1,0,0:0:0:0:
195,90,86948,1,0,0:0:0:0:
268,124,87035,1,0,0:0:0:0:
168,248,87209,1,0,0:0:0:0:
276,12,87384,5,0,1:0:0:0:
249,168,87559,1,0,0:0:0:0:
176,135,87646,1,0,0:0:0:0:
241,89,87733,1,0,1:0:0:0:
298,238,87907,1,0,0:0:0:0:
91,144,88081,5,4,1:0:0:0:
91,144,88430,1,0,0:0:0:0:
91,144,88779,1,0,1:0:0:0:
215,102,88954,5,0,1:0:0:0:
245,143,89041,1,0,0:0:0:0:
216,183,89128,1,0,1:0:0:0:
168,168,89215,1,0,1:0:0:0:
168,118,89302,1,0,1:0:0:0:
393,354,89477,21,4,0:1:0:0:
375,174,89652,1,0,0:0:0:0:
300,160,89739,1,0,0:0:0:0:
325,232,89826,1,0,0:0:0:0:
448,55,90000,1,0,0:0:0:0:
166,247,90175,5,8,0:0:0:0:
347,230,90350,1,0,0:0:0:0:
362,156,90437,1,0,0:0:0:0:
290,180,90524,1,0,0:0:0:0:
467,303,90698,1,0,0:0:0:0:
274,24,90872,5,4,0:0:0:0:
292,203,91047,1,0,0:0:0:0:
366,217,91134,1,0,0:0:0:0:
342,145,91221,1,0,0:0:0:0:
219,322,91395,1,0,0:0:0:0:
498,129,91570,21,8,0:0:0:0:
319,147,91745,1,0,0:0:0:0:
304,222,91832,1,8,0:0:0:0:
377,197,91919,1,0,0:0:0:0:
200,74,92093,1,8,0:0:0:0:
302,360,92268,5,0,0:0:0:0:
140,279,92442,1,0,0:0:0:0:
153,205,92529,1,0,0:0:0:0:
211,254,92616,1,0,0:0:0:0:
4,305,92791,1,0,0:0:0:0:
112,82,92965,5,8,0:0:0:0:
211,232,93139,1,0,0:0:0:0:
161,290,93226,1,0,0:0:0:0:
136,218,93313,1,0,0:0:0:0:
341,278,93488,1,0,0:0:0:0:
40,196,93663,6,0,P|20:148|40:68,1,135.000005149842,4|0,0:0|0:0,0:0:0:0:
40,196,93925,1,0,0:0:0:0:
112,128,94012,2,0,P|160:108|240:128,1,135.000005149842,8|0,0:0|0:0,0:0:0:0:
112,128,94274,1,0,0:0:0:0:
171,200,94361,6,0,P|187:236|171:296,1,67.5000025749208,8|0,0:0|0:0,0:0:0:0:
120,384,94535,2,0,P|148:366|168:339,1,67.5000025749208,8|0,0:0|0:0,0:0:0:0:
272,100,94709,2,0,P|256:136|272:196,1,67.5000025749208,8|0,0:0|0:0,0:0:0:0:
324,284,94883,2,0,P|295:266|275:239,1,67.5000025749208
211,56,95058,5,4,0:1:0:0:
275,239,95232,1,0,0:0:0:0:
215,284,95320,1,0,0:0:0:0:
154,241,95407,1,0,0:0:0:0:
369,167,95581,1,0,0:0:0:0:
120,356,95756,5,8,0:0:0:0:
176,169,95930,1,0,0:0:0:0:
251,168,96018,1,0,0:0:0:0:
275,239,96105,1,0,0:0:0:0:
57,172,96279,1,0,0:0:0:0:
370,166,96454,5,4,0:0:0:0:
216,283,96628,1,0,0:0:0:0:
154,240,96716,1,0,0:0:0:0:
176,169,96803,1,0,0:0:0:0:
313,350,96977,1,0,0:0:0:0:
57,173,97151,21,8,0:0:0:0:
251,168,97325,1,0,0:0:0:0:
276,239,97413,1,8,0:0:0:0:
216,284,97500,1,0,0:0:0:0:
212,56,97674,1,8,0:0:0:0:
313,350,97849,5,0,1:0:0:0:
467,233,98023,1,0,0:0:0:0:
443,162,98110,1,0,0:0:0:0:
368,163,98198,1,0,0:0:0:0:
313,350,98372,1,0,0:0:0:0:
404,48,98547,5,0,1:0:0:0:
348,236,98721,1,0,0:0:0:0:
273,237,98809,1,0,0:0:0:0:
249,166,98896,1,0,0:0:0:0:
404,48,99070,21,0,0:0:0:0:
313,350,99244,1,0,1:0:0:0:
300,78,99419,5,8,0:0:0:0:
228,320,99594,1,0,1:0:0:0:
196,108,99768,5,8,0:0:0:0:
142,290,99943,1,0,1:0:0:0:
93,140,100116,5,8,0:0:0:0:
83,170,100204,1,0,0:0:0:0:
74,200,100291,1,8,0:0:0:0:
65,230,100378,1,0,0:0:0:0:
56,260,100465,1,8,0:0:0:0:
128,40,100640,5,4,0:0:0:0:
274,145,100815,1,0,0:0:0:0:
249,217,100902,1,0,0:0:0:0:
199,159,100989,1,2,0:0:0:0:
414,141,101163,1,0,0:0:0:0:
106,289,101338,5,8,0:0:0:0:
212,141,101513,1,0,0:0:0:0:
283,165,101600,1,0,0:0:0:0:
227,216,101687,1,2,0:0:0:0:
209,1,101861,1,0,0:0:0:0:
354,308,102035,5,4,0:0:0:0:
208,202,102210,1,0,0:0:0:0:
233,131,102297,1,0,0:0:0:0:
283,188,102384,1,2,0:0:0:0:
68,206,102558,1,0,0:0:0:0:
375,61,102733,21,8,0:0:0:0:
270,207,102908,1,8,0:0:0:0:
197,183,102995,1,8,0:0:0:0:
255,132,103082,1,2,0:0:0:0:
273,347,103256,1,8,0:0:0:0:
68,206,103430,5,0,0:0:0:0:
283,188,103604,1,0,0:0:0:0:
233,131,103691,1,0,0:0:0:0:
208,202,103778,1,2,0:0:0:0:
354,308,103953,1,0,0:0:0:0:
209,1,104128,5,8,0:0:0:0:
227,216,104302,1,0,0:0:0:0:
283,165,104389,1,0,0:0:0:0:
212,141,104476,1,2,0:0:0:0:
106,289,104651,1,0,0:0:0:0:
414,141,104826,6,0,P|408:89|350:30,1,135.000005149842,4|0,0:0|0:0,0:0:0:0:
414,141,105088,1,0,0:0:0:0:
318,119,105175,2,0,P|266:125|207:183,1,135.000005149842,8|0,0:0|0:0,0:0:0:0:
318,119,105437,1,0,0:0:0:0:
337,200,105523,6,0,P|331:246|280:298,1,67.5000025749208,8|0,0:0|0:0,0:0:0:0:
261,322,105698,2,0,P|218:340|147:322,1,67.5000025749208,8|0,0:0|0:0,0:0:0:0:
118,320,105872,2,0,P|81:292|61:222,1,67.5000025749208,8|0,0:0|0:0,0:0:0:0:
49,194,106047,2,0,P|54:148|106:96,1,67.5000025749208
125,71,106221,5,4,0:1:0:0:
187,255,106396,1,0,0:0:0:0:
262,253,106483,1,0,0:0:0:0:
283,182,106570,1,2,0:0:0:0:
67,256,106745,1,0,0:0:0:0:
318,68,106919,5,8,0:0:0:0:
164,183,107093,1,0,0:0:0:0:
187,255,107181,1,0,0:0:0:0:
262,253,107268,1,2,0:0:0:0:
125,71,107442,1,0,0:0:0:0:
225,370,107617,5,4,0:0:0:0:
283,182,107791,1,0,0:0:0:0:
224,140,107878,1,0,0:0:0:0:
164,183,107965,1,2,0:0:0:0:
379,251,108140,1,0,0:0:0:0:
64,256,108314,21,0,0:0:0:0:
261,253,108488,1,8,0:0:0:0:
283,182,108575,1,8,0:0:0:0:
224,140,108663,1,2,0:0:0:0:
224,365,108837,1,8,0:0:0:0:
320,70,109012,5,4,0:0:0:0:
320,295,109186,1,0,0:0:0:0:
261,253,109274,1,0,0:0:0:0:
283,182,109361,1,8,0:0:0:0:
480,179,109535,1,0,0:0:0:0:
298,366,109709,5,0,0:0:0:0:
224,140,109885,1,0,0:0:0:0:
283,182,109971,1,0,0:0:0:0:
261,253,110058,1,8,0:0:0:0:
32,272,110233,1,0,0:0:0:0:
320,104,110407,5,8,1:2:0:0:
220,320,110581,1,0,1:0:0:0:
158,45,110756,1,0,1:0:0:0:
440,232,110930,1,0,1:0:0:0:
72,284,111105,5,0,1:0:0:0:
122,221,111192,1,0,1:0:0:0:
173,284,111279,1,0,1:0:0:0:
99,320,111367,1,0,1:0:0:0:
81,240,111454,1,0,1:0:0:0:
163,240,111541,1,0,1:0:0:0:
144,320,111628,1,0,1:0:0:0:
121,273,112326,5,4,0:0:0:0:
